<?xml version="1.0" standalone="no"?>
<!DOCTYPE svg PUBLIC "-//W3C//DTD SVG 1.1//EN" "http://www.w3.org/Graphics/SVG/1.1/DTD/svg11.dtd" >
<svg xmlns="http://www.w3.org/2000/svg" xmlns:xlink="http://www.w3.org/1999/xlink" version="1.1">
<metadata>
Created by FontForge 20170731 at Wed Feb 26 09:24:02 2020
 By Aleksey,,,
Copyright 2019 The Work Sans Project Authors (https://github.com/weiweihuanghuang/Work-Sans)
</metadata>
<defs>
<font id="WorkSans-Regular" horiz-adv-x="604" >
  <font-face 
    font-family="Work Sans"
    font-weight="400"
    font-stretch="normal"
    units-per-em="1000"
    panose-1="0 0 0 0 0 0 0 0 0 0"
    ascent="800"
    descent="-200"
    x-height="500"
    cap-height="660"
    bbox="-216 -337 1283 1100"
    underline-thickness="50"
    underline-position="-175"
    unicode-range="U+000D-FB02"
  />
<missing-glyph horiz-adv-x="500" 
d="M130 80h240v500h-240v-500zM50 0v660h400v-660h-400z" />
    <glyph glyph-name="fi" unicode="fi" horiz-adv-x="659" 
d="M296 735q26 0 49 -6t36 -17l-21 -65q-12 8 -26 11.5t-31 3.5q-43 0 -67 -20.5t-24 -65.5v-76v-26v-474h-80v584q0 33 10 61t30.5 48t51.5 31t72 11zM379 500v-69h-347v69h347zM526 596q-27 0 -43.5 16.5t-16.5 43.5t16.5 43.5t43.5 16.5t43.5 -16.5t16.5 -43.5
t-16.5 -43.5t-43.5 -16.5zM566 500v-500h-80v500h80z" />
    <glyph glyph-name="fl" unicode="fl" horiz-adv-x="699" 
d="M296 735q26 0 49 -6t36 -17l-21 -65q-12 8 -26 11.5t-31 3.5q-43 0 -67 -20.5t-24 -65.5v-76v-26v-474h-80v584q0 33 10 61t30.5 48t51.5 31t72 11zM379 500v-69h-347v69h347zM562 730v-603q0 -38 14 -52.5t45 -14.5q20 0 33 3t35 11l-13 -70q-16 -7 -35 -10.5t-39 -3.5
q-61 0 -90.5 33t-29.5 101v606h80z" />
    <glyph glyph-name="f_f" unicode="ff" horiz-adv-x="786" 
d="M296 735q26 0 49 -6t36 -17l-21 -65q-12 8 -26 11.5t-31 3.5q-43 0 -67 -20.5t-24 -65.5v-76v-26v-474h-80v584q0 33 10 61t30.5 48t51.5 31t72 11zM379 500v-69h-347v69h347zM689 735q26 0 49 -6t36 -17l-21 -65q-12 8 -26 11.5t-31 3.5q-43 0 -67 -20.5t-24 -65.5v-76
v-26v-474h-80v584q0 33 10 61t30.5 48t51.5 31t72 11zM772 500v-69h-347v69h347z" />
    <glyph glyph-name="f_f_i" unicode="ffi" horiz-adv-x="1052" 
d="M296 735q26 0 49 -6t36 -17l-21 -65q-12 8 -26 11.5t-31 3.5q-43 0 -67 -20.5t-24 -65.5v-76v-26v-474h-80v584q0 33 10 61t30.5 48t51.5 31t72 11zM379 500v-69h-347v69h347zM689 735q26 0 49 -6t36 -17l-21 -65q-12 8 -26 11.5t-31 3.5q-43 0 -67 -20.5t-24 -65.5v-76
v-26v-474h-80v584q0 33 10 61t30.5 48t51.5 31t72 11zM772 500v-69h-347v69h347zM919 596q-27 0 -43.5 16.5t-16.5 43.5t16.5 43.5t43.5 16.5t43.5 -16.5t16.5 -43.5t-16.5 -43.5t-43.5 -16.5zM959 500v-500h-80v500h80z" />
    <glyph glyph-name="f_f_l" unicode="ffl" horiz-adv-x="1092" 
d="M296 735q26 0 49 -6t36 -17l-21 -65q-12 8 -26 11.5t-31 3.5q-43 0 -67 -20.5t-24 -65.5v-76v-26v-474h-80v584q0 33 10 61t30.5 48t51.5 31t72 11zM379 500v-69h-347v69h347zM689 735q26 0 49 -6t36 -17l-21 -65q-12 8 -26 11.5t-31 3.5q-43 0 -67 -20.5t-24 -65.5v-76
v-26v-474h-80v584q0 33 10 61t30.5 48t51.5 31t72 11zM772 500v-69h-347v69h347zM955 730v-603q0 -38 14 -52.5t45 -14.5q20 0 33 3t35 11l-13 -70q-16 -7 -35 -10.5t-39 -3.5q-61 0 -90.5 33t-29.5 101v606h80z" />
    <glyph glyph-name=".notdef" horiz-adv-x="500" 
d="M130 80h240v500h-240v-500zM50 0v660h400v-660h-400z" />
    <glyph glyph-name=".null" horiz-adv-x="0" 
 />
    <glyph glyph-name="nonmarkingreturn" horiz-adv-x="333" 
 />
    <glyph glyph-name="NULL" horiz-adv-x="0" 
 />
    <glyph glyph-name="NULL" horiz-adv-x="0" 
 />
    <glyph glyph-name="CR" unicode="&#xd;" horiz-adv-x="341" 
 />
    <glyph glyph-name="space" unicode=" " horiz-adv-x="341" 
 />
    <glyph glyph-name="exclam" unicode="!" horiz-adv-x="272" 
d="M178 660v-286l-12 -166h-60l-12 166v286h84zM136 120q29 0 47 -18t18 -47t-18 -47t-47 -18t-47 18t-18 47t18 47t47 18z" />
    <glyph glyph-name="quotedbl" unicode="&#x22;" horiz-adv-x="403" 
d="M339 690l-26 -247h-62v247h88zM170 690l-26 -247h-62v247h88z" />
    <glyph glyph-name="numbersign" unicode="#" horiz-adv-x="639" 
d="M525 660l-110 -660h-68l110 660h68zM575 246v-61h-555v61h555zM291 660l-110 -660h-68l110 660h68zM619 476v-61h-555v61h555z" />
    <glyph glyph-name="dollar" unicode="$" horiz-adv-x="622" 
d="M317 1q-69 0 -122 19t-91 51t-62 72l68 55q19 -36 48 -64t70 -44t94 -16q74 0 117.5 27t43.5 79q0 31 -20.5 55.5t-76.5 37.5l-150 34q-60 14 -96 37.5t-52 56t-16 70.5q0 52 28.5 95t82 69t128.5 26q84 0 145.5 -34t101.5 -102l-65 -50q-35 62 -80.5 88t-109.5 26
q-52 0 -85 -14.5t-49 -38.5t-16 -54q0 -23 9 -42t32.5 -33.5t65.5 -24.5l139 -31q92 -20 128.5 -61.5t36.5 -102.5q0 -55 -30.5 -97t-86 -65.5t-130.5 -23.5zM279 -100v860h69v-860h-69z" />
    <glyph glyph-name="percent" unicode="%" horiz-adv-x="856" 
d="M180 0l420 660h76l-420 -660h-76zM199 670q49 0 84.5 -22.5t55 -63.5t19.5 -96t-19.5 -96t-55 -63.5t-84.5 -22.5q-48 0 -84 22.5t-55.5 63.5t-19.5 96t19.5 96t55.5 63.5t84 22.5zM199 607q-28 0 -48 -14t-30 -40.5t-10 -64.5q0 -37 10 -64t30 -41t48 -14q29 0 48.5 14
t29.5 41t10 64q0 38 -10 64.5t-29.5 40.5t-48.5 14zM657 354q49 0 84.5 -22.5t55 -63.5t19.5 -96t-19.5 -96t-55 -63.5t-84.5 -22.5q-48 0 -84 22.5t-55.5 63.5t-19.5 96t19.5 96t55.5 63.5t84 22.5zM657 291q-28 0 -48 -14t-30 -40.5t-10 -64.5q0 -37 10 -64t30 -41t48 -14
q29 0 48.5 14t29.5 41t10 64q0 38 -10 64.5t-29.5 40.5t-48.5 14z" />
    <glyph glyph-name="ampersand" unicode="&#x26;" horiz-adv-x="623" 
d="M258 -10q-66 0 -113 23t-72 63t-25 92q0 32 8.5 60.5t27.5 54.5t51.5 49t80.5 43l42 21q38 21 63 39.5t37.5 40.5t12.5 52q0 35 -21.5 54.5t-58.5 19.5q-43 0 -63.5 -23.5t-20.5 -54.5q0 -19 5 -36.5t21.5 -43.5t49.5 -69t89 -113q57 -70 94 -112.5t63 -64t48.5 -28.5
t49.5 -7l-20 -60q-29 0 -54.5 7t-56 30t-73 69t-105.5 123q-54 67 -90 113t-57 78t-30 58.5t-9 54.5q0 36 17.5 70t53.5 55.5t93 21.5q43 0 75 -16t50.5 -46t18.5 -71q0 -35 -11.5 -66.5t-43 -62t-93.5 -63.5l-34 -13q-52 -24 -81 -46.5t-41 -48.5t-12 -62q0 -37 19 -64
t51 -41.5t72 -14.5q55 0 93 20t70 57l13 12q26 41 40.5 93t9.5 116l68 -6q4 -64 -13.5 -126t-55.5 -112l-15 -21q-38 -45 -92 -71.5t-126 -26.5z" />
    <glyph glyph-name="quotesingle" unicode="'" horiz-adv-x="234" 
d="M170 690l-26 -247h-62v247h88z" />
    <glyph glyph-name="parenleft" unicode="(" horiz-adv-x="350" 
d="M275 751l46 -46q-66 -60 -105 -126.5t-56 -140t-17 -157.5q0 -83 17 -157t56 -140t105 -127l-46 -46q-106 92 -160 210.5t-54 259.5t54 260t160 210z" />
    <glyph glyph-name="parenright" unicode=")" horiz-adv-x="350" 
d="M75 -189l-46 46q66 60 105 126.5t56 140t17 157.5q0 83 -17 157t-56 140t-105 127l46 46q106 -92 160 -210.5t54 -259.5t-54 -260t-160 -210z" />
    <glyph glyph-name="asterisk" unicode="*" horiz-adv-x="572" 
d="M301 506l79 -84l70 -98l-52 -38l-72 97l-55 101l15 11zM271 506l15 -11l15 -11l-55 -101l-72 -97l-52 38l70 98zM72 598l116 -36l104 -49l-6 -18l-6 -18l-113 22l-114 38zM319 730v-121l-14 -114h-19h-19l-14 114v121h66zM500 598l19 -61l-114 -38l-113 -22l-6 18l-6 18
l104 49z" />
    <glyph glyph-name="plus" unicode="+" 
d="M340 564v-496h-75v496h75zM545 354v-75h-486v75h486z" />
    <glyph glyph-name="comma" unicode="," horiz-adv-x="266" 
d="M133 120q24 0 40.5 -12.5t25.5 -34t9 -50.5q0 -33 -11.5 -65t-35.5 -59t-62 -45l-42 39q27 9 47.5 25t33.5 36t17 41l-4 2q-4 -3 -10 -5t-18 -2t-24.5 7t-21.5 20.5t-9 35.5q0 18 9 33.5t23.5 24.5t32.5 9z" />
    <glyph glyph-name="hyphen" unicode="-" horiz-adv-x="510" 
d="M420 303v-83h-330v83h330z" />
    <glyph glyph-name="period" unicode="." horiz-adv-x="266" 
d="M133 120q29 0 47 -18t18 -47t-18 -47t-47 -18t-47 18t-18 47t18 47t47 18z" />
    <glyph glyph-name="slash" unicode="/" horiz-adv-x="437" 
d="M409 730l-306 -800h-75l306 800h75z" />
    <glyph glyph-name="zero" unicode="0" horiz-adv-x="622" 
d="M311 -10q-112 0 -179 87t-67 253t67 253t179 87q113 0 179.5 -87t66.5 -253t-66.5 -253t-179.5 -87zM311 62q53 0 89.5 30.5t55 90.5t18.5 147t-18.5 147t-55 90.5t-89.5 30.5t-89.5 -30.5t-55 -90.5t-18.5 -147t18.5 -147t55 -90.5t89.5 -30.5z" />
    <glyph glyph-name="one" unicode="1" horiz-adv-x="390" 
d="M208 0v484q0 17 0.5 36.5t1.5 40.5q-34 -33 -79 -57.5t-92 -35.5l-21 73q18 2 45.5 13.5t58 29t56.5 37.5t40 39h70v-660h-80z" />
    <glyph glyph-name="two" unicode="2" horiz-adv-x="583" 
d="M74 0v65q99 73 165.5 128t106.5 100t57 85.5t17 84.5q0 59 -37.5 95.5t-102.5 36.5q-68 0 -109 -44.5t-48 -118.5l-70 42q9 58 37.5 102t77 69t115.5 25q51 0 91.5 -15t69.5 -42.5t44.5 -65.5t15.5 -84q0 -62 -30 -121.5t-99 -124.5t-187 -144v-1q11 1 30.5 1.5l39 1
t29.5 0.5h231v-75h-444z" />
    <glyph glyph-name="three" unicode="3" horiz-adv-x="583" 
d="M290 -10q-88 0 -155.5 41.5t-91.5 114.5l80 41q12 -37 33 -64.5t55.5 -42.5t86.5 -15q44 0 74 16t46 43.5t16 63.5t-13.5 60t-42.5 35.5t-76 11.5q-11 0 -24 -0.5t-27 -2.5v80q9 -1 17.5 -1h15.5q73 0 104 28.5t31 89.5q0 52 -32 79t-91 27q-63 0 -96 -27.5t-52 -74.5
l-76 36q16 42 48 74t77.5 50t100.5 18q69 0 114 -23.5t67.5 -62.5t22.5 -86q0 -36 -10 -64.5t-27.5 -49.5t-39.5 -33.5t-47 -16.5v-2q33 -1 58.5 -13t43.5 -32t27.5 -45.5t9.5 -53.5q0 -58 -28.5 -103t-79.5 -70.5t-119 -25.5z" />
    <glyph glyph-name="four" unicode="4" horiz-adv-x="611" 
d="M366 0v173h-322v59v0v0l301 428h101v-418h117v-69h-117v-173h-80zM129 242h237v247q0 26 1.5 53t2.5 53h-2q-12 -25 -31 -56t-35 -54l-173 -243v0v0z" />
    <glyph glyph-name="five" unicode="5" horiz-adv-x="582" 
d="M287 -10q-88 0 -141.5 40t-82.5 111l78 41q16 -52 49.5 -84.5t98.5 -32.5q46 0 78.5 17t50.5 48.5t18 75.5q0 47 -16.5 78.5t-47.5 47.5t-76 16q-32 0 -59.5 -6.5t-49.5 -20.5t-38 -37l-70 13l39 363h371v-75h-303l-26 -208l-2 -9h2q24 25 61.5 40t89.5 15
q63 0 109.5 -26.5t72.5 -74.5t26 -112q0 -51 -17 -92t-48 -69.5t-73.5 -43.5t-93.5 -15z" />
    <glyph glyph-name="six" unicode="6" horiz-adv-x="608" 
d="M323 670q53 0 92.5 -14.5t68.5 -45t49 -79.5l-74 -35q-15 46 -48.5 72.5t-92.5 26.5q-43 0 -76 -21.5t-56 -59.5t-34.5 -89t-11.5 -110v-6v-12h4q11 43 40.5 69.5t67 39t73.5 12.5q67 0 117 -26t77.5 -74t27.5 -114q0 -65 -28 -113.5t-78.5 -74.5t-120.5 -26
q-83 0 -140 44t-86 120.5t-29 175.5q0 111 34 186.5t92.5 114.5t131.5 39zM319 341q-43 0 -75.5 -17.5t-50.5 -48t-18 -70.5q0 -38 19 -69.5t51.5 -50t73.5 -18.5q68 0 106 36.5t38 101.5q0 42 -17 72.5t-49 47t-78 16.5z" />
    <glyph glyph-name="seven" unicode="7" horiz-adv-x="561" 
d="M40 660h486v-75q-83 -88 -135.5 -180.5t-76.5 -192.5t-24 -212h-82q0 111 27.5 217.5t83.5 204.5t139 183l13 -20h-431v75z" />
    <glyph glyph-name="eight" unicode="8" horiz-adv-x="616" 
d="M308 669q64 0 111 -21t73 -59.5t26 -92.5q0 -51 -24.5 -89.5t-68.5 -58.5v-1q56 -21 89.5 -64t33.5 -105q0 -58 -30 -100t-83.5 -65t-126.5 -23q-72 0 -126 23t-84 65t-30 100q0 61 33 104.5t91 64.5v1q-43 19 -68.5 57.5t-25.5 90.5q0 54 26 92.5t73.5 59.5t110.5 21z
M308 594q-58 0 -92.5 -28t-34.5 -78q0 -49 35 -77t92 -28t92 28t35 77q0 50 -34 78t-93 28zM308 65q49 0 84 14.5t54 42t19 64.5q0 38 -19.5 65.5t-54.5 42t-83 14.5q-47 0 -82.5 -14.5t-55 -42t-19.5 -65.5q0 -37 19 -64.5t54.5 -42t83.5 -14.5z" />
    <glyph glyph-name="nine" unicode="9" horiz-adv-x="617" 
d="M297 670q83 0 140 -43.5t86 -120t29 -176.5q0 -111 -29 -186.5t-85.5 -114.5t-139.5 -39q-82 0 -141 38t-88 111l79 42q16 -52 52.5 -84t100.5 -32q52 0 86.5 20.5t54.5 59t28.5 92.5t8.5 120v4.5v4.5h-4q-12 -45 -42 -72.5t-67.5 -39.5t-74.5 -12q-65 0 -115 25.5
t-78 71.5t-28 109q0 68 27 117.5t78 77t122 27.5zM298 593q-70 0 -107 -38.5t-37 -107.5q0 -59 39 -93.5t105 -34.5q43 0 75.5 17.5t50.5 48t18 70.5q0 42 -18 73t-50.5 48t-75.5 17z" />
    <glyph glyph-name="colon" unicode=":" horiz-adv-x="296" 
d="M148 510q29 0 47 -18t18 -47t-18 -47t-47 -18t-47 18t-18 47t18 47t47 18zM148 120q29 0 47 -18t18 -47t-18 -47t-47 -18t-47 18t-18 47t18 47t47 18z" />
    <glyph glyph-name="semicolon" unicode=";" horiz-adv-x="296" 
d="M147 120q24 0 40.5 -12.5t25.5 -34t9 -50.5q0 -33 -11.5 -65t-35.5 -59t-62 -45l-42 39q27 9 47.5 25t33.5 36t17 41l-4 2q-4 -3 -10 -5t-18 -2t-24.5 7t-21.5 20.5t-9 35.5q0 18 9 33.5t23.5 24.5t32.5 9zM148 510q29 0 47 -18t18 -47t-18 -47t-47 -18t-47 18t-18 47
t18 47t47 18z" />
    <glyph glyph-name="less" unicode="&#x3c;" 
d="M547 28l-476 225v93l476 225v-82l-412 -188l412 -189v-84z" />
    <glyph glyph-name="equal" unicode="=" 
d="M540 441v-75h-476v75h476zM540 241v-75h-476v75h476z" />
    <glyph glyph-name="greater" unicode="&#x3e;" 
d="M57 571l476 -225v-93l-476 -225v82l412 188l-412 189v84z" />
    <glyph glyph-name="question" unicode="?" horiz-adv-x="542" 
d="M273 670q64 0 113.5 -20.5t77.5 -58.5t28 -91q0 -58 -25.5 -97.5t-68 -60.5t-94.5 -27v-107h-83v150q67 10 108 26.5t60 42t19 63.5q0 47 -35 76t-106 29q-66 0 -107.5 -36.5t-49.5 -99.5l-71 41q11 51 42.5 89.5t80 59.5t111.5 21zM261 120q29 0 47 -18t18 -47t-18 -47
t-47 -18t-47 18t-18 47t18 47t47 18z" />
    <glyph glyph-name="at" unicode="@" horiz-adv-x="958" 
d="M484 -195q-94 0 -171 30t-132 85t-85 132t-30 171q0 97 32.5 177t91.5 138.5t139 90t176 31.5q94 0 167 -30.5t123.5 -84.5t76.5 -124t26 -148q0 -65 -16.5 -117t-45.5 -88.5t-65.5 -56t-75.5 -19.5q-54 0 -79.5 28t-21.5 71q-22 -42 -66 -67t-91 -25q-52 0 -91.5 25
t-61.5 69.5t-22 102.5q0 56 17 104.5t47.5 85t72.5 57t91 20.5q39 0 70 -13.5t52 -38t29 -58.5l24 101h71l-76 -326q-2 -10 -3.5 -18.5t-1.5 -16.5q0 -28 14.5 -36.5t32.5 -8.5q36 0 67 25t50.5 75.5t19.5 124.5q0 70 -23 130t-66.5 104.5t-104.5 69t-137 24.5
q-83 0 -151.5 -26.5t-118.5 -76t-77.5 -119.5t-27.5 -156q0 -84 26.5 -150t74.5 -113t112 -71.5t138 -24.5q85 0 134 21.5t82 46.5l35 -49q-27 -21 -60.5 -38.5t-79.5 -28.5t-111 -11zM460 60q42 0 77 27.5t55.5 75t20.5 106.5q0 40 -14.5 69.5t-41 46t-62.5 16.5
t-65.5 -15.5t-51 -43.5t-33.5 -65t-12 -80q0 -44 15 -74.5t43.5 -46.5t68.5 -16z" />
    <glyph glyph-name="A" unicode="A" horiz-adv-x="660" 
d="M26 0l257 660h95l256 -660h-85l-188 492l-31 92h-2l-29 -89l-189 -495h-84zM152 183v75h353v-75h-353z" />
    <glyph glyph-name="B" unicode="B" horiz-adv-x="653" 
d="M108 0v660h235q117 0 171 -49t54 -133q0 -50 -29 -90.5t-82 -51.5v-1q59 -11 93.5 -53.5t34.5 -96.5q0 -84 -63 -134.5t-180 -50.5h-234zM188 75h173q71 0 105.5 29t34.5 81q0 53 -34.5 81.5t-105.5 28.5h-173v-220zM188 370h156q140 0 140 108q0 107 -140 107h-156v-215
z" />
    <glyph glyph-name="C" unicode="C" horiz-adv-x="686" 
d="M640 169q-21 -56 -60 -96.5t-91.5 -61.5t-114.5 -21q-94 0 -162.5 41.5t-106 117.5t-37.5 181t37.5 181t106 117.5t160.5 41.5q64 0 114 -17.5t85.5 -52t56.5 -84.5l-79 -37q-22 57 -63.5 86.5t-107.5 29.5q-67 0 -118 -31.5t-79.5 -90.5t-28.5 -143q0 -83 27 -142.5
t77 -91t118 -31.5q66 0 115 33.5t71 100.5z" />
    <glyph glyph-name="D" unicode="D" horiz-adv-x="721" 
d="M321 660q155 0 243.5 -85.5t88.5 -244.5t-88.5 -244.5t-243.5 -85.5h-213v660h213zM329 75q113 0 176.5 67.5t63.5 187.5t-63.5 187.5t-176.5 67.5h-141v-510h141z" />
    <glyph glyph-name="E" unicode="E" horiz-adv-x="638" 
d="M108 0v660h463v-75h-383v-213h298v-75h-298v-222h398v-75h-478z" />
    <glyph glyph-name="F" unicode="F" horiz-adv-x="610" 
d="M570 585h-382v-213h298v-75h-298v-297h-80v660h462v-75z" />
    <glyph glyph-name="G" unicode="G" horiz-adv-x="724" 
d="M374 -10q-94 0 -162.5 41.5t-106 117.5t-37.5 181t39.5 181t110.5 117.5t163 41.5q98 0 159.5 -37t99.5 -114l-73 -40q-22 57 -69.5 86.5t-116.5 29.5q-67 0 -118.5 -31.5t-81 -91t-29.5 -142.5t25.5 -142.5t76 -91t123.5 -31.5q41 0 76.5 10.5t62 31.5t41.5 53t15 75v23
h-210v75h283v-333h-63l-4 123l17 -3q-26 -62 -82 -96t-139 -34z" />
    <glyph glyph-name="H" unicode="H" horiz-adv-x="734" 
d="M626 660v-660h-80v660h80zM188 660v-660h-80v660h80zM583 372v-75h-433v75h433z" />
    <glyph glyph-name="I" unicode="I" horiz-adv-x="296" 
d="M188 660v-660h-80v660h80z" />
    <glyph glyph-name="J" unicode="J" horiz-adv-x="566" 
d="M465 660v-434q0 -111 -59.5 -173.5t-164.5 -62.5q-74 0 -122 28t-66.5 79.5t-5.5 120.5l74 15q-11 -85 15.5 -126.5t101.5 -41.5q85 0 116 46.5t31 134.5v414h80z" />
    <glyph glyph-name="K" unicode="K" horiz-adv-x="656" 
d="M625 660l-288 -295l-12 -13l-177 -181v108l372 381h105zM188 660v-660h-80v660h80zM345 416l283 -416h-96l-253 371z" />
    <glyph glyph-name="L" unicode="L" horiz-adv-x="598" 
d="M188 75h378v-75h-458v660h80v-585z" />
    <glyph glyph-name="M" unicode="M" horiz-adv-x="854" 
d="M746 660v-660h-76v415l9 174h-1l-217 -589h-68l-217 589h-1l9 -174v-415h-76v660h123l145 -401l50 -165h2l51 164l144 402h123z" />
    <glyph glyph-name="N" unicode="N" horiz-adv-x="734" 
d="M626 660v-660h-99l-276 442l-70 124h-1l4 -100v-466h-76v660h99l275 -440l71 -127h1l-4 101v466h76z" />
    <glyph glyph-name="O" unicode="O" horiz-adv-x="748" 
d="M374 670q94 0 162.5 -41.5t106 -117.5t37.5 -181t-37.5 -181t-106 -117.5t-162.5 -41.5t-162.5 41.5t-106 117.5t-37.5 181t37.5 181t106 117.5t162.5 41.5zM374 595q-68 0 -118 -31.5t-77 -91t-27 -142.5t27 -142.5t77 -91t118 -31.5q69 0 118.5 31.5t76.5 91t27 142.5
t-27 142.5t-76.5 91t-118.5 31.5z" />
    <glyph glyph-name="P" unicode="P" horiz-adv-x="610" 
d="M341 660q67 0 116.5 -24.5t77.5 -69.5t28 -107t-28 -107t-77.5 -69.5t-116.5 -24.5h-153v-258h-80v660h233zM329 333q78 0 114 32.5t36 93.5q0 62 -36 94t-114 32h-141v-252h141z" />
    <glyph glyph-name="Q" unicode="Q" horiz-adv-x="748" 
d="M534 -195q-51 0 -96 19t-73.5 65t-28.5 126q0 9 0.5 19.5t1.5 20.5l71 -2q-1 -10 -1.5 -18.5t-0.5 -16.5q0 -57 18 -85t47.5 -37.5t63.5 -9.5q37 0 68 10t50 27l26 -74q-24 -21 -66.5 -32.5t-79.5 -11.5zM374 670q94 0 162.5 -41.5t106 -117.5t37.5 -181t-37.5 -181
t-106 -117.5t-162.5 -41.5t-162.5 41.5t-106 117.5t-37.5 181t37.5 181t106 117.5t162.5 41.5zM374 595q-68 0 -118 -31.5t-77 -91t-27 -142.5t27 -142.5t77 -91t118 -31.5q69 0 118.5 31.5t76.5 91t27 142.5t-27 142.5t-76.5 91t-118.5 31.5z" />
    <glyph glyph-name="R" unicode="R" horiz-adv-x="665" 
d="M358 660q101 0 162 -52t61 -141t-61.5 -138.5t-162.5 -49.5l-7 -5h-162v-274h-80v660h250zM357 349q71 0 105.5 29.5t34.5 88.5t-34.5 88.5t-105.5 29.5h-169v-236h169zM403 333l218 -333h-95l-190 289z" />
    <glyph glyph-name="S" unicode="S" horiz-adv-x="641" 
d="M320 670q87 0 150 -35.5t105 -104.5l-67 -52q-37 64 -83.5 90.5t-112.5 26.5q-53 0 -87.5 -15t-50.5 -39.5t-16 -55.5q0 -35 22 -61.5t88 -41.5l143 -32q95 -21 132.5 -63.5t37.5 -105.5q0 -56 -31.5 -99.5t-88.5 -67.5t-134 -24q-72 0 -126.5 19.5t-93.5 52.5t-64 74
l70 57q19 -38 49 -67t72.5 -45t97.5 -16q51 0 88.5 12.5t57.5 37t20 59.5q0 32 -21 57.5t-79 38.5l-155 35q-61 14 -98.5 38.5t-54 58t-16.5 72.5q0 53 29.5 97.5t85 71.5t131.5 27z" />
    <glyph glyph-name="T" unicode="T" 
d="M572 660v-75h-230v-585h-80v585h-230v75h540z" />
    <glyph glyph-name="U" unicode="U" horiz-adv-x="708" 
d="M613 660v-414q0 -127 -67 -191.5t-192 -64.5q-124 0 -191.5 64.5t-67.5 191.5v414h80v-394q0 -103 43.5 -152t135.5 -49t135.5 49t43.5 152v394h80z" />
    <glyph glyph-name="V" unicode="V" horiz-adv-x="648" 
d="M620 660l-250 -660h-91l-251 660h86l168 -456l42 -131l42 130l168 457h86z" />
    <glyph glyph-name="W" unicode="W" horiz-adv-x="961" 
d="M231 0l-195 660h83l163 -587l155 587h91l155 -589l163 589h79l-194 -660h-99l-117 428l-34 149h-1l-34 -149l-116 -428h-99z" />
    <glyph glyph-name="X" unicode="X" horiz-adv-x="601" 
d="M569 0h-92l-179 272l-180 -272h-93l231 336l-211 324h94l167 -257l169 257h87l-214 -320z" />
    <glyph glyph-name="Y" unicode="Y" horiz-adv-x="572" 
d="M562 660l-236 -402v-258h-80v258l-236 402h95l128 -226l53 -94l53 94l128 226h95z" />
    <glyph glyph-name="Z" unicode="Z" horiz-adv-x="630" 
d="M128 46l-14 29h461v-75h-519v71l434 543l14 -29h-438v75h496v-71z" />
    <glyph glyph-name="bracketleft" unicode="[" horiz-adv-x="348" 
d="M315 660h-153v-758h153v-70h-228v898h228v-70z" />
    <glyph glyph-name="backslash" unicode="\" horiz-adv-x="437" 
d="M28 730h75l306 -800h-75z" />
    <glyph glyph-name="bracketright" unicode="]" horiz-adv-x="348" 
d="M33 -98h153v758h-153v70h228v-898h-228v70z" />
    <glyph glyph-name="asciicircum" unicode="^" horiz-adv-x="560" 
d="M27 355l215 375h76l215 -375h-81l-172 307l-172 -307h-81z" />
    <glyph glyph-name="underscore" unicode="_" horiz-adv-x="539" 
d="M539 -97v-75h-539v75h539z" />
    <glyph glyph-name="grave" unicode="`" horiz-adv-x="500" 
d="M256 750l76 -167h-65l-98 167h87z" />
    <glyph glyph-name="a" unicode="a" horiz-adv-x="566" 
d="M385 323q0 56 -30 86.5t-85 30.5q-52 0 -88 -22.5t-53 -72.5l-65 40q20 56 74 90.5t134 34.5q54 0 98 -18.5t69.5 -56t25.5 -96.5v-242q0 -36 38 -36q19 0 37 5l-4 -63q-20 -10 -52 -10q-29 0 -52 11t-36 33.5t-13 56.5v10l20 -3q-12 -39 -41 -63.5t-65 -36t-71 -11.5
q-44 0 -82 15t-60.5 45.5t-22.5 75.5q0 56 37.5 92.5t104.5 49.5l198 39v-66l-161 -33q-49 -10 -73 -28t-24 -50q0 -31 24.5 -50.5t69.5 -19.5q29 0 55.5 7.5t47.5 23t33 39t12 55.5v138z" />
    <glyph glyph-name="b" unicode="b" horiz-adv-x="627" 
d="M338 -10q-42 0 -78 15t-62 42t-39 61l11 14l-7 -122h-70v730h80v-343l-10 15q20 47 67.5 77.5t108.5 30.5q62 0 114 -31t83 -89t31 -140q0 -81 -31.5 -139.5t-83.5 -89.5t-114 -31zM330 60q74 0 115.5 52t41.5 138t-41 138t-115 52q-47 0 -82.5 -24t-55.5 -67t-20 -101
q0 -57 19.5 -99.5t55 -65.5t82.5 -23z" />
    <glyph glyph-name="c" unicode="c" horiz-adv-x="560" 
d="M300 510q52 0 91.5 -16t68.5 -46t47 -71l-76 -36q-16 48 -48.5 73.5t-84.5 25.5q-50 0 -86 -22.5t-55 -65t-19 -102.5q0 -59 19 -102t55 -65.5t86 -22.5q39 0 67.5 12t47 35t25.5 56l74 -26q-17 -46 -46.5 -79t-71 -50.5t-94.5 -17.5q-70 0 -125 31t-86 89.5t-31 139.5
t31 139.5t86 89.5t125 31z" />
    <glyph glyph-name="d" unicode="d" horiz-adv-x="627" 
d="M288 -10q-62 0 -114 31t-83 89.5t-31 139.5q0 83 33 141t87 88.5t116 30.5t107.5 -32t60.5 -85l-10 -7v344h80v-730h-70l-7 121l11 6q-7 -44 -33.5 -74.5t-65 -46.5t-81.5 -16zM296 60q48 0 83.5 24t55 68.5t19.5 104.5q0 57 -19.5 98t-54 63t-80.5 22q-76 0 -118 -52
t-42 -138t41 -138t115 -52z" />
    <glyph glyph-name="e" unicode="e" horiz-adv-x="577" 
d="M302 -10q-71 0 -126.5 31t-86.5 89.5t-31 139.5t31 139.5t85 89.5t123 31q70 0 119.5 -30t75.5 -81.5t26 -115.5q0 -17 -1 -31t-3 -25h-404v71h369l-41 -8q0 72 -39.5 111t-103.5 39q-49 0 -84.5 -22.5t-55 -65t-19.5 -102.5q0 -59 20 -102t56.5 -65.5t87.5 -22.5
q55 0 89.5 21t55.5 57l63 -37q-19 -34 -48.5 -59t-69 -38.5t-88.5 -13.5z" />
    <glyph glyph-name="f" unicode="f" horiz-adv-x="393" 
d="M296 735q26 0 49 -6t36 -17l-21 -65q-12 8 -26 11.5t-31 3.5q-43 0 -67 -20.5t-24 -65.5v-76v-26v-474h-80v584q0 33 10 61t30.5 48t51.5 31t72 11zM379 500v-69h-347v69h347z" />
    <glyph glyph-name="g" unicode="g" horiz-adv-x="532" 
d="M514 592l18 -71h-3h-4q-49 0 -75.5 -19.5t-26.5 -62.5l-49 25q0 39 18 68t49 44.5t68 15.5h2.5h2.5zM362 64q71 0 111 -32.5t40 -86.5q0 -49 -32.5 -85t-87 -55.5t-122.5 -19.5q-118 0 -176.5 40t-58.5 96q0 40 26.5 71.5t89.5 35.5l-7 -15q-34 9 -57.5 30.5t-23.5 62.5
t30.5 70.5t90.5 36.5l53 -27h-10q-49 -5 -69.5 -24.5t-20.5 -42.5q0 -28 20.5 -41.5t57.5 -13.5h146zM270 -148q58 0 95.5 12t55.5 31t18 41q0 27 -21.5 43t-77.5 16h-154q-32 0 -54 -16.5t-22 -45.5q0 -37 42.5 -59t117.5 -22zM263 510q60 0 106.5 -21.5t72.5 -59.5t26 -88
q0 -49 -26 -87.5t-72.5 -60t-106.5 -21.5q-99 0 -152 47.5t-53 121.5q0 50 26.5 88t72.5 59.5t106 21.5zM263 445q-52 0 -87 -28.5t-35 -75.5q0 -46 35 -75t87 -29t87 29t35 75q0 47 -35 75.5t-87 28.5z" />
    <glyph glyph-name="h" unicode="h" horiz-adv-x="619" 
d="M93 0v730h80v-305q26 45 69 65t94 20q54 0 98 -20.5t70.5 -62.5t26.5 -107v-320h-80v292q0 83 -35.5 115.5t-87.5 32.5q-36 0 -72 -17t-59.5 -55.5t-23.5 -102.5v-265h-80z" />
    <glyph glyph-name="i" unicode="i" horiz-adv-x="266" 
d="M133 596q-27 0 -43.5 16.5t-16.5 43.5t16.5 43.5t43.5 16.5t43.5 -16.5t16.5 -43.5t-16.5 -43.5t-43.5 -16.5zM173 500v-500h-80v500h80z" />
    <glyph glyph-name="j" unicode="j" horiz-adv-x="266" 
d="M133 596q-27 0 -43.5 16.5t-16.5 43.5t16.5 43.5t43.5 16.5t43.5 -16.5t16.5 -43.5t-16.5 -43.5t-43.5 -16.5zM173 500v-551q0 -62 -24 -98t-59 -51t-69 -15q-31 0 -57 9.5t-43 23.5l17 76q14 -13 35 -22t47 -9q32 0 52.5 21t20.5 73v543h80z" />
    <glyph glyph-name="k" unicode="k" horiz-adv-x="567" 
d="M532 500l-216 -216l-19 -19l-164 -164v100l298 299h101zM173 730v-730h-80v730h80zM323 325l221 -325h-97l-191 280z" />
    <glyph glyph-name="l" unicode="l" horiz-adv-x="306" 
d="M169 730v-603q0 -38 14 -52.5t45 -14.5q20 0 33 3t35 11l-13 -70q-16 -7 -35 -10.5t-39 -3.5q-61 0 -90.5 33t-29.5 101v606h80z" />
    <glyph glyph-name="m" unicode="m" horiz-adv-x="953" 
d="M93 0v500h70l5 -78q27 46 70.5 67t89.5 21q53 0 100 -24t72 -74q16 34 45 55.5t63.5 32t65.5 10.5q48 0 91.5 -20t71.5 -62t28 -108v-320h-80v312q0 68 -34 98t-84 30q-39 0 -73 -19t-54.5 -56t-20.5 -91v-274h-80v312q0 68 -34 98t-84 30q-33 0 -67.5 -17.5t-57.5 -55.5
t-23 -100v-267h-80z" />
    <glyph glyph-name="n" unicode="n" horiz-adv-x="619" 
d="M93 0v500h70l7 -112l-13 11q16 40 43 64.5t62.5 35.5t73.5 11q54 0 98 -20.5t70.5 -62.5t26.5 -107v-320h-80v292q0 83 -35.5 115.5t-87.5 32.5q-36 0 -72 -17t-59.5 -55t-23.5 -102v-266h-80z" />
    <glyph glyph-name="o" unicode="o" horiz-adv-x="600" 
d="M300 510q71 0 125.5 -31t85.5 -89.5t31 -139.5t-31 -139.5t-85.5 -89.5t-125.5 -31q-70 0 -125 31t-86 89.5t-31 139.5t31 139.5t86 89.5t125 31zM300 441q-51 0 -87 -23t-55.5 -65.5t-19.5 -102.5q0 -59 19.5 -102t55.5 -66t87 -23t87 23t55.5 66t19.5 102
q0 60 -19.5 102.5t-55.5 65.5t-87 23z" />
    <glyph glyph-name="p" unicode="p" horiz-adv-x="627" 
d="M93 -210v710h70l7 -122l-11 14q13 35 39 61.5t63 41.5t80 15q61 0 112.5 -31t82.5 -89t31 -140q0 -81 -31.5 -139.5t-83.5 -89.5t-114 -31t-108.5 30.5t-66.5 77.5l10 15v-323h-80zM330 60q74 0 115.5 52t41.5 138t-40.5 138t-113.5 52q-48 0 -84 -23.5t-56 -66
t-20 -100.5q0 -57 19.5 -100t55 -66.5t82.5 -23.5z" />
    <glyph glyph-name="q" unicode="q" horiz-adv-x="627" 
d="M454 -210v347l14 -10q-7 -44 -33.5 -74.5t-65 -46.5t-81.5 -16q-62 0 -114 31t-83 89.5t-31 139.5q0 83 33 141t87 88.5t116 30.5q42 0 78 -15.5t61.5 -44t33.5 -67.5h-12l7 117h70v-710h-80zM296 60q47 0 82.5 23.5t55.5 67t20 102.5q0 60 -19.5 101.5t-54.5 63.5
t-82 22q-74 0 -116 -52t-42 -138t41 -138t115 -52z" />
    <glyph glyph-name="r" unicode="r" horiz-adv-x="408" 
d="M93 0v500h65l11 -82q21 46 61.5 69t98.5 23q13 0 28.5 -2t26.5 -8l-14 -73q-11 4 -24 6t-37 2q-31 0 -62.5 -18t-52.5 -54.5t-21 -92.5v-270h-80z" />
    <glyph glyph-name="s" unicode="s" horiz-adv-x="527" 
d="M273 -10q-73 0 -134.5 31t-94.5 88l68 49q22 -46 64.5 -72t102.5 -26q53 0 83 20.5t30 53.5q0 21 -13.5 38.5t-51.5 25.5l-120 25q-73 15 -104.5 50t-31.5 87q0 41 23.5 75t67 54.5t102.5 20.5q74 0 125 -29t76 -82l-67 -44q-17 44 -55 64.5t-79 20.5q-36 0 -61.5 -10
t-39 -27.5t-13.5 -39.5t15 -40.5t56 -26.5l125 -26q70 -14 98 -46t28 -78q0 -47 -25 -82.5t-70 -54.5t-104 -19z" />
    <glyph glyph-name="t" unicode="t" horiz-adv-x="419" 
d="M211 642v-504q0 -37 21 -55t54 -18q29 0 50 10t38 27l28 -67q-23 -21 -54.5 -33t-72.5 -12q-38 0 -71 13.5t-52.5 43t-20.5 77.5v496zM393 500v-69h-362v69h362z" />
    <glyph glyph-name="u" unicode="u" horiz-adv-x="617" 
d="M274 -10q-48 0 -90.5 18t-69 58.5t-26.5 105.5v328h80v-307q0 -76 33 -104.5t93 -28.5q28 0 55 9.5t48.5 30t34 52.5t12.5 76v272h80v-500h-70l-5 76q-26 -45 -70.5 -65.5t-104.5 -20.5z" />
    <glyph glyph-name="v" unicode="v" horiz-adv-x="520" 
d="M424 500h84l-208 -500h-80l-208 500h91l158 -419z" />
    <glyph glyph-name="w" unicode="w" horiz-adv-x="836" 
d="M720 500h89l-174 -500h-80l-141 398l-133 -398h-80l-174 500h89l126 -407l136 407h80l136 -407z" />
    <glyph glyph-name="x" unicode="x" horiz-adv-x="533" 
d="M141 500l149 -209l5 -7l205 -284h-98l-155 217l-9 11l-197 272h100zM497 500l-198 -267h-5l-172 -233h-93l218 287h6l150 213h94z" />
    <glyph glyph-name="y" unicode="y" horiz-adv-x="516" 
d="M504 500l-235 -584q-19 -49 -41.5 -77.5t-50 -41t-63.5 -12.5q-34 0 -62.5 9.5t-50.5 25.5l22 70q20 -18 42.5 -26.5t44.5 -8.5q26 0 49 16t42 65l26 65l-50 119l-159 380h91l125 -326l31 -89l36 99l117 316h86z" />
    <glyph glyph-name="z" unicode="z" horiz-adv-x="534" 
d="M57 0v61l262 307l63 65l-89 -2h-233v69h411v-61l-262 -307l-62 -65l97 2h235v-69h-422z" />
    <glyph glyph-name="braceleft" unicode="{" horiz-adv-x="351" 
d="M304 -189q-59 0 -95 14.5t-52.5 42.5t-16.5 67v207q0 56 -25.5 80t-86.5 24v70q61 0 86.5 24t25.5 80v207q0 40 16.5 67.5t52.5 42t95 14.5v-65q-49 0 -69 -13t-20 -40v-220q0 -54 -29 -87t-85 -45q56 -12 85 -45t29 -87v-220q0 -27 20 -40t69 -13v-65z" />
    <glyph glyph-name="bar" unicode="|" horiz-adv-x="243" 
d="M156 730v-898h-69v898h69z" />
    <glyph glyph-name="braceright" unicode="}" horiz-adv-x="351" 
d="M47 751q59 0 95 -14.5t52.5 -42.5t16.5 -67v-207q0 -56 25.5 -80t86.5 -24v-70q-61 0 -86.5 -24t-25.5 -80v-207q0 -40 -16.5 -67.5t-52.5 -42t-95 -14.5v65q49 0 69 13t20 40v220q0 54 29 87t85 45q-56 12 -85 45t-29 87v220q0 27 -20 40t-69 13v65z" />
    <glyph glyph-name="asciitilde" unicode="~" horiz-adv-x="540" 
d="M497 384q-6 -73 -38.5 -111t-91.5 -38q-34 0 -59 11t-44.5 26t-39 26t-43.5 11q-26 0 -41 -20t-21 -54h-76q6 74 38 111.5t93 37.5q33 0 58 -11t45 -26t39.5 -26t42.5 -11q26 0 41 20t21 54h76z" />
    <glyph glyph-name="uni00A0" unicode="&#xa0;" horiz-adv-x="341" 
 />
    <glyph glyph-name="exclamdown" unicode="&#xa1;" horiz-adv-x="264" 
d="M90 -160v286l12 166h60l12 -166v-286h-84zM132 380q-29 0 -47 18t-18 47t18 47t47 18t47 -18t18 -47t-18 -47t-47 -18z" />
    <glyph glyph-name="cent" unicode="&#xa2;" horiz-adv-x="567" 
d="M310 -10q-71 0 -126 31t-86.5 89.5t-31.5 139.5t31.5 139.5t86.5 89.5t126 31q52 0 91.5 -16t68 -46t45.5 -71l-76 -36q-16 51 -49 77.5t-82 26.5q-72 0 -119.5 -51t-47.5 -144q0 -62 22 -105.5t59.5 -66.5t85.5 -23q37 0 64.5 12t46.5 36.5t29 59.5l72 -25
q-16 -46 -45 -79t-70.5 -51t-94.5 -18zM270 -100v700h67v-700h-67z" />
    <glyph glyph-name="sterling" unicode="&#xa3;" horiz-adv-x="620" 
d="M80 278v65h387v-65h-387zM154 -10q-51 0 -80.5 24.5t-29.5 61.5q0 24 14 44t41 32.5t67 12.5t69.5 -11t53.5 -27.5t46 -33.5t46 -28t55 -11q43 0 62 23.5t20 75.5h65q0 -53 -16 -89.5t-46.5 -55t-73.5 -18.5q-37 0 -67.5 11.5t-58 28.5t-53 34.5t-51.5 29t-54 11.5
q-24 0 -35 -7.5t-11 -21.5q0 -16 13.5 -24t33.5 -8q41 0 60 17.5t24.5 45t5.5 56.5q0 41 -14 74.5t-43 81.5q-19 33 -31 59t-17 49.5t-5 47.5q0 60 28 104t75.5 67.5t105.5 23.5q79 0 128 -38.5t71 -117.5l-69 -38q-14 57 -43.5 89t-88.5 32q-61 0 -97 -31.5t-36 -90.5
q0 -21 3 -38.5t11.5 -37.5t23.5 -50q28 -52 44 -97t16 -85q0 -30 -7.5 -61t-26 -57.5t-50 -42.5t-78.5 -16z" />
    <glyph glyph-name="currency" unicode="&#xa4;" horiz-adv-x="665" 
d="M333 539q61 0 108.5 -27t74.5 -74.5t27 -108.5t-27 -108.5t-74.5 -75t-108.5 -27.5t-108.5 27.5t-75 75t-27.5 108.5t27.5 108.5t75 74.5t108.5 27zM333 467q-57 0 -94 -39t-37 -99q0 -61 37 -100t94 -39q56 0 93 39t37 100q0 60 -37 99t-93 39zM121 591l119 -117
l-51 -50l-119 116zM187 236l50 -51l-116 -119l-51 51zM476 233l119 -116l-51 -51l-119 116zM544 591l51 -51l-116 -119l-51 51z" />
    <glyph glyph-name="yen" unicode="&#xa5;" horiz-adv-x="620" 
d="M275 0v107h-192v55h192v75h-192v60h129l44 -4l-222 367h93l134 -243l48 -99h2l48 100l134 242h93l-222 -367l44 4h130v-60h-193v-75h193v-55h-193v-107h-70z" />
    <glyph glyph-name="brokenbar" unicode="&#xa6;" horiz-adv-x="243" 
d="M156 730v-363h-69v363h69zM156 195v-363h-69v363h69z" />
    <glyph glyph-name="section" unicode="&#xa7;" horiz-adv-x="598" 
d="M417 138l-49 30q40 1 67.5 11.5t42 29.5t14.5 44q0 29 -20 52.5t-84 34.5l-144 25q-53 10 -86 30t-47.5 49.5t-14.5 64.5q0 47 26.5 83.5t74.5 57t112 20.5q70 0 124 -25t88 -74l-62 -48q-28 42 -65.5 60t-87.5 18q-64 0 -99.5 -24t-35.5 -62q0 -19 7 -35t26 -27.5
t55 -17.5l141 -24q66 -11 102.5 -31t51 -47t14.5 -61q0 -32 -15 -61.5t-48.5 -49t-87.5 -23.5zM284 -110q-88 0 -143 29.5t-83 72.5l62 51q21 -38 61.5 -62t107.5 -24t104 25t37 68q0 25 -17 43t-55 25l-169 33q-55 11 -90 30.5t-51.5 48t-16.5 65.5q0 32 16 58t44.5 43
t68.5 21l35 -25q-27 -7 -47 -18t-31 -27t-11 -38q0 -29 23.5 -53.5t82.5 -35.5l157 -28q73 -13 104 -50t31 -86q0 -47 -26.5 -85t-76 -59.5t-117.5 -21.5z" />
    <glyph glyph-name="dieresis" unicode="&#xa8;" horiz-adv-x="500" 
d="M153 696q26 0 41.5 -15.5t15.5 -41.5q0 -25 -15.5 -41t-41.5 -16q-25 0 -41 16t-16 41q0 26 16 41.5t41 15.5zM347 696q26 0 41.5 -15.5t15.5 -41.5q0 -25 -15.5 -41t-41.5 -16q-25 0 -41 16t-16 41q0 26 16 41.5t41 15.5z" />
    <glyph glyph-name="copyright" unicode="&#xa9;" horiz-adv-x="820" 
d="M410 -10q-102 0 -179 45t-120 122t-43 173q0 97 43 173.5t120 121.5t179 45t179 -45t120 -121.5t43 -173.5q0 -96 -43 -173t-120 -122t-179 -45zM410 55q81 0 142 36.5t95 99t34 139.5t-34 139.5t-95 99t-142 36.5q-80 0 -141.5 -36.5t-95.5 -99t-34 -139.5t34 -139.5
t95.5 -99t141.5 -36.5zM417 143q-85 0 -133.5 49.5t-48.5 135.5t48.5 135.5t133.5 49.5q59 0 98 -25.5t58 -69.5l-58 -29q-13 32 -37 48t-62 16q-53 0 -83.5 -33t-30.5 -92t30.5 -92t83.5 -33q40 0 66.5 16.5t39.5 50.5l55 -22q-19 -49 -59 -77t-101 -28z" />
    <glyph glyph-name="ordfeminine" unicode="&#xaa;" horiz-adv-x="382" 
d="M139 327q-52 0 -82 24.5t-30 64.5q0 39 24.5 62t85.5 34l116 21v-45l-94 -19q-36 -7 -49 -17.5t-13 -30.5q0 -19 14 -29.5t39 -10.5q20 0 41.5 6.5t36 24t14.5 48.5v85q0 31 -18.5 48.5t-48.5 17.5q-31 0 -57 -14.5t-42 -49.5l-49 29q14 38 51 63.5t94 25.5
q65 0 101.5 -29.5t36.5 -88.5v-140q0 -18 9 -24.5t22 -6.5q16 0 24 4l-5 -44q-8 -4 -18 -6.5t-21 -2.5q-32 0 -50.5 18.5t-18.5 53.5v15l10 -11q-9 -21 -26.5 -38.5t-42 -27.5t-54.5 -10zM26 201v53h320v-53h-320z" />
    <glyph glyph-name="guillemotleft" unicode="&#xab;" horiz-adv-x="493" 
d="M264 461l-128 -196l128 -196h-87l-126 196l126 196h87zM441 461l-128 -196l128 -196h-87l-126 196l126 196h87z" />
    <glyph glyph-name="logicalnot" unicode="&#xac;" 
d="M545 319v-188h-80v188h80zM545 354v-75h-486v75h486z" />
    <glyph glyph-name="uni00AD" unicode="&#xad;" horiz-adv-x="510" 
d="M420 303v-83h-330v83h330z" />
    <glyph glyph-name="registered" unicode="&#xae;" horiz-adv-x="820" 
d="M410 -10q-102 0 -179 45t-120 122t-43 173q0 97 43 173.5t120 121.5t179 45t179 -44.5t120 -121.5t43 -174q0 -96 -43 -173t-120 -122t-179 -45zM493 143l-100 150l55 23l121 -173h-76zM410 55q81 0 142 36.5t95 99t34 139.5t-34 139.5t-95 99t-142 36.5
q-80 0 -141.5 -36.5t-95.5 -99t-34 -139.5t34 -139.5t95.5 -99t141.5 -36.5zM269 143v370h152q42 0 73.5 -14.5t49 -40.5t17.5 -63q0 -55 -39 -86.5t-101 -31.5h-85v-134h-67zM336 328h84q36 0 55 16.5t19 50.5t-19 50.5t-55 16.5h-84v-134z" />
    <glyph glyph-name="macron" unicode="&#xaf;" horiz-adv-x="500" 
d="M414 663v-67h-328v67h328z" />
    <glyph glyph-name="degree" unicode="&#xb0;" horiz-adv-x="460" 
d="M230 340q-49 0 -87.5 21.5t-60.5 58.5t-22 85t22 85.5t60.5 58.5t87.5 21q50 0 88 -21t60 -58.5t22 -85.5t-22 -85t-60 -58.5t-88 -21.5zM230 405q44 0 72 28.5t28 71.5q0 44 -28 72t-72 28q-43 0 -71.5 -28t-28.5 -72q0 -43 28.5 -71.5t71.5 -28.5z" />
    <glyph glyph-name="plusminus" unicode="&#xb1;" 
d="M340 640v-486h-75v486h75zM545 434v-75h-486v75h486zM545 75v-75h-486v75h486z" />
    <glyph glyph-name="uni00B2" unicode="&#xb2;" horiz-adv-x="365" 
d="M39 333v48q23 17 46 33t46 34q48 38 75 64.5t37.5 47.5t10.5 44q0 32 -19.5 52.5t-57.5 20.5q-39 0 -61.5 -24.5t-24.5 -68.5l-63 22q4 61 45 95t107 34q49 0 81.5 -18t49 -47t16.5 -62q0 -29 -15.5 -58.5t-47.5 -60.5t-82 -66q-13 -9 -25.5 -17.5t-26.5 -17.5v-1
q9 1 31.5 2t32.5 1h142v-57h-297z" />
    <glyph glyph-name="uni00B3" unicode="&#xb3;" horiz-adv-x="362" 
d="M181 735q66 0 102 -30t36 -78q0 -30 -12.5 -51t-31 -31.5t-35.5 -11.5v-1q20 0 40.5 -10.5t34 -30.5t13.5 -51q0 -34 -19.5 -59.5t-53 -39.5t-77.5 -14q-61 0 -99.5 23.5t-54.5 72.5l67 30q6 -34 27 -51t59 -17q35 0 56.5 17.5t21.5 47.5q0 32 -22.5 44t-62.5 12h-8
t-9 -1v52q4 -1 7.5 -1h6.5q38 0 58 15t20 45t-18 45.5t-50 15.5q-31 0 -50.5 -15t-25.5 -45l-65 23q13 49 52.5 72t92.5 23z" />
    <glyph glyph-name="acute" unicode="&#xb4;" horiz-adv-x="600" 
d="M295 750h87l-98 -167h-65z" />
    <glyph glyph-name="uni00B5" unicode="&#xb5;" horiz-adv-x="622" 
d="M93 -210v710h80v-306q0 -70 33 -102t93 -32q40 0 74 17.5t55 56.5t21 103v263h80v-500h-65l-7 81q-25 -45 -68 -68t-94 -23q-38 0 -70 12t-52 39v0v-251h-80z" />
    <glyph glyph-name="paragraph" unicode="&#xb6;" horiz-adv-x="657" 
d="M294 -100v291q-76 0 -133 29.5t-88.5 82.5t-31.5 122q0 71 34 124t96 82t144 29h251v-760h-70v693h-129v-693h-73zM294 258v335q-57 0 -96.5 -20.5t-60 -58.5t-20.5 -89q0 -52 20.5 -89.5t60 -57.5t96.5 -20z" />
    <glyph glyph-name="periodcentered" unicode="&#xb7;" horiz-adv-x="226" 
d="M113 420q29 0 47 -18t18 -47t-18 -47t-47 -18t-47 18t-18 47t18 47t47 18z" />
    <glyph glyph-name="cedilla" unicode="&#xb8;" horiz-adv-x="500" 
d="M207 4l42 25q59 -19 84 -51.5t25 -76.5q0 -48 -34 -82t-87 -34q-31 0 -54.5 8t-40.5 21l19 58q14 -9 29.5 -16t37.5 -7q28 0 46 18t18 52q0 26 -19 45t-66 40z" />
    <glyph glyph-name="uni00B9" unicode="&#xb9;" horiz-adv-x="242" 
d="M127 730h62v-397h-70v251q0 14 0.5 33.5t1.5 38.5q-22 -21 -51 -37t-60 -21v60q18 4 41.5 15t44.5 26t31 31z" />
    <glyph glyph-name="ordmasculine" unicode="&#xba;" horiz-adv-x="360" 
d="M180 327q-70 0 -113.5 45t-43.5 124q0 80 43.5 124.5t113.5 44.5t113.5 -44.5t43.5 -124.5q0 -79 -43.5 -124t-113.5 -45zM36 201v53h288v-53h-288zM180 382q44 0 65.5 30t21.5 84t-21.5 84.5t-65.5 30.5t-65.5 -30.5t-21.5 -84.5t21.5 -84t65.5 -30z" />
    <glyph glyph-name="guillemotright" unicode="&#xbb;" horiz-adv-x="493" 
d="M229 69l128 196l-128 196h87l126 -196l-126 -196h-87zM52 69l128 196l-128 196h87l126 -196l-126 -196h-87z" />
    <glyph glyph-name="onequarter" unicode="&#xbc;" horiz-adv-x="788" 
d="M127 665h62v-397h-70v251q0 14 0.5 33.5t1.5 38.5q-22 -21 -51 -37t-60 -21v60q18 4 41.5 15t44.5 26t31 31zM88 0l477 660h79l-477 -660h-79zM768 145v-50h-71v-99h-59v99h-199v37l182 261h76v-248h71zM507 145h131v114q0 19 1 38l2 38h-3q-6 -11 -15 -26.5t-17 -27.5z
" />
    <glyph glyph-name="onehalf" unicode="&#xbd;" horiz-adv-x="855" 
d="M127 665h62v-397h-70v251q0 14 0.5 33.5t1.5 38.5q-22 -21 -51 -37t-60 -21v60q18 4 41.5 15t44.5 26t31 31zM88 0l477 660h79l-477 -660h-79zM529 -4v48q23 17 46 33t46 34q48 38 75 64.5t37.5 47.5t10.5 44q0 32 -19.5 52.5t-57.5 20.5q-39 0 -61.5 -24.5t-24.5 -68.5
l-63 22q4 61 45 95t107 34q49 0 81.5 -18t49 -47t16.5 -62q0 -29 -15.5 -58.5t-47.5 -60.5t-82 -66q-13 -9 -25.5 -17.5t-26.5 -17.5v-1q9 1 31.5 2t32.5 1h142v-57h-297z" />
    <glyph glyph-name="threequarters" unicode="&#xbe;" horiz-adv-x="908" 
d="M181 670q66 0 102 -30t36 -78q0 -30 -12.5 -51t-31 -31.5t-35.5 -11.5v-1q20 0 40.5 -10.5t34 -30.5t13.5 -51q0 -34 -19.5 -59.5t-53 -39.5t-77.5 -14q-61 0 -99.5 23.5t-54.5 72.5l67 30q6 -34 27 -51t59 -17q35 0 56.5 17.5t21.5 47.5q0 32 -22.5 44t-62.5 12h-8
t-9 -1v52q4 -1 7.5 -1h6.5q38 0 58 15t20 45t-18 45.5t-50 15.5q-31 0 -50.5 -15t-25.5 -45l-65 23q13 49 52.5 72t92.5 23zM208 0l477 660h79l-477 -660h-79zM888 145v-50h-71v-99h-59v99h-199v37l182 261h76v-248h71zM627 145h131v114q0 19 1 38l2 38h-3q-6 -11 -15 -26.5
t-17 -27.5z" />
    <glyph glyph-name="questiondown" unicode="&#xbf;" horiz-adv-x="537" 
d="M266 -170q-64 0 -113.5 20.5t-77.5 58.5t-28 91q0 58 25.5 97.5t68 60.5t94.5 27v107h83v-150q-67 -10 -108 -26.5t-60 -42t-19 -63.5q0 -47 35 -76t106 -29q66 0 107.5 36.5t49.5 99.5l71 -41q-11 -51 -42.5 -89.5t-80 -59.5t-111.5 -21zM278 380q-29 0 -47 18t-18 47
t18 47t47 18t47 -18t18 -47t-18 -47t-47 -18z" />
    <glyph glyph-name="Agrave" unicode="&#xc0;" horiz-adv-x="660" 
d="M26 0l257 660h95l256 -660h-85l-188 492l-31 92h-2l-29 -89l-189 -495h-84zM152 183v75h353v-75h-353zM302 902l66 -159h-64l-86 159h84z" />
    <glyph glyph-name="Aacute" unicode="&#xc1;" horiz-adv-x="660" 
d="M26 0l257 660h95l256 -660h-85l-188 492l-31 92h-2l-29 -89l-189 -495h-84zM152 183v75h353v-75h-353zM353 902h84l-86 -159h-64z" />
    <glyph glyph-name="Acircumflex" unicode="&#xc2;" horiz-adv-x="660" 
d="M26 0l257 660h95l256 -660h-85l-188 492l-31 92h-2l-29 -89l-189 -495h-84zM152 183v75h353v-75h-353zM484 743h-74l-80 107l-80 -107h-74l110 159h88z" />
    <glyph glyph-name="Atilde" unicode="&#xc3;" horiz-adv-x="660" 
d="M26 0l257 660h95l256 -660h-85l-188 492l-31 92h-2l-29 -89l-189 -495h-84zM152 183v75h353v-75h-353zM510 877q-3 -44 -16.5 -74t-37 -45t-58.5 -15q-28 0 -47.5 10.5t-33.5 23.5t-27.5 23.5t-29.5 10.5q-22 0 -33 -18.5t-16 -50.5h-63q5 66 32.5 100t80.5 34
q27 0 46.5 -10.5t34 -23.5t27.5 -23.5t28 -10.5q23 0 34 18.5t16 50.5h63z" />
    <glyph glyph-name="Adieresis" unicode="&#xc4;" horiz-adv-x="660" 
d="M26 0l257 660h95l256 -660h-85l-188 492l-31 92h-2l-29 -89l-189 -495h-84zM152 183v75h353v-75h-353zM233 856q26 0 41.5 -15.5t15.5 -41.5q0 -25 -15.5 -41t-41.5 -16q-25 0 -41 16t-16 41q0 26 16 41.5t41 15.5zM427 856q26 0 41.5 -15.5t15.5 -41.5q0 -25 -15.5 -41
t-41.5 -16q-25 0 -41 16t-16 41q0 26 16 41.5t41 15.5z" />
    <glyph glyph-name="Aring" unicode="&#xc5;" horiz-adv-x="660" 
d="M26 0l257 660h95l256 -660h-85l-188 492l-31 92h-2l-29 -89l-189 -495h-84zM152 183v75h353v-75h-353zM328 847q56 0 90.5 -32.5t34.5 -85.5t-34.5 -86t-90.5 -33t-91 33t-35 86t35 85.5t91 32.5zM328 798q-31 0 -51 -19.5t-20 -49.5t20 -49.5t51 -19.5t51 19.5t20 49.5
t-20 49.5t-51 19.5z" />
    <glyph glyph-name="AE" unicode="&#xc6;" horiz-adv-x="954" 
d="M531 75h371v-75h-451v213h-236l-123 -213h-86l386 660h495v-75h-356v-213h271v-75h-271v-222zM259 288h192v297h-20z" />
    <glyph glyph-name="Ccedilla" unicode="&#xc7;" horiz-adv-x="686" 
d="M640 169q-21 -56 -60 -96.5t-91.5 -61.5t-114.5 -21q-94 0 -162.5 41.5t-106 117.5t-37.5 181t37.5 181t106 117.5t160.5 41.5q64 0 114 -17.5t85.5 -52t56.5 -84.5l-79 -37q-22 57 -63.5 86.5t-107.5 29.5q-67 0 -118 -31.5t-79.5 -90.5t-28.5 -143q0 -83 27 -142.5
t77 -91t118 -31.5q66 0 115 33.5t71 100.5zM317 4l42 25q59 -19 84 -51.5t25 -76.5q0 -48 -34 -82t-87 -34q-31 0 -54.5 8t-40.5 21l19 58q14 -9 29.5 -16t37.5 -7q28 0 46 18t18 52q0 26 -19 45t-66 40z" />
    <glyph glyph-name="Egrave" unicode="&#xc8;" horiz-adv-x="638" 
d="M108 0v660h463v-75h-383v-213h298v-75h-298v-222h398v-75h-478zM317 902l66 -159h-64l-86 159h84z" />
    <glyph glyph-name="Eacute" unicode="&#xc9;" horiz-adv-x="638" 
d="M108 0v660h463v-75h-383v-213h298v-75h-298v-222h398v-75h-478zM363 902h84l-86 -159h-64z" />
    <glyph glyph-name="Ecircumflex" unicode="&#xca;" horiz-adv-x="638" 
d="M108 0v660h463v-75h-383v-213h298v-75h-298v-222h398v-75h-478zM494 743h-74l-80 107l-80 -107h-74l110 159h88z" />
    <glyph glyph-name="Edieresis" unicode="&#xcb;" horiz-adv-x="638" 
d="M108 0v660h463v-75h-383v-213h298v-75h-298v-222h398v-75h-478zM243 856q26 0 41.5 -15.5t15.5 -41.5q0 -25 -15.5 -41t-41.5 -16q-25 0 -41 16t-16 41q0 26 16 41.5t41 15.5zM437 856q26 0 41.5 -15.5t15.5 -41.5q0 -25 -15.5 -41t-41.5 -16q-25 0 -41 16t-16 41
q0 26 16 41.5t41 15.5z" />
    <glyph glyph-name="Igrave" unicode="&#xcc;" horiz-adv-x="296" 
d="M188 660v-660h-80v660h80zM115 902l66 -159h-64l-86 159h84z" />
    <glyph glyph-name="Iacute" unicode="&#xcd;" horiz-adv-x="296" 
d="M188 660v-660h-80v660h80zM181 902h84l-86 -159h-64z" />
    <glyph glyph-name="Icircumflex" unicode="&#xce;" horiz-adv-x="296" 
d="M188 660v-660h-80v660h80zM302 743h-74l-80 107l-80 -107h-74l110 159h88z" />
    <glyph glyph-name="Idieresis" unicode="&#xcf;" horiz-adv-x="296" 
d="M62 856q26 0 41.5 -15.5t15.5 -41.5q0 -25 -15.5 -41t-41.5 -16q-25 0 -41 16t-16 41q0 26 16 41.5t41 15.5zM234 856q26 0 41.5 -15.5t15.5 -41.5q0 -25 -15.5 -41t-41.5 -16q-25 0 -41 16t-16 41q0 26 16 41.5t41 15.5zM188 660v-660h-80v660h80z" />
    <glyph glyph-name="Eth" unicode="&#xd0;" horiz-adv-x="737" 
d="M26 296v75h375v-75h-375zM337 660q155 0 243.5 -85.5t88.5 -244.5t-88.5 -244.5t-243.5 -85.5h-213v660h213zM345 75q113 0 176.5 67.5t63.5 187.5t-63.5 187.5t-176.5 67.5h-141v-510h141z" />
    <glyph glyph-name="Ntilde" unicode="&#xd1;" horiz-adv-x="734" 
d="M626 660v-660h-99l-276 442l-70 124h-1l4 -100v-466h-76v660h99l275 -440l71 -127h1l-4 101v466h76zM551 877q-3 -44 -16.5 -74t-37 -45t-58.5 -15q-28 0 -47.5 10.5t-33.5 23.5t-27.5 23.5t-29.5 10.5q-22 0 -33 -18.5t-16 -50.5h-63q5 66 32.5 100t80.5 34
q27 0 46.5 -10.5t34 -23.5t27.5 -23.5t28 -10.5q23 0 34 18.5t16 50.5h63z" />
    <glyph glyph-name="Ograve" unicode="&#xd2;" horiz-adv-x="748" 
d="M374 670q94 0 162.5 -41.5t106 -117.5t37.5 -181t-37.5 -181t-106 -117.5t-162.5 -41.5t-162.5 41.5t-106 117.5t-37.5 181t37.5 181t106 117.5t162.5 41.5zM374 595q-68 0 -118 -31.5t-77 -91t-27 -142.5t27 -142.5t77 -91t118 -31.5q69 0 118.5 31.5t76.5 91t27 142.5
t-27 142.5t-76.5 91t-118.5 31.5zM341 902l66 -159h-64l-86 159h84z" />
    <glyph glyph-name="Oacute" unicode="&#xd3;" horiz-adv-x="748" 
d="M374 670q94 0 162.5 -41.5t106 -117.5t37.5 -181t-37.5 -181t-106 -117.5t-162.5 -41.5t-162.5 41.5t-106 117.5t-37.5 181t37.5 181t106 117.5t162.5 41.5zM374 595q-68 0 -118 -31.5t-77 -91t-27 -142.5t27 -142.5t77 -91t118 -31.5q69 0 118.5 31.5t76.5 91t27 142.5
t-27 142.5t-76.5 91t-118.5 31.5zM397 902h84l-86 -159h-64z" />
    <glyph glyph-name="Ocircumflex" unicode="&#xd4;" horiz-adv-x="748" 
d="M374 670q94 0 162.5 -41.5t106 -117.5t37.5 -181t-37.5 -181t-106 -117.5t-162.5 -41.5t-162.5 41.5t-106 117.5t-37.5 181t37.5 181t106 117.5t162.5 41.5zM374 595q-68 0 -118 -31.5t-77 -91t-27 -142.5t27 -142.5t77 -91t118 -31.5q69 0 118.5 31.5t76.5 91t27 142.5
t-27 142.5t-76.5 91t-118.5 31.5zM528 743h-74l-80 107l-80 -107h-74l110 159h88z" />
    <glyph glyph-name="Otilde" unicode="&#xd5;" horiz-adv-x="748" 
d="M374 670q94 0 162.5 -41.5t106 -117.5t37.5 -181t-37.5 -181t-106 -117.5t-162.5 -41.5t-162.5 41.5t-106 117.5t-37.5 181t37.5 181t106 117.5t162.5 41.5zM374 595q-68 0 -118 -31.5t-77 -91t-27 -142.5t27 -142.5t77 -91t118 -31.5q69 0 118.5 31.5t76.5 91t27 142.5
t-27 142.5t-76.5 91t-118.5 31.5zM554 877q-3 -44 -16.5 -74t-37 -45t-58.5 -15q-28 0 -47.5 10.5t-33.5 23.5t-27.5 23.5t-29.5 10.5q-22 0 -33 -18.5t-16 -50.5h-63q5 66 32.5 100t80.5 34q27 0 46.5 -10.5t34 -23.5t27.5 -23.5t28 -10.5q23 0 34 18.5t16 50.5h63z" />
    <glyph glyph-name="Odieresis" unicode="&#xd6;" horiz-adv-x="748" 
d="M374 670q94 0 162.5 -41.5t106 -117.5t37.5 -181t-37.5 -181t-106 -117.5t-162.5 -41.5t-162.5 41.5t-106 117.5t-37.5 181t37.5 181t106 117.5t162.5 41.5zM374 595q-68 0 -118 -31.5t-77 -91t-27 -142.5t27 -142.5t77 -91t118 -31.5q69 0 118.5 31.5t76.5 91t27 142.5
t-27 142.5t-76.5 91t-118.5 31.5zM277 856q26 0 41.5 -15.5t15.5 -41.5q0 -25 -15.5 -41t-41.5 -16q-25 0 -41 16t-16 41q0 26 16 41.5t41 15.5zM471 856q26 0 41.5 -15.5t15.5 -41.5q0 -25 -15.5 -41t-41.5 -16q-25 0 -41 16t-16 41q0 26 16 41.5t41 15.5z" />
    <glyph glyph-name="multiply" unicode="&#xd7;" 
d="M469 97l53 53l-388 388l-53 -53zM134 97l388 388l-53 53l-388 -388z" />
    <glyph glyph-name="Oslash" unicode="&#xd8;" horiz-adv-x="748" 
d="M229 63l-46 37l335 480l46 -36zM88 -37l95 137l46 -37l-70 -100h-71zM564 544l-46 36l72 103h71zM374 670q94 0 162.5 -41.5t106 -117.5t37.5 -181t-37.5 -181t-106 -117.5t-162.5 -41.5t-162.5 41.5t-106 117.5t-37.5 181t37.5 181t106 117.5t162.5 41.5zM374 595
q-68 0 -118 -31.5t-77 -91t-27 -142.5t27 -142.5t77 -91t118 -31.5q69 0 118.5 31.5t76.5 91t27 142.5t-27 142.5t-76.5 91t-118.5 31.5z" />
    <glyph glyph-name="Ugrave" unicode="&#xd9;" horiz-adv-x="708" 
d="M613 660v-414q0 -127 -67 -191.5t-192 -64.5q-124 0 -191.5 64.5t-67.5 191.5v414h80v-394q0 -103 43.5 -152t135.5 -49t135.5 49t43.5 152v394h80zM331 877l66 -159h-64l-86 159h84z" />
    <glyph glyph-name="Uacute" unicode="&#xda;" horiz-adv-x="708" 
d="M613 660v-414q0 -127 -67 -191.5t-192 -64.5q-124 0 -191.5 64.5t-67.5 191.5v414h80v-394q0 -103 43.5 -152t135.5 -49t135.5 49t43.5 152v394h80zM377 877h84l-86 -159h-64z" />
    <glyph glyph-name="Ucircumflex" unicode="&#xdb;" horiz-adv-x="708" 
d="M613 660v-414q0 -127 -67 -191.5t-192 -64.5q-124 0 -191.5 64.5t-67.5 191.5v414h80v-394q0 -103 43.5 -152t135.5 -49t135.5 49t43.5 152v394h80zM508 718h-74l-80 107l-80 -107h-74l110 159h88z" />
    <glyph glyph-name="Udieresis" unicode="&#xdc;" horiz-adv-x="708" 
d="M613 660v-414q0 -127 -67 -191.5t-192 -64.5q-124 0 -191.5 64.5t-67.5 191.5v414h80v-394q0 -103 43.5 -152t135.5 -49t135.5 49t43.5 152v394h80zM257 831q26 0 41.5 -15.5t15.5 -41.5q0 -25 -15.5 -41t-41.5 -16q-25 0 -41 16t-16 41q0 26 16 41.5t41 15.5zM451 831
q26 0 41.5 -15.5t15.5 -41.5q0 -25 -15.5 -41t-41.5 -16q-25 0 -41 16t-16 41q0 26 16 41.5t41 15.5z" />
    <glyph glyph-name="Yacute" unicode="&#xdd;" horiz-adv-x="572" 
d="M562 660l-236 -402v-258h-80v258l-236 402h95l128 -226l53 -94l53 94l128 226h95zM309 882h84l-86 -159h-64z" />
    <glyph glyph-name="Thorn" unicode="&#xde;" horiz-adv-x="627" 
d="M327 542q123 0 184.5 -53t61.5 -152q0 -98 -61.5 -151.5t-184.5 -53.5h-179v75h187q154 0 154 130q0 66 -38 98t-116 32h-187v75h179zM188 660v-660h-80v660h80z" />
    <glyph glyph-name="germandbls" unicode="&#xdf;" horiz-adv-x="617" 
d="M383 387q65 0 103.5 -27t56 -69t17.5 -87q0 -58 -21.5 -106.5t-65 -78t-110.5 -29.5q-48 0 -81.5 11t-47.5 22l23 68q18 -11 41 -19.5t63 -8.5q57 0 89.5 40.5t32.5 102.5q0 70 -38.5 106.5t-115.5 36.5h-59v71h49q65 0 99 37t34 89q0 59 -37.5 86.5t-94.5 27.5
q-84 0 -115.5 -47.5t-31.5 -139.5v-473h-80v497q0 69 21.5 122.5t73 84.5t140.5 31q70 0 115.5 -25t68 -64.5t22.5 -83.5q0 -39 -16.5 -77.5t-50 -65t-84.5 -30.5v-2z" />
    <glyph glyph-name="agrave" unicode="&#xe0;" horiz-adv-x="566" 
d="M385 323q0 56 -30 86.5t-85 30.5q-52 0 -88 -22.5t-53 -72.5l-65 40q20 56 74 90.5t134 34.5q54 0 98 -18.5t69.5 -56t25.5 -96.5v-242q0 -36 38 -36q19 0 37 5l-4 -63q-20 -10 -52 -10q-29 0 -52 11t-36 33.5t-13 56.5v10l20 -3q-12 -39 -41 -63.5t-65 -36t-71 -11.5
q-44 0 -82 15t-60.5 45.5t-22.5 75.5q0 56 37.5 92.5t104.5 49.5l198 39v-66l-161 -33q-49 -10 -73 -28t-24 -50q0 -31 24.5 -50.5t69.5 -19.5q29 0 55.5 7.5t47.5 23t33 39t12 55.5v138zM242 750l76 -167h-65l-98 167h87z" />
    <glyph glyph-name="aacute" unicode="&#xe1;" horiz-adv-x="566" 
d="M385 323q0 56 -30 86.5t-85 30.5q-52 0 -88 -22.5t-53 -72.5l-65 40q20 56 74 90.5t134 34.5q54 0 98 -18.5t69.5 -56t25.5 -96.5v-242q0 -36 38 -36q19 0 37 5l-4 -63q-20 -10 -52 -10q-29 0 -52 11t-36 33.5t-13 56.5v10l20 -3q-12 -39 -41 -63.5t-65 -36t-71 -11.5
q-44 0 -82 15t-60.5 45.5t-22.5 75.5q0 56 37.5 92.5t104.5 49.5l198 39v-66l-161 -33q-49 -10 -73 -28t-24 -50q0 -31 24.5 -50.5t69.5 -19.5q29 0 55.5 7.5t47.5 23t33 39t12 55.5v138zM303 750h87l-98 -167h-65z" />
    <glyph glyph-name="acircumflex" unicode="&#xe2;" horiz-adv-x="566" 
d="M385 323q0 56 -30 86.5t-85 30.5q-52 0 -88 -22.5t-53 -72.5l-65 40q20 56 74 90.5t134 34.5q54 0 98 -18.5t69.5 -56t25.5 -96.5v-242q0 -36 38 -36q19 0 37 5l-4 -63q-20 -10 -52 -10q-29 0 -52 11t-36 33.5t-13 56.5v10l20 -3q-12 -39 -41 -63.5t-65 -36t-71 -11.5
q-44 0 -82 15t-60.5 45.5t-22.5 75.5q0 56 37.5 92.5t104.5 49.5l198 39v-66l-161 -33q-49 -10 -73 -28t-24 -50q0 -31 24.5 -50.5t69.5 -19.5q29 0 55.5 7.5t47.5 23t33 39t12 55.5v138zM435 576h-73l-86 115l-86 -115h-73l114 167h90z" />
    <glyph glyph-name="atilde" unicode="&#xe3;" horiz-adv-x="566" 
d="M385 323q0 56 -30 86.5t-85 30.5q-52 0 -88 -22.5t-53 -72.5l-65 40q20 56 74 90.5t134 34.5q54 0 98 -18.5t69.5 -56t25.5 -96.5v-242q0 -36 38 -36q19 0 37 5l-4 -63q-20 -10 -52 -10q-29 0 -52 11t-36 33.5t-13 56.5v10l20 -3q-12 -39 -41 -63.5t-65 -36t-71 -11.5
q-44 0 -82 15t-60.5 45.5t-22.5 75.5q0 56 37.5 92.5t104.5 49.5l198 39v-66l-161 -33q-49 -10 -73 -28t-24 -50q0 -31 24.5 -50.5t69.5 -19.5q29 0 55.5 7.5t47.5 23t33 39t12 55.5v138zM456 717q-3 -44 -16.5 -74t-37 -45t-58.5 -15q-28 0 -47.5 10.5t-33.5 23.5
t-27.5 23.5t-29.5 10.5q-22 0 -33 -18.5t-16 -50.5h-63q5 66 32.5 100t80.5 34q27 0 46.5 -10.5t34 -23.5t27.5 -23.5t28 -10.5q23 0 34 18.5t16 50.5h63z" />
    <glyph glyph-name="adieresis" unicode="&#xe4;" horiz-adv-x="566" 
d="M385 323q0 56 -30 86.5t-85 30.5q-52 0 -88 -22.5t-53 -72.5l-65 40q20 56 74 90.5t134 34.5q54 0 98 -18.5t69.5 -56t25.5 -96.5v-242q0 -36 38 -36q19 0 37 5l-4 -63q-20 -10 -52 -10q-29 0 -52 11t-36 33.5t-13 56.5v10l20 -3q-12 -39 -41 -63.5t-65 -36t-71 -11.5
q-44 0 -82 15t-60.5 45.5t-22.5 75.5q0 56 37.5 92.5t104.5 49.5l198 39v-66l-161 -33q-49 -10 -73 -28t-24 -50q0 -31 24.5 -50.5t69.5 -19.5q29 0 55.5 7.5t47.5 23t33 39t12 55.5v138zM179 696q26 0 41.5 -15.5t15.5 -41.5q0 -25 -15.5 -41t-41.5 -16q-25 0 -41 16
t-16 41q0 26 16 41.5t41 15.5zM373 696q26 0 41.5 -15.5t15.5 -41.5q0 -25 -15.5 -41t-41.5 -16q-25 0 -41 16t-16 41q0 26 16 41.5t41 15.5z" />
    <glyph glyph-name="aring" unicode="&#xe5;" horiz-adv-x="566" 
d="M385 323q0 56 -30 86.5t-85 30.5q-52 0 -88 -22.5t-53 -72.5l-65 40q20 56 74 90.5t134 34.5q54 0 98 -18.5t69.5 -56t25.5 -96.5v-242q0 -36 38 -36q19 0 37 5l-4 -63q-20 -10 -52 -10q-29 0 -52 11t-36 33.5t-13 56.5v10l20 -3q-12 -39 -41 -63.5t-65 -36t-71 -11.5
q-44 0 -82 15t-60.5 45.5t-22.5 75.5q0 56 37.5 92.5t104.5 49.5l198 39v-66l-161 -33q-49 -10 -73 -28t-24 -50q0 -31 24.5 -50.5t69.5 -19.5q29 0 55.5 7.5t47.5 23t33 39t12 55.5v138zM273 812q56 0 90.5 -32.5t34.5 -85.5t-34.5 -86t-90.5 -33t-91 33t-35 86t35 85.5
t91 32.5zM273 763q-31 0 -51 -19.5t-20 -49.5t20 -49.5t51 -19.5t51 19.5t20 49.5t-20 49.5t-51 19.5z" />
    <glyph glyph-name="ae" unicode="&#xe6;" horiz-adv-x="895" 
d="M230 -10q-46 0 -84.5 15t-61.5 45.5t-23 75.5q0 56 36.5 92t101.5 49l186 37v19q0 56 -32.5 86.5t-83.5 30.5q-47 0 -83.5 -22.5t-56.5 -72.5l-65 40q16 38 44.5 66t69 43.5t89.5 15.5q66 0 115 -27.5t67 -88.5l-24 3q19 36 48.5 61t67.5 38.5t81 13.5q67 0 114.5 -30
t73.5 -81.5t26 -115.5q0 -17 -1 -31t-3 -25h-366v0q5 -79 49 -123t110 -44q50 0 83.5 21t54.5 57l63 -37q-19 -34 -48.5 -59t-67.5 -38.5t-83 -13.5q-75 0 -131.5 35.5t-82.5 104.5l25 7q-4 -34 -23.5 -61t-49 -46.5t-64.5 -29.5t-71 -10zM237 60q29 0 55.5 7.5t47.5 23
t33 39t12 55.5v52l-145 -29q-49 -10 -73 -28t-24 -50q0 -31 24.5 -50.5t69.5 -19.5zM469 298h287q-1 46 -19 77.5t-48 48t-69 16.5q-61 0 -100.5 -37t-50.5 -105z" />
    <glyph glyph-name="ccedilla" unicode="&#xe7;" horiz-adv-x="560" 
d="M300 510q52 0 91.5 -16t68.5 -46t47 -71l-76 -36q-16 48 -48.5 73.5t-84.5 25.5q-50 0 -86 -22.5t-55 -65t-19 -102.5q0 -59 19 -102t55 -65.5t86 -22.5q39 0 67.5 12t47 35t25.5 56l74 -26q-17 -46 -46.5 -79t-71 -50.5t-94.5 -17.5q-70 0 -125 31t-86 89.5t-31 139.5
t31 139.5t86 89.5t125 31zM244 4l42 25q59 -19 84 -51.5t25 -76.5q0 -48 -34 -82t-87 -34q-31 0 -54.5 8t-40.5 21l19 58q14 -9 29.5 -16t37.5 -7q28 0 46 18t18 52q0 26 -19 45t-66 40z" />
    <glyph glyph-name="egrave" unicode="&#xe8;" horiz-adv-x="577" 
d="M302 -10q-71 0 -126.5 31t-86.5 89.5t-31 139.5t31 139.5t85 89.5t123 31q70 0 119.5 -30t75.5 -81.5t26 -115.5q0 -17 -1 -31t-3 -25h-404v71h369l-41 -8q0 72 -39.5 111t-103.5 39q-49 0 -84.5 -22.5t-55 -65t-19.5 -102.5q0 -59 20 -102t56.5 -65.5t87.5 -22.5
q55 0 89.5 21t55.5 57l63 -37q-19 -34 -48.5 -59t-69 -38.5t-88.5 -13.5zM257 750l76 -167h-65l-98 167h87z" />
    <glyph glyph-name="eacute" unicode="&#xe9;" horiz-adv-x="577" 
d="M302 -10q-71 0 -126.5 31t-86.5 89.5t-31 139.5t31 139.5t85 89.5t123 31q70 0 119.5 -30t75.5 -81.5t26 -115.5q0 -17 -1 -31t-3 -25h-404v71h369l-41 -8q0 72 -39.5 111t-103.5 39q-49 0 -84.5 -22.5t-55 -65t-19.5 -102.5q0 -59 20 -102t56.5 -65.5t87.5 -22.5
q55 0 89.5 21t55.5 57l63 -37q-19 -34 -48.5 -59t-69 -38.5t-88.5 -13.5zM318 750h87l-98 -167h-65z" />
    <glyph glyph-name="ecircumflex" unicode="&#xea;" horiz-adv-x="577" 
d="M302 -10q-71 0 -126.5 31t-86.5 89.5t-31 139.5t31 139.5t85 89.5t123 31q70 0 119.5 -30t75.5 -81.5t26 -115.5q0 -17 -1 -31t-3 -25h-404v71h369l-41 -8q0 72 -39.5 111t-103.5 39q-49 0 -84.5 -22.5t-55 -65t-19.5 -102.5q0 -59 20 -102t56.5 -65.5t87.5 -22.5
q55 0 89.5 21t55.5 57l63 -37q-19 -34 -48.5 -59t-69 -38.5t-88.5 -13.5zM450 576h-73l-86 115l-86 -115h-73l114 167h90z" />
    <glyph glyph-name="edieresis" unicode="&#xeb;" horiz-adv-x="577" 
d="M302 -10q-71 0 -126.5 31t-86.5 89.5t-31 139.5t31 139.5t85 89.5t123 31q70 0 119.5 -30t75.5 -81.5t26 -115.5q0 -17 -1 -31t-3 -25h-404v71h369l-41 -8q0 72 -39.5 111t-103.5 39q-49 0 -84.5 -22.5t-55 -65t-19.5 -102.5q0 -59 20 -102t56.5 -65.5t87.5 -22.5
q55 0 89.5 21t55.5 57l63 -37q-19 -34 -48.5 -59t-69 -38.5t-88.5 -13.5zM194 696q26 0 41.5 -15.5t15.5 -41.5q0 -25 -15.5 -41t-41.5 -16q-25 0 -41 16t-16 41q0 26 16 41.5t41 15.5zM388 696q26 0 41.5 -15.5t15.5 -41.5q0 -25 -15.5 -41t-41.5 -16q-25 0 -41 16t-16 41
q0 26 16 41.5t41 15.5z" />
    <glyph glyph-name="igrave" unicode="&#xec;" horiz-adv-x="266" 
d="M173 500v-500h-80v500h80zM99 750l76 -167h-65l-98 167h87z" />
    <glyph glyph-name="iacute" unicode="&#xed;" horiz-adv-x="266" 
d="M173 500v-500h-80v500h80zM160 750h87l-98 -167h-65z" />
    <glyph glyph-name="icircumflex" unicode="&#xee;" horiz-adv-x="266" 
d="M173 500v-500h-80v500h80zM292 576h-73l-86 115l-86 -115h-73l114 167h90z" />
    <glyph glyph-name="idieresis" unicode="&#xef;" horiz-adv-x="266" 
d="M213 582q-26 0 -42 16t-16 41q0 26 16 41.5t42 15.5t41.5 -15.5t15.5 -41.5q0 -25 -15.5 -41t-41.5 -16zM53 582q-25 0 -41 16t-16 41q0 26 16 41.5t41 15.5q26 0 42 -15.5t16 -41.5q0 -25 -16 -41t-42 -16zM173 500v-500h-80v500h80z" />
    <glyph glyph-name="eth" unicode="&#xf0;" horiz-adv-x="620" 
d="M298 -10q-72 0 -125 29.5t-82 85.5t-29 133t31 132.5t84 85t119 29.5q62 0 106 -21t71 -59l-8 -7q-12 55 -33 102t-52 87.5t-74.5 76t-100.5 66.5h111q59 -34 102 -79t71.5 -100.5t42.5 -121t14 -141.5q0 -87 -27 -154.5t-81.5 -105.5t-139.5 -38zM302 60q53 0 90 25
t56.5 65.5t19.5 87.5q0 55 -19.5 94.5t-55.5 61t-86 21.5t-86.5 -21.5t-56 -61t-19.5 -94.5q0 -84 42.5 -131t114.5 -47zM207 533l-15 61l200 44l36 -48zM428 590l-36 48l143 40l17 -59z" />
    <glyph glyph-name="ntilde" unicode="&#xf1;" horiz-adv-x="619" 
d="M93 0v500h70l7 -112l-13 11q16 40 43 64.5t62.5 35.5t73.5 11q54 0 98 -20.5t70.5 -62.5t26.5 -107v-320h-80v292q0 83 -35.5 115.5t-87.5 32.5q-36 0 -72 -17t-59.5 -55t-23.5 -102v-266h-80zM498 717q-3 -44 -16.5 -74t-37 -45t-58.5 -15q-28 0 -47.5 10.5t-33.5 23.5
t-27.5 23.5t-29.5 10.5q-22 0 -33 -18.5t-16 -50.5h-63q5 66 32.5 100t80.5 34q27 0 46.5 -10.5t34 -23.5t27.5 -23.5t28 -10.5q23 0 34 18.5t16 50.5h63z" />
    <glyph glyph-name="ograve" unicode="&#xf2;" horiz-adv-x="600" 
d="M300 510q71 0 125.5 -31t85.5 -89.5t31 -139.5t-31 -139.5t-85.5 -89.5t-125.5 -31q-70 0 -125 31t-86 89.5t-31 139.5t31 139.5t86 89.5t125 31zM300 441q-51 0 -87 -23t-55.5 -65.5t-19.5 -102.5q0 -59 19.5 -102t55.5 -66t87 -23t87 23t55.5 66t19.5 102
q0 60 -19.5 102.5t-55.5 65.5t-87 23zM266 750l76 -167h-65l-98 167h87z" />
    <glyph glyph-name="oacute" unicode="&#xf3;" horiz-adv-x="600" 
d="M300 510q71 0 125.5 -31t85.5 -89.5t31 -139.5t-31 -139.5t-85.5 -89.5t-125.5 -31q-70 0 -125 31t-86 89.5t-31 139.5t31 139.5t86 89.5t125 31zM300 441q-51 0 -87 -23t-55.5 -65.5t-19.5 -102.5q0 -59 19.5 -102t55.5 -66t87 -23t87 23t55.5 66t19.5 102
q0 60 -19.5 102.5t-55.5 65.5t-87 23zM327 750h87l-98 -167h-65z" />
    <glyph glyph-name="ocircumflex" unicode="&#xf4;" horiz-adv-x="600" 
d="M300 510q71 0 125.5 -31t85.5 -89.5t31 -139.5t-31 -139.5t-85.5 -89.5t-125.5 -31q-70 0 -125 31t-86 89.5t-31 139.5t31 139.5t86 89.5t125 31zM300 441q-51 0 -87 -23t-55.5 -65.5t-19.5 -102.5q0 -59 19.5 -102t55.5 -66t87 -23t87 23t55.5 66t19.5 102
q0 60 -19.5 102.5t-55.5 65.5t-87 23zM459 576h-73l-86 115l-86 -115h-73l114 167h90z" />
    <glyph glyph-name="otilde" unicode="&#xf5;" horiz-adv-x="600" 
d="M300 510q71 0 125.5 -31t85.5 -89.5t31 -139.5t-31 -139.5t-85.5 -89.5t-125.5 -31q-70 0 -125 31t-86 89.5t-31 139.5t31 139.5t86 89.5t125 31zM300 441q-51 0 -87 -23t-55.5 -65.5t-19.5 -102.5q0 -59 19.5 -102t55.5 -66t87 -23t87 23t55.5 66t19.5 102
q0 60 -19.5 102.5t-55.5 65.5t-87 23zM480 717q-3 -44 -16.5 -74t-37 -45t-58.5 -15q-28 0 -47.5 10.5t-33.5 23.5t-27.5 23.5t-29.5 10.5q-22 0 -33 -18.5t-16 -50.5h-63q5 66 32.5 100t80.5 34q27 0 46.5 -10.5t34 -23.5t27.5 -23.5t28 -10.5q23 0 34 18.5t16 50.5h63z
" />
    <glyph glyph-name="odieresis" unicode="&#xf6;" horiz-adv-x="600" 
d="M300 510q71 0 125.5 -31t85.5 -89.5t31 -139.5t-31 -139.5t-85.5 -89.5t-125.5 -31q-70 0 -125 31t-86 89.5t-31 139.5t31 139.5t86 89.5t125 31zM300 441q-51 0 -87 -23t-55.5 -65.5t-19.5 -102.5q0 -59 19.5 -102t55.5 -66t87 -23t87 23t55.5 66t19.5 102
q0 60 -19.5 102.5t-55.5 65.5t-87 23zM203 696q26 0 41.5 -15.5t15.5 -41.5q0 -25 -15.5 -41t-41.5 -16q-25 0 -41 16t-16 41q0 26 16 41.5t41 15.5zM397 696q26 0 41.5 -15.5t15.5 -41.5q0 -25 -15.5 -41t-41.5 -16q-25 0 -41 16t-16 41q0 26 16 41.5t41 15.5z" />
    <glyph glyph-name="divide" unicode="&#xf7;" 
d="M545 354v-75h-486v75h486zM302 185q29 0 47 -18t18 -47t-18 -47t-47 -18t-47 18t-18 47t18 47t47 18zM302 576q29 0 47 -18t18 -47t-18 -47t-47 -18t-47 18t-18 47t18 47t47 18z" />
    <glyph glyph-name="oslash" unicode="&#xf8;" horiz-adv-x="600" 
d="M300 510q71 0 125.5 -31t85.5 -89.5t31 -139.5t-31 -139.5t-85.5 -89.5t-125.5 -31q-70 0 -125 31t-86 89.5t-31 139.5t31 139.5t86 89.5t125 31zM300 441q-51 0 -87 -23t-55.5 -65.5t-19.5 -102.5q0 -59 19.5 -102t55.5 -66t87 -23t87 23t55.5 66t19.5 102
q0 60 -19.5 102.5t-55.5 65.5t-87 23zM55 -30l423 560h67l-423 -560h-67z" />
    <glyph glyph-name="ugrave" unicode="&#xf9;" horiz-adv-x="617" 
d="M274 -10q-48 0 -90.5 18t-69 58.5t-26.5 105.5v328h80v-307q0 -76 33 -104.5t93 -28.5q28 0 55 9.5t48.5 30t34 52.5t12.5 76v272h80v-500h-70l-5 76q-26 -45 -70.5 -65.5t-104.5 -20.5zM272 740l76 -167h-65l-98 167h87z" />
    <glyph glyph-name="uacute" unicode="&#xfa;" horiz-adv-x="617" 
d="M274 -10q-48 0 -90.5 18t-69 58.5t-26.5 105.5v328h80v-307q0 -76 33 -104.5t93 -28.5q28 0 55 9.5t48.5 30t34 52.5t12.5 76v272h80v-500h-70l-5 76q-26 -45 -70.5 -65.5t-104.5 -20.5zM333 740h87l-98 -167h-65z" />
    <glyph glyph-name="ucircumflex" unicode="&#xfb;" horiz-adv-x="617" 
d="M274 -10q-48 0 -90.5 18t-69 58.5t-26.5 105.5v328h80v-307q0 -76 33 -104.5t93 -28.5q28 0 55 9.5t48.5 30t34 52.5t12.5 76v272h80v-500h-70l-5 76q-26 -45 -70.5 -65.5t-104.5 -20.5zM465 566h-73l-86 115l-86 -115h-73l114 167h90z" />
    <glyph glyph-name="udieresis" unicode="&#xfc;" horiz-adv-x="617" 
d="M274 -10q-48 0 -90.5 18t-69 58.5t-26.5 105.5v328h80v-307q0 -76 33 -104.5t93 -28.5q28 0 55 9.5t48.5 30t34 52.5t12.5 76v272h80v-500h-70l-5 76q-26 -45 -70.5 -65.5t-104.5 -20.5zM209 686q26 0 41.5 -15.5t15.5 -41.5q0 -25 -15.5 -41t-41.5 -16q-25 0 -41 16
t-16 41q0 26 16 41.5t41 15.5zM403 686q26 0 41.5 -15.5t15.5 -41.5q0 -25 -15.5 -41t-41.5 -16q-25 0 -41 16t-16 41q0 26 16 41.5t41 15.5z" />
    <glyph glyph-name="yacute" unicode="&#xfd;" horiz-adv-x="516" 
d="M504 500l-235 -584q-19 -49 -41.5 -77.5t-50 -41t-63.5 -12.5q-34 0 -62.5 9.5t-50.5 25.5l22 70q20 -18 42.5 -26.5t44.5 -8.5q26 0 49 16t42 65l26 65l-50 119l-159 380h91l125 -326l31 -89l36 99l117 316h86zM286 740h87l-98 -167h-65z" />
    <glyph glyph-name="thorn" unicode="&#xfe;" horiz-adv-x="627" 
d="M93 -210v940h80v-352l-10 24q20 47 67.5 77.5t108.5 30.5q62 0 114 -31t83 -89t31 -140q0 -81 -31.5 -139.5t-83.5 -89.5t-114 -31t-108.5 30.5t-66.5 77.5l10 15v-323h-80zM330 60q74 0 115.5 52t41.5 138t-40.5 138t-113.5 52q-48 0 -84 -23.5t-56 -66t-20 -100.5
q0 -57 19.5 -100t55 -66.5t82.5 -23.5z" />
    <glyph glyph-name="ydieresis" unicode="&#xff;" horiz-adv-x="516" 
d="M504 500l-235 -584q-19 -49 -41.5 -77.5t-50 -41t-63.5 -12.5q-34 0 -62.5 9.5t-50.5 25.5l22 70q20 -18 42.5 -26.5t44.5 -8.5q26 0 49 16t42 65l26 65l-50 119l-159 380h91l125 -326l31 -89l36 99l117 316h86zM162 686q26 0 41.5 -15.5t15.5 -41.5q0 -25 -15.5 -41
t-41.5 -16q-25 0 -41 16t-16 41q0 26 16 41.5t41 15.5zM356 686q26 0 41.5 -15.5t15.5 -41.5q0 -25 -15.5 -41t-41.5 -16q-25 0 -41 16t-16 41q0 26 16 41.5t41 15.5z" />
    <glyph glyph-name="Amacron" unicode="&#x100;" horiz-adv-x="660" 
d="M26 0l257 660h95l256 -660h-85l-188 492l-31 92h-2l-29 -89l-189 -495h-84zM152 183v75h353v-75h-353zM494 823v-67h-328v67h328z" />
    <glyph glyph-name="amacron" unicode="&#x101;" horiz-adv-x="566" 
d="M385 323q0 56 -30 86.5t-85 30.5q-52 0 -88 -22.5t-53 -72.5l-65 40q20 56 74 90.5t134 34.5q54 0 98 -18.5t69.5 -56t25.5 -96.5v-242q0 -36 38 -36q19 0 37 5l-4 -63q-20 -10 -52 -10q-29 0 -52 11t-36 33.5t-13 56.5v10l20 -3q-12 -39 -41 -63.5t-65 -36t-71 -11.5
q-44 0 -82 15t-60.5 45.5t-22.5 75.5q0 56 37.5 92.5t104.5 49.5l198 39v-66l-161 -33q-49 -10 -73 -28t-24 -50q0 -31 24.5 -50.5t69.5 -19.5q29 0 55.5 7.5t47.5 23t33 39t12 55.5v138zM440 663v-67h-328v67h328z" />
    <glyph glyph-name="Abreve" unicode="&#x102;" horiz-adv-x="660" 
d="M26 0l257 660h95l256 -660h-85l-188 492l-31 92h-2l-29 -89l-189 -495h-84zM152 183v75h353v-75h-353zM478 885q0 -66 -41 -107t-107 -41t-107 41t-41 107h65q1 -35 22 -61.5t61 -26.5q41 0 61.5 26.5t21.5 61.5h65z" />
    <glyph glyph-name="abreve" unicode="&#x103;" horiz-adv-x="566" 
d="M385 323q0 56 -30 86.5t-85 30.5q-52 0 -88 -22.5t-53 -72.5l-65 40q20 56 74 90.5t134 34.5q54 0 98 -18.5t69.5 -56t25.5 -96.5v-242q0 -36 38 -36q19 0 37 5l-4 -63q-20 -10 -52 -10q-29 0 -52 11t-36 33.5t-13 56.5v10l20 -3q-12 -39 -41 -63.5t-65 -36t-71 -11.5
q-44 0 -82 15t-60.5 45.5t-22.5 75.5q0 56 37.5 92.5t104.5 49.5l198 39v-66l-161 -33q-49 -10 -73 -28t-24 -50q0 -31 24.5 -50.5t69.5 -19.5q29 0 55.5 7.5t47.5 23t33 39t12 55.5v138zM424 725q0 -66 -41 -107t-107 -41t-107 41t-41 107h65q1 -35 22 -61.5t61 -26.5
q41 0 61.5 26.5t21.5 61.5h65z" />
    <glyph glyph-name="Aogonek" unicode="&#x104;" horiz-adv-x="660" 
d="M564 -215q-36 0 -62.5 12.5t-41.5 35.5t-15 56q0 50 34.5 84.5t108.5 57.5l46 -31q-50 -16 -77 -33.5t-37 -35.5t-10 -37q0 -25 17.5 -38.5t46.5 -13.5q13 0 28 2t27 10l16 -51q-14 -10 -36.5 -14t-44.5 -4zM26 0l257 660h95l256 -660h-85l-188 492l-31 92h-2l-29 -89
l-189 -495h-84zM152 183v75h353v-75h-353z" />
    <glyph glyph-name="aogonek" unicode="&#x105;" horiz-adv-x="566" 
d="M456 -228q-36 0 -62.5 12.5t-41.5 35t-15 51.5q0 56 39.5 91t113.5 66l46 -25q-50 -22 -79.5 -42.5t-42 -40t-12.5 -38.5q0 -25 18 -39t46 -14q13 0 28 2.5t27 9.5l16 -51q-14 -9 -36.5 -13.5t-44.5 -4.5zM385 323q0 56 -30 86.5t-85 30.5q-52 0 -88 -22.5t-53 -72.5
l-65 40q20 56 74 90.5t134 34.5q54 0 98 -18.5t69.5 -56t25.5 -96.5v-242q0 -36 38 -36q19 0 37 5l-4 -63q-20 -10 -52 -10q-29 0 -52 11t-36 33.5t-13 56.5v10l20 -3q-12 -39 -41 -63.5t-65 -36t-71 -11.5q-44 0 -82 15t-60.5 45.5t-22.5 75.5q0 56 37.5 92.5t104.5 49.5
l198 39v-66l-161 -33q-49 -10 -73 -28t-24 -50q0 -31 24.5 -50.5t69.5 -19.5q29 0 55.5 7.5t47.5 23t33 39t12 55.5v138z" />
    <glyph glyph-name="Cacute" unicode="&#x106;" horiz-adv-x="686" 
d="M640 169q-21 -56 -60 -96.5t-91.5 -61.5t-114.5 -21q-94 0 -162.5 41.5t-106 117.5t-37.5 181t37.5 181t106 117.5t160.5 41.5q64 0 114 -17.5t85.5 -52t56.5 -84.5l-79 -37q-22 57 -63.5 86.5t-107.5 29.5q-67 0 -118 -31.5t-79.5 -90.5t-28.5 -143q0 -83 27 -142.5
t77 -91t118 -31.5q66 0 115 33.5t71 100.5zM395 902h84l-86 -159h-64z" />
    <glyph glyph-name="cacute" unicode="&#x107;" horiz-adv-x="560" 
d="M300 510q52 0 91.5 -16t68.5 -46t47 -71l-76 -36q-16 48 -48.5 73.5t-84.5 25.5q-50 0 -86 -22.5t-55 -65t-19 -102.5q0 -59 19 -102t55 -65.5t86 -22.5q39 0 67.5 12t47 35t25.5 56l74 -26q-17 -46 -46.5 -79t-71 -50.5t-94.5 -17.5q-70 0 -125 31t-86 89.5t-31 139.5
t31 139.5t86 89.5t125 31zM319 750h87l-98 -167h-65z" />
    <glyph glyph-name="Ccircumflex" unicode="&#x108;" horiz-adv-x="686" 
d="M640 169q-21 -56 -60 -96.5t-91.5 -61.5t-114.5 -21q-94 0 -162.5 41.5t-106 117.5t-37.5 181t37.5 181t106 117.5t160.5 41.5q64 0 114 -17.5t85.5 -52t56.5 -84.5l-79 -37q-22 57 -63.5 86.5t-107.5 29.5q-67 0 -118 -31.5t-79.5 -90.5t-28.5 -143q0 -83 27 -142.5
t77 -91t118 -31.5q66 0 115 33.5t71 100.5zM526 743h-74l-80 107l-80 -107h-74l110 159h88z" />
    <glyph glyph-name="ccircumflex" unicode="&#x109;" horiz-adv-x="560" 
d="M300 510q52 0 91.5 -16t68.5 -46t47 -71l-76 -36q-16 48 -48.5 73.5t-84.5 25.5q-50 0 -86 -22.5t-55 -65t-19 -102.5q0 -59 19 -102t55 -65.5t86 -22.5q39 0 67.5 12t47 35t25.5 56l74 -26q-17 -46 -46.5 -79t-71 -50.5t-94.5 -17.5q-70 0 -125 31t-86 89.5t-31 139.5
t31 139.5t86 89.5t125 31zM451 576h-73l-86 115l-86 -115h-73l114 167h90z" />
    <glyph glyph-name="Cdotaccent" unicode="&#x10a;" horiz-adv-x="686" 
d="M640 169q-21 -56 -60 -96.5t-91.5 -61.5t-114.5 -21q-94 0 -162.5 41.5t-106 117.5t-37.5 181t37.5 181t106 117.5t160.5 41.5q64 0 114 -17.5t85.5 -52t56.5 -84.5l-79 -37q-22 57 -63.5 86.5t-107.5 29.5q-67 0 -118 -31.5t-79.5 -90.5t-28.5 -143q0 -83 27 -142.5
t77 -91t118 -31.5q66 0 115 33.5t71 100.5zM372 876q27 0 43.5 -16.5t16.5 -43.5t-16.5 -43.5t-43.5 -16.5t-43.5 16.5t-16.5 43.5t16.5 43.5t43.5 16.5z" />
    <glyph glyph-name="cdotaccent" unicode="&#x10b;" horiz-adv-x="560" 
d="M300 510q52 0 91.5 -16t68.5 -46t47 -71l-76 -36q-16 48 -48.5 73.5t-84.5 25.5q-50 0 -86 -22.5t-55 -65t-19 -102.5q0 -59 19 -102t55 -65.5t86 -22.5q39 0 67.5 12t47 35t25.5 56l74 -26q-17 -46 -46.5 -79t-71 -50.5t-94.5 -17.5q-70 0 -125 31t-86 89.5t-31 139.5
t31 139.5t86 89.5t125 31zM292 716q27 0 43.5 -16.5t16.5 -43.5t-16.5 -43.5t-43.5 -16.5t-43.5 16.5t-16.5 43.5t16.5 43.5t43.5 16.5z" />
    <glyph glyph-name="Ccaron" unicode="&#x10c;" horiz-adv-x="686" 
d="M640 169q-21 -56 -60 -96.5t-91.5 -61.5t-114.5 -21q-94 0 -162.5 41.5t-106 117.5t-37.5 181t37.5 181t106 117.5t160.5 41.5q64 0 114 -17.5t85.5 -52t56.5 -84.5l-79 -37q-22 57 -63.5 86.5t-107.5 29.5q-67 0 -118 -31.5t-79.5 -90.5t-28.5 -143q0 -83 27 -142.5
t77 -91t118 -31.5q66 0 115 33.5t71 100.5zM526 902l-110 -159h-88l-110 159h74l80 -107l80 107h74z" />
    <glyph glyph-name="ccaron" unicode="&#x10d;" horiz-adv-x="560" 
d="M300 510q52 0 91.5 -16t68.5 -46t47 -71l-76 -36q-16 48 -48.5 73.5t-84.5 25.5q-50 0 -86 -22.5t-55 -65t-19 -102.5q0 -59 19 -102t55 -65.5t86 -22.5q39 0 67.5 12t47 35t25.5 56l74 -26q-17 -46 -46.5 -79t-71 -50.5t-94.5 -17.5q-70 0 -125 31t-86 89.5t-31 139.5
t31 139.5t86 89.5t125 31zM451 750l-114 -167h-90l-114 167h73l86 -115l86 115h73z" />
    <glyph glyph-name="Dcaron" unicode="&#x10e;" horiz-adv-x="721" 
d="M321 660q155 0 243.5 -85.5t88.5 -244.5t-88.5 -244.5t-243.5 -85.5h-213v660h213zM329 75q113 0 176.5 67.5t63.5 187.5t-63.5 187.5t-176.5 67.5h-141v-510h141zM519 902l-110 -159h-88l-110 159h74l80 -107l80 107h74z" />
    <glyph glyph-name="dcaron" unicode="&#x10f;" horiz-adv-x="650" 
d="M687 730l-41 -197h-55l20 197h76zM288 -10q-62 0 -114 31t-83 89.5t-31 139.5q0 83 33 141t87 88.5t116 30.5t107.5 -32t60.5 -85l-10 -7v344h80v-730h-70l-7 121l11 6q-7 -44 -33.5 -74.5t-65 -46.5t-81.5 -16zM296 60q48 0 83.5 24t55 68.5t19.5 104.5q0 57 -19.5 98
t-54 63t-80.5 22q-76 0 -118 -52t-42 -138t41 -138t115 -52z" />
    <glyph glyph-name="Dcroat" unicode="&#x110;" horiz-adv-x="737" 
d="M26 296v75h375v-75h-375zM337 660q155 0 243.5 -85.5t88.5 -244.5t-88.5 -244.5t-243.5 -85.5h-213v660h213zM345 75q113 0 176.5 67.5t63.5 187.5t-63.5 187.5t-176.5 67.5h-141v-510h141z" />
    <glyph glyph-name="dcroat" unicode="&#x111;" horiz-adv-x="629" 
d="M300 566v61h314v-61h-314zM288 -10q-62 0 -114 31t-83 89.5t-31 139.5q0 83 33 141t87 88.5t116 30.5t107.5 -32t60.5 -85l-10 -7v344h80v-730h-70l-7 121l11 6q-7 -44 -33.5 -74.5t-65 -46.5t-81.5 -16zM296 60q48 0 83.5 24t55 68.5t19.5 104.5q0 57 -19.5 98t-54 63
t-80.5 22q-76 0 -118 -52t-42 -138t41 -138t115 -52z" />
    <glyph glyph-name="Emacron" unicode="&#x112;" horiz-adv-x="638" 
d="M108 0v660h463v-75h-383v-213h298v-75h-298v-222h398v-75h-478zM504 823v-67h-328v67h328z" />
    <glyph glyph-name="emacron" unicode="&#x113;" horiz-adv-x="577" 
d="M302 -10q-71 0 -126.5 31t-86.5 89.5t-31 139.5t31 139.5t85 89.5t123 31q70 0 119.5 -30t75.5 -81.5t26 -115.5q0 -17 -1 -31t-3 -25h-404v71h369l-41 -8q0 72 -39.5 111t-103.5 39q-49 0 -84.5 -22.5t-55 -65t-19.5 -102.5q0 -59 20 -102t56.5 -65.5t87.5 -22.5
q55 0 89.5 21t55.5 57l63 -37q-19 -34 -48.5 -59t-69 -38.5t-88.5 -13.5zM455 663v-67h-328v67h328z" />
    <glyph glyph-name="Ebreve" unicode="&#x114;" horiz-adv-x="638" 
d="M108 0v660h463v-75h-383v-213h298v-75h-298v-222h398v-75h-478zM488 885q0 -66 -41 -107t-107 -41t-107 41t-41 107h65q1 -35 22 -61.5t61 -26.5q41 0 61.5 26.5t21.5 61.5h65z" />
    <glyph glyph-name="ebreve" unicode="&#x115;" horiz-adv-x="577" 
d="M302 -10q-71 0 -126.5 31t-86.5 89.5t-31 139.5t31 139.5t85 89.5t123 31q70 0 119.5 -30t75.5 -81.5t26 -115.5q0 -17 -1 -31t-3 -25h-404v71h369l-41 -8q0 72 -39.5 111t-103.5 39q-49 0 -84.5 -22.5t-55 -65t-19.5 -102.5q0 -59 20 -102t56.5 -65.5t87.5 -22.5
q55 0 89.5 21t55.5 57l63 -37q-19 -34 -48.5 -59t-69 -38.5t-88.5 -13.5zM439 725q0 -66 -41 -107t-107 -41t-107 41t-41 107h65q1 -35 22 -61.5t61 -26.5q41 0 61.5 26.5t21.5 61.5h65z" />
    <glyph glyph-name="Edotaccent" unicode="&#x116;" horiz-adv-x="638" 
d="M108 0v660h463v-75h-383v-213h298v-75h-298v-222h398v-75h-478zM340 876q27 0 43.5 -16.5t16.5 -43.5t-16.5 -43.5t-43.5 -16.5t-43.5 16.5t-16.5 43.5t16.5 43.5t43.5 16.5z" />
    <glyph glyph-name="edotaccent" unicode="&#x117;" horiz-adv-x="577" 
d="M302 -10q-71 0 -126.5 31t-86.5 89.5t-31 139.5t31 139.5t85 89.5t123 31q70 0 119.5 -30t75.5 -81.5t26 -115.5q0 -17 -1 -31t-3 -25h-404v71h369l-41 -8q0 72 -39.5 111t-103.5 39q-49 0 -84.5 -22.5t-55 -65t-19.5 -102.5q0 -59 20 -102t56.5 -65.5t87.5 -22.5
q55 0 89.5 21t55.5 57l63 -37q-19 -34 -48.5 -59t-69 -38.5t-88.5 -13.5zM291 716q27 0 43.5 -16.5t16.5 -43.5t-16.5 -43.5t-43.5 -16.5t-43.5 16.5t-16.5 43.5t16.5 43.5t43.5 16.5z" />
    <glyph glyph-name="Eogonek" unicode="&#x118;" horiz-adv-x="638" 
d="M506 -231q-36 0 -62.5 12.5t-41.5 35t-15 51.5q0 56 39.5 91t113.5 66l46 -25q-75 -33 -104.5 -63t-29.5 -58q0 -25 18 -39t46 -14q13 0 28 2.5t27 9.5l16 -51q-14 -9 -36.5 -13.5t-44.5 -4.5zM108 0v660h463v-75h-383v-213h298v-75h-298v-222h398v-75h-478z" />
    <glyph glyph-name="eogonek" unicode="&#x119;" horiz-adv-x="577" 
d="M302 -10q-71 0 -126.5 31t-86.5 89.5t-31 139.5t31 139.5t85 89.5t123 31q70 0 119.5 -30t75.5 -81.5t26 -115.5q0 -17 -1 -31t-3 -25h-404v71h369l-41 -8q0 72 -39.5 111t-103.5 39q-49 0 -84.5 -22.5t-55 -65t-19.5 -102.5q0 -59 20 -102t56.5 -65.5t87.5 -22.5
q55 0 89.5 21t55.5 57l63 -37q-19 -34 -48.5 -59t-69 -38.5t-88.5 -13.5zM327 -224q-57 0 -87.5 28.5t-30.5 74.5q0 56 35.5 89t109.5 60l44 -21q-55 -20 -82 -39.5t-35.5 -39t-8.5 -40.5q0 -26 17 -40t45 -14q15 0 29 3t26 8l12 -53q-13 -7 -33 -11.5t-41 -4.5z" />
    <glyph glyph-name="Ecaron" unicode="&#x11a;" horiz-adv-x="638" 
d="M108 0v660h463v-75h-383v-213h298v-75h-298v-222h398v-75h-478zM494 902l-110 -159h-88l-110 159h74l80 -107l80 107h74z" />
    <glyph glyph-name="ecaron" unicode="&#x11b;" horiz-adv-x="577" 
d="M302 -10q-71 0 -126.5 31t-86.5 89.5t-31 139.5t31 139.5t85 89.5t123 31q70 0 119.5 -30t75.5 -81.5t26 -115.5q0 -17 -1 -31t-3 -25h-404v71h369l-41 -8q0 72 -39.5 111t-103.5 39q-49 0 -84.5 -22.5t-55 -65t-19.5 -102.5q0 -59 20 -102t56.5 -65.5t87.5 -22.5
q55 0 89.5 21t55.5 57l63 -37q-19 -34 -48.5 -59t-69 -38.5t-88.5 -13.5zM450 750l-114 -167h-90l-114 167h73l86 -115l86 115h73z" />
    <glyph glyph-name="Gcircumflex" unicode="&#x11c;" horiz-adv-x="724" 
d="M374 -10q-94 0 -162.5 41.5t-106 117.5t-37.5 181t39.5 181t110.5 117.5t163 41.5q98 0 159.5 -37t99.5 -114l-73 -40q-22 57 -69.5 86.5t-116.5 29.5q-67 0 -118.5 -31.5t-81 -91t-29.5 -142.5t25.5 -142.5t76 -91t123.5 -31.5q41 0 76.5 10.5t62 31.5t41.5 53t15 75v23
h-210v75h283v-333h-63l-4 123l17 -3q-26 -62 -82 -96t-139 -34zM527 743h-74l-80 107l-80 -107h-74l110 159h88z" />
    <glyph glyph-name="gcircumflex" unicode="&#x11d;" horiz-adv-x="532" 
d="M108 576l114 167h90l114 -167h-73l-86 115l-86 -115h-73zM514 592l18 -70h-1.5h-1.5q-51 0 -78 -20t-27 -63l-50 21q0 41 18 70.5t49 45.5t69 16h2.5h1.5zM362 64q71 0 111 -32.5t40 -86.5q0 -49 -32.5 -85t-87 -55.5t-122.5 -19.5q-118 0 -176.5 40t-58.5 96
q0 40 26.5 71.5t89.5 35.5l-7 -15q-34 9 -57.5 30.5t-23.5 62.5t30.5 70.5t90.5 36.5l53 -27h-10q-49 -5 -69.5 -24.5t-20.5 -42.5q0 -28 20.5 -41.5t57.5 -13.5h146zM270 -148q58 0 95.5 12t55.5 31t18 41q0 27 -21.5 43t-77.5 16h-154q-32 0 -54 -16.5t-22 -45.5
q0 -37 42.5 -59t117.5 -22zM263 510q60 0 106.5 -21.5t72.5 -59.5t26 -88q0 -49 -26 -87.5t-72.5 -60t-106.5 -21.5q-99 0 -152 47.5t-53 121.5q0 50 26.5 88t72.5 59.5t106 21.5zM263 445q-52 0 -87 -28.5t-35 -75.5q0 -46 35 -75t87 -29t87 29t35 75q0 47 -35 75.5
t-87 28.5z" />
    <glyph glyph-name="Gbreve" unicode="&#x11e;" horiz-adv-x="724" 
d="M374 -10q-94 0 -162.5 41.5t-106 117.5t-37.5 181t39.5 181t110.5 117.5t163 41.5q98 0 159.5 -37t99.5 -114l-73 -40q-22 57 -69.5 86.5t-116.5 29.5q-67 0 -118.5 -31.5t-81 -91t-29.5 -142.5t25.5 -142.5t76 -91t123.5 -31.5q41 0 76.5 10.5t62 31.5t41.5 53t15 75v23
h-210v75h283v-333h-63l-4 123l17 -3q-26 -62 -82 -96t-139 -34zM521 885q0 -66 -41 -107t-107 -41t-107 41t-41 107h65q1 -35 22 -61.5t61 -26.5q41 0 61.5 26.5t21.5 61.5h65z" />
    <glyph glyph-name="gbreve" unicode="&#x11f;" horiz-adv-x="532" 
d="M514 592l18 -70h-1.5h-1.5q-51 0 -78 -20t-27 -63l-50 21q0 41 18 70.5t49 45.5t69 16h2.5h1.5zM362 64q71 0 111 -32.5t40 -86.5q0 -49 -32.5 -85t-87 -55.5t-122.5 -19.5q-118 0 -176.5 40t-58.5 96q0 40 26.5 71.5t89.5 35.5l-7 -15q-34 9 -57.5 30.5t-23.5 62.5
t30.5 70.5t90.5 36.5l53 -27h-10q-49 -5 -69.5 -24.5t-20.5 -42.5q0 -28 20.5 -41.5t57.5 -13.5h146zM270 -148q58 0 95.5 12t55.5 31t18 41q0 27 -21.5 43t-77.5 16h-154q-32 0 -54 -16.5t-22 -45.5q0 -37 42.5 -59t117.5 -22zM263 510q60 0 106.5 -21.5t72.5 -59.5t26 -88
q0 -49 -26 -87.5t-72.5 -60t-106.5 -21.5q-99 0 -152 47.5t-53 121.5q0 50 26.5 88t72.5 59.5t106 21.5zM263 445q-52 0 -87 -28.5t-35 -75.5q0 -46 35 -75t87 -29t87 29t35 75q0 47 -35 75.5t-87 28.5zM425 725q0 -66 -41 -107t-107 -41t-107 41t-41 107h65q1 -35 22 -61.5
t61 -26.5q41 0 61.5 26.5t21.5 61.5h65z" />
    <glyph glyph-name="Gdotaccent" unicode="&#x120;" horiz-adv-x="724" 
d="M374 -10q-94 0 -162.5 41.5t-106 117.5t-37.5 181t39.5 181t110.5 117.5t163 41.5q98 0 159.5 -37t99.5 -114l-73 -40q-22 57 -69.5 86.5t-116.5 29.5q-67 0 -118.5 -31.5t-81 -91t-29.5 -142.5t25.5 -142.5t76 -91t123.5 -31.5q41 0 76.5 10.5t62 31.5t41.5 53t15 75v23
h-210v75h283v-333h-63l-4 123l17 -3q-26 -62 -82 -96t-139 -34zM373 876q27 0 43.5 -16.5t16.5 -43.5t-16.5 -43.5t-43.5 -16.5t-43.5 16.5t-16.5 43.5t16.5 43.5t43.5 16.5z" />
    <glyph glyph-name="gdotaccent" unicode="&#x121;" horiz-adv-x="532" 
d="M514 592l18 -71h-3h-4q-49 0 -75.5 -19.5t-26.5 -62.5l-49 25q0 39 18 68t49 44.5t68 15.5h2.5h2.5zM362 64q71 0 111 -32.5t40 -86.5q0 -49 -32.5 -85t-87 -55.5t-122.5 -19.5q-118 0 -176.5 40t-58.5 96q0 40 26.5 71.5t89.5 35.5l-7 -15q-34 9 -57.5 30.5t-23.5 62.5
t30.5 70.5t90.5 36.5l53 -27h-10q-49 -5 -69.5 -24.5t-20.5 -42.5q0 -28 20.5 -41.5t57.5 -13.5h146zM270 -148q58 0 95.5 12t55.5 31t18 41q0 27 -21.5 43t-77.5 16h-154q-32 0 -54 -16.5t-22 -45.5q0 -37 42.5 -59t117.5 -22zM263 510q60 0 106.5 -21.5t72.5 -59.5t26 -88
q0 -49 -26 -87.5t-72.5 -60t-106.5 -21.5q-99 0 -152 47.5t-53 121.5q0 50 26.5 88t72.5 59.5t106 21.5zM263 445q-52 0 -87 -28.5t-35 -75.5q0 -46 35 -75t87 -29t87 29t35 75q0 47 -35 75.5t-87 28.5zM267 716q27 0 43.5 -16.5t16.5 -43.5t-16.5 -43.5t-43.5 -16.5
t-43.5 16.5t-16.5 43.5t16.5 43.5t43.5 16.5z" />
    <glyph glyph-name="uni0122" unicode="&#x122;" horiz-adv-x="724" 
d="M374 -10q-94 0 -162.5 41.5t-106 117.5t-37.5 181t39.5 181t110.5 117.5t163 41.5q98 0 159.5 -37t99.5 -114l-73 -40q-22 57 -69.5 86.5t-116.5 29.5q-67 0 -118.5 -31.5t-81 -91t-29.5 -142.5t25.5 -142.5t76 -91t123.5 -31.5q41 0 76.5 10.5t62 31.5t41.5 53t15 75v23
h-210v75h283v-333h-63l-4 123l17 -3q-26 -62 -82 -96t-139 -34zM442 -76l-65 -161h-63l44 161h84z" />
    <glyph glyph-name="uni0123" unicode="&#x123;" horiz-adv-x="532" 
d="M514 592l18 -71h-3h-4q-49 0 -75.5 -19.5t-26.5 -62.5l-49 25q0 39 18 68t49 44.5t68 15.5h2.5h2.5zM362 64q71 0 111 -32.5t40 -86.5q0 -49 -32.5 -85t-87 -55.5t-122.5 -19.5q-118 0 -176.5 40t-58.5 96q0 40 26.5 71.5t89.5 35.5l-7 -15q-34 9 -57.5 30.5t-23.5 62.5
t30.5 70.5t90.5 36.5l53 -27h-10q-49 -5 -69.5 -24.5t-20.5 -42.5q0 -28 20.5 -41.5t57.5 -13.5h146zM270 -148q58 0 95.5 12t55.5 31t18 41q0 27 -21.5 43t-77.5 16h-154q-32 0 -54 -16.5t-22 -45.5q0 -37 42.5 -59t117.5 -22zM263 510q60 0 106.5 -21.5t72.5 -59.5t26 -88
q0 -49 -26 -87.5t-72.5 -60t-106.5 -21.5q-99 0 -152 47.5t-53 121.5q0 50 26.5 88t72.5 59.5t106 21.5zM263 445q-52 0 -87 -28.5t-35 -75.5q0 -46 35 -75t87 -29t87 29t35 75q0 47 -35 75.5t-87 28.5zM357 778l-42 -191h-88l70 191h60z" />
    <glyph glyph-name="Hcircumflex" unicode="&#x124;" horiz-adv-x="734" 
d="M626 660v-660h-80v660h80zM188 660v-660h-80v660h80zM583 372v-75h-433v75h433zM521 743h-74l-80 107l-80 -107h-74l110 159h88z" />
    <glyph glyph-name="hcircumflex" unicode="&#x125;" horiz-adv-x="619" 
d="M93 0v730h80v-305q26 45 69 65t94 20q54 0 98 -20.5t70.5 -62.5t26.5 -107v-320h-80v292q0 83 -35.5 115.5t-87.5 32.5q-36 0 -72 -17t-59.5 -55.5t-23.5 -102.5v-265h-80zM287 793h-74l-80 107l-80 -107h-74l110 159h88z" />
    <glyph glyph-name="Hbar" unicode="&#x126;" horiz-adv-x="734" 
d="M626 660v-660h-80v660h80zM188 660v-660h-80v660h80zM583 372v-75h-433v75h433zM704 549v-70h-674v70h674z" />
    <glyph glyph-name="hbar" unicode="&#x127;" horiz-adv-x="619" 
d="M16 627h314v-61h-314v61zM93 0v730h80v-305q26 45 69 65t94 20q54 0 98 -20.5t70.5 -62.5t26.5 -107v-320h-80v292q0 83 -35.5 115.5t-87.5 32.5q-36 0 -72 -17t-59.5 -55.5t-23.5 -102.5v-265h-80z" />
    <glyph glyph-name="Itilde" unicode="&#x128;" horiz-adv-x="296" 
d="M188 660v-660h-80v660h80zM328 877q-3 -44 -16.5 -74t-37 -45t-58.5 -15q-28 0 -47.5 10.5t-33.5 23.5t-27.5 23.5t-29.5 10.5q-22 0 -33 -18.5t-16 -50.5h-63q5 66 32.5 100t80.5 34q27 0 46.5 -10.5t34 -23.5t27.5 -23.5t28 -10.5q23 0 34 18.5t16 50.5h63z" />
    <glyph glyph-name="itilde" unicode="&#x129;" horiz-adv-x="266" 
d="M173 500v-500h-80v500h80zM313 717q-3 -44 -16.5 -74t-37 -45t-58.5 -15q-28 0 -47.5 10.5t-33.5 23.5t-27.5 23.5t-29.5 10.5q-22 0 -33 -18.5t-16 -50.5h-63q5 66 32.5 100t80.5 34q27 0 46.5 -10.5t34 -23.5t27.5 -23.5t28 -10.5q23 0 34 18.5t16 50.5h63z" />
    <glyph glyph-name="Imacron" unicode="&#x12a;" horiz-adv-x="296" 
d="M256 823v-67h-216v67h216zM188 660v-660h-80v660h80z" />
    <glyph glyph-name="imacron" unicode="&#x12b;" horiz-adv-x="266" 
d="M173 500v-500h-80v500h80zM237.963 663v-67h-209.926v67h209.926z" />
    <glyph glyph-name="Ibreve" unicode="&#x12c;" horiz-adv-x="296" 
d="M188 660v-660h-80v660h80zM296 885q0 -66 -41 -107t-107 -41t-107 41t-41 107h65q1 -35 22 -61.5t61 -26.5q41 0 61.5 26.5t21.5 61.5h65z" />
    <glyph glyph-name="ibreve" unicode="&#x12d;" horiz-adv-x="266" 
d="M173 500v-500h-80v500h80zM281 725q0 -66 -41 -107t-107 -41t-107 41t-41 107h65q1 -35 22 -61.5t61 -26.5q41 0 61.5 26.5t21.5 61.5h65z" />
    <glyph glyph-name="Iogonek" unicode="&#x12e;" horiz-adv-x="296" 
d="M128 -231q-31 0 -56.5 12t-40.5 34t-15 53q0 37 16 63.5t45 48.5t68 43l43 -23q-60 -34 -83.5 -63.5t-23.5 -57.5q0 -24 14.5 -38.5t42.5 -14.5q12 0 26 3t23 8l16 -51q-13 -7 -32.5 -12t-42.5 -5zM188 660v-660h-80v660h80z" />
    <glyph glyph-name="iogonek" unicode="&#x12f;" horiz-adv-x="266" 
d="M113 -231q-31 0 -56.5 12t-40.5 34t-15 53q0 37 16 63.5t45 48.5t68 43l43 -23q-60 -34 -83.5 -63.5t-23.5 -57.5q0 -24 14.5 -38.5t42.5 -14.5q12 0 26 3t23 8l16 -51q-13 -7 -32.5 -12t-42.5 -5zM133 596q-27 0 -43.5 16.5t-16.5 43.5t16.5 43.5t43.5 16.5t43.5 -16.5
t16.5 -43.5t-16.5 -43.5t-43.5 -16.5zM173 500v-500h-80v500h80z" />
    <glyph glyph-name="Idotaccent" unicode="&#x130;" horiz-adv-x="296" 
d="M188 660v-660h-80v660h80zM148 876q27 0 43.5 -16.5t16.5 -43.5t-16.5 -43.5t-43.5 -16.5t-43.5 16.5t-16.5 43.5t16.5 43.5t43.5 16.5z" />
    <glyph glyph-name="dotlessi" unicode="&#x131;" horiz-adv-x="266" 
d="M173 500v-500h-80v500h80z" />
    <glyph glyph-name="IJ" unicode="&#x132;" horiz-adv-x="862" 
d="M188 660v-660h-80v660h80zM761 660v-434q0 -111 -59.5 -173.5t-164.5 -62.5q-74 0 -122 28t-66.5 79.5t-5.5 120.5l74 15q-11 -85 15.5 -126.5t101.5 -41.5q85 0 116 46.5t31 134.5v414h80z" />
    <glyph glyph-name="ij" unicode="&#x133;" horiz-adv-x="532" 
d="M133 596q-27 0 -43.5 16.5t-16.5 43.5t16.5 43.5t43.5 16.5t43.5 -16.5t16.5 -43.5t-16.5 -43.5t-43.5 -16.5zM173 500v-500h-80v500h80zM399 596q-27 0 -43.5 16.5t-16.5 43.5t16.5 43.5t43.5 16.5t43.5 -16.5t16.5 -43.5t-16.5 -43.5t-43.5 -16.5zM439 500v-551
q0 -62 -24 -98t-59 -51t-69 -15q-31 0 -57 9.5t-43 23.5l17 76q14 -13 35 -22t47 -9q32 0 52.5 21t20.5 73v543h80z" />
    <glyph glyph-name="Jcircumflex" unicode="&#x134;" horiz-adv-x="566" 
d="M465 660v-434q0 -111 -59.5 -173.5t-164.5 -62.5q-74 0 -122 28t-66.5 79.5t-5.5 120.5l74 15q-11 -85 15.5 -126.5t101.5 -41.5q85 0 116 46.5t31 134.5v414h80zM579 743h-74l-80 107l-80 -107h-74l110 159h88z" />
    <glyph glyph-name="jcircumflex" unicode="&#x135;" horiz-adv-x="266" 
d="M173 500v-551q0 -62 -24 -98t-59 -51t-69 -15q-31 0 -57 9.5t-43 23.5l17 76q14 -13 35 -22t47 -9q32 0 52.5 21t20.5 73v543h80zM292 576h-73l-86 115l-86 -115h-73l114 167h90z" />
    <glyph glyph-name="uni0136" unicode="&#x136;" horiz-adv-x="656" 
d="M625 660l-288 -295l-12 -13l-177 -181v108l372 381h105zM188 660v-660h-80v660h80zM345 416l283 -416h-96l-253 371zM410 -76l-65 -161h-63l44 161h84z" />
    <glyph glyph-name="uni0137" unicode="&#x137;" horiz-adv-x="567" 
d="M532 500l-216 -216l-19 -19l-164 -164v100l298 299h101zM173 730v-730h-80v730h80zM323 325l221 -325h-97l-191 280zM352 -76l-65 -161h-63l44 161h84z" />
    <glyph glyph-name="kgreenlandic" unicode="&#x138;" horiz-adv-x="567" 
d="M532 500l-216 -216l-19 -19l-164 -164v100l299 299h100zM173 500v-500h-80v500h80zM323 325l221 -325h-97l-191 280z" />
    <glyph glyph-name="Lacute" unicode="&#x139;" horiz-adv-x="598" 
d="M188 75h378v-75h-458v660h80v-585zM171 902h84l-86 -159h-64z" />
    <glyph glyph-name="lacute" unicode="&#x13a;" horiz-adv-x="306" 
d="M169 730v-603q0 -38 14 -52.5t45 -14.5q20 0 33 3t35 11l-13 -70q-16 -7 -35 -10.5t-39 -3.5q-61 0 -90.5 33t-29.5 101v606h80zM80 800l52 130h83l-73 -130h-62z" />
    <glyph glyph-name="uni013B" unicode="&#x13b;" horiz-adv-x="598" 
d="M188 75h378v-75h-458v660h80v-585zM399 -76l-65 -161h-63l44 161h84z" />
    <glyph glyph-name="uni013C" unicode="&#x13c;" horiz-adv-x="306" 
d="M169 730v-603q0 -38 14 -52.5t45 -14.5q20 0 33 3t35 11l-13 -70q-16 -7 -35 -10.5t-39 -3.5q-61 0 -90.5 33t-29.5 101v606h80zM236 -76l-65 -161h-63l44 161h84z" />
    <glyph glyph-name="Lcaron" unicode="&#x13d;" horiz-adv-x="598" 
d="M406 660l-41 -197h-55l20 197h76zM188 75h378v-75h-458v660h80v-585z" />
    <glyph glyph-name="lcaron" unicode="&#x13e;" horiz-adv-x="315" 
d="M322 730l-41 -197h-55l20 197h76zM169 730v-603q0 -38 14 -52.5t45 -14.5q20 0 33 3t35 11l-13 -70q-16 -7 -35 -10.5t-39 -3.5q-61 0 -90.5 33t-29.5 101v606h80z" />
    <glyph glyph-name="Ldot" unicode="&#x13f;" horiz-adv-x="618" 
d="M188 75h378v-75h-458v660h80v-585zM464 419q29 0 47 -18t18 -47t-18 -47t-47 -18t-47 18t-18 47t18 47t47 18z" />
    <glyph glyph-name="ldot" unicode="&#x140;" horiz-adv-x="407" 
d="M169 730v-603q0 -38 14 -52.5t45 -14.5q20 0 33 3t35 11l-13 -70q-16 -7 -35 -10.5t-39 -3.5q-61 0 -90.5 33t-29.5 101v606h80zM334 431q29 0 47 -18t18 -47t-18 -47t-47 -18t-47 18t-18 47t18 47t47 18z" />
    <glyph glyph-name="Lslash" unicode="&#x141;" horiz-adv-x="628" 
d="M395 481v-83l-362 -202v83zM218 75h378v-75h-458v660h80v-585z" />
    <glyph glyph-name="lslash" unicode="&#x142;" horiz-adv-x="372" 
d="M335 500v-83l-144 -92l-4 -2l-148 -94v83l136 86l6 4zM215 730v-603q0 -38 14 -52.5t45 -14.5q20 0 33 3t35 11l-13 -70q-16 -7 -35 -10.5t-39 -3.5q-61 0 -90.5 33t-29.5 101v606h80z" />
    <glyph glyph-name="Nacute" unicode="&#x143;" horiz-adv-x="734" 
d="M626 660v-660h-99l-276 442l-70 124h-1l4 -100v-466h-76v660h99l275 -440l71 -127h1l-4 101v466h76zM394 902h84l-86 -159h-64z" />
    <glyph glyph-name="nacute" unicode="&#x144;" horiz-adv-x="619" 
d="M93 0v500h70l7 -112l-13 11q16 40 43 64.5t62.5 35.5t73.5 11q54 0 98 -20.5t70.5 -62.5t26.5 -107v-320h-80v292q0 83 -35.5 115.5t-87.5 32.5q-36 0 -72 -17t-59.5 -55t-23.5 -102v-266h-80zM345 750h87l-98 -167h-65z" />
    <glyph glyph-name="uni0145" unicode="&#x145;" horiz-adv-x="734" 
d="M626 660v-660h-99l-276 442l-70 124h-1l4 -100v-466h-76v660h99l275 -440l71 -127h1l-4 101v466h76zM434 -76l-65 -161h-63l44 161h84z" />
    <glyph glyph-name="uni0146" unicode="&#x146;" horiz-adv-x="619" 
d="M93 0v500h70l7 -112l-13 11q16 40 43 64.5t62.5 35.5t73.5 11q54 0 98 -20.5t70.5 -62.5t26.5 -107v-320h-80v292q0 83 -35.5 115.5t-87.5 32.5q-36 0 -72 -17t-59.5 -55t-23.5 -102v-266h-80zM379 -76l-65 -161h-63l44 161h84z" />
    <glyph glyph-name="Ncaron" unicode="&#x147;" horiz-adv-x="734" 
d="M626 660v-660h-99l-276 442l-70 124h-1l4 -100v-466h-76v660h99l275 -440l71 -127h1l-4 101v466h76zM525 902l-110 -159h-88l-110 159h74l80 -107l80 107h74z" />
    <glyph glyph-name="ncaron" unicode="&#x148;" horiz-adv-x="619" 
d="M93 0v500h70l7 -112l-13 11q16 40 43 64.5t62.5 35.5t73.5 11q54 0 98 -20.5t70.5 -62.5t26.5 -107v-320h-80v292q0 83 -35.5 115.5t-87.5 32.5q-36 0 -72 -17t-59.5 -55t-23.5 -102v-266h-80zM477 750l-114 -167h-90l-114 167h73l86 -115l86 115h73z" />
    <glyph glyph-name="Eng" unicode="&#x14a;" horiz-adv-x="734" 
d="M474 -215q-31 0 -57 9.5t-43 23.5l17 76q14 -13 35 -22t47 -9q32 0 54.5 21t22.5 73v46l-299 439l-70 130h-1l4 -106v-466h-76v660h99l300 -440l43 -80h1l-1 520h76v-711q0 -62 -24 -98t-59 -51t-69 -15z" />
    <glyph glyph-name="eng" unicode="&#x14b;" horiz-adv-x="619" 
d="M531 183v-234q0 -62 -24 -98t-59 -51t-69 -15q-31 0 -57 9.5t-43 23.5l17 76q14 -13 35 -22t47 -9q32 0 52.5 21t20.5 73v226h80zM93 0v500h70l7 -112l-13 11q16 40 43 64.5t62.5 35.5t73.5 11q54 0 98 -20.5t70.5 -62.5t26.5 -107v-320h-80v292q0 83 -35.5 115.5
t-87.5 32.5q-36 0 -72 -17t-59.5 -55t-23.5 -102v-266h-80z" />
    <glyph glyph-name="Omacron" unicode="&#x14c;" horiz-adv-x="748" 
d="M374 670q94 0 162.5 -41.5t106 -117.5t37.5 -181t-37.5 -181t-106 -117.5t-162.5 -41.5t-162.5 41.5t-106 117.5t-37.5 181t37.5 181t106 117.5t162.5 41.5zM374 595q-68 0 -118 -31.5t-77 -91t-27 -142.5t27 -142.5t77 -91t118 -31.5q69 0 118.5 31.5t76.5 91t27 142.5
t-27 142.5t-76.5 91t-118.5 31.5zM538 823v-67h-328v67h328z" />
    <glyph glyph-name="omacron" unicode="&#x14d;" horiz-adv-x="600" 
d="M300 510q71 0 125.5 -31t85.5 -89.5t31 -139.5t-31 -139.5t-85.5 -89.5t-125.5 -31q-70 0 -125 31t-86 89.5t-31 139.5t31 139.5t86 89.5t125 31zM300 441q-51 0 -87 -23t-55.5 -65.5t-19.5 -102.5q0 -59 19.5 -102t55.5 -66t87 -23t87 23t55.5 66t19.5 102
q0 60 -19.5 102.5t-55.5 65.5t-87 23zM464 663v-67h-328v67h328z" />
    <glyph glyph-name="Obreve" unicode="&#x14e;" horiz-adv-x="748" 
d="M374 670q94 0 162.5 -41.5t106 -117.5t37.5 -181t-37.5 -181t-106 -117.5t-162.5 -41.5t-162.5 41.5t-106 117.5t-37.5 181t37.5 181t106 117.5t162.5 41.5zM374 595q-68 0 -118 -31.5t-77 -91t-27 -142.5t27 -142.5t77 -91t118 -31.5q69 0 118.5 31.5t76.5 91t27 142.5
t-27 142.5t-76.5 91t-118.5 31.5zM522 885q0 -66 -41 -107t-107 -41t-107 41t-41 107h65q1 -35 22 -61.5t61 -26.5q41 0 61.5 26.5t21.5 61.5h65z" />
    <glyph glyph-name="obreve" unicode="&#x14f;" horiz-adv-x="600" 
d="M300 510q71 0 125.5 -31t85.5 -89.5t31 -139.5t-31 -139.5t-85.5 -89.5t-125.5 -31q-70 0 -125 31t-86 89.5t-31 139.5t31 139.5t86 89.5t125 31zM300 441q-51 0 -87 -23t-55.5 -65.5t-19.5 -102.5q0 -59 19.5 -102t55.5 -66t87 -23t87 23t55.5 66t19.5 102
q0 60 -19.5 102.5t-55.5 65.5t-87 23zM448 725q0 -66 -41 -107t-107 -41t-107 41t-41 107h65q1 -35 22 -61.5t61 -26.5q41 0 61.5 26.5t21.5 61.5h65z" />
    <glyph glyph-name="Ohungarumlaut" unicode="&#x150;" horiz-adv-x="748" 
d="M374 670q94 0 162.5 -41.5t106 -117.5t37.5 -181t-37.5 -181t-106 -117.5t-162.5 -41.5t-162.5 41.5t-106 117.5t-37.5 181t37.5 181t106 117.5t162.5 41.5zM374 595q-68 0 -118 -31.5t-77 -91t-27 -142.5t27 -142.5t77 -91t118 -31.5q69 0 118.5 31.5t76.5 91t27 142.5
t-27 142.5t-76.5 91t-118.5 31.5zM497 902h84l-86 -159h-64zM320 902h84l-86 -159h-64z" />
    <glyph glyph-name="ohungarumlaut" unicode="&#x151;" horiz-adv-x="600" 
d="M300 510q71 0 125.5 -31t85.5 -89.5t31 -139.5t-31 -139.5t-85.5 -89.5t-125.5 -31q-70 0 -125 31t-86 89.5t-31 139.5t31 139.5t86 89.5t125 31zM300 441q-51 0 -87 -23t-55.5 -65.5t-19.5 -102.5q0 -59 19.5 -102t55.5 -66t87 -23t87 23t55.5 66t19.5 102
q0 60 -19.5 102.5t-55.5 65.5t-87 23zM335 583l76 167h87l-98 -167h-65zM159 583l76 167h87l-98 -167h-65z" />
    <glyph glyph-name="OE" unicode="&#x152;" horiz-adv-x="1080" 
d="M659 75h369v-75h-442v99q-37 -52 -91.5 -80.5t-122.5 -28.5q-94 0 -162 41.5t-105 117.5t-37 181t36.5 181t105.5 117.5t166 41.5q67 0 120.5 -27.5t89.5 -79.5v97h427v-75h-354v-213h269v-75h-269v-222zM376 65q63 0 110 31.5t73.5 91t26.5 142.5t-26.5 142.5t-73.5 91
t-110 31.5q-71 0 -121.5 -31.5t-76.5 -91t-26 -142.5t26 -142.5t76.5 -91t121.5 -31.5z" />
    <glyph glyph-name="oe" unicode="&#x153;" horiz-adv-x="981" 
d="M300 -10q-70 0 -125 31t-86 89.5t-31 139.5t31 139.5t86 89.5t125 31q71 0 127 -34.5t85 -103.5h-22q29 69 84.5 103.5t126.5 34.5q70 0 119.5 -30t75.5 -81.5t26 -115.5q0 -17 -1 -31t-3 -25h-404v71h328q-2 68 -41.5 105t-101.5 37q-49 0 -84.5 -22.5t-55 -65
t-19.5 -102.5q0 -59 20 -102t57 -65.5t87 -22.5q55 0 89.5 21t55.5 57l63 -37q-19 -34 -48.5 -59t-69 -38.5t-88.5 -13.5q-73 0 -130 34t-86 103l22 1q-28 -69 -84 -103.5t-128 -34.5zM300 59q51 0 87 23t55.5 66t19.5 102q0 60 -19.5 102.5t-55.5 65.5t-87 23t-87 -23
t-55.5 -65.5t-19.5 -102.5q0 -59 19.5 -102t55.5 -66t87 -23z" />
    <glyph glyph-name="Racute" unicode="&#x154;" horiz-adv-x="665" 
d="M358 660q101 0 162 -52t61 -141t-61.5 -138.5t-162.5 -49.5l-7 -5h-162v-274h-80v660h250zM357 349q71 0 105.5 29.5t34.5 88.5t-34.5 88.5t-105.5 29.5h-169v-236h169zM403 333l218 -333h-95l-190 289zM345 902h84l-86 -159h-64z" />
    <glyph glyph-name="racute" unicode="&#x155;" horiz-adv-x="408" 
d="M93 0v500h65l11 -82q21 46 61.5 69t98.5 23q13 0 28.5 -2t26.5 -8l-14 -73q-11 4 -24 6t-37 2q-31 0 -62.5 -18t-52.5 -54.5t-21 -92.5v-270h-80zM263 750h87l-98 -167h-65z" />
    <glyph glyph-name="uni0156" unicode="&#x156;" horiz-adv-x="665" 
d="M358 660q101 0 162 -52t61 -141t-61.5 -138.5t-162.5 -49.5l-7 -5h-162v-274h-80v660h250zM357 349q71 0 105.5 29.5t34.5 88.5t-34.5 88.5t-105.5 29.5h-169v-236h169zM403 333l218 -333h-95l-190 289zM402 -76l-65 -161h-63l44 161h84z" />
    <glyph glyph-name="uni0157" unicode="&#x157;" horiz-adv-x="408" 
d="M93 0v500h65l11 -82q21 46 61.5 69t98.5 23q13 0 28.5 -2t26.5 -8l-14 -73q-11 4 -24 6t-37 2q-31 0 -62.5 -18t-52.5 -54.5t-21 -92.5v-270h-80zM170 -76l-65 -161h-63l44 161h84z" />
    <glyph glyph-name="Rcaron" unicode="&#x158;" horiz-adv-x="665" 
d="M358 660q101 0 162 -52t61 -141t-61.5 -138.5t-162.5 -49.5l-7 -5h-162v-274h-80v660h250zM357 349q71 0 105.5 29.5t34.5 88.5t-34.5 88.5t-105.5 29.5h-169v-236h169zM403 333l218 -333h-95l-190 289zM476 902l-110 -159h-88l-110 159h74l80 -107l80 107h74z" />
    <glyph glyph-name="rcaron" unicode="&#x159;" horiz-adv-x="408" 
d="M93 0v500h65l11 -82q21 46 61.5 69t98.5 23q13 0 28.5 -2t26.5 -8l-14 -73q-11 4 -24 6t-37 2q-31 0 -62.5 -18t-52.5 -54.5t-21 -92.5v-270h-80zM395 750l-114 -167h-90l-114 167h73l86 -115l86 115h73z" />
    <glyph glyph-name="Sacute" unicode="&#x15a;" horiz-adv-x="641" 
d="M320 670q87 0 150 -35.5t105 -104.5l-67 -52q-37 64 -83.5 90.5t-112.5 26.5q-53 0 -87.5 -15t-50.5 -39.5t-16 -55.5q0 -35 22 -61.5t88 -41.5l143 -32q95 -21 132.5 -63.5t37.5 -105.5q0 -56 -31.5 -99.5t-88.5 -67.5t-134 -24q-72 0 -126.5 19.5t-93.5 52.5t-64 74
l70 57q19 -38 49 -67t72.5 -45t97.5 -16q51 0 88.5 12.5t57.5 37t20 59.5q0 32 -21 57.5t-79 38.5l-155 35q-61 14 -98.5 38.5t-54 58t-16.5 72.5q0 53 29.5 97.5t85 71.5t131.5 27zM349 902h84l-86 -159h-64z" />
    <glyph glyph-name="sacute" unicode="&#x15b;" horiz-adv-x="527" 
d="M273 -10q-73 0 -134.5 31t-94.5 88l68 49q22 -46 64.5 -72t102.5 -26q53 0 83 20.5t30 53.5q0 21 -13.5 38.5t-51.5 25.5l-120 25q-73 15 -104.5 50t-31.5 87q0 41 23.5 75t67 54.5t102.5 20.5q74 0 125 -29t76 -82l-67 -44q-17 44 -55 64.5t-79 20.5q-36 0 -61.5 -10
t-39 -27.5t-13.5 -39.5t15 -40.5t56 -26.5l125 -26q70 -14 98 -46t28 -78q0 -47 -25 -82.5t-70 -54.5t-104 -19zM291 750h87l-98 -167h-65z" />
    <glyph glyph-name="Scircumflex" unicode="&#x15c;" horiz-adv-x="641" 
d="M320 670q87 0 150 -35.5t105 -104.5l-67 -52q-37 64 -83.5 90.5t-112.5 26.5q-53 0 -87.5 -15t-50.5 -39.5t-16 -55.5q0 -35 22 -61.5t88 -41.5l143 -32q95 -21 132.5 -63.5t37.5 -105.5q0 -56 -31.5 -99.5t-88.5 -67.5t-134 -24q-72 0 -126.5 19.5t-93.5 52.5t-64 74
l70 57q19 -38 49 -67t72.5 -45t97.5 -16q51 0 88.5 12.5t57.5 37t20 59.5q0 32 -21 57.5t-79 38.5l-155 35q-61 14 -98.5 38.5t-54 58t-16.5 72.5q0 53 29.5 97.5t85 71.5t131.5 27zM480 743h-74l-80 107l-80 -107h-74l110 159h88z" />
    <glyph glyph-name="scircumflex" unicode="&#x15d;" horiz-adv-x="527" 
d="M273 -10q-73 0 -134.5 31t-94.5 88l68 49q22 -46 64.5 -72t102.5 -26q53 0 83 20.5t30 53.5q0 21 -13.5 38.5t-51.5 25.5l-120 25q-73 15 -104.5 50t-31.5 87q0 41 23.5 75t67 54.5t102.5 20.5q74 0 125 -29t76 -82l-67 -44q-17 44 -55 64.5t-79 20.5q-36 0 -61.5 -10
t-39 -27.5t-13.5 -39.5t15 -40.5t56 -26.5l125 -26q70 -14 98 -46t28 -78q0 -47 -25 -82.5t-70 -54.5t-104 -19zM423 576h-73l-86 115l-86 -115h-73l114 167h90z" />
    <glyph glyph-name="Scedilla" unicode="&#x15e;" horiz-adv-x="641" 
d="M320 670q87 0 150 -35.5t105 -104.5l-67 -52q-37 64 -83.5 90.5t-112.5 26.5q-53 0 -87.5 -15t-50.5 -39.5t-16 -55.5q0 -35 22 -61.5t88 -41.5l143 -32q95 -21 132.5 -63.5t37.5 -105.5q0 -56 -31.5 -99.5t-88.5 -67.5t-134 -24q-72 0 -126.5 19.5t-93.5 52.5t-64 74
l70 57q19 -38 49 -67t72.5 -45t97.5 -16q51 0 88.5 12.5t57.5 37t20 59.5q0 32 -21 57.5t-79 38.5l-155 35q-61 14 -98.5 38.5t-54 58t-16.5 72.5q0 53 29.5 97.5t85 71.5t131.5 27zM263 4l42 25q59 -19 84 -51.5t25 -76.5q0 -48 -34 -82t-87 -34q-31 0 -54.5 8t-40.5 21
l19 58q14 -9 29.5 -16t37.5 -7q28 0 46 18t18 52q0 26 -19 45t-66 40z" />
    <glyph glyph-name="scedilla" unicode="&#x15f;" horiz-adv-x="527" 
d="M273 -10q-73 0 -134.5 31t-94.5 88l68 49q22 -46 64.5 -72t102.5 -26q53 0 83 20.5t30 53.5q0 21 -13.5 38.5t-51.5 25.5l-120 25q-73 15 -104.5 50t-31.5 87q0 41 23.5 75t67 54.5t102.5 20.5q74 0 125 -29t76 -82l-67 -44q-17 44 -55 64.5t-79 20.5q-36 0 -61.5 -10
t-39 -27.5t-13.5 -39.5t15 -40.5t56 -26.5l125 -26q70 -14 98 -46t28 -78q0 -47 -25 -82.5t-70 -54.5t-104 -19zM214 4l42 25q59 -19 84 -51.5t25 -76.5q0 -48 -34 -82t-87 -34q-31 0 -54.5 8t-40.5 21l19 58q14 -9 29.5 -16t37.5 -7q28 0 46 18t18 52q0 26 -19 45t-66 40z
" />
    <glyph glyph-name="Scaron" unicode="&#x160;" horiz-adv-x="641" 
d="M320 670q87 0 150 -35.5t105 -104.5l-67 -52q-37 64 -83.5 90.5t-112.5 26.5q-53 0 -87.5 -15t-50.5 -39.5t-16 -55.5q0 -35 22 -61.5t88 -41.5l143 -32q95 -21 132.5 -63.5t37.5 -105.5q0 -56 -31.5 -99.5t-88.5 -67.5t-134 -24q-72 0 -126.5 19.5t-93.5 52.5t-64 74
l70 57q19 -38 49 -67t72.5 -45t97.5 -16q51 0 88.5 12.5t57.5 37t20 59.5q0 32 -21 57.5t-79 38.5l-155 35q-61 14 -98.5 38.5t-54 58t-16.5 72.5q0 53 29.5 97.5t85 71.5t131.5 27zM480 902l-110 -159h-88l-110 159h74l80 -107l80 107h74z" />
    <glyph glyph-name="scaron" unicode="&#x161;" horiz-adv-x="527" 
d="M273 -10q-73 0 -134.5 31t-94.5 88l68 49q22 -46 64.5 -72t102.5 -26q53 0 83 20.5t30 53.5q0 21 -13.5 38.5t-51.5 25.5l-120 25q-73 15 -104.5 50t-31.5 87q0 41 23.5 75t67 54.5t102.5 20.5q74 0 125 -29t76 -82l-67 -44q-17 44 -55 64.5t-79 20.5q-36 0 -61.5 -10
t-39 -27.5t-13.5 -39.5t15 -40.5t56 -26.5l125 -26q70 -14 98 -46t28 -78q0 -47 -25 -82.5t-70 -54.5t-104 -19zM423 750l-114 -167h-90l-114 167h73l86 -115l86 115h73z" />
    <glyph glyph-name="uni0162" unicode="&#x162;" 
d="M262 0l27 29q59 -19 84 -51.5t25 -76.5q0 -48 -34 -82t-87 -34q-31 0 -54.5 8t-40.5 21l19 58q14 -9 29.5 -16t37.5 -7q28 0 46 18t18 52q0 26 -17 44.5t-53 36.5zM572 660v-75h-230v-585h-80v585h-230v75h540z" />
    <glyph glyph-name="uni0163" unicode="&#x163;" horiz-adv-x="419" 
d="M211 642v-504q0 -37 21 -55t54 -18q29 0 50 10t38 27l28 -67q-23 -21 -54.5 -33t-72.5 -12q-38 0 -71 13.5t-52.5 43t-20.5 77.5v496zM393 500v-69h-362v69h362zM201 4l42 25q59 -19 84 -51.5t25 -76.5q0 -48 -34 -82t-87 -34q-31 0 -54.5 8t-40.5 21l19 58
q14 -9 29.5 -16t37.5 -7q28 0 46 18t18 52q0 26 -19 45t-66 40z" />
    <glyph glyph-name="Tcaron" unicode="&#x164;" 
d="M572 660v-75h-230v-585h-80v585h-230v75h540zM456 902l-110 -159h-88l-110 159h74l80 -107l80 107h74z" />
    <glyph glyph-name="tcaron" unicode="&#x165;" horiz-adv-x="419" 
d="M368 767l-41 -197h-55l20 197h76zM211 642v-504q0 -37 21 -55t54 -18q29 0 50 10t38 27l28 -67q-23 -21 -54.5 -33t-72.5 -12q-38 0 -71 13.5t-52.5 43t-20.5 77.5v496zM393 500v-69h-362v69h362z" />
    <glyph glyph-name="Tbar" unicode="&#x166;" 
d="M572 660v-75h-230v-585h-80v585h-230v75h540zM501 359v-75h-397v75h397z" />
    <glyph glyph-name="tbar" unicode="&#x167;" horiz-adv-x="419" 
d="M396 340v-61h-365v61h365zM211 642v-504q0 -37 21 -55t54 -18q29 0 50 10t38 27l28 -67q-23 -21 -54.5 -33t-72.5 -12q-38 0 -71 13.5t-52.5 43t-20.5 77.5v496zM393 500v-69h-362v69h362z" />
    <glyph glyph-name="Utilde" unicode="&#x168;" horiz-adv-x="708" 
d="M613 660v-414q0 -127 -67 -191.5t-192 -64.5q-124 0 -191.5 64.5t-67.5 191.5v414h80v-394q0 -103 43.5 -152t135.5 -49t135.5 49t43.5 152v394h80zM534 852q-3 -44 -16.5 -74t-37 -45t-58.5 -15q-28 0 -47.5 10.5t-33.5 23.5t-27.5 23.5t-29.5 10.5q-22 0 -33 -18.5
t-16 -50.5h-63q5 66 32.5 100t80.5 34q27 0 46.5 -10.5t34 -23.5t27.5 -23.5t28 -10.5q23 0 34 18.5t16 50.5h63z" />
    <glyph glyph-name="utilde" unicode="&#x169;" horiz-adv-x="617" 
d="M274 -10q-48 0 -90.5 18t-69 58.5t-26.5 105.5v328h80v-307q0 -76 33 -104.5t93 -28.5q28 0 55 9.5t48.5 30t34 52.5t12.5 76v272h80v-500h-70l-5 76q-26 -45 -70.5 -65.5t-104.5 -20.5zM486 707q-3 -44 -16.5 -74t-37 -45t-58.5 -15q-28 0 -47.5 10.5t-33.5 23.5
t-27.5 23.5t-29.5 10.5q-22 0 -33 -18.5t-16 -50.5h-63q5 66 32.5 100t80.5 34q27 0 46.5 -10.5t34 -23.5t27.5 -23.5t28 -10.5q23 0 34 18.5t16 50.5h63z" />
    <glyph glyph-name="Umacron" unicode="&#x16a;" horiz-adv-x="708" 
d="M613 660v-414q0 -127 -67 -191.5t-192 -64.5q-124 0 -191.5 64.5t-67.5 191.5v414h80v-394q0 -103 43.5 -152t135.5 -49t135.5 49t43.5 152v394h80zM518 798v-67h-328v67h328z" />
    <glyph glyph-name="umacron" unicode="&#x16b;" horiz-adv-x="617" 
d="M274 -10q-48 0 -90.5 18t-69 58.5t-26.5 105.5v328h80v-307q0 -76 33 -104.5t93 -28.5q28 0 55 9.5t48.5 30t34 52.5t12.5 76v272h80v-500h-70l-5 76q-26 -45 -70.5 -65.5t-104.5 -20.5zM470 653v-67h-328v67h328z" />
    <glyph glyph-name="Ubreve" unicode="&#x16c;" horiz-adv-x="708" 
d="M613 660v-414q0 -127 -67 -191.5t-192 -64.5q-124 0 -191.5 64.5t-67.5 191.5v414h80v-394q0 -103 43.5 -152t135.5 -49t135.5 49t43.5 152v394h80zM502 860q0 -66 -41 -107t-107 -41t-107 41t-41 107h65q1 -35 22 -61.5t61 -26.5q41 0 61.5 26.5t21.5 61.5h65z" />
    <glyph glyph-name="ubreve" unicode="&#x16d;" horiz-adv-x="617" 
d="M274 -10q-48 0 -90.5 18t-69 58.5t-26.5 105.5v328h80v-307q0 -76 33 -104.5t93 -28.5q28 0 55 9.5t48.5 30t34 52.5t12.5 76v272h80v-500h-70l-5 76q-26 -45 -70.5 -65.5t-104.5 -20.5zM454 715q0 -66 -41 -107t-107 -41t-107 41t-41 107h65q1 -35 22 -61.5t61 -26.5
q41 0 61.5 26.5t21.5 61.5h65z" />
    <glyph glyph-name="Uring" unicode="&#x16e;" horiz-adv-x="708" 
d="M613 660v-414q0 -127 -67 -191.5t-192 -64.5q-124 0 -191.5 64.5t-67.5 191.5v414h80v-394q0 -103 43.5 -152t135.5 -49t135.5 49t43.5 152v394h80zM351 920q56 0 90.5 -32.5t34.5 -85.5t-34.5 -86t-90.5 -33t-91 33t-35 86t35 85.5t91 32.5zM351 871q-31 0 -51 -19.5
t-20 -49.5t20 -49.5t51 -19.5t51 19.5t20 49.5t-20 49.5t-51 19.5z" />
    <glyph glyph-name="uring" unicode="&#x16f;" horiz-adv-x="617" 
d="M274 -10q-48 0 -90.5 18t-69 58.5t-26.5 105.5v328h80v-307q0 -76 33 -104.5t93 -28.5q28 0 55 9.5t48.5 30t34 52.5t12.5 76v272h80v-500h-70l-5 76q-26 -45 -70.5 -65.5t-104.5 -20.5zM303 802q56 0 90.5 -32.5t34.5 -85.5t-34.5 -86t-90.5 -33t-91 33t-35 86t35 85.5
t91 32.5zM303 753q-31 0 -51 -19.5t-20 -49.5t20 -49.5t51 -19.5t51 19.5t20 49.5t-20 49.5t-51 19.5z" />
    <glyph glyph-name="Uhungarumlaut" unicode="&#x170;" horiz-adv-x="708" 
d="M613 660v-414q0 -127 -67 -191.5t-192 -64.5q-124 0 -191.5 64.5t-67.5 191.5v414h80v-394q0 -103 43.5 -152t135.5 -49t135.5 49t43.5 152v394h80zM477 877h84l-86 -159h-64zM300 877h84l-86 -159h-64z" />
    <glyph glyph-name="uhungarumlaut" unicode="&#x171;" horiz-adv-x="617" 
d="M274 -10q-48 0 -90.5 18t-69 58.5t-26.5 105.5v328h80v-307q0 -76 33 -104.5t93 -28.5q28 0 55 9.5t48.5 30t34 52.5t12.5 76v272h80v-500h-70l-5 76q-26 -45 -70.5 -65.5t-104.5 -20.5zM341 573l76 167h87l-98 -167h-65zM165 573l76 167h87l-98 -167h-65z" />
    <glyph glyph-name="Uogonek" unicode="&#x172;" horiz-adv-x="708" 
d="M613 660v-414q0 -127 -67 -191.5t-192 -64.5q-124 0 -191.5 64.5t-67.5 191.5v414h80v-394q0 -103 43.5 -152t135.5 -49t135.5 49t43.5 152v394h80zM407 -220q-57 0 -87.5 28.5t-30.5 74.5q0 56 35.5 89t109.5 60l44 -21q-55 -20 -82 -39.5t-35.5 -39t-8.5 -40.5
q0 -26 17 -40t45 -14q15 0 29 3t26 8l12 -53q-13 -7 -33 -11.5t-41 -4.5z" />
    <glyph glyph-name="uogonek" unicode="&#x173;" horiz-adv-x="617" 
d="M464 -231q-31 0 -56.5 12t-40.5 34t-15 53q0 37 16 63.5t45 48.5t68 43l43 -23q-60 -34 -83.5 -63.5t-23.5 -57.5q0 -24 14.5 -38.5t42.5 -14.5q12 0 26 3t23 8l16 -51q-13 -7 -32.5 -12t-42.5 -5zM274 -10q-48 0 -90.5 18t-69 58.5t-26.5 105.5v328h80v-307
q0 -76 33 -104.5t93 -28.5q28 0 55 9.5t48.5 30t34 52.5t12.5 76v272h80v-500h-70l-5 76q-26 -45 -70.5 -65.5t-104.5 -20.5z" />
    <glyph glyph-name="Wcircumflex" unicode="&#x174;" horiz-adv-x="961" 
d="M231 0l-195 660h83l163 -587l155 587h91l155 -589l163 589h79l-194 -660h-99l-117 428l-34 149h-1l-34 -149l-116 -428h-99zM635 743h-74l-80 107l-80 -107h-74l110 159h88z" />
    <glyph glyph-name="wcircumflex" unicode="&#x175;" horiz-adv-x="836" 
d="M720 500h89l-174 -500h-80l-141 398l-133 -398h-80l-174 500h89l126 -407l136 407h80l136 -407zM577 576h-73l-86 115l-86 -115h-73l114 167h90z" />
    <glyph glyph-name="Ycircumflex" unicode="&#x176;" horiz-adv-x="572" 
d="M562 660l-236 -402v-258h-80v258l-236 402h95l128 -226l53 -94l53 94l128 226h95zM440 723h-74l-80 107l-80 -107h-74l110 159h88z" />
    <glyph glyph-name="ycircumflex" unicode="&#x177;" horiz-adv-x="516" 
d="M504 500l-235 -584q-19 -49 -41.5 -77.5t-50 -41t-63.5 -12.5q-34 0 -62.5 9.5t-50.5 25.5l22 70q20 -18 42.5 -26.5t44.5 -8.5q26 0 49 16t42 65l26 65l-50 119l-159 380h91l125 -326l31 -89l36 99l117 316h86zM418 566h-73l-86 115l-86 -115h-73l114 167h90z" />
    <glyph glyph-name="Ydieresis" unicode="&#x178;" horiz-adv-x="572" 
d="M562 660l-236 -402v-258h-80v258l-236 402h95l128 -226l53 -94l53 94l128 226h95zM189 836q26 0 41.5 -15.5t15.5 -41.5q0 -25 -15.5 -41t-41.5 -16q-25 0 -41 16t-16 41q0 26 16 41.5t41 15.5zM383 836q26 0 41.5 -15.5t15.5 -41.5q0 -25 -15.5 -41t-41.5 -16
q-25 0 -41 16t-16 41q0 26 16 41.5t41 15.5z" />
    <glyph glyph-name="Zacute" unicode="&#x179;" horiz-adv-x="630" 
d="M128 46l-14 29h461v-75h-519v71l434 543l14 -29h-438v75h496v-71zM329 902h84l-86 -159h-64z" />
    <glyph glyph-name="zacute" unicode="&#x17a;" horiz-adv-x="534" 
d="M57 0v61l262 307l63 65l-89 -2h-233v69h411v-61l-262 -307l-62 -65l97 2h235v-69h-422zM279 750h87l-98 -167h-65z" />
    <glyph glyph-name="Zdotaccent" unicode="&#x17b;" horiz-adv-x="630" 
d="M128 46l-14 29h461v-75h-519v71l434 543l14 -29h-438v75h496v-71zM306 876q27 0 43.5 -16.5t16.5 -43.5t-16.5 -43.5t-43.5 -16.5t-43.5 16.5t-16.5 43.5t16.5 43.5t43.5 16.5z" />
    <glyph glyph-name="zdotaccent" unicode="&#x17c;" horiz-adv-x="534" 
d="M57 0v61l262 307l63 65l-89 -2h-233v69h411v-61l-262 -307l-62 -65l97 2h235v-69h-422zM252 716q27 0 43.5 -16.5t16.5 -43.5t-16.5 -43.5t-43.5 -16.5t-43.5 16.5t-16.5 43.5t16.5 43.5t43.5 16.5z" />
    <glyph glyph-name="Zcaron" unicode="&#x17d;" horiz-adv-x="630" 
d="M128 46l-14 29h461v-75h-519v71l434 543l14 -29h-438v75h496v-71zM460 902l-110 -159h-88l-110 159h74l80 -107l80 107h74z" />
    <glyph glyph-name="zcaron" unicode="&#x17e;" horiz-adv-x="534" 
d="M57 0v61l262 307l63 65l-89 -2h-233v69h411v-61l-262 -307l-62 -65l97 2h235v-69h-422zM411 750l-114 -167h-90l-114 167h73l86 -115l86 115h73z" />
    <glyph glyph-name="longs" unicode="&#x17f;" horiz-adv-x="260" 
d="M89 0v584q0 45 13 79t43 53t79 19q29 0 48 -6t29 -17l-16 -65q-10 8 -20.5 11.5t-24.5 3.5q-34 0 -52.5 -20.5t-18.5 -65.5v-576h-80z" />
    <glyph glyph-name="uni018F" unicode="&#x18f;" horiz-adv-x="713" 
d="M341 -10q-83 0 -148 37t-101.5 107t-36.5 168q0 14 1 28t2 29h538v-80h-494l44 32q-1 -10 -1.5 -19t-0.5 -18q0 -66 27.5 -112.5t74 -71.5t102.5 -25q67 0 114.5 29.5t73 88.5t25.5 147q0 83 -26.5 142.5t-75.5 91t-118 31.5q-70 0 -118.5 -35t-71.5 -102l-84 30
q22 57 62 97.5t94 62.5t118 22q94 0 162 -41.5t105 -117.5t37 -181t-37.5 -181t-106 -117.5t-160.5 -41.5z" />
    <glyph glyph-name="florin" unicode="&#x192;" horiz-adv-x="488" 
d="M384 735q30 0 49 -5t43 -19l-12 -72q-32 23 -73 23q-32 0 -51 -21t-26 -65l-88 -553q-12 -75 -49.5 -113t-100.5 -38q-30 0 -49 5t-43 19l12 72q32 -23 73 -23q32 0 51 21t26 65l88 553q12 75 49.5 113t100.5 38zM434 400v-69h-380v69h380z" />
    <glyph glyph-name="Ohorn" unicode="&#x1a0;" horiz-adv-x="748" 
d="M650 768q0 -81 -45 -126t-131 -45l-20 63q71 0 95.5 28t24.5 80h76zM374 670q94 0 162.5 -41.5t106 -117.5t37.5 -181t-37.5 -181t-106 -117.5t-162.5 -41.5t-162.5 41.5t-106 117.5t-37.5 181t37.5 181t106 117.5t162.5 41.5zM374 595q-68 0 -118 -31.5t-77 -91
t-27 -142.5t27 -142.5t77 -91t118 -31.5q69 0 118.5 31.5t76.5 91t27 142.5t-27 142.5t-76.5 91t-118.5 31.5z" />
    <glyph glyph-name="ohorn" unicode="&#x1a1;" horiz-adv-x="600" 
d="M300 510q71 0 125.5 -31t85.5 -89.5t31 -139.5t-31 -139.5t-85.5 -89.5t-125.5 -31q-70 0 -125 31t-86 89.5t-31 139.5t31 139.5t86 89.5t125 31zM300 441q-51 0 -87 -23t-55.5 -65.5t-19.5 -102.5q0 -59 19.5 -102t55.5 -66t87 -23t87 23t55.5 66t19.5 102
q0 60 -19.5 102.5t-55.5 65.5t-87 23zM374 441v59q43 0 67.5 27.5t24.5 90.5h69q0 -89 -43.5 -133t-117.5 -44z" />
    <glyph glyph-name="Uhorn" unicode="&#x1af;" horiz-adv-x="708" 
d="M613 660v-414q0 -127 -67 -191.5t-192 -64.5q-124 0 -191.5 64.5t-67.5 191.5v414h80v-394q0 -103 43.5 -152t135.5 -49t135.5 49t43.5 152v394h80zM717 768q0 -81 -43.5 -126t-121.5 -45l-20 63q62 0 85.5 28t23.5 80h76z" />
    <glyph glyph-name="uhorn" unicode="&#x1b0;" horiz-adv-x="617" 
d="M274 -10q-48 0 -90.5 18t-69 58.5t-26.5 105.5v328h80v-307q0 -76 33 -104.5t93 -28.5q28 0 55 9.5t48.5 30t34 52.5t12.5 76v272h80v-500h-70l-5 76q-26 -45 -70.5 -65.5t-104.5 -20.5zM463 441v59q43 0 67.5 27.5t24.5 90.5h69q0 -89 -43.5 -133t-117.5 -44z" />
    <glyph glyph-name="uni01C4" unicode="&#x1c4;" horiz-adv-x="1338" 
d="M321 660q155 0 243.5 -85.5t88.5 -244.5t-88.5 -244.5t-243.5 -85.5h-213v660h213zM329 75q113 0 176.5 67.5t63.5 187.5t-63.5 187.5t-176.5 67.5h-141v-510h141zM836 46l-14 29h461v-75h-519v71l434 543l14 -29h-438v75h496v-71zM1168 902l-110 -159h-88l-110 159h74
l80 -107l80 107h74z" />
    <glyph glyph-name="uni01C5" unicode="&#x1c5;" horiz-adv-x="1249" 
d="M321 660q155 0 243.5 -85.5t88.5 -244.5t-88.5 -244.5t-243.5 -85.5h-213v660h213zM329 75q113 0 176.5 67.5t63.5 187.5t-63.5 187.5t-176.5 67.5h-141v-510h141zM772 0v61l262 307l63 65l-89 -2h-233v69h411v-61l-262 -307l-62 -65l97 2h235v-69h-422zM1126 750
l-114 -167h-90l-114 167h73l86 -115l86 115h73z" />
    <glyph glyph-name="uni01C6" unicode="&#x1c6;" horiz-adv-x="1161" 
d="M288 -10q-62 0 -114 31t-83 89.5t-31 139.5q0 83 33 141t87 88.5t116 30.5t107.5 -32t60.5 -85l-10 -7v344h80v-730h-70l-7 121l11 6q-7 -44 -33.5 -74.5t-65 -46.5t-81.5 -16zM296 60q48 0 83.5 24t55 68.5t19.5 104.5q0 57 -19.5 98t-54 63t-80.5 22q-76 0 -118 -52
t-42 -138t41 -138t115 -52zM684 0v61l262 307l63 65l-89 -2h-233v69h411v-61l-262 -307l-62 -65l97 2h235v-69h-422zM1038 750l-114 -167h-90l-114 167h73l86 -115l86 115h73z" />
    <glyph glyph-name="uni01C7" unicode="&#x1c7;" horiz-adv-x="1164" 
d="M188 75h378v-75h-458v660h80v-585zM1063 660v-434q0 -111 -59.5 -173.5t-164.5 -62.5q-74 0 -122 28t-66.5 79.5t-5.5 120.5l74 15q-11 -85 15.5 -126.5t101.5 -41.5q85 0 116 46.5t31 134.5v414h80z" />
    <glyph glyph-name="uni01C8" unicode="&#x1c8;" horiz-adv-x="864" 
d="M188 75h378v-75h-458v660h80v-585zM731 596q-27 0 -43.5 16.5t-16.5 43.5t16.5 43.5t43.5 16.5t43.5 -16.5t16.5 -43.5t-16.5 -43.5t-43.5 -16.5zM771 500v-551q0 -62 -24 -98t-59 -51t-69 -15q-31 0 -57 9.5t-43 23.5l17 76q14 -13 35 -22t47 -9q32 0 52.5 21t20.5 73
v543h80z" />
    <glyph glyph-name="uni01C9" unicode="&#x1c9;" horiz-adv-x="572" 
d="M169 730v-603q0 -38 14 -52.5t45 -14.5q20 0 33 3t35 11l-13 -70q-16 -7 -35 -10.5t-39 -3.5q-61 0 -90.5 33t-29.5 101v606h80zM439 596q-27 0 -43.5 16.5t-16.5 43.5t16.5 43.5t43.5 16.5t43.5 -16.5t16.5 -43.5t-16.5 -43.5t-43.5 -16.5zM479 500v-551q0 -62 -24 -98
t-59 -51t-69 -15q-31 0 -57 9.5t-43 23.5l17 76q14 -13 35 -22t47 -9q32 0 52.5 21t20.5 73v543h80z" />
    <glyph glyph-name="uni01CA" unicode="&#x1ca;" horiz-adv-x="1300" 
d="M626 660v-660h-99l-276 442l-70 124h-1l4 -100v-466h-76v660h99l275 -440l71 -127h1l-4 101v466h76zM1199 660v-434q0 -111 -59.5 -173.5t-164.5 -62.5q-74 0 -122 28t-66.5 79.5t-5.5 120.5l74 15q-11 -85 15.5 -126.5t101.5 -41.5q85 0 116 46.5t31 134.5v414h80z" />
    <glyph glyph-name="uni01CB" unicode="&#x1cb;" horiz-adv-x="1000" 
d="M626 660v-660h-99l-276 442l-70 124h-1l4 -100v-466h-76v660h99l275 -440l71 -127h1l-4 101v466h76zM867 596q-27 0 -43.5 16.5t-16.5 43.5t16.5 43.5t43.5 16.5t43.5 -16.5t16.5 -43.5t-16.5 -43.5t-43.5 -16.5zM907 500v-551q0 -62 -24 -98t-59 -51t-69 -15
q-31 0 -57 9.5t-43 23.5l17 76q14 -13 35 -22t47 -9q32 0 52.5 21t20.5 73v543h80z" />
    <glyph glyph-name="uni01CC" unicode="&#x1cc;" horiz-adv-x="885" 
d="M93 0v500h70l7 -112l-13 11q16 40 43 64.5t62.5 35.5t73.5 11q54 0 98 -20.5t70.5 -62.5t26.5 -107v-320h-80v292q0 83 -35.5 115.5t-87.5 32.5q-36 0 -72 -17t-59.5 -55t-23.5 -102v-266h-80zM752 596q-27 0 -43.5 16.5t-16.5 43.5t16.5 43.5t43.5 16.5t43.5 -16.5
t16.5 -43.5t-16.5 -43.5t-43.5 -16.5zM792 500v-551q0 -62 -24 -98t-59 -51t-69 -15q-31 0 -57 9.5t-43 23.5l17 76q14 -13 35 -22t47 -9q32 0 52.5 21t20.5 73v543h80z" />
    <glyph glyph-name="Gcaron" unicode="&#x1e6;" horiz-adv-x="724" 
d="M374 -10q-94 0 -162.5 41.5t-106 117.5t-37.5 181t39.5 181t110.5 117.5t163 41.5q98 0 159.5 -37t99.5 -114l-73 -40q-22 57 -69.5 86.5t-116.5 29.5q-67 0 -118.5 -31.5t-81 -91t-29.5 -142.5t25.5 -142.5t76 -91t123.5 -31.5q41 0 76.5 10.5t62 31.5t41.5 53t15 75v23
h-210v75h283v-333h-63l-4 123l17 -3q-26 -62 -82 -96t-139 -34zM527 902l-110 -159h-88l-110 159h74l80 -107l80 107h74z" />
    <glyph glyph-name="gcaron" unicode="&#x1e7;" horiz-adv-x="532" 
d="M514 592l18 -71h-3h-4q-49 0 -75.5 -19.5t-26.5 -62.5l-49 25q0 39 18 68t49 44.5t68 15.5h2.5h2.5zM362 64q71 0 111 -32.5t40 -86.5q0 -49 -32.5 -85t-87 -55.5t-122.5 -19.5q-118 0 -176.5 40t-58.5 96q0 40 26.5 71.5t89.5 35.5l-7 -15q-34 9 -57.5 30.5t-23.5 62.5
t30.5 70.5t90.5 36.5l53 -27h-10q-49 -5 -69.5 -24.5t-20.5 -42.5q0 -28 20.5 -41.5t57.5 -13.5h146zM270 -148q58 0 95.5 12t55.5 31t18 41q0 27 -21.5 43t-77.5 16h-154q-32 0 -54 -16.5t-22 -45.5q0 -37 42.5 -59t117.5 -22zM263 510q60 0 106.5 -21.5t72.5 -59.5t26 -88
q0 -49 -26 -87.5t-72.5 -60t-106.5 -21.5q-99 0 -152 47.5t-53 121.5q0 50 26.5 88t72.5 59.5t106 21.5zM263 445q-52 0 -87 -28.5t-35 -75.5q0 -46 35 -75t87 -29t87 29t35 75q0 47 -35 75.5t-87 28.5zM426 750l-114 -167h-90l-114 167h73l86 -115l86 115h73z" />
    <glyph glyph-name="uni01EA" unicode="&#x1ea;" horiz-adv-x="748" 
d="M374 670q94 0 162.5 -41.5t106 -117.5t37.5 -181t-37.5 -181t-106 -117.5t-162.5 -41.5t-162.5 41.5t-106 117.5t-37.5 181t37.5 181t106 117.5t162.5 41.5zM374 595q-68 0 -118 -31.5t-77 -91t-27 -142.5t27 -142.5t77 -91t118 -31.5q69 0 118.5 31.5t76.5 91t27 142.5
t-27 142.5t-76.5 91t-118.5 31.5zM408 -225q-57 0 -87.5 28.5t-30.5 74.5q0 56 35.5 89t109.5 60l44 -21q-55 -20 -82 -39.5t-35.5 -39t-8.5 -40.5q0 -26 17 -40t45 -14q15 0 29 3t26 8l12 -53q-13 -7 -33 -11.5t-41 -4.5z" />
    <glyph glyph-name="uni01EB" unicode="&#x1eb;" horiz-adv-x="600" 
d="M300 510q71 0 125.5 -31t85.5 -89.5t31 -139.5t-31 -139.5t-85.5 -89.5t-125.5 -31q-70 0 -125 31t-86 89.5t-31 139.5t31 139.5t86 89.5t125 31zM300 441q-51 0 -87 -23t-55.5 -65.5t-19.5 -102.5q0 -59 19.5 -102t55.5 -66t87 -23t87 23t55.5 66t19.5 102
q0 60 -19.5 102.5t-55.5 65.5t-87 23zM339 -218q-57 0 -87.5 28.5t-30.5 74.5q0 56 35.5 89t109.5 60l44 -21q-55 -20 -82 -39.5t-35.5 -39t-8.5 -40.5q0 -26 17 -40t45 -14q15 0 29 3t26 8l12 -53q-13 -7 -33 -11.5t-41 -4.5z" />
    <glyph glyph-name="uni01F1" unicode="&#x1f1;" horiz-adv-x="1338" 
d="M321 660q155 0 243.5 -85.5t88.5 -244.5t-88.5 -244.5t-243.5 -85.5h-213v660h213zM329 75q113 0 176.5 67.5t63.5 187.5t-63.5 187.5t-176.5 67.5h-141v-510h141zM836 46l-14 29h461v-75h-519v71l434 543l14 -29h-438v75h496v-71z" />
    <glyph glyph-name="uni01F2" unicode="&#x1f2;" horiz-adv-x="1249" 
d="M321 660q155 0 243.5 -85.5t88.5 -244.5t-88.5 -244.5t-243.5 -85.5h-213v660h213zM329 75q113 0 176.5 67.5t63.5 187.5t-63.5 187.5t-176.5 67.5h-141v-510h141zM772 0v61l262 307l63 65l-89 -2h-233v69h411v-61l-262 -307l-62 -65l97 2h235v-69h-422z" />
    <glyph glyph-name="uni01F3" unicode="&#x1f3;" horiz-adv-x="1161" 
d="M288 -10q-62 0 -114 31t-83 89.5t-31 139.5q0 83 33 141t87 88.5t116 30.5t107.5 -32t60.5 -85l-10 -7v344h80v-730h-70l-7 121l11 6q-7 -44 -33.5 -74.5t-65 -46.5t-81.5 -16zM296 60q48 0 83.5 24t55 68.5t19.5 104.5q0 57 -19.5 98t-54 63t-80.5 22q-76 0 -118 -52
t-42 -138t41 -138t115 -52zM684 0v61l262 307l63 65l-89 -2h-233v69h411v-61l-262 -307l-62 -65l97 2h235v-69h-422z" />
    <glyph glyph-name="Aringacute" unicode="&#x1fa;" horiz-adv-x="660" 
d="M26 0l257 660h95l256 -660h-85l-188 492l-31 92h-2l-29 -89l-189 -495h-84zM152 183v75h353v-75h-353zM328 847q56 0 90.5 -32.5t34.5 -85.5t-34.5 -86t-90.5 -33t-91 33t-35 86t35 85.5t91 32.5zM328 798q-31 0 -51 -19.5t-20 -49.5t20 -49.5t51 -19.5t51 19.5t20 49.5
t-20 49.5t-51 19.5zM354 1059h84l-86 -159h-64z" />
    <glyph glyph-name="aringacute" unicode="&#x1fb;" horiz-adv-x="566" 
d="M385 323q0 56 -30 86.5t-85 30.5q-52 0 -88 -22.5t-53 -72.5l-65 40q20 56 74 90.5t134 34.5q54 0 98 -18.5t69.5 -56t25.5 -96.5v-242q0 -36 38 -36q19 0 37 5l-4 -63q-20 -10 -52 -10q-29 0 -52 11t-36 33.5t-13 56.5v10l20 -3q-12 -39 -41 -63.5t-65 -36t-71 -11.5
q-44 0 -82 15t-60.5 45.5t-22.5 75.5q0 56 37.5 92.5t104.5 49.5l198 39v-66l-161 -33q-49 -10 -73 -28t-24 -50q0 -31 24.5 -50.5t69.5 -19.5q29 0 55.5 7.5t47.5 23t33 39t12 55.5v138zM273 812q56 0 90.5 -32.5t34.5 -85.5t-34.5 -86t-90.5 -33t-91 33t-35 86t35 85.5
t91 32.5zM273 763q-31 0 -51 -19.5t-20 -49.5t20 -49.5t51 -19.5t51 19.5t20 49.5t-20 49.5t-51 19.5zM243 852l52 130h83l-73 -130h-62z" />
    <glyph glyph-name="AEacute" unicode="&#x1fc;" horiz-adv-x="954" 
d="M531 75h371v-75h-451v213h-236l-123 -213h-86l386 660h495v-75h-356v-213h271v-75h-271v-222zM259 288h192v297h-20zM514 902h84l-86 -159h-64z" />
    <glyph glyph-name="aeacute" unicode="&#x1fd;" horiz-adv-x="895" 
d="M230 -10q-46 0 -84.5 15t-61.5 45.5t-23 75.5q0 56 36.5 92t101.5 49l186 37v19q0 56 -32.5 86.5t-83.5 30.5q-47 0 -83.5 -22.5t-56.5 -72.5l-65 40q16 38 44.5 66t69 43.5t89.5 15.5q66 0 115 -27.5t67 -88.5l-24 3q19 36 48.5 61t67.5 38.5t81 13.5q67 0 114.5 -30
t73.5 -81.5t26 -115.5q0 -17 -1 -31t-3 -25h-366v0q5 -79 49 -123t110 -44q50 0 83.5 21t54.5 57l63 -37q-19 -34 -48.5 -59t-67.5 -38.5t-83 -13.5q-75 0 -131.5 35.5t-82.5 104.5l25 7q-4 -34 -23.5 -61t-49 -46.5t-64.5 -29.5t-71 -10zM237 60q29 0 55.5 7.5t47.5 23
t33 39t12 55.5v52l-145 -29q-49 -10 -73 -28t-24 -50q0 -31 24.5 -50.5t69.5 -19.5zM469 298h287q-1 46 -19 77.5t-48 48t-69 16.5q-61 0 -100.5 -37t-50.5 -105zM475 750h87l-98 -167h-65z" />
    <glyph glyph-name="Oslashacute" unicode="&#x1fe;" horiz-adv-x="748" 
d="M229 63l-46 37l335 480l46 -36zM88 -37l95 137l46 -37l-70 -100h-71zM564 544l-46 36l72 103h71zM374 670q94 0 162.5 -41.5t106 -117.5t37.5 -181t-37.5 -181t-106 -117.5t-162.5 -41.5t-162.5 41.5t-106 117.5t-37.5 181t37.5 181t106 117.5t162.5 41.5zM374 595
q-68 0 -118 -31.5t-77 -91t-27 -142.5t27 -142.5t77 -91t118 -31.5q69 0 118.5 31.5t76.5 91t27 142.5t-27 142.5t-76.5 91t-118.5 31.5zM397 902h84l-86 -159h-64z" />
    <glyph glyph-name="oslashacute" unicode="&#x1ff;" horiz-adv-x="600" 
d="M300 510q71 0 125.5 -31t85.5 -89.5t31 -139.5t-31 -139.5t-85.5 -89.5t-125.5 -31q-70 0 -125 31t-86 89.5t-31 139.5t31 139.5t86 89.5t125 31zM300 441q-51 0 -87 -23t-55.5 -65.5t-19.5 -102.5q0 -59 19.5 -102t55.5 -66t87 -23t87 23t55.5 66t19.5 102
q0 60 -19.5 102.5t-55.5 65.5t-87 23zM55 -30l423 560h67l-423 -560h-67zM327 750h87l-98 -167h-65z" />
    <glyph glyph-name="uni0200" unicode="&#x200;" horiz-adv-x="660" 
d="M26 0l257 660h95l256 -660h-85l-188 492l-31 92h-2l-29 -89l-189 -495h-84zM152 183v75h353v-75h-353zM207 902l66 -159h-64l-86 159h84zM384 902l66 -159h-64l-86 159h84z" />
    <glyph glyph-name="uni0201" unicode="&#x201;" horiz-adv-x="566" 
d="M385 323q0 56 -30 86.5t-85 30.5q-52 0 -88 -22.5t-53 -72.5l-65 40q20 56 74 90.5t134 34.5q54 0 98 -18.5t69.5 -56t25.5 -96.5v-242q0 -36 38 -36q19 0 37 5l-4 -63q-20 -10 -52 -10q-29 0 -52 11t-36 33.5t-13 56.5v10l20 -3q-12 -39 -41 -63.5t-65 -36t-71 -11.5
q-44 0 -82 15t-60.5 45.5t-22.5 75.5q0 56 37.5 92.5t104.5 49.5l198 39v-66l-161 -33q-49 -10 -73 -28t-24 -50q0 -31 24.5 -50.5t69.5 -19.5q29 0 55.5 7.5t47.5 23t33 39t12 55.5v138zM231 583h-65l-98 167h87zM407 583h-65l-98 167h87z" />
    <glyph glyph-name="uni0202" unicode="&#x202;" horiz-adv-x="660" 
d="M26 0l257 660h95l256 -660h-85l-188 492l-31 92h-2l-29 -89l-189 -495h-84zM152 183v75h353v-75h-353zM478 737h-65q-1 35 -21.5 61.5t-61.5 26.5q-40 0 -61 -26.5t-22 -61.5h-65q0 66 41 107t107 41t107 -41t41 -107z" />
    <glyph glyph-name="uni0203" unicode="&#x203;" horiz-adv-x="566" 
d="M385 323q0 56 -30 86.5t-85 30.5q-52 0 -88 -22.5t-53 -72.5l-65 40q20 56 74 90.5t134 34.5q54 0 98 -18.5t69.5 -56t25.5 -96.5v-242q0 -36 38 -36q19 0 37 5l-4 -63q-20 -10 -52 -10q-29 0 -52 11t-36 33.5t-13 56.5v10l20 -3q-12 -39 -41 -63.5t-65 -36t-71 -11.5
q-44 0 -82 15t-60.5 45.5t-22.5 75.5q0 56 37.5 92.5t104.5 49.5l198 39v-66l-161 -33q-49 -10 -73 -28t-24 -50q0 -31 24.5 -50.5t69.5 -19.5q29 0 55.5 7.5t47.5 23t33 39t12 55.5v138zM424 577h-65q-1 35 -21.5 61.5t-61.5 26.5q-40 0 -61 -26.5t-22 -61.5h-65
q0 66 41 107t107 41t107 -41t41 -107z" />
    <glyph glyph-name="uni0204" unicode="&#x204;" horiz-adv-x="638" 
d="M108 0v660h463v-75h-383v-213h298v-75h-298v-222h398v-75h-478zM217 902l66 -159h-64l-86 159h84zM394 902l66 -159h-64l-86 159h84z" />
    <glyph glyph-name="uni0205" unicode="&#x205;" horiz-adv-x="577" 
d="M302 -10q-71 0 -126.5 31t-86.5 89.5t-31 139.5t31 139.5t85 89.5t123 31q70 0 119.5 -30t75.5 -81.5t26 -115.5q0 -17 -1 -31t-3 -25h-404v71h369l-41 -8q0 72 -39.5 111t-103.5 39q-49 0 -84.5 -22.5t-55 -65t-19.5 -102.5q0 -59 20 -102t56.5 -65.5t87.5 -22.5
q55 0 89.5 21t55.5 57l63 -37q-19 -34 -48.5 -59t-69 -38.5t-88.5 -13.5zM246 583h-65l-98 167h87zM422 583h-65l-98 167h87z" />
    <glyph glyph-name="uni0206" unicode="&#x206;" horiz-adv-x="638" 
d="M108 0v660h463v-75h-383v-213h298v-75h-298v-222h398v-75h-478zM488 737h-65q-1 35 -21.5 61.5t-61.5 26.5q-40 0 -61 -26.5t-22 -61.5h-65q0 66 41 107t107 41t107 -41t41 -107z" />
    <glyph glyph-name="uni0207" unicode="&#x207;" horiz-adv-x="577" 
d="M302 -10q-71 0 -126.5 31t-86.5 89.5t-31 139.5t31 139.5t85 89.5t123 31q70 0 119.5 -30t75.5 -81.5t26 -115.5q0 -17 -1 -31t-3 -25h-404v71h369l-41 -8q0 72 -39.5 111t-103.5 39q-49 0 -84.5 -22.5t-55 -65t-19.5 -102.5q0 -59 20 -102t56.5 -65.5t87.5 -22.5
q55 0 89.5 21t55.5 57l63 -37q-19 -34 -48.5 -59t-69 -38.5t-88.5 -13.5zM439 577h-65q-1 35 -21.5 61.5t-61.5 26.5q-40 0 -61 -26.5t-22 -61.5h-65q0 66 41 107t107 41t107 -41t41 -107z" />
    <glyph glyph-name="uni0208" unicode="&#x208;" horiz-adv-x="296" 
d="M188 660v-660h-80v660h80zM25 902l66 -159h-64l-86 159h84zM202 902l66 -159h-64l-86 159h84z" />
    <glyph glyph-name="uni0209" unicode="&#x209;" horiz-adv-x="266" 
d="M173 500v-500h-80v500h80zM88 583h-65l-98 167h87zM264 583h-65l-98 167h87z" />
    <glyph glyph-name="uni020A" unicode="&#x20a;" horiz-adv-x="296" 
d="M188 660v-660h-80v660h80zM296 737h-65q-1 35 -21.5 61.5t-61.5 26.5q-40 0 -61 -26.5t-22 -61.5h-65q0 66 41 107t107 41t107 -41t41 -107z" />
    <glyph glyph-name="uni020B" unicode="&#x20b;" horiz-adv-x="266" 
d="M173 500v-500h-80v500h80zM281 577h-65q-1 35 -21.5 61.5t-61.5 26.5q-40 0 -61 -26.5t-22 -61.5h-65q0 66 41 107t107 41t107 -41t41 -107z" />
    <glyph glyph-name="uni020C" unicode="&#x20c;" horiz-adv-x="748" 
d="M374 670q94 0 162.5 -41.5t106 -117.5t37.5 -181t-37.5 -181t-106 -117.5t-162.5 -41.5t-162.5 41.5t-106 117.5t-37.5 181t37.5 181t106 117.5t162.5 41.5zM374 595q-68 0 -118 -31.5t-77 -91t-27 -142.5t27 -142.5t77 -91t118 -31.5q69 0 118.5 31.5t76.5 91t27 142.5
t-27 142.5t-76.5 91t-118.5 31.5zM251 902l66 -159h-64l-86 159h84zM428 902l66 -159h-64l-86 159h84z" />
    <glyph glyph-name="uni020D" unicode="&#x20d;" horiz-adv-x="600" 
d="M300 510q71 0 125.5 -31t85.5 -89.5t31 -139.5t-31 -139.5t-85.5 -89.5t-125.5 -31q-70 0 -125 31t-86 89.5t-31 139.5t31 139.5t86 89.5t125 31zM300 441q-51 0 -87 -23t-55.5 -65.5t-19.5 -102.5q0 -59 19.5 -102t55.5 -66t87 -23t87 23t55.5 66t19.5 102
q0 60 -19.5 102.5t-55.5 65.5t-87 23zM255 583h-65l-98 167h87zM431 583h-65l-98 167h87z" />
    <glyph glyph-name="uni020E" unicode="&#x20e;" horiz-adv-x="748" 
d="M374 670q94 0 162.5 -41.5t106 -117.5t37.5 -181t-37.5 -181t-106 -117.5t-162.5 -41.5t-162.5 41.5t-106 117.5t-37.5 181t37.5 181t106 117.5t162.5 41.5zM374 595q-68 0 -118 -31.5t-77 -91t-27 -142.5t27 -142.5t77 -91t118 -31.5q69 0 118.5 31.5t76.5 91t27 142.5
t-27 142.5t-76.5 91t-118.5 31.5zM522 737h-65q-1 35 -21.5 61.5t-61.5 26.5q-40 0 -61 -26.5t-22 -61.5h-65q0 66 41 107t107 41t107 -41t41 -107z" />
    <glyph glyph-name="uni020F" unicode="&#x20f;" horiz-adv-x="600" 
d="M300 510q71 0 125.5 -31t85.5 -89.5t31 -139.5t-31 -139.5t-85.5 -89.5t-125.5 -31q-70 0 -125 31t-86 89.5t-31 139.5t31 139.5t86 89.5t125 31zM300 441q-51 0 -87 -23t-55.5 -65.5t-19.5 -102.5q0 -59 19.5 -102t55.5 -66t87 -23t87 23t55.5 66t19.5 102
q0 60 -19.5 102.5t-55.5 65.5t-87 23zM448 577h-65q-1 35 -21.5 61.5t-61.5 26.5q-40 0 -61 -26.5t-22 -61.5h-65q0 66 41 107t107 41t107 -41t41 -107z" />
    <glyph glyph-name="uni0210" unicode="&#x210;" horiz-adv-x="665" 
d="M358 660q101 0 162 -52t61 -141t-61.5 -138.5t-162.5 -49.5l-7 -5h-162v-274h-80v660h250zM357 349q71 0 105.5 29.5t34.5 88.5t-34.5 88.5t-105.5 29.5h-169v-236h169zM403 333l218 -333h-95l-190 289zM199 902l66 -159h-64l-86 159h84zM376 902l66 -159h-64l-86 159h84
z" />
    <glyph glyph-name="uni0211" unicode="&#x211;" horiz-adv-x="408" 
d="M93 0v500h65l11 -82q21 46 61.5 69t98.5 23q13 0 28.5 -2t26.5 -8l-14 -73q-11 4 -24 6t-37 2q-31 0 -62.5 -18t-52.5 -54.5t-21 -92.5v-270h-80zM191 583h-65l-98 167h87zM367 583h-65l-98 167h87z" />
    <glyph glyph-name="uni0212" unicode="&#x212;" horiz-adv-x="665" 
d="M358 660q101 0 162 -52t61 -141t-61.5 -138.5t-162.5 -49.5l-7 -5h-162v-274h-80v660h250zM357 349q71 0 105.5 29.5t34.5 88.5t-34.5 88.5t-105.5 29.5h-169v-236h169zM403 333l218 -333h-95l-190 289zM470 737h-65q-1 35 -21.5 61.5t-61.5 26.5q-40 0 -61 -26.5
t-22 -61.5h-65q0 66 41 107t107 41t107 -41t41 -107z" />
    <glyph glyph-name="uni0213" unicode="&#x213;" horiz-adv-x="408" 
d="M93 0v500h65l11 -82q21 46 61.5 69t98.5 23q13 0 28.5 -2t26.5 -8l-14 -73q-11 4 -24 6t-37 2q-31 0 -62.5 -18t-52.5 -54.5t-21 -92.5v-270h-80zM384 577h-65q-1 35 -21.5 61.5t-61.5 26.5q-40 0 -61 -26.5t-22 -61.5h-65q0 66 41 107t107 41t107 -41t41 -107z" />
    <glyph glyph-name="uni0214" unicode="&#x214;" horiz-adv-x="708" 
d="M613 660v-414q0 -127 -67 -191.5t-192 -64.5q-124 0 -191.5 64.5t-67.5 191.5v414h80v-394q0 -103 43.5 -152t135.5 -49t135.5 49t43.5 152v394h80zM231 877l66 -159h-64l-86 159h84zM408 877l66 -159h-64l-86 159h84z" />
    <glyph glyph-name="uni0215" unicode="&#x215;" horiz-adv-x="617" 
d="M274 -10q-48 0 -90.5 18t-69 58.5t-26.5 105.5v328h80v-307q0 -76 33 -104.5t93 -28.5q28 0 55 9.5t48.5 30t34 52.5t12.5 76v272h80v-500h-70l-5 76q-26 -45 -70.5 -65.5t-104.5 -20.5zM261 573h-65l-98 167h87zM437 573h-65l-98 167h87z" />
    <glyph glyph-name="uni0216" unicode="&#x216;" horiz-adv-x="708" 
d="M613 660v-414q0 -127 -67 -191.5t-192 -64.5q-124 0 -191.5 64.5t-67.5 191.5v414h80v-394q0 -103 43.5 -152t135.5 -49t135.5 49t43.5 152v394h80zM502 712h-65q-1 35 -21.5 61.5t-61.5 26.5q-40 0 -61 -26.5t-22 -61.5h-65q0 66 41 107t107 41t107 -41t41 -107z" />
    <glyph glyph-name="uni0217" unicode="&#x217;" horiz-adv-x="617" 
d="M274 -10q-48 0 -90.5 18t-69 58.5t-26.5 105.5v328h80v-307q0 -76 33 -104.5t93 -28.5q28 0 55 9.5t48.5 30t34 52.5t12.5 76v272h80v-500h-70l-5 76q-26 -45 -70.5 -65.5t-104.5 -20.5zM454 567h-65q-1 35 -21.5 61.5t-61.5 26.5q-40 0 -61 -26.5t-22 -61.5h-65
q0 66 41 107t107 41t107 -41t41 -107z" />
    <glyph glyph-name="uni0218" unicode="&#x218;" horiz-adv-x="641" 
d="M320 670q87 0 150 -35.5t105 -104.5l-67 -52q-37 64 -83.5 90.5t-112.5 26.5q-53 0 -87.5 -15t-50.5 -39.5t-16 -55.5q0 -35 22 -61.5t88 -41.5l143 -32q95 -21 132.5 -63.5t37.5 -105.5q0 -56 -31.5 -99.5t-88.5 -67.5t-134 -24q-72 0 -126.5 19.5t-93.5 52.5t-64 74
l70 57q19 -38 49 -67t72.5 -45t97.5 -16q51 0 88.5 12.5t57.5 37t20 59.5q0 32 -21 57.5t-79 38.5l-155 35q-61 14 -98.5 38.5t-54 58t-16.5 72.5q0 53 29.5 97.5t85 71.5t131.5 27zM355 -76l-65 -161h-63l44 161h84z" />
    <glyph glyph-name="uni0219" unicode="&#x219;" horiz-adv-x="527" 
d="M273 -10q-73 0 -134.5 31t-94.5 88l68 49q22 -46 64.5 -72t102.5 -26q53 0 83 20.5t30 53.5q0 21 -13.5 38.5t-51.5 25.5l-120 25q-73 15 -104.5 50t-31.5 87q0 41 23.5 75t67 54.5t102.5 20.5q74 0 125 -29t76 -82l-67 -44q-17 44 -55 64.5t-79 20.5q-36 0 -61.5 -10
t-39 -27.5t-13.5 -39.5t15 -40.5t56 -26.5l125 -26q70 -14 98 -46t28 -78q0 -47 -25 -82.5t-70 -54.5t-104 -19zM306 -76l-65 -161h-63l44 161h84z" />
    <glyph glyph-name="uni021A" unicode="&#x21a;" 
d="M572 660v-75h-230v-585h-80v585h-230v75h540zM355 -76l-65 -161h-63l44 161h84z" />
    <glyph glyph-name="uni021B" unicode="&#x21b;" horiz-adv-x="419" 
d="M211 642v-504q0 -37 21 -55t54 -18q29 0 50 10t38 27l28 -67q-23 -21 -54.5 -33t-72.5 -12q-38 0 -71 13.5t-52.5 43t-20.5 77.5v496zM393 500v-69h-362v69h362zM293 -76l-65 -161h-63l44 161h84z" />
    <glyph glyph-name="uni022A" unicode="&#x22a;" horiz-adv-x="748" 
d="M374 670q94 0 162.5 -41.5t106 -117.5t37.5 -181t-37.5 -181t-106 -117.5t-162.5 -41.5t-162.5 41.5t-106 117.5t-37.5 181t37.5 181t106 117.5t162.5 41.5zM374 595q-68 0 -118 -31.5t-77 -91t-27 -142.5t27 -142.5t77 -91t118 -31.5q69 0 118.5 31.5t76.5 91t27 142.5
t-27 142.5t-76.5 91t-118.5 31.5zM277 856q26 0 41.5 -15.5t15.5 -41.5q0 -25 -15.5 -41t-41.5 -16q-25 0 -41 16t-16 41q0 26 16 41.5t41 15.5zM471 856q26 0 41.5 -15.5t15.5 -41.5q0 -25 -15.5 -41t-41.5 -16q-25 0 -41 16t-16 41q0 26 16 41.5t41 15.5zM538 992v-67
h-328v67h328z" />
    <glyph glyph-name="uni022B" unicode="&#x22b;" horiz-adv-x="600" 
d="M300 510q71 0 125.5 -31t85.5 -89.5t31 -139.5t-31 -139.5t-85.5 -89.5t-125.5 -31q-70 0 -125 31t-86 89.5t-31 139.5t31 139.5t86 89.5t125 31zM300 441q-51 0 -87 -23t-55.5 -65.5t-19.5 -102.5q0 -59 19.5 -102t55.5 -66t87 -23t87 23t55.5 66t19.5 102
q0 60 -19.5 102.5t-55.5 65.5t-87 23zM203 696q26 0 41.5 -15.5t15.5 -41.5q0 -25 -15.5 -41t-41.5 -16q-25 0 -41 16t-16 41q0 26 16 41.5t41 15.5zM397 696q26 0 41.5 -15.5t15.5 -41.5q0 -25 -15.5 -41t-41.5 -16q-25 0 -41 16t-16 41q0 26 16 41.5t41 15.5zM464 832v-67
h-328v67h328z" />
    <glyph glyph-name="uni022C" unicode="&#x22c;" horiz-adv-x="748" 
d="M374 670q94 0 162.5 -41.5t106 -117.5t37.5 -181t-37.5 -181t-106 -117.5t-162.5 -41.5t-162.5 41.5t-106 117.5t-37.5 181t37.5 181t106 117.5t162.5 41.5zM374 595q-68 0 -118 -31.5t-77 -91t-27 -142.5t27 -142.5t77 -91t118 -31.5q69 0 118.5 31.5t76.5 91t27 142.5
t-27 142.5t-76.5 91t-118.5 31.5zM554 877q-3 -44 -16.5 -74t-37 -45t-58.5 -15q-28 0 -47.5 10.5t-33.5 23.5t-27.5 23.5t-29.5 10.5q-22 0 -33 -18.5t-16 -50.5h-63q5 66 32.5 100t80.5 34q27 0 46.5 -10.5t34 -23.5t27.5 -23.5t28 -10.5q23 0 34 18.5t16 50.5h63z
M537 1021v-67h-328v67h328z" />
    <glyph glyph-name="uni022D" unicode="&#x22d;" horiz-adv-x="600" 
d="M300 510q71 0 125.5 -31t85.5 -89.5t31 -139.5t-31 -139.5t-85.5 -89.5t-125.5 -31q-70 0 -125 31t-86 89.5t-31 139.5t31 139.5t86 89.5t125 31zM300 441q-51 0 -87 -23t-55.5 -65.5t-19.5 -102.5q0 -59 19.5 -102t55.5 -66t87 -23t87 23t55.5 66t19.5 102
q0 60 -19.5 102.5t-55.5 65.5t-87 23zM480 717q-3 -44 -16.5 -74t-37 -45t-58.5 -15q-28 0 -47.5 10.5t-33.5 23.5t-27.5 23.5t-29.5 10.5q-22 0 -33 -18.5t-16 -50.5h-63q5 66 32.5 100t80.5 34q27 0 46.5 -10.5t34 -23.5t27.5 -23.5t28 -10.5q23 0 34 18.5t16 50.5h63z
M463 861v-67h-328v67h328z" />
    <glyph glyph-name="uni0230" unicode="&#x230;" horiz-adv-x="748" 
d="M374 670q94 0 162.5 -41.5t106 -117.5t37.5 -181t-37.5 -181t-106 -117.5t-162.5 -41.5t-162.5 41.5t-106 117.5t-37.5 181t37.5 181t106 117.5t162.5 41.5zM374 595q-68 0 -118 -31.5t-77 -91t-27 -142.5t27 -142.5t77 -91t118 -31.5q69 0 118.5 31.5t76.5 91t27 142.5
t-27 142.5t-76.5 91t-118.5 31.5zM374 876q27 0 43.5 -16.5t16.5 -43.5t-16.5 -43.5t-43.5 -16.5t-43.5 16.5t-16.5 43.5t16.5 43.5t43.5 16.5zM538 1012v-67h-328v67h328z" />
    <glyph glyph-name="uni0231" unicode="&#x231;" horiz-adv-x="600" 
d="M300 510q71 0 125.5 -31t85.5 -89.5t31 -139.5t-31 -139.5t-85.5 -89.5t-125.5 -31q-70 0 -125 31t-86 89.5t-31 139.5t31 139.5t86 89.5t125 31zM300 441q-51 0 -87 -23t-55.5 -65.5t-19.5 -102.5q0 -59 19.5 -102t55.5 -66t87 -23t87 23t55.5 66t19.5 102
q0 60 -19.5 102.5t-55.5 65.5t-87 23zM300 716q27 0 43.5 -16.5t16.5 -43.5t-16.5 -43.5t-43.5 -16.5t-43.5 16.5t-16.5 43.5t16.5 43.5t43.5 16.5zM464 852v-67h-328v67h328z" />
    <glyph glyph-name="uni0232" unicode="&#x232;" horiz-adv-x="572" 
d="M562 660l-236 -402v-258h-80v258l-236 402h95l128 -226l53 -94l53 94l128 226h95zM450 803v-67h-328v67h328z" />
    <glyph glyph-name="uni0233" unicode="&#x233;" horiz-adv-x="516" 
d="M504 500l-235 -584q-19 -49 -41.5 -77.5t-50 -41t-63.5 -12.5q-34 0 -62.5 9.5t-50.5 25.5l22 70q20 -18 42.5 -26.5t44.5 -8.5q26 0 49 16t42 65l26 65l-50 119l-159 380h91l125 -326l31 -89l36 99l117 316h86zM423 653v-67h-328v67h328z" />
    <glyph glyph-name="uni0237" unicode="&#x237;" horiz-adv-x="266" 
d="M173 500v-551q0 -62 -24 -98t-59 -51t-69 -15q-31 0 -57 9.5t-43 23.5l17 76q14 -13 35 -22t47 -9q32 0 52.5 21t20.5 73v543h80z" />
    <glyph glyph-name="uni0259" unicode="&#x259;" horiz-adv-x="575" 
d="M281 -10q-68 0 -118 29.5t-77.5 80.5t-27.5 116q0 15 1.5 31.5t5.5 32.5h400v-71h-365l43 31q-1 -9 -2 -17.5t-1 -16.5q0 -67 39 -106.5t102 -39.5q74 0 116 47t42 134q0 63 -17 107.5t-51 68t-86 23.5q-46 0 -84.5 -23t-58.5 -65l-68 34q18 37 47 65t70 43.5t94 15.5
q76 0 127.5 -31t78 -89.5t26.5 -139.5q0 -121 -61.5 -190.5t-174.5 -69.5z" />
    <glyph glyph-name="uni02B9" unicode="&#x2b9;" horiz-adv-x="600" 
d="M183 690l-66 -247h-64l40 247h90z" />
    <glyph glyph-name="uni02BA" unicode="&#x2ba;" horiz-adv-x="404" 
d="M353 690l-66 -247h-64l40 247h90zM183 690l-66 -247h-64l40 247h90z" />
    <glyph glyph-name="uni02BB" unicode="&#x2bb;" horiz-adv-x="600" 
d="M365 778l-42 -191h-88l70 191h60z" />
    <glyph glyph-name="uni02BC" unicode="&#x2bc;" horiz-adv-x="600" 
d="M131 700q24 0 40.5 -12.5t25.5 -34t9 -50.5q0 -33 -11.5 -65t-35.5 -59t-62 -45l-42 39q27 9 47.5 25t33.5 36t17 41l-4 2q-4 -3 -10 -5t-18 -2t-24.5 7t-21.5 20.5t-9 35.5q0 18 9 33.5t23.5 24.5t32.5 9z" />
    <glyph glyph-name="uni02BE" unicode="&#x2be;" horiz-adv-x="299" 
d="M106 730q61 0 98 -35.5t37 -92.5t-37 -92.5t-98 -35.5h-38v58h38q31 0 50.5 19.5t19.5 50.5t-19.5 50.5t-50.5 19.5h-38v58h38z" />
    <glyph glyph-name="uni02BF" unicode="&#x2bf;" horiz-adv-x="299" 
d="M193 474q-61 0 -98 35.5t-37 92.5t37 92.5t98 35.5h38v-58h-38q-31 0 -50.5 -19.5t-19.5 -50.5t19.5 -50.5t50.5 -19.5h38v-58h-38z" />
    <glyph glyph-name="circumflex" unicode="&#x2c6;" horiz-adv-x="500" 
d="M409 576h-73l-86 115l-86 -115h-73l114 167h90z" />
    <glyph glyph-name="caron" unicode="&#x2c7;" horiz-adv-x="500" 
d="M409 750l-114 -167h-90l-114 167h73l86 -115l86 115h73z" />
    <glyph glyph-name="uni02C8" unicode="&#x2c8;" horiz-adv-x="205" 
d="M65 730h75v-260h-75v260z" />
    <glyph glyph-name="uni02C9" unicode="&#x2c9;" horiz-adv-x="500" 
d="M414 663v-67h-328v67h328z" />
    <glyph glyph-name="uni02CA" unicode="&#x2ca;" horiz-adv-x="600" 
d="M295 750h87l-98 -167h-65z" />
    <glyph glyph-name="uni02CB" unicode="&#x2cb;" horiz-adv-x="500" 
d="M256 750l76 -167h-65l-98 167h87z" />
    <glyph glyph-name="uni02CC" unicode="&#x2cc;" horiz-adv-x="205" 
d="M65 60h75v-260h-75v260z" />
    <glyph glyph-name="breve" unicode="&#x2d8;" horiz-adv-x="500" 
d="M398 725q0 -66 -41 -107t-107 -41t-107 41t-41 107h65q1 -35 22 -61.5t61 -26.5q41 0 61.5 26.5t21.5 61.5h65z" />
    <glyph glyph-name="dotaccent" unicode="&#x2d9;" horiz-adv-x="500" 
d="M250 716q27 0 43.5 -16.5t16.5 -43.5t-16.5 -43.5t-43.5 -16.5t-43.5 16.5t-16.5 43.5t16.5 43.5t43.5 16.5z" />
    <glyph glyph-name="ring" unicode="&#x2da;" horiz-adv-x="500" 
d="M251 812q56 0 90.5 -32.5t34.5 -85.5t-34.5 -86t-90.5 -33t-91 33t-35 86t35 85.5t91 32.5zM251 763q-31 0 -51 -19.5t-20 -49.5t20 -49.5t51 -19.5t51 19.5t20 49.5t-20 49.5t-51 19.5z" />
    <glyph glyph-name="ogonek" unicode="&#x2db;" horiz-adv-x="500" 
d="M272 -215q-57 0 -87.5 28.5t-30.5 74.5q0 56 35.5 89t109.5 60l44 -21q-55 -20 -82 -39.5t-35.5 -39t-8.5 -40.5q0 -26 17 -40t45 -14q15 0 29 3t26 8l12 -53q-13 -7 -33 -11.5t-41 -4.5z" />
    <glyph glyph-name="tilde" unicode="&#x2dc;" horiz-adv-x="500" 
d="M431 717q-3 -44 -16.5 -74t-37 -45t-58.5 -15q-28 0 -47.5 10.5t-33.5 23.5t-27.5 23.5t-29.5 10.5q-22 0 -33 -18.5t-16 -50.5h-63q5 66 32.5 100t80.5 34q27 0 46.5 -10.5t34 -23.5t27.5 -23.5t28 -10.5q23 0 34 18.5t16 50.5h63z" />
    <glyph glyph-name="hungarumlaut" unicode="&#x2dd;" horiz-adv-x="500" 
d="M257 583l76 167h87l-98 -167h-65zM81 583l76 167h87l-98 -167h-65z" />
    <glyph glyph-name="gravecomb" unicode="&#x300;" horiz-adv-x="0" 
d="M-34 750l76 -167h-65l-98 167h87z" />
    <glyph glyph-name="acutecomb" unicode="&#x301;" horiz-adv-x="0" 
d="M27 750h87l-98 -167h-65z" />
    <glyph glyph-name="uni0302" unicode="&#x302;" horiz-adv-x="0" 
d="M159 576h-73l-86 115l-86 -115h-73l114 167h90z" />
    <glyph glyph-name="tildecomb" unicode="&#x303;" horiz-adv-x="0" 
d="M180 717q-3 -44 -16.5 -74t-37 -45t-58.5 -15q-28 0 -47.5 10.5t-33.5 23.5t-27.5 23.5t-29.5 10.5q-22 0 -33 -18.5t-16 -50.5h-63q5 66 32.5 100t80.5 34q27 0 46.5 -10.5t34 -23.5t27.5 -23.5t28 -10.5q23 0 34 18.5t16 50.5h63z" />
    <glyph glyph-name="uni0304" unicode="&#x304;" horiz-adv-x="0" 
d="M164 663v-67h-328v67h328z" />
    <glyph glyph-name="uni0306" unicode="&#x306;" horiz-adv-x="0" 
d="M148 725q0 -66 -41 -107t-107 -41t-107 41t-41 107h65q1 -35 22 -61.5t61 -26.5q41 0 61.5 26.5t21.5 61.5h65z" />
    <glyph glyph-name="uni0307" unicode="&#x307;" horiz-adv-x="0" 
d="M0 716q27 0 43.5 -16.5t16.5 -43.5t-16.5 -43.5t-43.5 -16.5t-43.5 16.5t-16.5 43.5t16.5 43.5t43.5 16.5z" />
    <glyph glyph-name="uni0308" unicode="&#x308;" horiz-adv-x="0" 
d="M-97 696q26 0 41.5 -15.5t15.5 -41.5q0 -25 -15.5 -41t-41.5 -16q-25 0 -41 16t-16 41q0 26 16 41.5t41 15.5zM97 696q26 0 41.5 -15.5t15.5 -41.5q0 -25 -15.5 -41t-41.5 -16q-25 0 -41 16t-16 41q0 26 16 41.5t41 15.5z" />
    <glyph glyph-name="hookabovecomb" unicode="&#x309;" horiz-adv-x="0" 
d="M275 549l-28 39q30 14 44.5 28t14.5 36q0 17 -11 28.5t-31 11.5q-13 0 -25 -8t-23 -26l-46 32q14 32 41.5 47.5t64.5 15.5q29 0 50.5 -12t33 -32.5t11.5 -45.5q0 -24 -10.5 -45.5t-32 -38.5t-53.5 -30z" />
    <glyph glyph-name="uni030A" unicode="&#x30a;" horiz-adv-x="0" 
d="M-3 812q56 0 90.5 -32.5t34.5 -85.5t-34.5 -86t-90.5 -33t-91 33t-35 86t35 85.5t91 32.5zM-3 763q-31 0 -51 -19.5t-20 -49.5t20 -49.5t51 -19.5t51 19.5t20 49.5t-20 49.5t-51 19.5z" />
    <glyph glyph-name="uni030B" unicode="&#x30b;" horiz-adv-x="0" 
d="M35 583l76 167h87l-98 -167h-65zM-141 583l76 167h87l-98 -167h-65z" />
    <glyph glyph-name="uni030C" unicode="&#x30c;" horiz-adv-x="0" 
d="M159 750l-114 -167h-90l-114 167h73l86 -115l86 115h73z" />
    <glyph glyph-name="uni030F" unicode="&#x30f;" horiz-adv-x="0" 
d="M-45 583h-65l-98 167h87zM131 583h-65l-98 167h87z" />
    <glyph glyph-name="uni0311" unicode="&#x311;" horiz-adv-x="0" 
d="M148 577h-65q-1 35 -21.5 61.5t-61.5 26.5q-40 0 -61 -26.5t-22 -61.5h-65q0 66 41 107t107 41t107 -41t41 -107z" />
    <glyph glyph-name="uni0312" unicode="&#x312;" horiz-adv-x="0" 
d="M357 778l-42 -191h-88l70 191h60z" />
    <glyph glyph-name="uni031B" unicode="&#x31b;" horiz-adv-x="0" 
d="M250 441v59q43 0 67.5 27.5t24.5 90.5h69q0 -89 -43.5 -133t-117.5 -44z" />
    <glyph glyph-name="dotbelowcomb" unicode="&#x323;" horiz-adv-x="0" 
d="M0 -216q-27 0 -43.5 16.5t-16.5 43.5t16.5 43.5t43.5 16.5t43.5 -16.5t16.5 -43.5t-16.5 -43.5t-43.5 -16.5z" />
    <glyph glyph-name="uni0324" unicode="&#x324;" horiz-adv-x="0" 
d="M-97 -82q26 0 41.5 -15.5t15.5 -41.5q0 -25 -15.5 -41t-41.5 -16q-25 0 -41 16t-16 41q0 26 16 41.5t41 15.5zM97 -82q26 0 41.5 -15.5t15.5 -41.5q0 -25 -15.5 -41t-41.5 -16q-25 0 -41 16t-16 41q0 26 16 41.5t41 15.5z" />
    <glyph glyph-name="uni0326" unicode="&#x326;" horiz-adv-x="0" 
d="M37 -76l-65 -161h-63l44 161h84z" />
    <glyph glyph-name="uni0327" unicode="&#x327;" horiz-adv-x="0" 
d="M-55 4l42 25q59 -19 84 -51.5t25 -76.5q0 -48 -34 -82t-87 -34q-31 0 -54.5 8t-40.5 21l19 58q14 -9 29.5 -16t37.5 -7q28 0 46 18t18 52q0 26 -19 45t-66 40z" />
    <glyph glyph-name="uni0328" unicode="&#x328;" horiz-adv-x="0" 
d="M-71 -215q-57 0 -87.5 28.5t-30.5 74.5q0 56 35.5 89t109.5 60l44 -21q-55 -20 -82 -39.5t-35.5 -39t-8.5 -40.5q0 -26 17 -40t45 -14q15 0 29 3t26 8l12 -53q-13 -7 -33 -11.5t-41 -4.5z" />
    <glyph glyph-name="uni032E" unicode="&#x32e;" horiz-adv-x="0" 
d="M148 -77q0 -66 -41 -107t-107 -41t-107 41t-41 107h65q1 -35 22 -61.5t61 -26.5q41 0 61.5 26.5t21.5 61.5h65z" />
    <glyph glyph-name="uni0331" unicode="&#x331;" horiz-adv-x="0" 
d="M164 -96v-67h-328v67h328z" />
    <glyph glyph-name="uni0335" unicode="&#x335;" horiz-adv-x="0" 
d="M198 361v-61h-397v61h397z" />
    <glyph glyph-name="uni0338" unicode="&#x338;" horiz-adv-x="0" 
d="M59 -30l423 560h67l-423 -560h-67z" />
    <glyph glyph-name="uni03A9" unicode="&#x3a9;" horiz-adv-x="748" 
d="M58 0v68h184l-14 -11q-74 38 -117 110t-43 174q0 99 37.5 173t106 115t162.5 41t162.5 -41t106 -115t37.5 -173q0 -102 -43 -174t-117 -110l-14 11h184v-68h-259v72q77 20 123 87t46 182q0 78 -28 135t-78.5 88t-119.5 31q-68 0 -119 -31t-79 -88t-28 -135q0 -77 21 -132
t59 -89t89 -48v-72h-259z" />
    <glyph glyph-name="uni03BC" unicode="&#x3bc;" horiz-adv-x="622" 
d="M93 -210v710h80v-306q0 -70 33 -102t93 -32q40 0 74 17.5t55 56.5t21 103v263h80v-500h-65l-7 81q-25 -45 -68 -68t-94 -23q-38 0 -70 12t-52 39v0v-251h-80z" />
    <glyph glyph-name="pi" unicode="&#x3c0;" horiz-adv-x="736" 
d="M168 0v433h-132v67h664v-67h-152v-293q0 -26 11.5 -41.5t35.5 -21.5t62 -6l-16 -71q-63 0 -101 11.5t-55 39t-17 74.5v308h-220v-433h-80z" />
    <glyph glyph-name="uni1E08" unicode="&#x1e08;" horiz-adv-x="686" 
d="M640 169q-21 -56 -60 -96.5t-91.5 -61.5t-114.5 -21q-94 0 -162.5 41.5t-106 117.5t-37.5 181t37.5 181t106 117.5t160.5 41.5q64 0 114 -17.5t85.5 -52t56.5 -84.5l-79 -37q-22 57 -63.5 86.5t-107.5 29.5q-67 0 -118 -31.5t-79.5 -90.5t-28.5 -143q0 -83 27 -142.5
t77 -91t118 -31.5q66 0 115 33.5t71 100.5zM317 4l42 25q59 -19 84 -51.5t25 -76.5q0 -48 -34 -82t-87 -34q-31 0 -54.5 8t-40.5 21l19 58q14 -9 29.5 -16t37.5 -7q28 0 46 18t18 52q0 26 -19 45t-66 40zM395 902h84l-86 -159h-64z" />
    <glyph glyph-name="uni1E09" unicode="&#x1e09;" horiz-adv-x="560" 
d="M300 510q52 0 91.5 -16t68.5 -46t47 -71l-76 -36q-16 48 -48.5 73.5t-84.5 25.5q-50 0 -86 -22.5t-55 -65t-19 -102.5q0 -59 19 -102t55 -65.5t86 -22.5q39 0 67.5 12t47 35t25.5 56l74 -26q-17 -46 -46.5 -79t-71 -50.5t-94.5 -17.5q-70 0 -125 31t-86 89.5t-31 139.5
t31 139.5t86 89.5t125 31zM244 4l42 25q59 -19 84 -51.5t25 -76.5q0 -48 -34 -82t-87 -34q-31 0 -54.5 8t-40.5 21l19 58q14 -9 29.5 -16t37.5 -7q28 0 46 18t18 52q0 26 -19 45t-66 40zM319 750h87l-98 -167h-65z" />
    <glyph glyph-name="uni1E0C" unicode="&#x1e0c;" horiz-adv-x="721" 
d="M321 660q155 0 243.5 -85.5t88.5 -244.5t-88.5 -244.5t-243.5 -85.5h-213v660h213zM329 75q113 0 176.5 67.5t63.5 187.5t-63.5 187.5t-176.5 67.5h-141v-510h141zM346 -216q-27 0 -43.5 16.5t-16.5 43.5t16.5 43.5t43.5 16.5t43.5 -16.5t16.5 -43.5t-16.5 -43.5
t-43.5 -16.5z" />
    <glyph glyph-name="uni1E0D" unicode="&#x1e0d;" horiz-adv-x="627" 
d="M288 -10q-62 0 -114 31t-83 89.5t-31 139.5q0 83 33 141t87 88.5t116 30.5t107.5 -32t60.5 -85l-10 -7v344h80v-730h-70l-7 121l11 6q-7 -44 -33.5 -74.5t-65 -46.5t-81.5 -16zM296 60q48 0 83.5 24t55 68.5t19.5 104.5q0 57 -19.5 98t-54 63t-80.5 22q-76 0 -118 -52
t-42 -138t41 -138t115 -52zM305 -216q-27 0 -43.5 16.5t-16.5 43.5t16.5 43.5t43.5 16.5t43.5 -16.5t16.5 -43.5t-16.5 -43.5t-43.5 -16.5z" />
    <glyph glyph-name="uni1E0E" unicode="&#x1e0e;" horiz-adv-x="721" 
d="M321 660q155 0 243.5 -85.5t88.5 -244.5t-88.5 -244.5t-243.5 -85.5h-213v660h213zM329 75q113 0 176.5 67.5t63.5 187.5t-63.5 187.5t-176.5 67.5h-141v-510h141zM510 -96v-67h-328v67h328z" />
    <glyph glyph-name="uni1E0F" unicode="&#x1e0f;" horiz-adv-x="627" 
d="M288 -10q-62 0 -114 31t-83 89.5t-31 139.5q0 83 33 141t87 88.5t116 30.5t107.5 -32t60.5 -85l-10 -7v344h80v-730h-70l-7 121l11 6q-7 -44 -33.5 -74.5t-65 -46.5t-81.5 -16zM296 60q48 0 83.5 24t55 68.5t19.5 104.5q0 57 -19.5 98t-54 63t-80.5 22q-76 0 -118 -52
t-42 -138t41 -138t115 -52zM469 -96v-67h-328v67h328z" />
    <glyph glyph-name="uni1E14" unicode="&#x1e14;" horiz-adv-x="638" 
d="M108 0v660h463v-75h-383v-213h298v-75h-298v-222h398v-75h-478zM504 823v-67h-328v67h328zM317 1063l66 -159h-64l-86 159h84z" />
    <glyph glyph-name="uni1E15" unicode="&#x1e15;" horiz-adv-x="577" 
d="M302 -10q-71 0 -126.5 31t-86.5 89.5t-31 139.5t31 139.5t85 89.5t123 31q70 0 119.5 -30t75.5 -81.5t26 -115.5q0 -17 -1 -31t-3 -25h-404v71h369l-41 -8q0 72 -39.5 111t-103.5 39q-49 0 -84.5 -22.5t-55 -65t-19.5 -102.5q0 -59 20 -102t56.5 -65.5t87.5 -22.5
q55 0 89.5 21t55.5 57l63 -37q-19 -34 -48.5 -59t-69 -38.5t-88.5 -13.5zM455 663v-67h-328v67h328zM268 903l66 -159h-64l-86 159h84z" />
    <glyph glyph-name="uni1E16" unicode="&#x1e16;" horiz-adv-x="638" 
d="M108 0v660h463v-75h-383v-213h298v-75h-298v-222h398v-75h-478zM504 823v-67h-328v67h328zM363 1063h84l-86 -159h-64z" />
    <glyph glyph-name="uni1E17" unicode="&#x1e17;" horiz-adv-x="577" 
d="M302 -10q-71 0 -126.5 31t-86.5 89.5t-31 139.5t31 139.5t85 89.5t123 31q70 0 119.5 -30t75.5 -81.5t26 -115.5q0 -17 -1 -31t-3 -25h-404v71h369l-41 -8q0 72 -39.5 111t-103.5 39q-49 0 -84.5 -22.5t-55 -65t-19.5 -102.5q0 -59 20 -102t56.5 -65.5t87.5 -22.5
q55 0 89.5 21t55.5 57l63 -37q-19 -34 -48.5 -59t-69 -38.5t-88.5 -13.5zM455 663v-67h-328v67h328zM314 903h84l-86 -159h-64z" />
    <glyph glyph-name="uni1E1C" unicode="&#x1e1c;" horiz-adv-x="638" 
d="M108 0v660h463v-75h-383v-213h298v-75h-298v-222h398v-75h-478zM295 4l42 25q59 -19 84 -51.5t25 -76.5q0 -48 -34 -82t-87 -34q-31 0 -54.5 8t-40.5 21l19 58q14 -9 29.5 -16t37.5 -7q28 0 46 18t18 52q0 26 -19 45t-66 40zM488 885q0 -66 -41 -107t-107 -41t-107 41
t-41 107h65q1 -35 22 -61.5t61 -26.5q41 0 61.5 26.5t21.5 61.5h65z" />
    <glyph glyph-name="uni1E1D" unicode="&#x1e1d;" horiz-adv-x="577" 
d="M302 -10q-71 0 -126.5 31t-86.5 89.5t-31 139.5t31 139.5t85 89.5t123 31q70 0 119.5 -30t75.5 -81.5t26 -115.5q0 -17 -1 -31t-3 -25h-404v71h369l-41 -8q0 72 -39.5 111t-103.5 39q-49 0 -84.5 -22.5t-55 -65t-19.5 -102.5q0 -59 20 -102t56.5 -65.5t87.5 -22.5
q55 0 89.5 21t55.5 57l63 -37q-19 -34 -48.5 -59t-69 -38.5t-88.5 -13.5zM245 4l42 25q59 -19 84 -51.5t25 -76.5q0 -48 -34 -82t-87 -34q-31 0 -54.5 8t-40.5 21l19 58q14 -9 29.5 -16t37.5 -7q28 0 46 18t18 52q0 26 -19 45t-66 40zM439 725q0 -66 -41 -107t-107 -41
t-107 41t-41 107h65q1 -35 22 -61.5t61 -26.5q41 0 61.5 26.5t21.5 61.5h65z" />
    <glyph glyph-name="uni1E20" unicode="&#x1e20;" horiz-adv-x="724" 
d="M374 -10q-94 0 -162.5 41.5t-106 117.5t-37.5 181t39.5 181t110.5 117.5t163 41.5q98 0 159.5 -37t99.5 -114l-73 -40q-22 57 -69.5 86.5t-116.5 29.5q-67 0 -118.5 -31.5t-81 -91t-29.5 -142.5t25.5 -142.5t76 -91t123.5 -31.5q41 0 76.5 10.5t62 31.5t41.5 53t15 75v23
h-210v75h283v-333h-63l-4 123l17 -3q-26 -62 -82 -96t-139 -34zM537 823v-67h-328v67h328z" />
    <glyph glyph-name="uni1E21" unicode="&#x1e21;" horiz-adv-x="532" 
d="M514 592l18 -71h-3h-4q-49 0 -75.5 -19.5t-26.5 -62.5l-49 25q0 39 18 68t49 44.5t68 15.5h2.5h2.5zM362 64q71 0 111 -32.5t40 -86.5q0 -49 -32.5 -85t-87 -55.5t-122.5 -19.5q-118 0 -176.5 40t-58.5 96q0 40 26.5 71.5t89.5 35.5l-7 -15q-34 9 -57.5 30.5t-23.5 62.5
t30.5 70.5t90.5 36.5l53 -27h-10q-49 -5 -69.5 -24.5t-20.5 -42.5q0 -28 20.5 -41.5t57.5 -13.5h146zM270 -148q58 0 95.5 12t55.5 31t18 41q0 27 -21.5 43t-77.5 16h-154q-32 0 -54 -16.5t-22 -45.5q0 -37 42.5 -59t117.5 -22zM263 510q60 0 106.5 -21.5t72.5 -59.5t26 -88
q0 -49 -26 -87.5t-72.5 -60t-106.5 -21.5q-99 0 -152 47.5t-53 121.5q0 50 26.5 88t72.5 59.5t106 21.5zM263 445q-52 0 -87 -28.5t-35 -75.5q0 -46 35 -75t87 -29t87 29t35 75q0 47 -35 75.5t-87 28.5zM379.529 663v-67h-225.059v67h225.059z" />
    <glyph glyph-name="uni1E24" unicode="&#x1e24;" horiz-adv-x="734" 
d="M626 660v-660h-80v660h80zM188 660v-660h-80v660h80zM583 372v-75h-433v75h433zM367 -216q-27 0 -43.5 16.5t-16.5 43.5t16.5 43.5t43.5 16.5t43.5 -16.5t16.5 -43.5t-16.5 -43.5t-43.5 -16.5z" />
    <glyph glyph-name="uni1E25" unicode="&#x1e25;" horiz-adv-x="619" 
d="M93 0v730h80v-305q26 45 69 65t94 20q54 0 98 -20.5t70.5 -62.5t26.5 -107v-320h-80v292q0 83 -35.5 115.5t-87.5 32.5q-36 0 -72 -17t-59.5 -55.5t-23.5 -102.5v-265h-80zM342 -216q-27 0 -43.5 16.5t-16.5 43.5t16.5 43.5t43.5 16.5t43.5 -16.5t16.5 -43.5t-16.5 -43.5
t-43.5 -16.5z" />
    <glyph glyph-name="uni1E2A" unicode="&#x1e2a;" horiz-adv-x="734" 
d="M626 660v-660h-80v660h80zM188 660v-660h-80v660h80zM583 372v-75h-433v75h433zM515 -77q0 -66 -41 -107t-107 -41t-107 41t-41 107h65q1 -35 22 -61.5t61 -26.5q41 0 61.5 26.5t21.5 61.5h65z" />
    <glyph glyph-name="uni1E2B" unicode="&#x1e2b;" horiz-adv-x="619" 
d="M93 0v730h80v-305q26 45 69 65t94 20q54 0 98 -20.5t70.5 -62.5t26.5 -107v-320h-80v292q0 83 -35.5 115.5t-87.5 32.5q-36 0 -72 -17t-59.5 -55.5t-23.5 -102.5v-265h-80zM490 -77q0 -66 -41 -107t-107 -41t-107 41t-41 107h65q1 -35 22 -61.5t61 -26.5q41 0 61.5 26.5
t21.5 61.5h65z" />
    <glyph glyph-name="uni1E2E" unicode="&#x1e2e;" horiz-adv-x="296" 
d="M188 660v-660h-80v660h80zM51 856q26 0 41.5 -15.5t15.5 -41.5q0 -25 -15.5 -41t-41.5 -16q-25 0 -41 16t-16 41q0 26 16 41.5t41 15.5zM245 856q26 0 41.5 -15.5t15.5 -41.5q0 -25 -15.5 -41t-41.5 -16q-25 0 -41 16t-16 41q0 26 16 41.5t41 15.5zM171 1071h84l-86 -159
h-64z" />
    <glyph glyph-name="uni1E2F" unicode="&#x1e2f;" horiz-adv-x="266" 
d="M173 500v-500h-80v500h80zM36 696q26 0 41.5 -15.5t15.5 -41.5q0 -25 -15.5 -41t-41.5 -16q-25 0 -41 16t-16 41q0 26 16 41.5t41 15.5zM230 696q26 0 41.5 -15.5t15.5 -41.5q0 -25 -15.5 -41t-41.5 -16q-25 0 -41 16t-16 41q0 26 16 41.5t41 15.5zM156 911h84l-86 -159
h-64z" />
    <glyph glyph-name="uni1E36" unicode="&#x1e36;" horiz-adv-x="598" 
d="M188 75h378v-75h-458v660h80v-585zM362 -216q-27 0 -43.5 16.5t-16.5 43.5t16.5 43.5t43.5 16.5t43.5 -16.5t16.5 -43.5t-16.5 -43.5t-43.5 -16.5z" />
    <glyph glyph-name="uni1E37" unicode="&#x1e37;" horiz-adv-x="306" 
d="M169 730v-603q0 -38 14 -52.5t45 -14.5q20 0 33 3t35 11l-13 -70q-16 -7 -35 -10.5t-39 -3.5q-61 0 -90.5 33t-29.5 101v606h80zM199 -216q-27 0 -43.5 16.5t-16.5 43.5t16.5 43.5t43.5 16.5t43.5 -16.5t16.5 -43.5t-16.5 -43.5t-43.5 -16.5z" />
    <glyph glyph-name="uni1E3A" unicode="&#x1e3a;" horiz-adv-x="598" 
d="M188 75h378v-75h-458v660h80v-585zM526 -96v-67h-328v67h328z" />
    <glyph glyph-name="uni1E3B" unicode="&#x1e3b;" horiz-adv-x="306" 
d="M169 730v-603q0 -38 14 -52.5t45 -14.5q20 0 33 3t35 11l-13 -70q-16 -7 -35 -10.5t-39 -3.5q-61 0 -90.5 33t-29.5 101v606h80zM313.732 -96v-67h-229.465v67h229.465z" />
    <glyph glyph-name="uni1E42" unicode="&#x1e42;" horiz-adv-x="854" 
d="M746 660v-660h-76v415l9 174h-1l-217 -589h-68l-217 589h-1l9 -174v-415h-76v660h123l145 -401l50 -165h2l51 164l144 402h123zM427 -216q-27 0 -43.5 16.5t-16.5 43.5t16.5 43.5t43.5 16.5t43.5 -16.5t16.5 -43.5t-16.5 -43.5t-43.5 -16.5z" />
    <glyph glyph-name="uni1E43" unicode="&#x1e43;" horiz-adv-x="953" 
d="M93 0v500h70l5 -78q27 46 70.5 67t89.5 21q53 0 100 -24t72 -74q16 34 45 55.5t63.5 32t65.5 10.5q48 0 91.5 -20t71.5 -62t28 -108v-320h-80v312q0 68 -34 98t-84 30q-39 0 -73 -19t-54.5 -56t-20.5 -91v-274h-80v312q0 68 -34 98t-84 30q-33 0 -67.5 -17.5t-57.5 -55.5
t-23 -100v-267h-80zM479 -216q-27 0 -43.5 16.5t-16.5 43.5t16.5 43.5t43.5 16.5t43.5 -16.5t16.5 -43.5t-16.5 -43.5t-43.5 -16.5z" />
    <glyph glyph-name="uni1E44" unicode="&#x1e44;" horiz-adv-x="734" 
d="M626 660v-660h-99l-276 442l-70 124h-1l4 -100v-466h-76v660h99l275 -440l71 -127h1l-4 101v466h76zM371 876q27 0 43.5 -16.5t16.5 -43.5t-16.5 -43.5t-43.5 -16.5t-43.5 16.5t-16.5 43.5t16.5 43.5t43.5 16.5z" />
    <glyph glyph-name="uni1E45" unicode="&#x1e45;" horiz-adv-x="619" 
d="M93 0v500h70l7 -112l-13 11q16 40 43 64.5t62.5 35.5t73.5 11q54 0 98 -20.5t70.5 -62.5t26.5 -107v-320h-80v292q0 83 -35.5 115.5t-87.5 32.5q-36 0 -72 -17t-59.5 -55t-23.5 -102v-266h-80zM318 716q27 0 43.5 -16.5t16.5 -43.5t-16.5 -43.5t-43.5 -16.5t-43.5 16.5
t-16.5 43.5t16.5 43.5t43.5 16.5z" />
    <glyph glyph-name="uni1E46" unicode="&#x1e46;" horiz-adv-x="734" 
d="M626 660v-660h-99l-276 442l-70 124h-1l4 -100v-466h-76v660h99l275 -440l71 -127h1l-4 101v466h76zM397 -216q-27 0 -43.5 16.5t-16.5 43.5t16.5 43.5t43.5 16.5t43.5 -16.5t16.5 -43.5t-16.5 -43.5t-43.5 -16.5z" />
    <glyph glyph-name="uni1E47" unicode="&#x1e47;" horiz-adv-x="619" 
d="M93 0v500h70l7 -112l-13 11q16 40 43 64.5t62.5 35.5t73.5 11q54 0 98 -20.5t70.5 -62.5t26.5 -107v-320h-80v292q0 83 -35.5 115.5t-87.5 32.5q-36 0 -72 -17t-59.5 -55t-23.5 -102v-266h-80zM342 -216q-27 0 -43.5 16.5t-16.5 43.5t16.5 43.5t43.5 16.5t43.5 -16.5
t16.5 -43.5t-16.5 -43.5t-43.5 -16.5z" />
    <glyph glyph-name="uni1E48" unicode="&#x1e48;" horiz-adv-x="734" 
d="M626 660v-660h-99l-276 442l-70 124h-1l4 -100v-466h-76v660h99l275 -440l71 -127h1l-4 101v466h76zM561 -96v-67h-328v67h328z" />
    <glyph glyph-name="uni1E49" unicode="&#x1e49;" horiz-adv-x="619" 
d="M93 0v500h70l7 -112l-13 11q16 40 43 64.5t62.5 35.5t73.5 11q54 0 98 -20.5t70.5 -62.5t26.5 -107v-320h-80v292q0 83 -35.5 115.5t-87.5 32.5q-36 0 -72 -17t-59.5 -55t-23.5 -102v-266h-80zM506 -96v-67h-328v67h328z" />
    <glyph glyph-name="uni1E4C" unicode="&#x1e4c;" horiz-adv-x="748" 
d="M374 670q94 0 162.5 -41.5t106 -117.5t37.5 -181t-37.5 -181t-106 -117.5t-162.5 -41.5t-162.5 41.5t-106 117.5t-37.5 181t37.5 181t106 117.5t162.5 41.5zM374 595q-68 0 -118 -31.5t-77 -91t-27 -142.5t27 -142.5t77 -91t118 -31.5q69 0 118.5 31.5t76.5 91t27 142.5
t-27 142.5t-76.5 91t-118.5 31.5zM554 877q-3 -44 -16.5 -74t-37 -45t-58.5 -15q-28 0 -47.5 10.5t-33.5 23.5t-27.5 23.5t-29.5 10.5q-22 0 -33 -18.5t-16 -50.5h-63q5 66 32.5 100t80.5 34q27 0 46.5 -10.5t34 -23.5t27.5 -23.5t28 -10.5q23 0 34 18.5t16 50.5h63z
M396 1100h84l-86 -159h-64z" />
    <glyph glyph-name="uni1E4D" unicode="&#x1e4d;" horiz-adv-x="600" 
d="M300 510q71 0 125.5 -31t85.5 -89.5t31 -139.5t-31 -139.5t-85.5 -89.5t-125.5 -31q-70 0 -125 31t-86 89.5t-31 139.5t31 139.5t86 89.5t125 31zM300 441q-51 0 -87 -23t-55.5 -65.5t-19.5 -102.5q0 -59 19.5 -102t55.5 -66t87 -23t87 23t55.5 66t19.5 102
q0 60 -19.5 102.5t-55.5 65.5t-87 23zM480 717q-3 -44 -16.5 -74t-37 -45t-58.5 -15q-28 0 -47.5 10.5t-33.5 23.5t-27.5 23.5t-29.5 10.5q-22 0 -33 -18.5t-16 -50.5h-63q5 66 32.5 100t80.5 34q27 0 46.5 -10.5t34 -23.5t27.5 -23.5t28 -10.5q23 0 34 18.5t16 50.5h63z
M322 940h84l-86 -159h-64z" />
    <glyph glyph-name="uni1E4E" unicode="&#x1e4e;" horiz-adv-x="748" 
d="M374 670q94 0 162.5 -41.5t106 -117.5t37.5 -181t-37.5 -181t-106 -117.5t-162.5 -41.5t-162.5 41.5t-106 117.5t-37.5 181t37.5 181t106 117.5t162.5 41.5zM374 595q-68 0 -118 -31.5t-77 -91t-27 -142.5t27 -142.5t77 -91t118 -31.5q69 0 118.5 31.5t76.5 91t27 142.5
t-27 142.5t-76.5 91t-118.5 31.5zM554 877q-3 -44 -16.5 -74t-37 -45t-58.5 -15q-28 0 -47.5 10.5t-33.5 23.5t-27.5 23.5t-29.5 10.5q-22 0 -33 -18.5t-16 -50.5h-63q5 66 32.5 100t80.5 34q27 0 46.5 -10.5t34 -23.5t27.5 -23.5t28 -10.5q23 0 34 18.5t16 50.5h63z
M276 1054q26 0 41.5 -15.5t15.5 -41.5q0 -25 -15.5 -41t-41.5 -16q-25 0 -41 16t-16 41q0 26 16 41.5t41 15.5zM470 1054q26 0 41.5 -15.5t15.5 -41.5q0 -25 -15.5 -41t-41.5 -16q-25 0 -41 16t-16 41q0 26 16 41.5t41 15.5z" />
    <glyph glyph-name="uni1E4F" unicode="&#x1e4f;" horiz-adv-x="600" 
d="M300 510q71 0 125.5 -31t85.5 -89.5t31 -139.5t-31 -139.5t-85.5 -89.5t-125.5 -31q-70 0 -125 31t-86 89.5t-31 139.5t31 139.5t86 89.5t125 31zM300 441q-51 0 -87 -23t-55.5 -65.5t-19.5 -102.5q0 -59 19.5 -102t55.5 -66t87 -23t87 23t55.5 66t19.5 102
q0 60 -19.5 102.5t-55.5 65.5t-87 23zM480 717q-3 -44 -16.5 -74t-37 -45t-58.5 -15q-28 0 -47.5 10.5t-33.5 23.5t-27.5 23.5t-29.5 10.5q-22 0 -33 -18.5t-16 -50.5h-63q5 66 32.5 100t80.5 34q27 0 46.5 -10.5t34 -23.5t27.5 -23.5t28 -10.5q23 0 34 18.5t16 50.5h63z
M202 894q26 0 41.5 -15.5t15.5 -41.5q0 -25 -15.5 -41t-41.5 -16q-25 0 -41 16t-16 41q0 26 16 41.5t41 15.5zM396 894q26 0 41.5 -15.5t15.5 -41.5q0 -25 -15.5 -41t-41.5 -16q-25 0 -41 16t-16 41q0 26 16 41.5t41 15.5z" />
    <glyph glyph-name="uni1E50" unicode="&#x1e50;" horiz-adv-x="748" 
d="M374 670q94 0 162.5 -41.5t106 -117.5t37.5 -181t-37.5 -181t-106 -117.5t-162.5 -41.5t-162.5 41.5t-106 117.5t-37.5 181t37.5 181t106 117.5t162.5 41.5zM374 595q-68 0 -118 -31.5t-77 -91t-27 -142.5t27 -142.5t77 -91t118 -31.5q69 0 118.5 31.5t76.5 91t27 142.5
t-27 142.5t-76.5 91t-118.5 31.5zM538 823v-67h-328v67h328zM351 1063l66 -159h-64l-86 159h84z" />
    <glyph glyph-name="uni1E51" unicode="&#x1e51;" horiz-adv-x="600" 
d="M300 510q71 0 125.5 -31t85.5 -89.5t31 -139.5t-31 -139.5t-85.5 -89.5t-125.5 -31q-70 0 -125 31t-86 89.5t-31 139.5t31 139.5t86 89.5t125 31zM300 441q-51 0 -87 -23t-55.5 -65.5t-19.5 -102.5q0 -59 19.5 -102t55.5 -66t87 -23t87 23t55.5 66t19.5 102
q0 60 -19.5 102.5t-55.5 65.5t-87 23zM464 663v-67h-328v67h328zM277 903l66 -159h-64l-86 159h84z" />
    <glyph glyph-name="uni1E52" unicode="&#x1e52;" horiz-adv-x="748" 
d="M374 670q94 0 162.5 -41.5t106 -117.5t37.5 -181t-37.5 -181t-106 -117.5t-162.5 -41.5t-162.5 41.5t-106 117.5t-37.5 181t37.5 181t106 117.5t162.5 41.5zM374 595q-68 0 -118 -31.5t-77 -91t-27 -142.5t27 -142.5t77 -91t118 -31.5q69 0 118.5 31.5t76.5 91t27 142.5
t-27 142.5t-76.5 91t-118.5 31.5zM538 823v-67h-328v67h328zM397 1063h84l-86 -159h-64z" />
    <glyph glyph-name="uni1E53" unicode="&#x1e53;" horiz-adv-x="600" 
d="M300 510q71 0 125.5 -31t85.5 -89.5t31 -139.5t-31 -139.5t-85.5 -89.5t-125.5 -31q-70 0 -125 31t-86 89.5t-31 139.5t31 139.5t86 89.5t125 31zM300 441q-51 0 -87 -23t-55.5 -65.5t-19.5 -102.5q0 -59 19.5 -102t55.5 -66t87 -23t87 23t55.5 66t19.5 102
q0 60 -19.5 102.5t-55.5 65.5t-87 23zM464 663v-67h-328v67h328zM323 903h84l-86 -159h-64z" />
    <glyph glyph-name="uni1E5A" unicode="&#x1e5a;" horiz-adv-x="665" 
d="M358 660q101 0 162 -52t61 -141t-61.5 -138.5t-162.5 -49.5l-7 -5h-162v-274h-80v660h250zM357 349q71 0 105.5 29.5t34.5 88.5t-34.5 88.5t-105.5 29.5h-169v-236h169zM403 333l218 -333h-95l-190 289zM365 -216q-27 0 -43.5 16.5t-16.5 43.5t16.5 43.5t43.5 16.5
t43.5 -16.5t16.5 -43.5t-16.5 -43.5t-43.5 -16.5z" />
    <glyph glyph-name="uni1E5B" unicode="&#x1e5b;" horiz-adv-x="408" 
d="M93 0v500h65l11 -82q21 46 61.5 69t98.5 23q13 0 28.5 -2t26.5 -8l-14 -73q-11 4 -24 6t-37 2q-31 0 -62.5 -18t-52.5 -54.5t-21 -92.5v-270h-80zM133 -216q-27 0 -43.5 16.5t-16.5 43.5t16.5 43.5t43.5 16.5t43.5 -16.5t16.5 -43.5t-16.5 -43.5t-43.5 -16.5z" />
    <glyph glyph-name="uni1E5E" unicode="&#x1e5e;" horiz-adv-x="665" 
d="M358 660q101 0 162 -52t61 -141t-61.5 -138.5t-162.5 -49.5l-7 -5h-162v-274h-80v660h250zM357 349q71 0 105.5 29.5t34.5 88.5t-34.5 88.5t-105.5 29.5h-169v-236h169zM403 333l218 -333h-95l-190 289zM529 -96v-67h-328v67h328z" />
    <glyph glyph-name="uni1E5F" unicode="&#x1e5f;" horiz-adv-x="408" 
d="M93 0v500h65l11 -82q21 46 61.5 69t98.5 23q13 0 28.5 -2t26.5 -8l-14 -73q-11 4 -24 6t-37 2q-31 0 -62.5 -18t-52.5 -54.5t-21 -92.5v-270h-80zM241.866 -96v-67h-217.732v67h217.732z" />
    <glyph glyph-name="uni1E60" unicode="&#x1e60;" horiz-adv-x="641" 
d="M320 670q87 0 150 -35.5t105 -104.5l-67 -52q-37 64 -83.5 90.5t-112.5 26.5q-53 0 -87.5 -15t-50.5 -39.5t-16 -55.5q0 -35 22 -61.5t88 -41.5l143 -32q95 -21 132.5 -63.5t37.5 -105.5q0 -56 -31.5 -99.5t-88.5 -67.5t-134 -24q-72 0 -126.5 19.5t-93.5 52.5t-64 74
l70 57q19 -38 49 -67t72.5 -45t97.5 -16q51 0 88.5 12.5t57.5 37t20 59.5q0 32 -21 57.5t-79 38.5l-155 35q-61 14 -98.5 38.5t-54 58t-16.5 72.5q0 53 29.5 97.5t85 71.5t131.5 27zM326 876q27 0 43.5 -16.5t16.5 -43.5t-16.5 -43.5t-43.5 -16.5t-43.5 16.5t-16.5 43.5
t16.5 43.5t43.5 16.5z" />
    <glyph glyph-name="uni1E61" unicode="&#x1e61;" horiz-adv-x="527" 
d="M273 -10q-73 0 -134.5 31t-94.5 88l68 49q22 -46 64.5 -72t102.5 -26q53 0 83 20.5t30 53.5q0 21 -13.5 38.5t-51.5 25.5l-120 25q-73 15 -104.5 50t-31.5 87q0 41 23.5 75t67 54.5t102.5 20.5q74 0 125 -29t76 -82l-67 -44q-17 44 -55 64.5t-79 20.5q-36 0 -61.5 -10
t-39 -27.5t-13.5 -39.5t15 -40.5t56 -26.5l125 -26q70 -14 98 -46t28 -78q0 -47 -25 -82.5t-70 -54.5t-104 -19zM264 716q27 0 43.5 -16.5t16.5 -43.5t-16.5 -43.5t-43.5 -16.5t-43.5 16.5t-16.5 43.5t16.5 43.5t43.5 16.5z" />
    <glyph glyph-name="uni1E62" unicode="&#x1e62;" horiz-adv-x="641" 
d="M320 670q87 0 150 -35.5t105 -104.5l-67 -52q-37 64 -83.5 90.5t-112.5 26.5q-53 0 -87.5 -15t-50.5 -39.5t-16 -55.5q0 -35 22 -61.5t88 -41.5l143 -32q95 -21 132.5 -63.5t37.5 -105.5q0 -56 -31.5 -99.5t-88.5 -67.5t-134 -24q-72 0 -126.5 19.5t-93.5 52.5t-64 74
l70 57q19 -38 49 -67t72.5 -45t97.5 -16q51 0 88.5 12.5t57.5 37t20 59.5q0 32 -21 57.5t-79 38.5l-155 35q-61 14 -98.5 38.5t-54 58t-16.5 72.5q0 53 29.5 97.5t85 71.5t131.5 27zM318 -216q-27 0 -43.5 16.5t-16.5 43.5t16.5 43.5t43.5 16.5t43.5 -16.5t16.5 -43.5
t-16.5 -43.5t-43.5 -16.5z" />
    <glyph glyph-name="uni1E63" unicode="&#x1e63;" horiz-adv-x="527" 
d="M273 -10q-73 0 -134.5 31t-94.5 88l68 49q22 -46 64.5 -72t102.5 -26q53 0 83 20.5t30 53.5q0 21 -13.5 38.5t-51.5 25.5l-120 25q-73 15 -104.5 50t-31.5 87q0 41 23.5 75t67 54.5t102.5 20.5q74 0 125 -29t76 -82l-67 -44q-17 44 -55 64.5t-79 20.5q-36 0 -61.5 -10
t-39 -27.5t-13.5 -39.5t15 -40.5t56 -26.5l125 -26q70 -14 98 -46t28 -78q0 -47 -25 -82.5t-70 -54.5t-104 -19zM269 -216q-27 0 -43.5 16.5t-16.5 43.5t16.5 43.5t43.5 16.5t43.5 -16.5t16.5 -43.5t-16.5 -43.5t-43.5 -16.5z" />
    <glyph glyph-name="uni1E64" unicode="&#x1e64;" horiz-adv-x="641" 
d="M320 670q87 0 150 -35.5t105 -104.5l-67 -52q-37 64 -83.5 90.5t-112.5 26.5q-53 0 -87.5 -15t-50.5 -39.5t-16 -55.5q0 -35 22 -61.5t88 -41.5l143 -32q95 -21 132.5 -63.5t37.5 -105.5q0 -56 -31.5 -99.5t-88.5 -67.5t-134 -24q-72 0 -126.5 19.5t-93.5 52.5t-64 74
l70 57q19 -38 49 -67t72.5 -45t97.5 -16q51 0 88.5 12.5t57.5 37t20 59.5q0 32 -21 57.5t-79 38.5l-155 35q-61 14 -98.5 38.5t-54 58t-16.5 72.5q0 53 29.5 97.5t85 71.5t131.5 27zM349 902h84l-86 -159h-64zM326 1087q27 0 43.5 -16.5t16.5 -43.5t-16.5 -43.5t-43.5 -16.5
t-43.5 16.5t-16.5 43.5t16.5 43.5t43.5 16.5z" />
    <glyph glyph-name="uni1E65" unicode="&#x1e65;" horiz-adv-x="527" 
d="M273 -10q-73 0 -134.5 31t-94.5 88l68 49q22 -46 64.5 -72t102.5 -26q53 0 83 20.5t30 53.5q0 21 -13.5 38.5t-51.5 25.5l-120 25q-73 15 -104.5 50t-31.5 87q0 41 23.5 75t67 54.5t102.5 20.5q74 0 125 -29t76 -82l-67 -44q-17 44 -55 64.5t-79 20.5q-36 0 -61.5 -10
t-39 -27.5t-13.5 -39.5t15 -40.5t56 -26.5l125 -26q70 -14 98 -46t28 -78q0 -47 -25 -82.5t-70 -54.5t-104 -19zM291 750h87l-98 -167h-65zM264 924q27 0 43.5 -16.5t16.5 -43.5t-16.5 -43.5t-43.5 -16.5t-43.5 16.5t-16.5 43.5t16.5 43.5t43.5 16.5z" />
    <glyph glyph-name="uni1E66" unicode="&#x1e66;" horiz-adv-x="641" 
d="M320 670q87 0 150 -35.5t105 -104.5l-67 -52q-37 64 -83.5 90.5t-112.5 26.5q-53 0 -87.5 -15t-50.5 -39.5t-16 -55.5q0 -35 22 -61.5t88 -41.5l143 -32q95 -21 132.5 -63.5t37.5 -105.5q0 -56 -31.5 -99.5t-88.5 -67.5t-134 -24q-72 0 -126.5 19.5t-93.5 52.5t-64 74
l70 57q19 -38 49 -67t72.5 -45t97.5 -16q51 0 88.5 12.5t57.5 37t20 59.5q0 32 -21 57.5t-79 38.5l-155 35q-61 14 -98.5 38.5t-54 58t-16.5 72.5q0 53 29.5 97.5t85 71.5t131.5 27zM480 902l-110 -159h-88l-110 159h74l80 -107l80 107h74zM326 1083q27 0 43.5 -16.5
t16.5 -43.5t-16.5 -43.5t-43.5 -16.5t-43.5 16.5t-16.5 43.5t16.5 43.5t43.5 16.5z" />
    <glyph glyph-name="uni1E67" unicode="&#x1e67;" horiz-adv-x="527" 
d="M273 -10q-73 0 -134.5 31t-94.5 88l68 49q22 -46 64.5 -72t102.5 -26q53 0 83 20.5t30 53.5q0 21 -13.5 38.5t-51.5 25.5l-120 25q-73 15 -104.5 50t-31.5 87q0 41 23.5 75t67 54.5t102.5 20.5q74 0 125 -29t76 -82l-67 -44q-17 44 -55 64.5t-79 20.5q-36 0 -61.5 -10
t-39 -27.5t-13.5 -39.5t15 -40.5t56 -26.5l125 -26q70 -14 98 -46t28 -78q0 -47 -25 -82.5t-70 -54.5t-104 -19zM423 750l-114 -167h-90l-114 167h73l86 -115l86 115h73zM264 908q27 0 43.5 -16.5t16.5 -43.5t-16.5 -43.5t-43.5 -16.5t-43.5 16.5t-16.5 43.5t16.5 43.5
t43.5 16.5z" />
    <glyph glyph-name="uni1E68" unicode="&#x1e68;" horiz-adv-x="641" 
d="M320 670q87 0 150 -35.5t105 -104.5l-67 -52q-37 64 -83.5 90.5t-112.5 26.5q-53 0 -87.5 -15t-50.5 -39.5t-16 -55.5q0 -35 22 -61.5t88 -41.5l143 -32q95 -21 132.5 -63.5t37.5 -105.5q0 -56 -31.5 -99.5t-88.5 -67.5t-134 -24q-72 0 -126.5 19.5t-93.5 52.5t-64 74
l70 57q19 -38 49 -67t72.5 -45t97.5 -16q51 0 88.5 12.5t57.5 37t20 59.5q0 32 -21 57.5t-79 38.5l-155 35q-61 14 -98.5 38.5t-54 58t-16.5 72.5q0 53 29.5 97.5t85 71.5t131.5 27zM326 876q27 0 43.5 -16.5t16.5 -43.5t-16.5 -43.5t-43.5 -16.5t-43.5 16.5t-16.5 43.5
t16.5 43.5t43.5 16.5zM318 -216q-27 0 -43.5 16.5t-16.5 43.5t16.5 43.5t43.5 16.5t43.5 -16.5t16.5 -43.5t-16.5 -43.5t-43.5 -16.5z" />
    <glyph glyph-name="uni1E69" unicode="&#x1e69;" horiz-adv-x="527" 
d="M273 -10q-73 0 -134.5 31t-94.5 88l68 49q22 -46 64.5 -72t102.5 -26q53 0 83 20.5t30 53.5q0 21 -13.5 38.5t-51.5 25.5l-120 25q-73 15 -104.5 50t-31.5 87q0 41 23.5 75t67 54.5t102.5 20.5q74 0 125 -29t76 -82l-67 -44q-17 44 -55 64.5t-79 20.5q-36 0 -61.5 -10
t-39 -27.5t-13.5 -39.5t15 -40.5t56 -26.5l125 -26q70 -14 98 -46t28 -78q0 -47 -25 -82.5t-70 -54.5t-104 -19zM264 716q27 0 43.5 -16.5t16.5 -43.5t-16.5 -43.5t-43.5 -16.5t-43.5 16.5t-16.5 43.5t16.5 43.5t43.5 16.5zM269 -216q-27 0 -43.5 16.5t-16.5 43.5t16.5 43.5
t43.5 16.5t43.5 -16.5t16.5 -43.5t-16.5 -43.5t-43.5 -16.5z" />
    <glyph glyph-name="uni1E6C" unicode="&#x1e6c;" 
d="M572 660v-75h-230v-585h-80v585h-230v75h540zM302 -216q-27 0 -43.5 16.5t-16.5 43.5t16.5 43.5t43.5 16.5t43.5 -16.5t16.5 -43.5t-16.5 -43.5t-43.5 -16.5z" />
    <glyph glyph-name="uni1E6D" unicode="&#x1e6d;" horiz-adv-x="419" 
d="M211 642v-504q0 -37 21 -55t54 -18q29 0 50 10t38 27l28 -67q-23 -21 -54.5 -33t-72.5 -12q-38 0 -71 13.5t-52.5 43t-20.5 77.5v496zM393 500v-69h-362v69h362zM256 -216q-27 0 -43.5 16.5t-16.5 43.5t16.5 43.5t43.5 16.5t43.5 -16.5t16.5 -43.5t-16.5 -43.5
t-43.5 -16.5z" />
    <glyph glyph-name="uni1E6E" unicode="&#x1e6e;" 
d="M572 660v-75h-230v-585h-80v585h-230v75h540zM466 -96v-67h-328v67h328z" />
    <glyph glyph-name="uni1E6F" unicode="&#x1e6f;" horiz-adv-x="419" 
d="M211 642v-504q0 -37 21 -55t54 -18q29 0 50 10t38 27l28 -67q-23 -21 -54.5 -33t-72.5 -12q-38 0 -71 13.5t-52.5 43t-20.5 77.5v496zM393 500v-69h-362v69h362zM420 -96v-67h-328v67h328z" />
    <glyph glyph-name="uni1E78" unicode="&#x1e78;" horiz-adv-x="708" 
d="M613 660v-414q0 -127 -67 -191.5t-192 -64.5q-124 0 -191.5 64.5t-67.5 191.5v414h80v-394q0 -103 43.5 -152t135.5 -49t135.5 49t43.5 152v394h80zM534 852q-3 -44 -16.5 -74t-37 -45t-58.5 -15q-28 0 -47.5 10.5t-33.5 23.5t-27.5 23.5t-29.5 10.5q-22 0 -33 -18.5
t-16 -50.5h-63q5 66 32.5 100t80.5 34q27 0 46.5 -10.5t34 -23.5t27.5 -23.5t28 -10.5q23 0 34 18.5t16 50.5h63zM376 1075h84l-86 -159h-64z" />
    <glyph glyph-name="uni1E79" unicode="&#x1e79;" horiz-adv-x="617" 
d="M274 -10q-48 0 -90.5 18t-69 58.5t-26.5 105.5v328h80v-307q0 -76 33 -104.5t93 -28.5q28 0 55 9.5t48.5 30t34 52.5t12.5 76v272h80v-500h-70l-5 76q-26 -45 -70.5 -65.5t-104.5 -20.5zM486 707q-3 -44 -16.5 -74t-37 -45t-58.5 -15q-28 0 -47.5 10.5t-33.5 23.5
t-27.5 23.5t-29.5 10.5q-22 0 -33 -18.5t-16 -50.5h-63q5 66 32.5 100t80.5 34q27 0 46.5 -10.5t34 -23.5t27.5 -23.5t28 -10.5q23 0 34 18.5t16 50.5h63zM328 930h84l-86 -159h-64z" />
    <glyph glyph-name="uni1E7A" unicode="&#x1e7a;" horiz-adv-x="708" 
d="M613 660v-414q0 -127 -67 -191.5t-192 -64.5q-124 0 -191.5 64.5t-67.5 191.5v414h80v-394q0 -103 43.5 -152t135.5 -49t135.5 49t43.5 152v394h80zM518 798v-67h-328v67h328zM257 992q26 0 41.5 -15.5t15.5 -41.5q0 -25 -15.5 -41t-41.5 -16q-25 0 -41 16t-16 41
q0 26 16 41.5t41 15.5zM451 992q26 0 41.5 -15.5t15.5 -41.5q0 -25 -15.5 -41t-41.5 -16q-25 0 -41 16t-16 41q0 26 16 41.5t41 15.5z" />
    <glyph glyph-name="uni1E7B" unicode="&#x1e7b;" horiz-adv-x="617" 
d="M274 -10q-48 0 -90.5 18t-69 58.5t-26.5 105.5v328h80v-307q0 -76 33 -104.5t93 -28.5q28 0 55 9.5t48.5 30t34 52.5t12.5 76v272h80v-500h-70l-5 76q-26 -45 -70.5 -65.5t-104.5 -20.5zM470 653v-67h-328v67h328zM209 847q26 0 41.5 -15.5t15.5 -41.5q0 -25 -15.5 -41
t-41.5 -16q-25 0 -41 16t-16 41q0 26 16 41.5t41 15.5zM403 847q26 0 41.5 -15.5t15.5 -41.5q0 -25 -15.5 -41t-41.5 -16q-25 0 -41 16t-16 41q0 26 16 41.5t41 15.5z" />
    <glyph glyph-name="Wgrave" unicode="&#x1e80;" horiz-adv-x="961" 
d="M231 0l-195 660h83l163 -587l155 587h91l155 -589l163 589h79l-194 -660h-99l-117 428l-34 149h-1l-34 -149l-116 -428h-99zM458 902l66 -159h-64l-86 159h84z" />
    <glyph glyph-name="wgrave" unicode="&#x1e81;" horiz-adv-x="836" 
d="M720 500h89l-174 -500h-80l-141 398l-133 -398h-80l-174 500h89l126 -407l136 407h80l136 -407zM384 750l76 -167h-65l-98 167h87z" />
    <glyph glyph-name="Wacute" unicode="&#x1e82;" horiz-adv-x="961" 
d="M231 0l-195 660h83l163 -587l155 587h91l155 -589l163 589h79l-194 -660h-99l-117 428l-34 149h-1l-34 -149l-116 -428h-99zM504 902h84l-86 -159h-64z" />
    <glyph glyph-name="wacute" unicode="&#x1e83;" horiz-adv-x="836" 
d="M720 500h89l-174 -500h-80l-141 398l-133 -398h-80l-174 500h89l126 -407l136 407h80l136 -407zM445 750h87l-98 -167h-65z" />
    <glyph glyph-name="Wdieresis" unicode="&#x1e84;" horiz-adv-x="961" 
d="M231 0l-195 660h83l163 -587l155 587h91l155 -589l163 589h79l-194 -660h-99l-117 428l-34 149h-1l-34 -149l-116 -428h-99zM384 856q26 0 41.5 -15.5t15.5 -41.5q0 -25 -15.5 -41t-41.5 -16q-25 0 -41 16t-16 41q0 26 16 41.5t41 15.5zM578 856q26 0 41.5 -15.5
t15.5 -41.5q0 -25 -15.5 -41t-41.5 -16q-25 0 -41 16t-16 41q0 26 16 41.5t41 15.5z" />
    <glyph glyph-name="wdieresis" unicode="&#x1e85;" horiz-adv-x="836" 
d="M720 500h89l-174 -500h-80l-141 398l-133 -398h-80l-174 500h89l126 -407l136 407h80l136 -407zM321 696q26 0 41.5 -15.5t15.5 -41.5q0 -25 -15.5 -41t-41.5 -16q-25 0 -41 16t-16 41q0 26 16 41.5t41 15.5zM515 696q26 0 41.5 -15.5t15.5 -41.5q0 -25 -15.5 -41
t-41.5 -16q-25 0 -41 16t-16 41q0 26 16 41.5t41 15.5z" />
    <glyph glyph-name="uni1E8E" unicode="&#x1e8e;" horiz-adv-x="572" 
d="M562 660l-236 -402v-258h-80v258l-236 402h95l128 -226l53 -94l53 94l128 226h95zM286 856q27 0 43.5 -16.5t16.5 -43.5t-16.5 -43.5t-43.5 -16.5t-43.5 16.5t-16.5 43.5t16.5 43.5t43.5 16.5z" />
    <glyph glyph-name="uni1E8F" unicode="&#x1e8f;" horiz-adv-x="516" 
d="M504 500l-235 -584q-19 -49 -41.5 -77.5t-50 -41t-63.5 -12.5q-34 0 -62.5 9.5t-50.5 25.5l22 70q20 -18 42.5 -26.5t44.5 -8.5q26 0 49 16t42 65l26 65l-50 119l-159 380h91l125 -326l31 -89l36 99l117 316h86zM259 706q27 0 43.5 -16.5t16.5 -43.5t-16.5 -43.5
t-43.5 -16.5t-43.5 16.5t-16.5 43.5t16.5 43.5t43.5 16.5z" />
    <glyph glyph-name="uni1E92" unicode="&#x1e92;" horiz-adv-x="630" 
d="M128 46l-14 29h461v-75h-519v71l434 543l14 -29h-438v75h496v-71zM306 -216q-27 0 -43.5 16.5t-16.5 43.5t16.5 43.5t43.5 16.5t43.5 -16.5t16.5 -43.5t-16.5 -43.5t-43.5 -16.5z" />
    <glyph glyph-name="uni1E93" unicode="&#x1e93;" horiz-adv-x="534" 
d="M57 0v61l262 307l63 65l-89 -2h-233v69h411v-61l-262 -307l-62 -65l97 2h235v-69h-422zM252 -216q-27 0 -43.5 16.5t-16.5 43.5t16.5 43.5t43.5 16.5t43.5 -16.5t16.5 -43.5t-16.5 -43.5t-43.5 -16.5z" />
    <glyph glyph-name="uni1E97" unicode="&#x1e97;" horiz-adv-x="419" 
d="M211 642v-504q0 -37 21 -55t54 -18q29 0 50 10t38 27l28 -67q-23 -21 -54.5 -33t-72.5 -12q-38 0 -71 13.5t-52.5 43t-20.5 77.5v496zM393 500v-69h-362v69h362zM74 836q26 0 41.5 -15.5t15.5 -41.5q0 -25 -15.5 -41t-41.5 -16q-25 0 -41 16t-16 41q0 26 16 41.5t41 15.5
zM268 836q26 0 41.5 -15.5t15.5 -41.5q0 -25 -15.5 -41t-41.5 -16q-25 0 -41 16t-16 41q0 26 16 41.5t41 15.5z" />
    <glyph glyph-name="uni1E9E" unicode="&#x1e9e;" horiz-adv-x="671" 
d="M433 -5q-62 0 -105 16.5t-63 37.5l36 69q21 -22 54.5 -36t72.5 -14q42 0 70.5 16.5t43 44.5t14.5 62q0 54 -35 82.5t-94 28.5h-101v68l174 215h-183q-38 0 -70.5 -18.5t-52 -50.5t-19.5 -74v-442h-80v443q0 65 29 114t79.5 76t113.5 27h278v-76l-183 -214h-5h40
q56 0 99 -21.5t67.5 -61t24.5 -94.5q0 -61 -26.5 -105.5t-72.5 -68.5t-106 -24z" />
    <glyph glyph-name="uni1EA0" unicode="&#x1ea0;" horiz-adv-x="660" 
d="M26 0l257 660h95l256 -660h-85l-188 492l-31 92h-2l-29 -89l-189 -495h-84zM152 183v75h353v-75h-353zM330 -216q-27 0 -43.5 16.5t-16.5 43.5t16.5 43.5t43.5 16.5t43.5 -16.5t16.5 -43.5t-16.5 -43.5t-43.5 -16.5z" />
    <glyph glyph-name="uni1EA1" unicode="&#x1ea1;" horiz-adv-x="566" 
d="M385 323q0 56 -30 86.5t-85 30.5q-52 0 -88 -22.5t-53 -72.5l-65 40q20 56 74 90.5t134 34.5q54 0 98 -18.5t69.5 -56t25.5 -96.5v-242q0 -36 38 -36q19 0 37 5l-4 -63q-20 -10 -52 -10q-29 0 -52 11t-36 33.5t-13 56.5v10l20 -3q-12 -39 -41 -63.5t-65 -36t-71 -11.5
q-44 0 -82 15t-60.5 45.5t-22.5 75.5q0 56 37.5 92.5t104.5 49.5l198 39v-66l-161 -33q-49 -10 -73 -28t-24 -50q0 -31 24.5 -50.5t69.5 -19.5q29 0 55.5 7.5t47.5 23t33 39t12 55.5v138zM276 -216q-27 0 -43.5 16.5t-16.5 43.5t16.5 43.5t43.5 16.5t43.5 -16.5t16.5 -43.5
t-16.5 -43.5t-43.5 -16.5z" />
    <glyph glyph-name="uni1EA2" unicode="&#x1ea2;" horiz-adv-x="660" 
d="M26 0l257 660h95l256 -660h-85l-188 492l-31 92h-2l-29 -89l-189 -495h-84zM152 183v75h353v-75h-353zM331 715l-28 32q26 14 39 27.5t13 35.5q0 15 -10 25.5t-29 10.5q-15 0 -26 -7t-20 -23l-47 32q15 28 41.5 43.5t63.5 15.5q28 0 48.5 -11.5t32 -31t11.5 -43.5
q0 -23 -10 -44t-30 -36.5t-49 -25.5z" />
    <glyph glyph-name="uni1EA3" unicode="&#x1ea3;" horiz-adv-x="566" 
d="M385 323q0 56 -30 86.5t-85 30.5q-52 0 -88 -22.5t-53 -72.5l-65 40q20 56 74 90.5t134 34.5q54 0 98 -18.5t69.5 -56t25.5 -96.5v-242q0 -36 38 -36q19 0 37 5l-4 -63q-20 -10 -52 -10q-29 0 -52 11t-36 33.5t-13 56.5v10l20 -3q-12 -39 -41 -63.5t-65 -36t-71 -11.5
q-44 0 -82 15t-60.5 45.5t-22.5 75.5q0 56 37.5 92.5t104.5 49.5l198 39v-66l-161 -33q-49 -10 -73 -28t-24 -50q0 -31 24.5 -50.5t69.5 -19.5q29 0 55.5 7.5t47.5 23t33 39t12 55.5v138zM265 549l-28 39q30 14 44.5 28t14.5 36q0 17 -11 28.5t-31 11.5q-13 0 -25 -8
t-23 -26l-46 32q14 32 41.5 47.5t64.5 15.5q29 0 50.5 -12t33 -32.5t11.5 -45.5q0 -24 -10.5 -45.5t-32 -38.5t-53.5 -30z" />
    <glyph glyph-name="uni1EA4" unicode="&#x1ea4;" horiz-adv-x="660" 
d="M489 736h-73l-86 115l-86 -115h-73l114 167h90zM512 996h75l-77 -143h-58zM26 0l257 660h95l256 -660h-85l-188 492l-31 92h-2l-29 -89l-189 -495h-84zM152 183v75h353v-75h-353z" />
    <glyph glyph-name="uni1EA5" unicode="&#x1ea5;" horiz-adv-x="566" 
d="M435 576h-73l-86 115l-86 -115h-73l114 167h90zM458 836h75l-77 -143h-58zM385 323q0 56 -30 86.5t-85 30.5q-52 0 -88 -22.5t-53 -72.5l-65 40q20 56 74 90.5t134 34.5q54 0 98 -18.5t69.5 -56t25.5 -96.5v-242q0 -36 38 -36q19 0 37 5l-4 -63q-20 -10 -52 -10
q-29 0 -52 11t-36 33.5t-13 56.5v10l20 -3q-12 -39 -41 -63.5t-65 -36t-71 -11.5q-44 0 -82 15t-60.5 45.5t-22.5 75.5q0 56 37.5 92.5t104.5 49.5l198 39v-66l-161 -33q-49 -10 -73 -28t-24 -50q0 -31 24.5 -50.5t69.5 -19.5q29 0 55.5 7.5t47.5 23t33 39t12 55.5v138z" />
    <glyph glyph-name="uni1EA6" unicode="&#x1ea6;" horiz-adv-x="660" 
d="M489 736h-73l-86 115l-86 -115h-73l114 167h90zM470 996l60 -143h-58l-77 143h75zM26 0l257 660h95l256 -660h-85l-188 492l-31 92h-2l-29 -89l-189 -495h-84zM152 183v75h353v-75h-353z" />
    <glyph glyph-name="uni1EA7" unicode="&#x1ea7;" horiz-adv-x="566" 
d="M435 576h-73l-86 115l-86 -115h-73l114 167h90zM416 836l60 -143h-58l-77 143h75zM385 323q0 56 -30 86.5t-85 30.5q-52 0 -88 -22.5t-53 -72.5l-65 40q20 56 74 90.5t134 34.5q54 0 98 -18.5t69.5 -56t25.5 -96.5v-242q0 -36 38 -36q19 0 37 5l-4 -63q-20 -10 -52 -10
q-29 0 -52 11t-36 33.5t-13 56.5v10l20 -3q-12 -39 -41 -63.5t-65 -36t-71 -11.5q-44 0 -82 15t-60.5 45.5t-22.5 75.5q0 56 37.5 92.5t104.5 49.5l198 39v-66l-161 -33q-49 -10 -73 -28t-24 -50q0 -31 24.5 -50.5t69.5 -19.5q29 0 55.5 7.5t47.5 23t33 39t12 55.5v138z" />
    <glyph glyph-name="uni1EA8" unicode="&#x1ea8;" horiz-adv-x="660" 
d="M489 736h-73l-86 115l-86 -115h-73l114 167h90zM492 833l-28 32q26 14 39 27.5t13 35.5q0 15 -10 25.5t-29 10.5q-15 0 -26 -7t-20 -23l-47 32q15 28 41.5 43.5t63.5 15.5q28 0 48.5 -11.5t32 -31t11.5 -43.5q0 -23 -10 -44t-30 -36.5t-49 -25.5zM26 0l257 660h95
l256 -660h-85l-188 492l-31 92h-2l-29 -89l-189 -495h-84zM152 183v75h353v-75h-353z" />
    <glyph glyph-name="uni1EA9" unicode="&#x1ea9;" horiz-adv-x="566" 
d="M435 576h-73l-86 115l-86 -115h-73l114 167h90zM438 673l-28 32q26 14 39 27.5t13 35.5q0 15 -10 25.5t-29 10.5q-15 0 -26 -7t-20 -23l-47 32q15 28 41.5 43.5t63.5 15.5q28 0 48.5 -11.5t32 -31t11.5 -43.5q0 -23 -10 -44t-30 -36.5t-49 -25.5zM385 323q0 56 -30 86.5
t-85 30.5q-52 0 -88 -22.5t-53 -72.5l-65 40q20 56 74 90.5t134 34.5q54 0 98 -18.5t69.5 -56t25.5 -96.5v-242q0 -36 38 -36q19 0 37 5l-4 -63q-20 -10 -52 -10q-29 0 -52 11t-36 33.5t-13 56.5v10l20 -3q-12 -39 -41 -63.5t-65 -36t-71 -11.5q-44 0 -82 15t-60.5 45.5
t-22.5 75.5q0 56 37.5 92.5t104.5 49.5l198 39v-66l-161 -33q-49 -10 -73 -28t-24 -50q0 -31 24.5 -50.5t69.5 -19.5q29 0 55.5 7.5t47.5 23t33 39t12 55.5v138z" />
    <glyph glyph-name="uni1EAA" unicode="&#x1eaa;" horiz-adv-x="660" 
d="M489 736h-73l-86 115l-86 -115h-73l114 167h90zM504 1055q-5 -64 -33.5 -94.5t-75.5 -30.5q-28 0 -46.5 9.5t-31.5 21.5t-25.5 21.5t-28.5 9.5q-20 0 -30.5 -15t-15.5 -45h-63q5 64 33 94.5t77 30.5q27 0 45.5 -9.5t32 -21.5t25.5 -21.5t27 -9.5q20 0 31 15t16 45h63z
M26 0l257 660h95l256 -660h-85l-188 492l-31 92h-2l-29 -89l-189 -495h-84zM152 183v75h353v-75h-353z" />
    <glyph glyph-name="uni1EAB" unicode="&#x1eab;" horiz-adv-x="566" 
d="M435 576h-73l-86 115l-86 -115h-73l114 167h90zM450 895q-5 -64 -33.5 -94.5t-75.5 -30.5q-28 0 -46.5 9.5t-31.5 21.5t-25.5 21.5t-28.5 9.5q-20 0 -30.5 -15t-15.5 -45h-63q5 64 33 94.5t77 30.5q27 0 45.5 -9.5t32 -21.5t25.5 -21.5t27 -9.5q20 0 31 15t16 45h63z
M385 323q0 56 -30 86.5t-85 30.5q-52 0 -88 -22.5t-53 -72.5l-65 40q20 56 74 90.5t134 34.5q54 0 98 -18.5t69.5 -56t25.5 -96.5v-242q0 -36 38 -36q19 0 37 5l-4 -63q-20 -10 -52 -10q-29 0 -52 11t-36 33.5t-13 56.5v10l20 -3q-12 -39 -41 -63.5t-65 -36t-71 -11.5
q-44 0 -82 15t-60.5 45.5t-22.5 75.5q0 56 37.5 92.5t104.5 49.5l198 39v-66l-161 -33q-49 -10 -73 -28t-24 -50q0 -31 24.5 -50.5t69.5 -19.5q29 0 55.5 7.5t47.5 23t33 39t12 55.5v138z" />
    <glyph glyph-name="uni1EAC" unicode="&#x1eac;" horiz-adv-x="660" 
d="M26 0l257 660h95l256 -660h-85l-188 492l-31 92h-2l-29 -89l-189 -495h-84zM152 183v75h353v-75h-353zM330 -216q-27 0 -43.5 16.5t-16.5 43.5t16.5 43.5t43.5 16.5t43.5 -16.5t16.5 -43.5t-16.5 -43.5t-43.5 -16.5zM484 743h-74l-80 107l-80 -107h-74l110 159h88z" />
    <glyph glyph-name="uni1EAD" unicode="&#x1ead;" horiz-adv-x="566" 
d="M385 323q0 56 -30 86.5t-85 30.5q-52 0 -88 -22.5t-53 -72.5l-65 40q20 56 74 90.5t134 34.5q54 0 98 -18.5t69.5 -56t25.5 -96.5v-242q0 -36 38 -36q19 0 37 5l-4 -63q-20 -10 -52 -10q-29 0 -52 11t-36 33.5t-13 56.5v10l20 -3q-12 -39 -41 -63.5t-65 -36t-71 -11.5
q-44 0 -82 15t-60.5 45.5t-22.5 75.5q0 56 37.5 92.5t104.5 49.5l198 39v-66l-161 -33q-49 -10 -73 -28t-24 -50q0 -31 24.5 -50.5t69.5 -19.5q29 0 55.5 7.5t47.5 23t33 39t12 55.5v138zM276 -216q-27 0 -43.5 16.5t-16.5 43.5t16.5 43.5t43.5 16.5t43.5 -16.5t16.5 -43.5
t-16.5 -43.5t-43.5 -16.5zM435 576h-73l-86 115l-86 -115h-73l114 167h90z" />
    <glyph glyph-name="uni1EAE" unicode="&#x1eae;" horiz-adv-x="660" 
d="M478 885q0 -66 -41 -107t-107 -41t-107 41t-41 107h65q1 -35 22 -61.5t61 -26.5q41 0 61.5 26.5t21.5 61.5h65zM281 903l52 130h83l-73 -130h-62zM26 0l257 660h95l256 -660h-85l-188 492l-31 92h-2l-29 -89l-189 -495h-84zM152 183v75h353v-75h-353z" />
    <glyph glyph-name="uni1EAF" unicode="&#x1eaf;" horiz-adv-x="566" 
d="M424 725q0 -66 -41 -107t-107 -41t-107 41t-41 107h65q1 -35 22 -61.5t61 -26.5q41 0 61.5 26.5t21.5 61.5h65zM227 743l52 130h83l-73 -130h-62zM385 323q0 56 -30 86.5t-85 30.5q-52 0 -88 -22.5t-53 -72.5l-65 40q20 56 74 90.5t134 34.5q54 0 98 -18.5t69.5 -56
t25.5 -96.5v-242q0 -36 38 -36q19 0 37 5l-4 -63q-20 -10 -52 -10q-29 0 -52 11t-36 33.5t-13 56.5v10l20 -3q-12 -39 -41 -63.5t-65 -36t-71 -11.5q-44 0 -82 15t-60.5 45.5t-22.5 75.5q0 56 37.5 92.5t104.5 49.5l198 39v-66l-161 -33q-49 -10 -73 -28t-24 -50
q0 -31 24.5 -50.5t69.5 -19.5q29 0 55.5 7.5t47.5 23t33 39t12 55.5v138z" />
    <glyph glyph-name="uni1EB0" unicode="&#x1eb0;" horiz-adv-x="660" 
d="M478 885q0 -66 -41 -107t-107 -41t-107 41t-41 107h65q1 -35 22 -61.5t61 -26.5q41 0 61.5 26.5t21.5 61.5h65zM379 903h-62l-73 130h83zM26 0l257 660h95l256 -660h-85l-188 492l-31 92h-2l-29 -89l-189 -495h-84zM152 183v75h353v-75h-353z" />
    <glyph glyph-name="uni1EB1" unicode="&#x1eb1;" horiz-adv-x="566" 
d="M424 725q0 -66 -41 -107t-107 -41t-107 41t-41 107h65q1 -35 22 -61.5t61 -26.5q41 0 61.5 26.5t21.5 61.5h65zM325 743h-62l-73 130h83zM385 323q0 56 -30 86.5t-85 30.5q-52 0 -88 -22.5t-53 -72.5l-65 40q20 56 74 90.5t134 34.5q54 0 98 -18.5t69.5 -56t25.5 -96.5
v-242q0 -36 38 -36q19 0 37 5l-4 -63q-20 -10 -52 -10q-29 0 -52 11t-36 33.5t-13 56.5v10l20 -3q-12 -39 -41 -63.5t-65 -36t-71 -11.5q-44 0 -82 15t-60.5 45.5t-22.5 75.5q0 56 37.5 92.5t104.5 49.5l198 39v-66l-161 -33q-49 -10 -73 -28t-24 -50q0 -31 24.5 -50.5
t69.5 -19.5q29 0 55.5 7.5t47.5 23t33 39t12 55.5v138z" />
    <glyph glyph-name="uni1EB2" unicode="&#x1eb2;" horiz-adv-x="660" 
d="M478 885q0 -66 -41 -107t-107 -41t-107 41t-41 107h65q1 -35 22 -61.5t61 -26.5q41 0 61.5 26.5t21.5 61.5h65zM331 888l-28 32q26 14 39 27.5t13 35.5q0 15 -10 25.5t-29 10.5q-15 0 -26 -7t-20 -23l-47 32q15 28 41.5 43.5t63.5 15.5q28 0 48.5 -11.5t32 -31
t11.5 -43.5q0 -23 -10 -44t-30 -36.5t-49 -25.5zM26 0l257 660h95l256 -660h-85l-188 492l-31 92h-2l-29 -89l-189 -495h-84zM152 183v75h353v-75h-353z" />
    <glyph glyph-name="uni1EB3" unicode="&#x1eb3;" horiz-adv-x="566" 
d="M424 725q0 -66 -41 -107t-107 -41t-107 41t-41 107h65q1 -35 22 -61.5t61 -26.5q41 0 61.5 26.5t21.5 61.5h65zM277 728l-28 32q26 14 39 27.5t13 35.5q0 15 -10 25.5t-29 10.5q-15 0 -26 -7t-20 -23l-47 32q15 28 41.5 43.5t63.5 15.5q28 0 48.5 -11.5t32 -31
t11.5 -43.5q0 -23 -10 -44t-30 -36.5t-49 -25.5zM385 323q0 56 -30 86.5t-85 30.5q-52 0 -88 -22.5t-53 -72.5l-65 40q20 56 74 90.5t134 34.5q54 0 98 -18.5t69.5 -56t25.5 -96.5v-242q0 -36 38 -36q19 0 37 5l-4 -63q-20 -10 -52 -10q-29 0 -52 11t-36 33.5t-13 56.5v10
l20 -3q-12 -39 -41 -63.5t-65 -36t-71 -11.5q-44 0 -82 15t-60.5 45.5t-22.5 75.5q0 56 37.5 92.5t104.5 49.5l198 39v-66l-161 -33q-49 -10 -73 -28t-24 -50q0 -31 24.5 -50.5t69.5 -19.5q29 0 55.5 7.5t47.5 23t33 39t12 55.5v138z" />
    <glyph glyph-name="uni1EB4" unicode="&#x1eb4;" horiz-adv-x="660" 
d="M479 885q0 -66 -41 -107t-107 -41t-107 41t-41 107h65q1 -35 22 -61.5t61 -26.5q41 0 61.5 26.5t21.5 61.5h65zM505 1046q-5 -64 -33.5 -94.5t-75.5 -30.5q-28 0 -46.5 9.5t-31.5 21.5t-25.5 21.5t-28.5 9.5q-20 0 -30.5 -15t-15.5 -45h-63q5 64 33 94.5t77 30.5
q27 0 45.5 -9.5t32 -21.5t25.5 -21.5t27 -9.5q20 0 31 15t16 45h63zM26 0l257 660h95l256 -660h-85l-188 492l-31 92h-2l-29 -89l-189 -495h-84zM152 183v75h353v-75h-353z" />
    <glyph glyph-name="uni1EB5" unicode="&#x1eb5;" horiz-adv-x="566" 
d="M425 725q0 -66 -41 -107t-107 -41t-107 41t-41 107h65q1 -35 22 -61.5t61 -26.5q41 0 61.5 26.5t21.5 61.5h65zM451 886q-5 -64 -33.5 -94.5t-75.5 -30.5q-28 0 -46.5 9.5t-31.5 21.5t-25.5 21.5t-28.5 9.5q-20 0 -30.5 -15t-15.5 -45h-63q5 64 33 94.5t77 30.5
q27 0 45.5 -9.5t32 -21.5t25.5 -21.5t27 -9.5q20 0 31 15t16 45h63zM385 323q0 56 -30 86.5t-85 30.5q-52 0 -88 -22.5t-53 -72.5l-65 40q20 56 74 90.5t134 34.5q54 0 98 -18.5t69.5 -56t25.5 -96.5v-242q0 -36 38 -36q19 0 37 5l-4 -63q-20 -10 -52 -10q-29 0 -52 11
t-36 33.5t-13 56.5v10l20 -3q-12 -39 -41 -63.5t-65 -36t-71 -11.5q-44 0 -82 15t-60.5 45.5t-22.5 75.5q0 56 37.5 92.5t104.5 49.5l198 39v-66l-161 -33q-49 -10 -73 -28t-24 -50q0 -31 24.5 -50.5t69.5 -19.5q29 0 55.5 7.5t47.5 23t33 39t12 55.5v138z" />
    <glyph glyph-name="uni1EB6" unicode="&#x1eb6;" horiz-adv-x="660" 
d="M26 0l257 660h95l256 -660h-85l-188 492l-31 92h-2l-29 -89l-189 -495h-84zM152 183v75h353v-75h-353zM330 -216q-27 0 -43.5 16.5t-16.5 43.5t16.5 43.5t43.5 16.5t43.5 -16.5t16.5 -43.5t-16.5 -43.5t-43.5 -16.5zM478 885q0 -66 -41 -107t-107 -41t-107 41t-41 107h65
q1 -35 22 -61.5t61 -26.5q41 0 61.5 26.5t21.5 61.5h65z" />
    <glyph glyph-name="uni1EB7" unicode="&#x1eb7;" horiz-adv-x="566" 
d="M385 323q0 56 -30 86.5t-85 30.5q-52 0 -88 -22.5t-53 -72.5l-65 40q20 56 74 90.5t134 34.5q54 0 98 -18.5t69.5 -56t25.5 -96.5v-242q0 -36 38 -36q19 0 37 5l-4 -63q-20 -10 -52 -10q-29 0 -52 11t-36 33.5t-13 56.5v10l20 -3q-12 -39 -41 -63.5t-65 -36t-71 -11.5
q-44 0 -82 15t-60.5 45.5t-22.5 75.5q0 56 37.5 92.5t104.5 49.5l198 39v-66l-161 -33q-49 -10 -73 -28t-24 -50q0 -31 24.5 -50.5t69.5 -19.5q29 0 55.5 7.5t47.5 23t33 39t12 55.5v138zM276 -216q-27 0 -43.5 16.5t-16.5 43.5t16.5 43.5t43.5 16.5t43.5 -16.5t16.5 -43.5
t-16.5 -43.5t-43.5 -16.5zM424 725q0 -66 -41 -107t-107 -41t-107 41t-41 107h65q1 -35 22 -61.5t61 -26.5q41 0 61.5 26.5t21.5 61.5h65z" />
    <glyph glyph-name="uni1EB8" unicode="&#x1eb8;" horiz-adv-x="638" 
d="M108 0v660h463v-75h-383v-213h298v-75h-298v-222h398v-75h-478zM350 -216q-27 0 -43.5 16.5t-16.5 43.5t16.5 43.5t43.5 16.5t43.5 -16.5t16.5 -43.5t-16.5 -43.5t-43.5 -16.5z" />
    <glyph glyph-name="uni1EB9" unicode="&#x1eb9;" horiz-adv-x="577" 
d="M302 -10q-71 0 -126.5 31t-86.5 89.5t-31 139.5t31 139.5t85 89.5t123 31q70 0 119.5 -30t75.5 -81.5t26 -115.5q0 -17 -1 -31t-3 -25h-404v71h369l-41 -8q0 72 -39.5 111t-103.5 39q-49 0 -84.5 -22.5t-55 -65t-19.5 -102.5q0 -59 20 -102t56.5 -65.5t87.5 -22.5
q55 0 89.5 21t55.5 57l63 -37q-19 -34 -48.5 -59t-69 -38.5t-88.5 -13.5zM300 -216q-27 0 -43.5 16.5t-16.5 43.5t16.5 43.5t43.5 16.5t43.5 -16.5t16.5 -43.5t-16.5 -43.5t-43.5 -16.5z" />
    <glyph glyph-name="uni1EBA" unicode="&#x1eba;" horiz-adv-x="638" 
d="M108 0v660h463v-75h-383v-213h298v-75h-298v-222h398v-75h-478zM341 715l-28 32q26 14 39 27.5t13 35.5q0 15 -10 25.5t-29 10.5q-15 0 -26 -7t-20 -23l-47 32q15 28 41.5 43.5t63.5 15.5q28 0 48.5 -11.5t32 -31t11.5 -43.5q0 -23 -10 -44t-30 -36.5t-49 -25.5z" />
    <glyph glyph-name="uni1EBB" unicode="&#x1ebb;" horiz-adv-x="577" 
d="M302 -10q-71 0 -126.5 31t-86.5 89.5t-31 139.5t31 139.5t85 89.5t123 31q70 0 119.5 -30t75.5 -81.5t26 -115.5q0 -17 -1 -31t-3 -25h-404v71h369l-41 -8q0 72 -39.5 111t-103.5 39q-49 0 -84.5 -22.5t-55 -65t-19.5 -102.5q0 -59 20 -102t56.5 -65.5t87.5 -22.5
q55 0 89.5 21t55.5 57l63 -37q-19 -34 -48.5 -59t-69 -38.5t-88.5 -13.5zM280 549l-28 39q30 14 44.5 28t14.5 36q0 17 -11 28.5t-31 11.5q-13 0 -25 -8t-23 -26l-46 32q14 32 41.5 47.5t64.5 15.5q29 0 50.5 -12t33 -32.5t11.5 -45.5q0 -24 -10.5 -45.5t-32 -38.5
t-53.5 -30z" />
    <glyph glyph-name="uni1EBC" unicode="&#x1ebc;" horiz-adv-x="638" 
d="M108 0v660h463v-75h-383v-213h298v-75h-298v-222h398v-75h-478zM520 877q-3 -44 -16.5 -74t-37 -45t-58.5 -15q-28 0 -47.5 10.5t-33.5 23.5t-27.5 23.5t-29.5 10.5q-22 0 -33 -18.5t-16 -50.5h-63q5 66 32.5 100t80.5 34q27 0 46.5 -10.5t34 -23.5t27.5 -23.5t28 -10.5
q23 0 34 18.5t16 50.5h63z" />
    <glyph glyph-name="uni1EBD" unicode="&#x1ebd;" horiz-adv-x="577" 
d="M302 -10q-71 0 -126.5 31t-86.5 89.5t-31 139.5t31 139.5t85 89.5t123 31q70 0 119.5 -30t75.5 -81.5t26 -115.5q0 -17 -1 -31t-3 -25h-404v71h369l-41 -8q0 72 -39.5 111t-103.5 39q-49 0 -84.5 -22.5t-55 -65t-19.5 -102.5q0 -59 20 -102t56.5 -65.5t87.5 -22.5
q55 0 89.5 21t55.5 57l63 -37q-19 -34 -48.5 -59t-69 -38.5t-88.5 -13.5zM471 717q-3 -44 -16.5 -74t-37 -45t-58.5 -15q-28 0 -47.5 10.5t-33.5 23.5t-27.5 23.5t-29.5 10.5q-22 0 -33 -18.5t-16 -50.5h-63q5 66 32.5 100t80.5 34q27 0 46.5 -10.5t34 -23.5t27.5 -23.5
t28 -10.5q23 0 34 18.5t16 50.5h63z" />
    <glyph glyph-name="uni1EBE" unicode="&#x1ebe;" horiz-adv-x="638" 
d="M499 736h-73l-86 115l-86 -115h-73l114 167h90zM522 996h75l-77 -143h-58zM108 0v660h463v-75h-383v-213h298v-75h-298v-222h398v-75h-478z" />
    <glyph glyph-name="uni1EBF" unicode="&#x1ebf;" horiz-adv-x="577" 
d="M473 836h75l-77 -143h-58zM450 576h-73l-86 115l-86 -115h-73l114 167h90zM302 -10q-71 0 -126.5 31t-86.5 89.5t-31 139.5t31 139.5t85 89.5t123 31q70 0 119.5 -30t75.5 -81.5t26 -115.5q0 -17 -1 -31t-3 -25h-404v71h369l-41 -8q0 72 -39.5 111t-103.5 39
q-49 0 -84.5 -22.5t-55 -65t-19.5 -102.5q0 -59 20 -102t56.5 -65.5t87.5 -22.5q55 0 89.5 21t55.5 57l63 -37q-19 -34 -48.5 -59t-69 -38.5t-88.5 -13.5z" />
    <glyph glyph-name="uni1EC0" unicode="&#x1ec0;" horiz-adv-x="638" 
d="M499 736h-73l-86 115l-86 -115h-73l114 167h90zM480 996l60 -143h-58l-77 143h75zM108 0v660h463v-75h-383v-213h298v-75h-298v-222h398v-75h-478z" />
    <glyph glyph-name="uni1EC1" unicode="&#x1ec1;" horiz-adv-x="577" 
d="M431 836l60 -143h-58l-77 143h75zM450 576h-73l-86 115l-86 -115h-73l114 167h90zM302 -10q-71 0 -126.5 31t-86.5 89.5t-31 139.5t31 139.5t85 89.5t123 31q70 0 119.5 -30t75.5 -81.5t26 -115.5q0 -17 -1 -31t-3 -25h-404v71h369l-41 -8q0 72 -39.5 111t-103.5 39
q-49 0 -84.5 -22.5t-55 -65t-19.5 -102.5q0 -59 20 -102t56.5 -65.5t87.5 -22.5q55 0 89.5 21t55.5 57l63 -37q-19 -34 -48.5 -59t-69 -38.5t-88.5 -13.5z" />
    <glyph glyph-name="uni1EC2" unicode="&#x1ec2;" horiz-adv-x="638" 
d="M499 736h-73l-86 115l-86 -115h-73l114 167h90zM502 833l-28 32q26 14 39 27.5t13 35.5q0 15 -10 25.5t-29 10.5q-15 0 -26 -7t-20 -23l-47 32q15 28 41.5 43.5t63.5 15.5q28 0 48.5 -11.5t32 -31t11.5 -43.5q0 -23 -10 -44t-30 -36.5t-49 -25.5zM108 0v660h463v-75h-383
v-213h298v-75h-298v-222h398v-75h-478z" />
    <glyph glyph-name="uni1EC3" unicode="&#x1ec3;" horiz-adv-x="577" 
d="M453 673l-28 32q26 14 39 27.5t13 35.5q0 15 -10 25.5t-29 10.5q-15 0 -26 -7t-20 -23l-47 32q15 28 41.5 43.5t63.5 15.5q28 0 48.5 -11.5t32 -31t11.5 -43.5q0 -23 -10 -44t-30 -36.5t-49 -25.5zM450 576h-73l-86 115l-86 -115h-73l114 167h90zM302 -10
q-71 0 -126.5 31t-86.5 89.5t-31 139.5t31 139.5t85 89.5t123 31q70 0 119.5 -30t75.5 -81.5t26 -115.5q0 -17 -1 -31t-3 -25h-404v71h369l-41 -8q0 72 -39.5 111t-103.5 39q-49 0 -84.5 -22.5t-55 -65t-19.5 -102.5q0 -59 20 -102t56.5 -65.5t87.5 -22.5q55 0 89.5 21
t55.5 57l63 -37q-19 -34 -48.5 -59t-69 -38.5t-88.5 -13.5z" />
    <glyph glyph-name="uni1EC4" unicode="&#x1ec4;" horiz-adv-x="638" 
d="M499 736h-73l-86 115l-86 -115h-73l114 167h90zM514 1055q-5 -64 -33.5 -94.5t-75.5 -30.5q-28 0 -46.5 9.5t-31.5 21.5t-25.5 21.5t-28.5 9.5q-20 0 -30.5 -15t-15.5 -45h-63q5 64 33 94.5t77 30.5q27 0 45.5 -9.5t32 -21.5t25.5 -21.5t27 -9.5q20 0 31 15t16 45h63z
M108 0v660h463v-75h-383v-213h298v-75h-298v-222h398v-75h-478z" />
    <glyph glyph-name="uni1EC5" unicode="&#x1ec5;" horiz-adv-x="577" 
d="M450 576h-73l-86 115l-86 -115h-73l114 167h90zM465 895q-5 -64 -33.5 -94.5t-75.5 -30.5q-28 0 -46.5 9.5t-31.5 21.5t-25.5 21.5t-28.5 9.5q-20 0 -30.5 -15t-15.5 -45h-63q5 64 33 94.5t77 30.5q27 0 45.5 -9.5t32 -21.5t25.5 -21.5t27 -9.5q20 0 31 15t16 45h63z
M302 -10q-71 0 -126.5 31t-86.5 89.5t-31 139.5t31 139.5t85 89.5t123 31q70 0 119.5 -30t75.5 -81.5t26 -115.5q0 -17 -1 -31t-3 -25h-404v71h369l-41 -8q0 72 -39.5 111t-103.5 39q-49 0 -84.5 -22.5t-55 -65t-19.5 -102.5q0 -59 20 -102t56.5 -65.5t87.5 -22.5
q55 0 89.5 21t55.5 57l63 -37q-19 -34 -48.5 -59t-69 -38.5t-88.5 -13.5z" />
    <glyph glyph-name="uni1EC6" unicode="&#x1ec6;" horiz-adv-x="638" 
d="M108 0v660h463v-75h-383v-213h298v-75h-298v-222h398v-75h-478zM350 -216q-27 0 -43.5 16.5t-16.5 43.5t16.5 43.5t43.5 16.5t43.5 -16.5t16.5 -43.5t-16.5 -43.5t-43.5 -16.5zM494 743h-74l-80 107l-80 -107h-74l110 159h88z" />
    <glyph glyph-name="uni1EC7" unicode="&#x1ec7;" horiz-adv-x="577" 
d="M302 -10q-71 0 -126.5 31t-86.5 89.5t-31 139.5t31 139.5t85 89.5t123 31q70 0 119.5 -30t75.5 -81.5t26 -115.5q0 -17 -1 -31t-3 -25h-404v71h369l-41 -8q0 72 -39.5 111t-103.5 39q-49 0 -84.5 -22.5t-55 -65t-19.5 -102.5q0 -59 20 -102t56.5 -65.5t87.5 -22.5
q55 0 89.5 21t55.5 57l63 -37q-19 -34 -48.5 -59t-69 -38.5t-88.5 -13.5zM300 -216q-27 0 -43.5 16.5t-16.5 43.5t16.5 43.5t43.5 16.5t43.5 -16.5t16.5 -43.5t-16.5 -43.5t-43.5 -16.5zM450 576h-73l-86 115l-86 -115h-73l114 167h90z" />
    <glyph glyph-name="uni1EC8" unicode="&#x1ec8;" horiz-adv-x="296" 
d="M188 660v-660h-80v660h80zM149 715l-28 32q26 14 39 27.5t13 35.5q0 15 -10 25.5t-29 10.5q-15 0 -26 -7t-20 -23l-47 32q15 28 41.5 43.5t63.5 15.5q28 0 48.5 -11.5t32 -31t11.5 -43.5q0 -23 -10 -44t-30 -36.5t-49 -25.5z" />
    <glyph glyph-name="uni1EC9" unicode="&#x1ec9;" horiz-adv-x="266" 
d="M173 500v-500h-80v500h80zM122 549l-28 39q30 14 44.5 28t14.5 36q0 17 -11 28.5t-31 11.5q-13 0 -25 -8t-23 -26l-46 32q14 32 41.5 47.5t64.5 15.5q29 0 50.5 -12t33 -32.5t11.5 -45.5q0 -24 -10.5 -45.5t-32 -38.5t-53.5 -30z" />
    <glyph glyph-name="uni1ECA" unicode="&#x1eca;" horiz-adv-x="296" 
d="M188 660v-660h-80v660h80zM148 -216q-27 0 -43.5 16.5t-16.5 43.5t16.5 43.5t43.5 16.5t43.5 -16.5t16.5 -43.5t-16.5 -43.5t-43.5 -16.5z" />
    <glyph glyph-name="uni1ECB" unicode="&#x1ecb;" horiz-adv-x="266" 
d="M133 596q-27 0 -43.5 16.5t-16.5 43.5t16.5 43.5t43.5 16.5t43.5 -16.5t16.5 -43.5t-16.5 -43.5t-43.5 -16.5zM173 500v-500h-80v500h80zM133 -216q-27 0 -43.5 16.5t-16.5 43.5t16.5 43.5t43.5 16.5t43.5 -16.5t16.5 -43.5t-16.5 -43.5t-43.5 -16.5z" />
    <glyph glyph-name="uni1ECC" unicode="&#x1ecc;" horiz-adv-x="748" 
d="M374 670q94 0 162.5 -41.5t106 -117.5t37.5 -181t-37.5 -181t-106 -117.5t-162.5 -41.5t-162.5 41.5t-106 117.5t-37.5 181t37.5 181t106 117.5t162.5 41.5zM374 595q-68 0 -118 -31.5t-77 -91t-27 -142.5t27 -142.5t77 -91t118 -31.5q69 0 118.5 31.5t76.5 91t27 142.5
t-27 142.5t-76.5 91t-118.5 31.5zM374 -216q-27 0 -43.5 16.5t-16.5 43.5t16.5 43.5t43.5 16.5t43.5 -16.5t16.5 -43.5t-16.5 -43.5t-43.5 -16.5z" />
    <glyph glyph-name="uni1ECD" unicode="&#x1ecd;" horiz-adv-x="600" 
d="M300 510q71 0 125.5 -31t85.5 -89.5t31 -139.5t-31 -139.5t-85.5 -89.5t-125.5 -31q-70 0 -125 31t-86 89.5t-31 139.5t31 139.5t86 89.5t125 31zM300 441q-51 0 -87 -23t-55.5 -65.5t-19.5 -102.5q0 -59 19.5 -102t55.5 -66t87 -23t87 23t55.5 66t19.5 102
q0 60 -19.5 102.5t-55.5 65.5t-87 23zM300 -216q-27 0 -43.5 16.5t-16.5 43.5t16.5 43.5t43.5 16.5t43.5 -16.5t16.5 -43.5t-16.5 -43.5t-43.5 -16.5z" />
    <glyph glyph-name="uni1ECE" unicode="&#x1ece;" horiz-adv-x="748" 
d="M374 670q94 0 162.5 -41.5t106 -117.5t37.5 -181t-37.5 -181t-106 -117.5t-162.5 -41.5t-162.5 41.5t-106 117.5t-37.5 181t37.5 181t106 117.5t162.5 41.5zM374 595q-68 0 -118 -31.5t-77 -91t-27 -142.5t27 -142.5t77 -91t118 -31.5q69 0 118.5 31.5t76.5 91t27 142.5
t-27 142.5t-76.5 91t-118.5 31.5zM375 715l-28 32q26 14 39 27.5t13 35.5q0 15 -10 25.5t-29 10.5q-15 0 -26 -7t-20 -23l-47 32q15 28 41.5 43.5t63.5 15.5q28 0 48.5 -11.5t32 -31t11.5 -43.5q0 -23 -10 -44t-30 -36.5t-49 -25.5z" />
    <glyph glyph-name="uni1ECF" unicode="&#x1ecf;" horiz-adv-x="600" 
d="M300 510q71 0 125.5 -31t85.5 -89.5t31 -139.5t-31 -139.5t-85.5 -89.5t-125.5 -31q-70 0 -125 31t-86 89.5t-31 139.5t31 139.5t86 89.5t125 31zM300 441q-51 0 -87 -23t-55.5 -65.5t-19.5 -102.5q0 -59 19.5 -102t55.5 -66t87 -23t87 23t55.5 66t19.5 102
q0 60 -19.5 102.5t-55.5 65.5t-87 23zM289 549l-28 39q30 14 44.5 28t14.5 36q0 17 -11 28.5t-31 11.5q-13 0 -25 -8t-23 -26l-46 32q14 32 41.5 47.5t64.5 15.5q29 0 50.5 -12t33 -32.5t11.5 -45.5q0 -24 -10.5 -45.5t-32 -38.5t-53.5 -30z" />
    <glyph glyph-name="uni1ED0" unicode="&#x1ed0;" horiz-adv-x="748" 
d="M533 736h-73l-86 115l-86 -115h-73l114 167h90zM556 996h75l-77 -143h-58zM374 670q94 0 162.5 -41.5t106 -117.5t37.5 -181t-37.5 -181t-106 -117.5t-162.5 -41.5t-162.5 41.5t-106 117.5t-37.5 181t37.5 181t106 117.5t162.5 41.5zM374 595q-68 0 -118 -31.5t-77 -91
t-27 -142.5t27 -142.5t77 -91t118 -31.5q69 0 118.5 31.5t76.5 91t27 142.5t-27 142.5t-76.5 91t-118.5 31.5z" />
    <glyph glyph-name="uni1ED1" unicode="&#x1ed1;" horiz-adv-x="600" 
d="M482 836h75l-77 -143h-58zM459 576h-73l-86 115l-86 -115h-73l114 167h90zM300 510q71 0 125.5 -31t85.5 -89.5t31 -139.5t-31 -139.5t-85.5 -89.5t-125.5 -31q-70 0 -125 31t-86 89.5t-31 139.5t31 139.5t86 89.5t125 31zM300 441q-51 0 -87 -23t-55.5 -65.5
t-19.5 -102.5q0 -59 19.5 -102t55.5 -66t87 -23t87 23t55.5 66t19.5 102q0 60 -19.5 102.5t-55.5 65.5t-87 23z" />
    <glyph glyph-name="uni1ED2" unicode="&#x1ed2;" horiz-adv-x="748" 
d="M533 736h-73l-86 115l-86 -115h-73l114 167h90zM514 996l60 -143h-58l-77 143h75zM374 670q94 0 162.5 -41.5t106 -117.5t37.5 -181t-37.5 -181t-106 -117.5t-162.5 -41.5t-162.5 41.5t-106 117.5t-37.5 181t37.5 181t106 117.5t162.5 41.5zM374 595q-68 0 -118 -31.5
t-77 -91t-27 -142.5t27 -142.5t77 -91t118 -31.5q69 0 118.5 31.5t76.5 91t27 142.5t-27 142.5t-76.5 91t-118.5 31.5z" />
    <glyph glyph-name="uni1ED3" unicode="&#x1ed3;" horiz-adv-x="600" 
d="M440 836l60 -143h-58l-77 143h75zM459 576h-73l-86 115l-86 -115h-73l114 167h90zM300 510q71 0 125.5 -31t85.5 -89.5t31 -139.5t-31 -139.5t-85.5 -89.5t-125.5 -31q-70 0 -125 31t-86 89.5t-31 139.5t31 139.5t86 89.5t125 31zM300 441q-51 0 -87 -23t-55.5 -65.5
t-19.5 -102.5q0 -59 19.5 -102t55.5 -66t87 -23t87 23t55.5 66t19.5 102q0 60 -19.5 102.5t-55.5 65.5t-87 23z" />
    <glyph glyph-name="uni1ED4" unicode="&#x1ed4;" horiz-adv-x="748" 
d="M533 736h-73l-86 115l-86 -115h-73l114 167h90zM536 833l-28 32q26 14 39 27.5t13 35.5q0 15 -10 25.5t-29 10.5q-15 0 -26 -7t-20 -23l-47 32q15 28 41.5 43.5t63.5 15.5q28 0 48.5 -11.5t32 -31t11.5 -43.5q0 -23 -10 -44t-30 -36.5t-49 -25.5zM374 670
q94 0 162.5 -41.5t106 -117.5t37.5 -181t-37.5 -181t-106 -117.5t-162.5 -41.5t-162.5 41.5t-106 117.5t-37.5 181t37.5 181t106 117.5t162.5 41.5zM374 595q-68 0 -118 -31.5t-77 -91t-27 -142.5t27 -142.5t77 -91t118 -31.5q69 0 118.5 31.5t76.5 91t27 142.5t-27 142.5
t-76.5 91t-118.5 31.5z" />
    <glyph glyph-name="uni1ED5" unicode="&#x1ed5;" horiz-adv-x="600" 
d="M462 673l-28 32q26 14 39 27.5t13 35.5q0 15 -10 25.5t-29 10.5q-15 0 -26 -7t-20 -23l-47 32q15 28 41.5 43.5t63.5 15.5q28 0 48.5 -11.5t32 -31t11.5 -43.5q0 -23 -10 -44t-30 -36.5t-49 -25.5zM459 576h-73l-86 115l-86 -115h-73l114 167h90zM300 510q71 0 125.5 -31
t85.5 -89.5t31 -139.5t-31 -139.5t-85.5 -89.5t-125.5 -31q-70 0 -125 31t-86 89.5t-31 139.5t31 139.5t86 89.5t125 31zM300 441q-51 0 -87 -23t-55.5 -65.5t-19.5 -102.5q0 -59 19.5 -102t55.5 -66t87 -23t87 23t55.5 66t19.5 102q0 60 -19.5 102.5t-55.5 65.5t-87 23z
" />
    <glyph glyph-name="uni1ED6" unicode="&#x1ed6;" horiz-adv-x="748" 
d="M533 736h-73l-86 115l-86 -115h-73l114 167h90zM548 1055q-5 -64 -33.5 -94.5t-75.5 -30.5q-28 0 -46.5 9.5t-31.5 21.5t-25.5 21.5t-28.5 9.5q-20 0 -30.5 -15t-15.5 -45h-63q5 64 33 94.5t77 30.5q27 0 45.5 -9.5t32 -21.5t25.5 -21.5t27 -9.5q20 0 31 15t16 45h63z
M374 670q94 0 162.5 -41.5t106 -117.5t37.5 -181t-37.5 -181t-106 -117.5t-162.5 -41.5t-162.5 41.5t-106 117.5t-37.5 181t37.5 181t106 117.5t162.5 41.5zM374 595q-68 0 -118 -31.5t-77 -91t-27 -142.5t27 -142.5t77 -91t118 -31.5q69 0 118.5 31.5t76.5 91t27 142.5
t-27 142.5t-76.5 91t-118.5 31.5z" />
    <glyph glyph-name="uni1ED7" unicode="&#x1ed7;" horiz-adv-x="600" 
d="M459 576h-73l-86 115l-86 -115h-73l114 167h90zM474 895q-5 -64 -33.5 -94.5t-75.5 -30.5q-28 0 -46.5 9.5t-31.5 21.5t-25.5 21.5t-28.5 9.5q-20 0 -30.5 -15t-15.5 -45h-63q5 64 33 94.5t77 30.5q27 0 45.5 -9.5t32 -21.5t25.5 -21.5t27 -9.5q20 0 31 15t16 45h63z
M300 510q71 0 125.5 -31t85.5 -89.5t31 -139.5t-31 -139.5t-85.5 -89.5t-125.5 -31q-70 0 -125 31t-86 89.5t-31 139.5t31 139.5t86 89.5t125 31zM300 441q-51 0 -87 -23t-55.5 -65.5t-19.5 -102.5q0 -59 19.5 -102t55.5 -66t87 -23t87 23t55.5 66t19.5 102
q0 60 -19.5 102.5t-55.5 65.5t-87 23z" />
    <glyph glyph-name="uni1ED8" unicode="&#x1ed8;" horiz-adv-x="748" 
d="M374 670q94 0 162.5 -41.5t106 -117.5t37.5 -181t-37.5 -181t-106 -117.5t-162.5 -41.5t-162.5 41.5t-106 117.5t-37.5 181t37.5 181t106 117.5t162.5 41.5zM374 595q-68 0 -118 -31.5t-77 -91t-27 -142.5t27 -142.5t77 -91t118 -31.5q69 0 118.5 31.5t76.5 91t27 142.5
t-27 142.5t-76.5 91t-118.5 31.5zM374 -216q-27 0 -43.5 16.5t-16.5 43.5t16.5 43.5t43.5 16.5t43.5 -16.5t16.5 -43.5t-16.5 -43.5t-43.5 -16.5zM528 743h-74l-80 107l-80 -107h-74l110 159h88z" />
    <glyph glyph-name="uni1ED9" unicode="&#x1ed9;" horiz-adv-x="600" 
d="M300 510q71 0 125.5 -31t85.5 -89.5t31 -139.5t-31 -139.5t-85.5 -89.5t-125.5 -31q-70 0 -125 31t-86 89.5t-31 139.5t31 139.5t86 89.5t125 31zM300 441q-51 0 -87 -23t-55.5 -65.5t-19.5 -102.5q0 -59 19.5 -102t55.5 -66t87 -23t87 23t55.5 66t19.5 102
q0 60 -19.5 102.5t-55.5 65.5t-87 23zM300 -216q-27 0 -43.5 16.5t-16.5 43.5t16.5 43.5t43.5 16.5t43.5 -16.5t16.5 -43.5t-16.5 -43.5t-43.5 -16.5zM459 576h-73l-86 115l-86 -115h-73l114 167h90z" />
    <glyph glyph-name="uni1EDA" unicode="&#x1eda;" horiz-adv-x="748" 
d="M650 768q0 -81 -45 -126t-131 -45l-20 63q71 0 95.5 28t24.5 80h76zM374 670q94 0 162.5 -41.5t106 -117.5t37.5 -181t-37.5 -181t-106 -117.5t-162.5 -41.5t-162.5 41.5t-106 117.5t-37.5 181t37.5 181t106 117.5t162.5 41.5zM374 595q-68 0 -118 -31.5t-77 -91
t-27 -142.5t27 -142.5t77 -91t118 -31.5q69 0 118.5 31.5t76.5 91t27 142.5t-27 142.5t-76.5 91t-118.5 31.5zM397 902h84l-86 -159h-64z" />
    <glyph glyph-name="uni1EDB" unicode="&#x1edb;" horiz-adv-x="600" 
d="M300 510q71 0 125.5 -31t85.5 -89.5t31 -139.5t-31 -139.5t-85.5 -89.5t-125.5 -31q-70 0 -125 31t-86 89.5t-31 139.5t31 139.5t86 89.5t125 31zM300 441q-51 0 -87 -23t-55.5 -65.5t-19.5 -102.5q0 -59 19.5 -102t55.5 -66t87 -23t87 23t55.5 66t19.5 102
q0 60 -19.5 102.5t-55.5 65.5t-87 23zM374 441v59q43 0 67.5 27.5t24.5 90.5h69q0 -89 -43.5 -133t-117.5 -44zM327 750h87l-98 -167h-65z" />
    <glyph glyph-name="uni1EDC" unicode="&#x1edc;" horiz-adv-x="748" 
d="M650 768q0 -81 -45 -126t-131 -45l-20 63q71 0 95.5 28t24.5 80h76zM374 670q94 0 162.5 -41.5t106 -117.5t37.5 -181t-37.5 -181t-106 -117.5t-162.5 -41.5t-162.5 41.5t-106 117.5t-37.5 181t37.5 181t106 117.5t162.5 41.5zM374 595q-68 0 -118 -31.5t-77 -91
t-27 -142.5t27 -142.5t77 -91t118 -31.5q69 0 118.5 31.5t76.5 91t27 142.5t-27 142.5t-76.5 91t-118.5 31.5zM351 902l66 -159h-64l-86 159h84z" />
    <glyph glyph-name="uni1EDD" unicode="&#x1edd;" horiz-adv-x="600" 
d="M300 510q71 0 125.5 -31t85.5 -89.5t31 -139.5t-31 -139.5t-85.5 -89.5t-125.5 -31q-70 0 -125 31t-86 89.5t-31 139.5t31 139.5t86 89.5t125 31zM300 441q-51 0 -87 -23t-55.5 -65.5t-19.5 -102.5q0 -59 19.5 -102t55.5 -66t87 -23t87 23t55.5 66t19.5 102
q0 60 -19.5 102.5t-55.5 65.5t-87 23zM374 441v59q43 0 67.5 27.5t24.5 90.5h69q0 -89 -43.5 -133t-117.5 -44zM266 750l76 -167h-65l-98 167h87z" />
    <glyph glyph-name="uni1EDE" unicode="&#x1ede;" horiz-adv-x="748" 
d="M650 768q0 -81 -45 -126t-131 -45l-20 63q71 0 95.5 28t24.5 80h76zM374 670q94 0 162.5 -41.5t106 -117.5t37.5 -181t-37.5 -181t-106 -117.5t-162.5 -41.5t-162.5 41.5t-106 117.5t-37.5 181t37.5 181t106 117.5t162.5 41.5zM374 595q-68 0 -118 -31.5t-77 -91
t-27 -142.5t27 -142.5t77 -91t118 -31.5q69 0 118.5 31.5t76.5 91t27 142.5t-27 142.5t-76.5 91t-118.5 31.5zM375 715l-28 32q26 14 39 27.5t13 35.5q0 15 -10 25.5t-29 10.5q-15 0 -26 -7t-20 -23l-47 32q15 28 41.5 43.5t63.5 15.5q28 0 48.5 -11.5t32 -31t11.5 -43.5
q0 -23 -10 -44t-30 -36.5t-49 -25.5z" />
    <glyph glyph-name="uni1EDF" unicode="&#x1edf;" horiz-adv-x="600" 
d="M300 510q71 0 125.5 -31t85.5 -89.5t31 -139.5t-31 -139.5t-85.5 -89.5t-125.5 -31q-70 0 -125 31t-86 89.5t-31 139.5t31 139.5t86 89.5t125 31zM300 441q-51 0 -87 -23t-55.5 -65.5t-19.5 -102.5q0 -59 19.5 -102t55.5 -66t87 -23t87 23t55.5 66t19.5 102
q0 60 -19.5 102.5t-55.5 65.5t-87 23zM374 441v59q43 0 67.5 27.5t24.5 90.5h69q0 -89 -43.5 -133t-117.5 -44zM289 549l-28 39q30 14 44.5 28t14.5 36q0 17 -11 28.5t-31 11.5q-13 0 -25 -8t-23 -26l-46 32q14 32 41.5 47.5t64.5 15.5q29 0 50.5 -12t33 -32.5t11.5 -45.5
q0 -24 -10.5 -45.5t-32 -38.5t-53.5 -30z" />
    <glyph glyph-name="uni1EE0" unicode="&#x1ee0;" horiz-adv-x="748" 
d="M650 768q0 -81 -45 -126t-131 -45l-20 63q71 0 95.5 28t24.5 80h76zM374 670q94 0 162.5 -41.5t106 -117.5t37.5 -181t-37.5 -181t-106 -117.5t-162.5 -41.5t-162.5 41.5t-106 117.5t-37.5 181t37.5 181t106 117.5t162.5 41.5zM374 595q-68 0 -118 -31.5t-77 -91
t-27 -142.5t27 -142.5t77 -91t118 -31.5q69 0 118.5 31.5t76.5 91t27 142.5t-27 142.5t-76.5 91t-118.5 31.5zM554 877q-3 -44 -16.5 -74t-37 -45t-58.5 -15q-28 0 -47.5 10.5t-33.5 23.5t-27.5 23.5t-29.5 10.5q-22 0 -33 -18.5t-16 -50.5h-63q5 66 32.5 100t80.5 34
q27 0 46.5 -10.5t34 -23.5t27.5 -23.5t28 -10.5q23 0 34 18.5t16 50.5h63z" />
    <glyph glyph-name="uni1EE1" unicode="&#x1ee1;" horiz-adv-x="600" 
d="M300 510q71 0 125.5 -31t85.5 -89.5t31 -139.5t-31 -139.5t-85.5 -89.5t-125.5 -31q-70 0 -125 31t-86 89.5t-31 139.5t31 139.5t86 89.5t125 31zM300 441q-51 0 -87 -23t-55.5 -65.5t-19.5 -102.5q0 -59 19.5 -102t55.5 -66t87 -23t87 23t55.5 66t19.5 102
q0 60 -19.5 102.5t-55.5 65.5t-87 23zM374 441v59q43 0 67.5 27.5t24.5 90.5h69q0 -89 -43.5 -133t-117.5 -44zM467 717q-3 -44 -16.5 -74t-37 -45t-58.5 -15q-28 0 -47.5 10.5t-33.5 23.5t-27.5 23.5t-29.5 10.5q-22 0 -33 -18.5t-16 -50.5h-63q5 66 32.5 100t80.5 34
q27 0 46.5 -10.5t34 -23.5t27.5 -23.5t28 -10.5q23 0 34 18.5t16 50.5h63z" />
    <glyph glyph-name="uni1EE2" unicode="&#x1ee2;" horiz-adv-x="748" 
d="M650 768q0 -81 -45 -126t-131 -45l-20 63q71 0 95.5 28t24.5 80h76zM374 670q94 0 162.5 -41.5t106 -117.5t37.5 -181t-37.5 -181t-106 -117.5t-162.5 -41.5t-162.5 41.5t-106 117.5t-37.5 181t37.5 181t106 117.5t162.5 41.5zM374 595q-68 0 -118 -31.5t-77 -91
t-27 -142.5t27 -142.5t77 -91t118 -31.5q69 0 118.5 31.5t76.5 91t27 142.5t-27 142.5t-76.5 91t-118.5 31.5zM374 -216q-27 0 -43.5 16.5t-16.5 43.5t16.5 43.5t43.5 16.5t43.5 -16.5t16.5 -43.5t-16.5 -43.5t-43.5 -16.5z" />
    </font>
</defs>
</svg>
