<?xml version="1.0" standalone="no"?>
<!DOCTYPE svg PUBLIC "-//W3C//DTD SVG 1.1//EN" "http://www.w3.org/Graphics/SVG/1.1/DTD/svg11.dtd" >
<svg xmlns="http://www.w3.org/2000/svg" xmlns:xlink="http://www.w3.org/1999/xlink" version="1.1">
<metadata>
Created by FontForge 20170731 at Wed Feb 26 09:24:02 2020
 By Aleksey,,,
Copyright 2019 The Work Sans Project Authors (https://github.com/weiweihuanghuang/Work-Sans)
</metadata>
<defs>
<font id="WorkSans-LightItalic" horiz-adv-x="600" >
  <font-face 
    font-family="Work Sans Light"
    font-weight="300"
    font-style="italic"
    font-stretch="normal"
    units-per-em="1000"
    panose-1="0 0 0 0 0 0 0 0 0 0"
    ascent="800"
    descent="-200"
    x-height="500"
    cap-height="660"
    bbox="-240 -279 1288 1077"
    underline-thickness="50"
    underline-position="-175"
    slope="-13"
    unicode-range="U+000D-FB02"
  />
<missing-glyph horiz-adv-x="500" 
d="M130 80h240v500h-240v-500zM50 0v660h400v-660h-400z" />
    <glyph glyph-name="fi" unicode="fi" horiz-adv-x="575" 
d="M62 0l137 592q11 47 32.5 79t54.5 48t78 16q25 0 46.5 -6.5t34.5 -18.5l-18 -41q-10 10 -27 15.5t-36 5.5q-51 0 -78.5 -27.5t-41.5 -87.5l-17 -75l-4 -18l-111 -482h-50zM66 457l10 43h315l-10 -43h-315zM550 597q-17 0 -27.5 10.5t-10.5 26.5q0 22 13 34.5t31 12.5
q17 0 27.5 -10.5t10.5 -26.5q0 -21 -12.5 -34t-31.5 -13zM546 500l-116 -500h-50l116 500h50z" />
    <glyph glyph-name="fl" unicode="fl" horiz-adv-x="621" 
d="M62 0l137 592q11 47 32.5 79t54.5 48t78 16q25 0 46.5 -6.5t34.5 -18.5l-18 -41q-10 10 -27 15.5t-36 5.5q-51 0 -78.5 -27.5t-41.5 -87.5l-17 -75l-4 -18l-111 -482h-50zM66 457l10 43h315l-10 -43h-315zM495 -8q-59 0 -81 37.5t-7 102.5l139 598h50l-140 -601
q-11 -48 3 -70.5t54 -22.5q17 0 28.5 1.5t21.5 4.5l-12 -40q-12 -5 -25.5 -7.5t-30.5 -2.5z" />
    <glyph glyph-name="f_f" unicode="ff" horiz-adv-x="653" 
d="M62 0l137 592q11 47 32.5 79t54.5 48t78 16q25 0 46.5 -6.5t34.5 -18.5l-18 -41q-10 10 -27 15.5t-36 5.5q-51 0 -78.5 -27.5t-41.5 -87.5l-17 -75l-4 -18l-111 -482h-50zM66 457l10 43h315l-10 -43h-315zM363 0l137 592q11 47 32.5 79t54.5 48t78 16q25 0 46.5 -6.5
t34.5 -18.5l-18 -41q-10 10 -27 15.5t-36 5.5q-51 0 -78.5 -27.5t-41.5 -87.5l-17 -75l-4 -18l-111 -482h-50zM367 457l10 43h315l-10 -43h-315z" />
    <glyph glyph-name="f_f_i" unicode="ffi" horiz-adv-x="876" 
d="M62 0l137 592q11 47 32.5 79t54.5 48t78 16q25 0 46.5 -6.5t34.5 -18.5l-18 -41q-10 10 -27 15.5t-36 5.5q-51 0 -78.5 -27.5t-41.5 -87.5l-17 -75l-4 -18l-111 -482h-50zM66 457l10 43h315l-10 -43h-315zM363 0l137 592q11 47 32.5 79t54.5 48t78 16q25 0 46.5 -6.5
t34.5 -18.5l-18 -41q-10 10 -27 15.5t-36 5.5q-51 0 -78.5 -27.5t-41.5 -87.5l-17 -75l-4 -18l-111 -482h-50zM367 457l10 43h315l-10 -43h-315zM851 597q-17 0 -27.5 10.5t-10.5 26.5q0 22 13 34.5t31 12.5q17 0 27.5 -10.5t10.5 -26.5q0 -21 -12.5 -34t-31.5 -13zM847 500
l-116 -500h-50l116 500h50z" />
    <glyph glyph-name="f_f_l" unicode="ffl" horiz-adv-x="922" 
d="M62 0l137 592q11 47 32.5 79t54.5 48t78 16q25 0 46.5 -6.5t34.5 -18.5l-18 -41q-10 10 -27 15.5t-36 5.5q-51 0 -78.5 -27.5t-41.5 -87.5l-17 -75l-4 -18l-111 -482h-50zM66 457l10 43h315l-10 -43h-315zM363 0l137 592q11 47 32.5 79t54.5 48t78 16q25 0 46.5 -6.5
t34.5 -18.5l-18 -41q-10 10 -27 15.5t-36 5.5q-51 0 -78.5 -27.5t-41.5 -87.5l-17 -75l-4 -18l-111 -482h-50zM367 457l10 43h315l-10 -43h-315zM796 -8q-59 0 -81 37.5t-7 102.5l139 598h50l-140 -601q-11 -48 3 -70.5t54 -22.5q17 0 28.5 1.5t21.5 4.5l-12 -40
q-12 -5 -25.5 -7.5t-30.5 -2.5z" />
    <glyph glyph-name=".notdef" horiz-adv-x="500" 
d="M130 80h240v500h-240v-500zM50 0v660h400v-660h-400z" />
    <glyph glyph-name=".null" horiz-adv-x="0" 
 />
    <glyph glyph-name="nonmarkingreturn" horiz-adv-x="333" 
 />
    <glyph glyph-name="NULL" horiz-adv-x="0" 
 />
    <glyph glyph-name="NULL" horiz-adv-x="0" 
 />
    <glyph glyph-name="CR" unicode="&#xd;" horiz-adv-x="309" 
 />
    <glyph glyph-name="space" unicode=" " horiz-adv-x="309" 
 />
    <glyph glyph-name="exclam" unicode="!" horiz-adv-x="228" 
d="M79 190l27 150l74 320h53l-74 -320l-41 -150h-39zM62 -8q-18 0 -29 11t-11 28q0 23 13.5 37t32.5 14q18 0 29 -11t11 -28q0 -23 -13 -37t-33 -14z" />
    <glyph glyph-name="quotedbl" unicode="&#x22;" horiz-adv-x="324" 
d="M362 685l-62 -205h-42l48 205h56zM230 685l-62 -205h-42l48 205h56z" />
    <glyph glyph-name="numbersign" unicode="#" horiz-adv-x="622" 
d="M297 0l223 660h46l-223 -660h-46zM31 198v39h537v-39h-537zM76 0l223 660h45l-223 -660h-45zM93 428v39h534v-39h-534z" />
    <glyph glyph-name="dollar" unicode="$" horiz-adv-x="610" 
d="M311 1q-69 0 -125.5 23t-94 66t-54.5 101l47 20q13 -53 46 -90.5t80.5 -57.5t104.5 -20q54 0 93 19t60 50t21 68q0 47 -33.5 72.5t-88.5 40.5l-79 21q-48 14 -85 36t-58 54t-21 74q0 54 28.5 95t79 64t119.5 23q65 0 112 -19t78 -54t47 -84l-46 -21q-12 47 -39 77
t-66 44.5t-89 14.5q-81 0 -128 -38t-47 -94q0 -32 16 -56t44.5 -40.5t66.5 -27.5l84 -24q71 -20 112 -55.5t41 -95.5q0 -56 -29.5 -98t-80.5 -65t-116 -23zM204 -100l200 860h43l-199 -860h-44z" />
    <glyph glyph-name="percent" unicode="%" horiz-adv-x="826" 
d="M106 0l595 660h56l-596 -660h-55zM225 316q-42 0 -72 18t-45.5 50.5t-15.5 73.5q0 57 21 104t60.5 75t93.5 28q42 0 71 -18t44.5 -50t15.5 -74q0 -54 -21 -101.5t-59.5 -76.5t-92.5 -29zM229 356q40 0 67.5 24t42 62t14.5 79q0 47 -23 75.5t-67 28.5q-40 0 -68.5 -23.5
t-43 -61t-14.5 -79.5q0 -48 24.5 -76.5t67.5 -28.5zM598 -5q-42 0 -72 18t-46 50t-16 74q0 57 21.5 103.5t61 75t93.5 28.5q42 0 71 -18t44.5 -50t15.5 -74q0 -54 -21 -102t-59.5 -76.5t-92.5 -28.5zM602 35q40 0 67.5 24t41.5 62t14 79q0 47 -23 75.5t-66 28.5
q-40 0 -68.5 -23.5t-43 -61t-14.5 -79.5q0 -48 24 -76.5t68 -28.5z" />
    <glyph glyph-name="ampersand" unicode="&#x26;" horiz-adv-x="580" 
d="M223 -9q-61 0 -106 21t-69 59.5t-24 90.5q0 58 25.5 97t72.5 65.5t111 47.5l22 9q51 18 91 39.5t63 51.5t23 72q0 39 -24 61.5t-63 22.5q-47 0 -77.5 -32t-30.5 -86q0 -23 6 -54.5t17.5 -67t28.5 -74.5t37 -78q38 -69 75.5 -115.5t74.5 -69.5t72 -23l-8 -39v0
q-45 0 -88 25.5t-83.5 75t-80.5 120.5q-28 54 -50.5 108t-34.5 103t-12 87q0 49 20.5 84.5t55.5 56t81 20.5q61 0 94.5 -34t33.5 -85q0 -56 -27.5 -94.5t-76.5 -65.5t-114 -49l-6 -1q-55 -19 -95.5 -41t-63 -54t-22.5 -81q0 -62 43 -96.5t110 -34.5q52 0 91.5 18t74.5 50
l11 8q42 41 70.5 100.5t36.5 131.5l43 -4q-9 -76 -42.5 -145t-83.5 -115l-12 -10q-26 -23 -56 -40t-63 -26.5t-71 -9.5z" />
    <glyph glyph-name="quotesingle" unicode="'" horiz-adv-x="193" 
d="M230 685l-62 -205h-42l48 205h56z" />
    <glyph glyph-name="parenleft" unicode="(" horiz-adv-x="300" 
d="M151 -180q-46 74 -70 168t-24 190q0 87 21.5 170.5t61 158.5t97.5 136t130 103l21 -31q-92 -59 -154.5 -145t-94.5 -187.5t-32 -208.5q0 -88 19 -174t58 -159z" />
    <glyph glyph-name="parenright" unicode=")" horiz-adv-x="301" 
d="M165 746q46 -74 70 -168t24 -190q0 -87 -21.5 -170.5t-61 -158.5t-97.5 -136t-130 -103l-21 31q92 59 154.5 145t94.5 187.5t32 208.5q0 88 -19 174t-58 159z" />
    <glyph glyph-name="asterisk" unicode="*" horiz-adv-x="535" 
d="M399 295l-53 110l-25 71l-56 -63l-97 -94l-29 30l97 94l64 54l-70 27l-109 53l19 37l110 -52l66 -39l11 82l27 125h44l-29 -131l-24 -79l78 22l127 25l4 -41l-127 -26l-80 -10l38 -65l51 -110z" />
    <glyph glyph-name="plus" unicode="+" horiz-adv-x="604" 
d="M396 555l-111 -482h-47l111 482h47zM561 339l-11 -46h-476l11 46h476z" />
    <glyph glyph-name="comma" unicode="," horiz-adv-x="213" 
d="M65 82q22 0 35 -16t13 -42q0 -30 -16 -62.5t-45 -57.5t-68 -33l-16 32q33 6 55.5 21.5t35.5 36t17 41.5l-1 1q-4 -6 -9.5 -8t-14.5 -2q-17 0 -26 12t-9 28q0 21 14 35t35 14z" />
    <glyph glyph-name="hyphen" unicode="-" horiz-adv-x="466" 
d="M396 291l-12 -51h-307l12 51h307z" />
    <glyph glyph-name="period" unicode="." horiz-adv-x="217" 
d="M57 -8q-18 0 -29.5 11t-11.5 28q0 23 13.5 37t33.5 14q17 0 28.5 -11t11.5 -28q0 -23 -13.5 -37t-32.5 -14z" />
    <glyph glyph-name="slash" unicode="/" horiz-adv-x="387" 
d="M467 730l-459 -800h-52l459 800h52z" />
    <glyph glyph-name="zero" unicode="0" horiz-adv-x="615" 
d="M289 -7q-70 0 -119 32t-74 89t-25 130q0 38 4 74t12 71q14 58 39 109t60.5 89.5t82 60t102.5 21.5q68 0 114.5 -32.5t71 -89t24.5 -129.5q0 -37 -4 -72.5t-12 -69.5q-13 -59 -38 -110.5t-60 -90.5t-79.5 -60.5t-98.5 -21.5zM294 37q58 0 102 33.5t74 89.5t45 122
q8 33 11.5 67t3.5 68q0 101 -43.5 154t-120.5 53q-61 0 -106.5 -33.5t-76 -88.5t-46.5 -122q-7 -33 -11 -67t-4 -68q0 -69 21.5 -115t60 -69.5t90.5 -23.5z" />
    <glyph glyph-name="one" unicode="1" horiz-adv-x="348" 
d="M138 0l118 514q6 24 11.5 43t12.5 40q-22 -24 -55.5 -45.5t-70 -37t-70.5 -22.5l-1 48q37 9 77.5 27.5t77 43t59.5 49.5h44l-153 -660h-50z" />
    <glyph glyph-name="two" unicode="2" horiz-adv-x="550" 
d="M15 0l11 47q93 65 173 122t139.5 110t92.5 106t33 111q0 68 -39 97.5t-100 29.5q-73 0 -122.5 -45t-68.5 -116l-39 30q15 51 47 91.5t79 63.5t107 23q56 0 98 -19.5t65.5 -56t23.5 -89.5t-23 -101t-63.5 -93.5t-94 -89.5t-114.5 -87.5t-124 -87.5v-1q9 0 25 0.5t24 0.5
h320l-11 -46h-439z" />
    <glyph glyph-name="three" unicode="3" horiz-adv-x="538" 
d="M250 -10q-88 0 -145.5 48.5t-75.5 130.5l53 14q10 -66 54.5 -106.5t116.5 -40.5q52 0 89.5 20t58 55t20.5 79q0 60 -39 90.5t-104 30.5h-13t-15 -1l11 50q10 -1 18 -2t17 -1q52 0 89.5 18t57.5 50t20 75q0 42 -19 69.5t-50.5 41.5t-70.5 14q-66 0 -107.5 -30.5
t-62.5 -82.5l-44 27q27 63 84.5 97.5t134.5 34.5q54 0 95.5 -20t65 -56.5t23.5 -87.5q0 -49 -21 -87.5t-57 -61t-80 -26.5v-2q35 -5 61.5 -23t41.5 -46.5t15 -65.5q0 -65 -30.5 -110.5t-81 -70t-110.5 -24.5z" />
    <glyph glyph-name="four" unicode="4" horiz-adv-x="542" 
d="M282 0l44 188h-307l10 43q11 14 22.5 28.5t26.5 31.5l336 369h71l-100 -429h128l-10 -43h-128l-43 -188h-50zM77 231h259l89 381l-291 -319q-15 -17 -29 -32z" />
    <glyph glyph-name="five" unicode="5" horiz-adv-x="549" 
d="M261 -10q-61 0 -107.5 24.5t-74 64t-34.5 84.5l53 14q4 -37 23.5 -69t56 -52t88.5 -20q56 0 94.5 27t58 69.5t19.5 90.5q0 51 -21 83.5t-55.5 48.5t-76.5 16q-46 0 -79.5 -14.5t-59.5 -36.5l-41 14l103 326h340l-11 -46h-296l-77 -248q24 21 61 34.5t79 13.5q52 0 94 -21
t66.5 -62t24.5 -100q0 -68 -27.5 -122.5t-78.5 -86.5t-122 -32z" />
    <glyph glyph-name="six" unicode="6" horiz-adv-x="562" 
d="M292 -10q-74 0 -123 32t-73 89.5t-24 134.5q0 80 19 155t57 136t97 96.5t137 35.5q66 0 117.5 -33.5t66.5 -102.5l-49 -16q-10 50 -49.5 78t-88.5 28q-61 0 -107.5 -29t-79 -78.5t-50 -112.5t-21.5 -132q18 63 72 98t125 35q87 0 139 -50.5t52 -136.5q0 -67 -27 -118
t-76 -80t-114 -29zM293 36q51 0 88 22.5t56.5 61.5t19.5 89q0 68 -41.5 108.5t-114.5 40.5q-51 0 -89.5 -22.5t-59.5 -59.5t-21 -81q0 -30 10.5 -58.5t31 -51t50.5 -36t70 -13.5z" />
    <glyph glyph-name="seven" unicode="7" horiz-adv-x="510" 
d="M115 660h459l-12 -46q-89 -80 -159 -173t-120 -202.5t-78 -238.5h-55q26 119 76.5 230.5t125.5 212t175 185.5l-1 -14h-422z" />
    <glyph glyph-name="eight" unicode="8" horiz-adv-x="591" 
d="M279 -9q-48 0 -90.5 12.5t-75 36.5t-50.5 58t-18 76q0 57 28.5 96t75 61t101.5 26l9 -11q-31 9 -56.5 29.5t-41 49.5t-15.5 62q0 54 26.5 95t73.5 65t110 24q59 0 104.5 -20.5t72 -56.5t26.5 -86q0 -70 -46 -118.5t-127 -57.5l-4 11q36 -10 66 -33t48 -54.5t18 -69.5
q0 -61 -30 -105t-83 -67t-122 -23zM286 37q52 0 91.5 16.5t62 48.5t22.5 78q0 42 -25 74.5t-67 50t-93 17.5q-49 0 -90 -17.5t-65.5 -49.5t-24.5 -77t26 -76.5t68.5 -48t94.5 -16.5zM351 364q46 0 81.5 18t55 49t19.5 71q0 54 -41 89t-111 35q-48 0 -83.5 -18t-55 -49.5
t-19.5 -69.5q0 -34 20 -62t54.5 -45.5t79.5 -17.5z" />
    <glyph glyph-name="nine" unicode="9" horiz-adv-x="579" 
d="M243 -10q-57 0 -100 21t-70.5 58t-38.5 86l51 17q8 -37 28.5 -68t53.5 -49.5t79 -18.5q58 0 103.5 28.5t76.5 78t48.5 113.5t19.5 134q-11 -42 -39 -72t-66.5 -46t-82.5 -16q-61 0 -106 25t-69.5 68.5t-24.5 100.5q0 61 27.5 110.5t77.5 79.5t117 30q68 0 116.5 -30
t73.5 -86t25 -135q0 -82 -19 -158.5t-56.5 -137.5t-94 -97t-130.5 -36zM314 301q51 0 89 22.5t59.5 60.5t21.5 84q0 45 -20 80t-55 55.5t-83 20.5q-52 0 -89.5 -22t-58 -59.5t-20.5 -84.5q0 -45 18.5 -81t54 -56t83.5 -20z" />
    <glyph glyph-name="colon" unicode=":" horiz-adv-x="247" 
d="M100 8q-18 0 -29.5 11t-11.5 28q0 23 13.5 37t33.5 14q17 0 28.5 -11t11.5 -28q0 -23 -13.5 -37t-32.5 -14zM198 431q-18 0 -29.5 11t-11.5 28q0 23 13.5 37t33.5 14q17 0 28.5 -11t11.5 -28q0 -23 -13.5 -37t-32.5 -14z" />
    <glyph glyph-name="semicolon" unicode=";" horiz-adv-x="247" 
d="M78 82q22 0 35 -16t13 -42q0 -30 -16 -62.5t-45 -57.5t-68 -33l-16 32q33 6 55.5 21.5t35.5 36t17 41.5l-1 1q-4 -6 -9.5 -8t-14.5 -2q-17 0 -26 12t-9 28q0 21 14 35t35 14zM176 506q18 0 29.5 -11t11.5 -28q0 -23 -13.5 -37t-33.5 -14q-17 0 -28.5 11t-11.5 28
q0 23 13.5 37t32.5 14z" />
    <glyph glyph-name="less" unicode="&#x3c;" horiz-adv-x="604" 
d="M602 557l-13 -55l-468 -204l374 -208l-12 -48l-407 228l13 59z" />
    <glyph glyph-name="equal" unicode="=" horiz-adv-x="604" 
d="M571 432l-11 -46h-454l11 46h454zM525 230l-11 -46h-454l10 46h455z" />
    <glyph glyph-name="greater" unicode="&#x3e;" horiz-adv-x="604" 
d="M25 42l13 55l468 204l-374 208l12 48l407 -228l-13 -59z" />
    <glyph glyph-name="question" unicode="?" horiz-adv-x="506" 
d="M199 181l36 151q75 0 126 18.5t77 55t26 90.5q0 60 -40.5 93t-107.5 33q-73 0 -118 -35t-64 -88l-41 28q17 41 47.5 73t75 50t101.5 18q59 0 103.5 -20.5t69.5 -58.5t25 -91q0 -63 -29.5 -107.5t-83 -69.5t-125.5 -28l-26 -112h-52zM190 -8q-17 0 -28.5 11t-11.5 28
q0 23 13.5 37t32.5 14q18 0 29.5 -11t11.5 -28q0 -23 -13.5 -37t-33.5 -14z" />
    <glyph glyph-name="at" unicode="@" horiz-adv-x="931" 
d="M460 -184q-115 0 -203.5 46.5t-138.5 133.5t-50 208q0 104 34 187.5t93.5 142t138.5 90t169 31.5q93 0 162 -28t116 -77.5t70.5 -116t23.5 -144.5q0 -60 -15 -112.5t-41 -92.5t-60.5 -63t-75.5 -23q-33 0 -54 15t-30 39t-6 51q-22 -43 -65 -69.5t-98 -26.5
q-53 0 -92.5 26t-61 71t-21.5 102q0 56 16.5 104t47 84t71.5 56.5t90 20.5q45 0 78.5 -18t54 -50.5t25.5 -77.5l32 136h45l-77 -328q-3 -11 -4 -21t-1 -18q0 -35 18 -47t39 -12q31 0 57 20t46 55t31.5 81t11.5 97q0 72 -21.5 132t-64 104.5t-105 68.5t-145.5 24
q-80 0 -150.5 -28t-123.5 -81.5t-84 -130t-31 -173.5q0 -83 27 -148t74 -110.5t110.5 -68.5t137.5 -23t130.5 17t90.5 39l18 -34q-28 -15 -62 -29t-77.5 -22.5t-99.5 -8.5zM441 46q51 0 90.5 29.5t62.5 81.5t23 118q0 52 -18 86.5t-48 51.5t-69 17t-72 -16.5t-57.5 -46.5
t-38.5 -71t-14 -89q0 -51 18 -87t49.5 -55t73.5 -19z" />
    <glyph glyph-name="A" unicode="A" horiz-adv-x="611" 
d="M-40 0l409 660h63l103 -660h-49l-85 531l-11 75v0l-43 -72l-330 -534h-57zM123 211l11 46h344l-11 -46h-344z" />
    <glyph glyph-name="B" unicode="B" horiz-adv-x="638" 
d="M43 0l153 660h225q87 0 133 -40.5t46 -108.5q0 -47 -20 -85.5t-54.5 -63.5t-82.5 -34v0q59 -7 91.5 -43t32.5 -87q0 -64 -30.5 -108t-85.5 -67t-131 -23h-277zM104 46h216q95 0 145 40t50 112q0 32 -14.5 56.5t-47 38.5t-87.5 14h-201zM175 353h200q55 0 93.5 20.5
t59 55.5t20.5 76q0 54 -36.5 81.5t-102.5 27.5h-173z" />
    <glyph glyph-name="C" unicode="C" horiz-adv-x="668" 
d="M354 -10q-76 0 -138.5 32.5t-99.5 96t-37 156.5q0 75 21 146t63.5 127t105.5 89t146 33q61 0 110 -20.5t83.5 -61t51.5 -101.5l-52 -16q-20 77 -71.5 115t-126.5 38q-68 0 -120 -29t-87.5 -78t-53.5 -109.5t-18 -124.5q0 -78 30.5 -133t82 -84.5t113.5 -29.5
q74 0 122.5 31t79.5 87l47 -25q-40 -64 -101.5 -101.5t-150.5 -37.5z" />
    <glyph glyph-name="D" unicode="D" horiz-adv-x="697" 
d="M46 0l153 660h192q85 0 144 -35t90 -96t31 -139q0 -83 -25.5 -154t-74 -124t-116.5 -82.5t-151 -29.5h-243zM107 46h188q71 0 128 26.5t97 73t61.5 107.5t21.5 130q0 66 -24 118t-72.5 82.5t-122.5 30.5h-146z" />
    <glyph glyph-name="E" unicode="E" 
d="M43 0l153 660h441l-12 -46h-390l-59 -255h311l-11 -47h-310l-61 -266h407l-11 -46h-458z" />
    <glyph glyph-name="F" unicode="F" horiz-adv-x="559" 
d="M612 614h-377l-59 -255h312l-11 -47h-311l-73 -312h-50l153 660h427z" />
    <glyph glyph-name="G" unicode="G" horiz-adv-x="699" 
d="M343 -8q-72 0 -132 33t-96 96.5t-36 153.5q0 77 22 148t65.5 126.5t108 88t149.5 32.5q59 0 109 -18.5t87 -57t57 -100.5l-50 -17q-25 76 -78.5 111.5t-127.5 35.5q-71 0 -125 -29t-91 -78t-55.5 -110t-18.5 -125q0 -77 29 -131.5t79 -83.5t113 -29q56 0 102.5 20.5
t79.5 62.5t48 107l9 42h-220l11 47h265l-75 -317h-41l35 157l8 1q-18 -59 -52 -95.5t-79.5 -53.5t-99.5 -17z" />
    <glyph glyph-name="H" unicode="H" horiz-adv-x="702" 
d="M695 660l-153 -660h-50l153 660h50zM246 660l-153 -660h-50l153 660h50zM599 359l-10 -47h-447l11 47h446z" />
    <glyph glyph-name="I" unicode="I" horiz-adv-x="253" 
d="M246 660l-153 -660h-50l153 660h50z" />
    <glyph glyph-name="J" unicode="J" horiz-adv-x="518" 
d="M197 -9q-50 0 -88 17.5t-59.5 50t-25.5 76t13 95.5l48 3q-18 -59 -11 -103.5t39.5 -69t87.5 -24.5q70 0 109 40.5t59 132.5l104 451h50l-107 -462q-14 -65 -41.5 -111t-70.5 -71t-107 -25z" />
    <glyph glyph-name="K" unicode="K" horiz-adv-x="594" 
d="M43 0l153 660h50l-85 -366l429 366h72l-314 -269l167 -391h-55l-152 356l-164 -139l-51 -217h-50z" />
    <glyph glyph-name="L" unicode="L" horiz-adv-x="561" 
d="M104 46h388l-11 -46h-438l153 660h50z" />
    <glyph glyph-name="M" unicode="M" horiz-adv-x="806" 
d="M43 0l153 660h71l79 -504l10 -96v0l52 94l313 506h78l-153 -660h-47l114 493l31 119h-1l-377 -612h-45l-93 612v0l-23 -119l-114 -493h-48z" />
    <glyph glyph-name="N" unicode="N" horiz-adv-x="701" 
d="M43 0l153 660h61l220 -517l31 -89h1l16 83l122 523h47l-153 -660h-60l-221 518l-30 88h-1l-17 -83l-121 -523h-48z" />
    <glyph glyph-name="O" unicode="O" horiz-adv-x="728" 
d="M352 -10q-74 0 -136 33.5t-99 98.5t-37 158q0 77 21.5 147t64 124.5t105.5 86.5t145 32q74 0 135 -34t97.5 -98.5t36.5 -157.5q0 -76 -21.5 -146t-63.5 -125t-104 -87t-144 -32zM357 37q68 0 119.5 28.5t86 76.5t52.5 109t18 126q0 79 -29.5 133.5t-79.5 83.5t-114 29
q-68 0 -120 -28.5t-87 -76.5t-53 -108.5t-18 -126.5q0 -79 29.5 -133.5t80.5 -83.5t115 -29z" />
    <glyph glyph-name="P" unicode="P" horiz-adv-x="591" 
d="M43 0l153 660h182q97 0 153.5 -47t56.5 -127q0 -64 -30 -113.5t-86.5 -78t-134.5 -28.5h-202l9 47h204q62 0 103.5 23t63 61.5t21.5 85.5q0 60 -41.5 95.5t-119.5 35.5h-139l-143 -614h-50z" />
    <glyph glyph-name="Q" unicode="Q" horiz-adv-x="728" 
d="M466 -194q-37 0 -67 10t-53 29.5t-35.5 47t-12.5 60.5q0 14 2.5 28.5t6.5 29.5l45 7q-5 -15 -7 -29t-2 -27q0 -52 34.5 -80t92.5 -28q29 0 54 6.5t47 19.5l6 -47q-24 -14 -53.5 -20.5t-57.5 -6.5zM352 -10q-74 0 -136 33.5t-99 98.5t-37 158q0 77 21.5 147t64 124.5
t105.5 86.5t145 32q74 0 135 -34t97.5 -98.5t36.5 -157.5q0 -76 -21.5 -146t-63.5 -125t-104 -87t-144 -32zM357 37q68 0 119.5 28.5t86 76.5t52.5 109t18 126q0 79 -29.5 133.5t-79.5 83.5t-114 29q-68 0 -120 -28.5t-87 -76.5t-53 -108.5t-18 -126.5q0 -79 29.5 -133.5
t80.5 -83.5t115 -29z" />
    <glyph glyph-name="R" unicode="R" horiz-adv-x="622" 
d="M43 0l153 660h210q91 0 142 -45.5t51 -125.5q0 -56 -25.5 -101t-71.5 -72t-108 -32l-26 -4h-222l9 46h209q62 0 103 22.5t60.5 59.5t19.5 82q0 58 -38.5 91t-111.5 33h-161l-143 -614h-50zM480 0l-116 294l51 5l119 -299h-54z" />
    <glyph glyph-name="S" unicode="S" horiz-adv-x="619" 
d="M320 -8q-72 0 -131 23.5t-97.5 66.5t-54.5 104l50 24q12 -56 45.5 -94.5t83 -58t108.5 -19.5q53 0 93.5 17.5t64 48.5t23.5 72q0 44 -32 71.5t-92 43.5l-94 26q-50 15 -85.5 38.5t-53.5 56.5t-18 73q0 52 28 94t80 67t124 25q93 0 158 -40t89 -121l-50 -23
q-13 52 -42.5 82t-69.5 43t-88 13q-56 0 -96 -18t-61 -48t-21 -66q0 -44 31 -77.5t88 -49.5l98 -27q79 -22 118.5 -60.5t39.5 -94.5q0 -61 -32.5 -104t-86 -65.5t-117.5 -22.5z" />
    <glyph glyph-name="T" unicode="T" horiz-adv-x="565" 
d="M638 660l-11 -46h-234l-142 -614h-50l142 614h-238l12 46h521z" />
    <glyph glyph-name="U" unicode="U" horiz-adv-x="676" 
d="M317 -10q-87 0 -144.5 35t-78 100.5t-0.5 155.5l89 379h50l-90 -391q-18 -75 0 -127t63.5 -79t112.5 -27q90 0 143 57t76 156l95 411h50l-98 -425q-27 -113 -92.5 -179t-175.5 -66z" />
    <glyph glyph-name="V" unicode="V" horiz-adv-x="598" 
d="M673 660l-403 -660h-58l-97 660h51l73 -510l11 -103l54 100l314 513h55z" />
    <glyph glyph-name="W" unicode="W" horiz-adv-x="917" 
d="M172 0l-49 660h49l42 -607l303 607h63l27 -610l323 610h54l-355 -660h-64l-24 468l-4 139h-1l-68 -144l-235 -463h-61z" />
    <glyph glyph-name="X" unicode="X" horiz-adv-x="554" 
d="M-37 0l309 344l-135 316h55l118 -280l247 280h59l-286 -324l143 -336h-53l-127 300l-269 -300h-61z" />
    <glyph glyph-name="Y" unicode="Y" horiz-adv-x="534" 
d="M184 0l59 257l-133 403h54l75 -235l37 -121l99 130l179 226h60l-321 -407l-59 -253h-50z" />
    <glyph glyph-name="Z" unicode="Z" horiz-adv-x="568" 
d="M-15 0l10 45l537 569h-406l11 46h470l-11 -45l-538 -569h433l-11 -46h-495z" />
    <glyph glyph-name="bracketleft" unicode="[" horiz-adv-x="308" 
d="M388 686h-159l-188 -810h160l-11 -44h-206l208 898h206z" />
    <glyph glyph-name="backslash" unicode="\" horiz-adv-x="424" 
d="M141 730h45l134 -800h-45z" />
    <glyph glyph-name="bracketright" unicode="]" horiz-adv-x="309" 
d="M-65 -124h159l188 810h-160l11 44h206l-208 -898h-206z" />
    <glyph glyph-name="asciicircum" unicode="^" horiz-adv-x="547" 
d="M56 355l304 375h49l131 -375h-49l-114 332l-266 -332h-55z" />
    <glyph glyph-name="underscore" unicode="_" horiz-adv-x="520" 
d="M440 -97l-10 -46h-520l10 46h520z" />
    <glyph glyph-name="grave" unicode="`" horiz-adv-x="523" 
d="M358 741l48 -158h-38l-60 158h50z" />
    <glyph glyph-name="a" unicode="a" 
d="M252 -9q-61 0 -106 28.5t-69.5 79t-24.5 115.5q0 62 18 115.5t52 94t81 63.5t104 23q53 0 91.5 -19.5t61.5 -54.5t27 -82l34 146h50l-116 -500h-44l22 108q-25 -51 -71.5 -84t-109.5 -33zM265 34q43 0 79.5 21.5t63.5 59t42 84.5t15 98q0 57 -21 94.5t-56 56.5t-79 19
q-46 0 -84 -19t-66 -53t-43 -80t-15 -101q0 -57 20.5 -97.5t57.5 -61.5t86 -21z" />
    <glyph glyph-name="b" unicode="b" 
d="M355 509q58 0 101.5 -28t67.5 -78t24 -117q0 -62 -18 -115.5t-51 -94t-78.5 -63.5t-101.5 -23q-54 0 -93.5 21t-63 57.5t-28.5 82.5l-35 -151h-50l169 730h50l-76 -326q26 48 75 76.5t108 28.5zM299 33q43 0 79.5 19t63.5 53.5t42 80.5t15 101q0 58 -20.5 97.5t-56 60.5
t-80.5 21q-47 0 -84.5 -19.5t-64.5 -55t-41 -83.5t-14 -104q0 -78 43 -124.5t118 -46.5z" />
    <glyph glyph-name="c" unicode="c" horiz-adv-x="528" 
d="M269 -9q-65 0 -114 29t-76 80t-27 116q0 84 32 150t90 104.5t136 38.5q52 0 92.5 -18.5t66.5 -52.5t35 -79l-51 -12q-9 53 -45.5 86t-99.5 33q-47 0 -84.5 -18.5t-64.5 -52.5t-41.5 -79t-14.5 -98q0 -55 21.5 -96.5t59.5 -64.5t90 -23q50 0 90.5 26.5t59.5 71.5l47 -18
q-26 -57 -79 -90t-123 -33z" />
    <glyph glyph-name="d" unicode="d" 
d="M252 -9q-61 0 -106 28.5t-69.5 79t-24.5 115.5q0 62 18 115.5t52 94t81 63.5t104 23q52 0 91 -19t62 -54.5t27 -85.5l87 379h50l-169 -730h-44l22 108q-25 -51 -71.5 -84t-109.5 -33zM264 34q44 0 81 21.5t63.5 59t41.5 84.5t15 98q0 57 -21 94.5t-56 56.5t-79 19
q-46 0 -84 -19t-66 -53t-43 -80t-15 -101q0 -57 20.5 -97.5t57.5 -61.5t85 -21z" />
    <glyph glyph-name="e" unicode="e" horiz-adv-x="551" 
d="M269 -9q-69 0 -118 30t-74 81.5t-25 113.5q0 78 30 145t88 107.5t140 40.5q60 0 102.5 -26t65.5 -70.5t23 -101.5q0 -15 -2 -32t-7 -34h-414v43h391l-21 -16q2 10 3 20t1 20q0 44 -17 78.5t-49.5 55t-78.5 20.5q-51 0 -89.5 -20.5t-64.5 -56t-38.5 -80.5t-12.5 -94
q0 -53 21 -93.5t59.5 -64t90.5 -23.5q57 1 97.5 26.5t64.5 65.5l40 -26q-21 -32 -51.5 -57t-69 -38.5t-85.5 -13.5z" />
    <glyph glyph-name="f" unicode="f" horiz-adv-x="352" 
d="M62 0l137 592q11 47 32.5 79t54.5 48t78 16q25 0 46.5 -6.5t34.5 -18.5l-18 -41q-10 10 -27 15.5t-36 5.5q-51 0 -78.5 -27.5t-41.5 -87.5l-17 -75l-4 -18l-111 -482h-50zM66 457l10 43h315l-10 -43h-315z" />
    <glyph glyph-name="g" unicode="g" horiz-adv-x="599" 
d="M211 -215q-42 0 -79 11.5t-65.5 32.5t-47 51t-25.5 68l49 17q13 -66 56.5 -101t116.5 -35q45 0 82.5 16t65 54t41.5 103l32 138l5 -5q-21 -55 -71.5 -89.5t-117.5 -34.5q-58 0 -104 27.5t-72 77t-26 114.5q0 59 17.5 110t50.5 89t79 59.5t103 21.5q62 0 104.5 -27.5
t63.5 -75t15 -107.5l-10 1l46 199h50l-118 -506q-17 -74 -51 -120t-81.5 -67.5t-108.5 -21.5zM265 54q60 0 104 33t67.5 87.5t23.5 119.5q0 57 -20.5 95.5t-56.5 58t-80 19.5q-62 0 -107.5 -32t-70 -85.5t-24.5 -119.5q0 -81 44.5 -128.5t119.5 -47.5z" />
    <glyph glyph-name="h" unicode="h" horiz-adv-x="582" 
d="M29 0l169 730h50l-81 -349l-10 -3q15 40 44 69.5t70 46t90 16.5q57 0 97 -25.5t56 -73t1 -113.5l-69 -298h-50l68 297q19 81 -14 125t-102 44q-55 0 -96 -23.5t-68 -65t-40 -96.5l-65 -281h-50z" />
    <glyph glyph-name="i" unicode="i" horiz-adv-x="223" 
d="M198 597q-17 0 -27.5 10.5t-10.5 26.5q0 22 13 34.5t31 12.5q17 0 27.5 -10.5t10.5 -26.5q0 -21 -12.5 -34t-31.5 -13zM194 500l-116 -500h-50l116 500h50z" />
    <glyph glyph-name="j" unicode="j" horiz-adv-x="222" 
d="M198 597q-17 0 -27.5 10.5t-10.5 26.5q0 22 13 34.5t31 12.5q17 0 27.5 -10.5t10.5 -26.5q0 -21 -12.5 -34t-31.5 -13zM-86 -215q-25 0 -48 7t-37 20l19 45q13 -10 29.5 -16.5t33.5 -6.5q39 0 64 24.5t38 80.5l131 561h50l-133 -576q-16 -68 -54.5 -103.5t-92.5 -35.5z
" />
    <glyph glyph-name="k" unicode="k" horiz-adv-x="512" 
d="M543 500l-263 -211l-12 -9l-185 -149l11 66l377 303h72zM248 730l-169 -730h-50l169 730h50zM287 314l148 -314h-54l-135 288z" />
    <glyph glyph-name="l" unicode="l" horiz-adv-x="270" 
d="M143 -8q-59 0 -81 37.5t-7 102.5l139 598h50l-140 -601q-11 -48 3 -70.5t54 -22.5q17 0 28.5 1.5t21.5 4.5l-12 -40q-12 -5 -25.5 -7.5t-30.5 -2.5z" />
    <glyph glyph-name="m" unicode="m" horiz-adv-x="935" 
d="M29 0l116 500h44l-25 -125l-7 3q21 61 75 96.5t128 35.5q57 0 94.5 -25.5t52 -73t-1.5 -114.5l-69 -297h-50l69 296q19 82 -11 126t-97 44q-55 0 -96 -23.5t-67.5 -65t-39.5 -96.5l-65 -281h-50zM744 0l68 296q19 82 -11 126t-97 44q-55 0 -96.5 -24t-68 -66t-39.5 -98
l-2 85q28 70 85 108.5t134 38.5q57 0 95 -25.5t52 -73t-2 -114.5l-68 -297h-50z" />
    <glyph glyph-name="n" unicode="n" horiz-adv-x="582" 
d="M29 0l116 500h44l-25 -125l-7 3q21 61 75.5 96.5t128.5 35.5q59 0 98.5 -25.5t55 -73t0.5 -113.5l-69 -298h-50l68 297q19 81 -14 125t-102 44q-55 0 -96 -23.5t-68 -65t-40 -96.5l-65 -281h-50z" />
    <glyph glyph-name="o" unicode="o" horiz-adv-x="579" 
d="M273 -9q-70 0 -119.5 30.5t-75.5 82t-26 112.5q0 86 32.5 152t89.5 103.5t133 37.5q72 0 120.5 -30.5t74 -81t25.5 -112.5q0 -85 -32 -151.5t-89 -104.5t-133 -38zM275 34q43 0 80 17.5t64.5 51t42 79.5t14.5 101q0 54 -19.5 95t-57.5 64.5t-94 23.5q-43 0 -80.5 -17.5
t-64.5 -50.5t-42 -79t-15 -101q0 -53 20 -94.5t58.5 -65.5t93.5 -24z" />
    <glyph glyph-name="p" unicode="p" 
d="M-19 -210l164 710h44l-29 -140l-8 -2q14 48 43.5 81.5t71.5 51.5t90 18q57 0 100 -28t67 -78t24 -115q0 -62 -18 -116.5t-51 -95t-79 -63.5t-102 -23q-57 0 -99 24t-64.5 67.5t-23.5 99.5l14 18l-94 -409h-50zM299 33q43 0 79.5 19t63.5 54t42 81t15 101q0 56 -20.5 96
t-55.5 61t-81 21q-47 0 -84 -19.5t-64 -55t-41.5 -83.5t-14.5 -104q0 -78 43 -124.5t118 -46.5z" />
    <glyph glyph-name="q" unicode="q" 
d="M357 -210l80 343v-15q-23 -57 -70 -92t-113 -35q-61 0 -107 28.5t-70.5 79t-24.5 115.5q0 63 18 116.5t52 94t80 63t102 22.5q63 0 104.5 -28.5t61 -74.5t13.5 -101h-7l45 194h50l-164 -710h-50zM263 34q44 0 80.5 19.5t63 54t41 81.5t14.5 102q0 59 -21 98t-56.5 58.5
t-78.5 19.5q-45 0 -82.5 -19t-65 -53t-42.5 -80t-15 -101q0 -56 20.5 -96.5t56.5 -62t85 -21.5z" />
    <glyph glyph-name="r" unicode="r" horiz-adv-x="365" 
d="M29 0l116 500h42l-23 -132l-8 7q17 40 44 70.5t63 47.5t77 17q17 0 31.5 -2.5t24.5 -9.5l-16 -46q-10 6 -23.5 9t-30.5 3q-44 0 -80.5 -22t-62.5 -62t-38 -95l-66 -285h-50z" />
    <glyph glyph-name="s" unicode="s" horiz-adv-x="501" 
d="M244 -11q-60 0 -106 19t-75 53t-39 80l47 20q12 -61 56 -94.5t118 -33.5q64 0 99 29t35 74q0 32 -18 51t-59 31l-95 27q-58 16 -88 47t-30 76q0 42 23 73.5t64.5 50t96.5 18.5q72 0 125.5 -33t69.5 -101l-45 -21q-8 37 -29.5 62t-53.5 37t-71 12q-62 0 -96.5 -25.5
t-34.5 -67.5q0 -35 22.5 -54.5t59.5 -30.5l102 -29q52 -15 79 -44t27 -73q0 -46 -23.5 -80.5t-65 -53.5t-95.5 -19z" />
    <glyph glyph-name="t" unicode="t" horiz-adv-x="368" 
d="M212 -9q-47 0 -77 18.5t-41 53t-1 83.5l109 473l55 16l-115 -492q-12 -54 9.5 -81t67.5 -27q25 0 45 7t37 19l11 -41q-22 -15 -47 -22t-53 -7zM62 457l11 43h313l-11 -43h-313z" />
    <glyph glyph-name="u" unicode="u" horiz-adv-x="581" 
d="M228 -9q-60 0 -101.5 25t-57.5 73t-1 115l69 296h50l-68 -296q-20 -82 14.5 -125.5t105.5 -43.5q53 0 93 23t66.5 65t38.5 96l65 281h50l-116 -500h-44l25 125l8 -3q-23 -61 -75 -96t-122 -35z" />
    <glyph glyph-name="v" unicode="v" horiz-adv-x="484" 
d="M472 500h56l-317 -500h-51l-88 500h49l78 -462l-13 4z" />
    <glyph glyph-name="w" unicode="w" horiz-adv-x="784" 
d="M131 0l-50 500h48l41 -436l246 436h50l57 -438l238 438h54l-278 -500h-50l-59 433l-246 -433h-51z" />
    <glyph glyph-name="x" unicode="x" horiz-adv-x="493" 
d="M-35 0l264 272l12 10l208 218h63l-246 -256l-15 -14l-221 -230h-65zM359 0l-126 235l-7 11l-137 254h58l117 -219l4 -8l147 -273h-56z" />
    <glyph glyph-name="y" unicode="y" horiz-adv-x="489" 
d="M-8 -215q-33 0 -56.5 8.5t-36.5 24.5l22 40q27 -29 70 -29q35 0 63.5 21t58.5 69l52 83l-89 498h49l63 -360l13 -85l50 84l225 361h58l-381 -599q-26 -42 -52 -67.5t-52.5 -37t-56.5 -11.5z" />
    <glyph glyph-name="z" unicode="z" horiz-adv-x="490" 
d="M-8 0l9 41l374 369l51 48l-77 -1h-256l10 43h392l-9 -43l-349 -344l-75 -70h95h251l-10 -43h-406z" />
    <glyph glyph-name="braceleft" unicode="{" horiz-adv-x="298" 
d="M158 -180q-62 0 -89.5 33t-14.5 87l51 224q12 50 -10.5 74t-67.5 23h-6l10 44h11q47 0 76.5 21t38.5 63l57 248q12 50 46.5 79.5t95.5 29.5h22l-9 -39h-11q-46 0 -68 -20.5t-31 -58.5l-56 -244q-8 -38 -37.5 -68t-74.5 -37q40 -10 55.5 -40t6.5 -73l-53 -227
q-8 -39 9.5 -60t58.5 -22h5l-9 -37h-6z" />
    <glyph glyph-name="bar" unicode="|" horiz-adv-x="204" 
d="M235 730l-208 -898h-44l208 898h44z" />
    <glyph glyph-name="braceright" unicode="}" horiz-adv-x="298" 
d="M-64 -180l8 37h10q47 0 69 21.5t31 59.5l56 244q9 38 38 68t74 37q-40 11 -55.5 40.5t-5.5 72.5l51 225q10 39 -8 60.5t-59 21.5h-5l9 39h5q43 0 68.5 -15t35.5 -42t2 -63l-52 -224q-12 -50 10.5 -74t67.5 -24h6l-9 -43h-12q-46 0 -76 -21t-39 -64l-57 -248
q-11 -49 -45.5 -78.5t-95.5 -29.5h-22z" />
    <glyph glyph-name="asciitilde" unicode="~" horiz-adv-x="511" 
d="M499 389q-13 -42 -34.5 -69.5t-49 -40.5t-57.5 -13q-32 0 -54 11t-39.5 26t-36.5 26t-44 11q-30 0 -53 -19.5t-36 -57.5h-47q12 42 33.5 69.5t49.5 40.5t59 13q30 0 51 -11t39 -26t37.5 -26t45.5 -11q30 0 52.5 19t35.5 58h48z" />
    <glyph glyph-name="uni00A0" unicode="&#xa0;" horiz-adv-x="309" 
 />
    <glyph glyph-name="exclamdown" unicode="&#xa1;" horiz-adv-x="222" 
d="M142 310l-27 -150l-74 -320h-53l74 320l41 150h39zM159 508q18 0 29 -11t11 -28q0 -23 -13.5 -37t-32.5 -14q-18 0 -29 11t-11 28q0 23 13 37t33 14z" />
    <glyph glyph-name="cent" unicode="&#xa2;" horiz-adv-x="554" 
d="M280 -9q-66 0 -115.5 28.5t-76.5 79.5t-27 116q0 84 32 150.5t90 105t138 38.5q54 0 94.5 -18.5t67 -52.5t36.5 -79l-50 -12q-9 53 -47.5 87t-102.5 34q-63 0 -110.5 -33.5t-73.5 -89.5t-26 -127q0 -55 22 -97t62 -65.5t92 -23.5t94.5 27.5t61.5 72.5l45 -18
q-27 -57 -81 -90t-125 -33zM187 -100l162 700h42l-162 -700h-42z" />
    <glyph glyph-name="sterling" unicode="&#xa3;" horiz-adv-x="580" 
d="M81 290l9 41h353l-10 -41h-352zM379 -7q-43 0 -75 12t-57 29.5t-47 35t-44.5 29t-50.5 11.5q-22 0 -35.5 -11t-13.5 -30t12.5 -29.5t33.5 -10.5q32 0 57.5 24t41 63.5t15.5 83.5q0 38 -6 70t-13 62.5t-13 61.5t-6 65q0 62 27.5 109.5t74.5 75t104 27.5q49 0 87 -20
t61.5 -56t27.5 -84l-46 -14q-5 56 -38.5 92.5t-92.5 36.5q-48 0 -83.5 -23.5t-55 -61.5t-19.5 -85q0 -44 8 -81.5t15.5 -78t7.5 -93.5q0 -40 -11.5 -77t-32.5 -67t-50.5 -47.5t-65.5 -17.5q-35 0 -60 21t-25 53q0 33 27 56t70 23q33 0 59 -11t48 -28t45 -34t51 -28t65 -11
q46 0 71 26.5t37 77.5l40 -14q-10 -41 -29 -70.5t-48 -45.5t-68 -16z" />
    <glyph glyph-name="currency" unicode="&#xa4;" horiz-adv-x="635" 
d="M336 528q57 0 101 -25t68.5 -69t24.5 -103t-24.5 -103.5t-68.5 -70t-101 -25.5t-101 25.5t-69 70t-25 103.5t25 103t69 69t101 25zM336 483q-64 0 -104.5 -42t-40.5 -110q0 -70 40.5 -112t104.5 -42t104 42t40 112q0 68 -40 110t-104 42zM117 581l113 -113l-33 -31
l-113 111zM197 224l32 -32l-112 -114l-33 32zM473 223l114 -113l-32 -32l-114 112zM555 581l32 -33l-112 -113l-32 33z" />
    <glyph glyph-name="yen" unicode="&#xa5;" horiz-adv-x="585" 
d="M212 0l28 119h-188l8 36h188l21 91h-188l9 38h135l43 -2l-134 378h51l102 -299l18 -62h2l41 63l234 298h59l-303 -378l39 2h135l-9 -38h-189l-21 -91h189l-8 -36h-189l-28 -119h-45z" />
    <glyph glyph-name="brokenbar" unicode="&#xa6;" horiz-adv-x="204" 
d="M235 730l-84 -364h-44l84 364h44zM111 196l-84 -364h-44l85 364h43z" />
    <glyph glyph-name="section" unicode="&#xa7;" horiz-adv-x="572" 
d="M250 -110q-49 0 -92 13.5t-74.5 40.5t-49.5 67l45 26q20 -48 65.5 -76.5t113.5 -28.5q74 0 110.5 31t36.5 79q0 37 -22 59t-68 36l-128 39q-67 20 -102.5 51t-35.5 86q0 33 16.5 59.5t48 43t77.5 19.5l24 -22q-63 -3 -91.5 -30.5t-28.5 -62.5q0 -38 27 -62t82 -40
l127 -39q61 -17 92.5 -47t31.5 -80q0 -45 -22 -82t-67 -58.5t-116 -21.5zM389 128l-15 25q37 -1 63.5 11t41 34.5t14.5 52.5q0 33 -22 54t-81 39l-112 34q-47 15 -74.5 34.5t-39 45t-11.5 58.5q0 40 22.5 75.5t67 57t111.5 21.5q42 0 81.5 -11t72.5 -35.5t54 -66.5l-43 -25
q-27 52 -70 73.5t-100 21.5q-48 0 -80 -15t-48.5 -38.5t-16.5 -52.5q0 -36 19 -60t78 -43l114 -35q64 -20 93.5 -49t29.5 -75q0 -33 -16.5 -62.5t-49.5 -48.5t-83 -20z" />
    <glyph glyph-name="dieresis" unicode="&#xa8;" horiz-adv-x="523" 
d="M441 590q-16 0 -26 10t-10 25q0 21 12.5 33.5t30.5 12.5q17 0 26.5 -10.5t9.5 -25.5q0 -20 -12.5 -32.5t-30.5 -12.5zM251 590q-15 0 -25 10t-10 25q0 21 12 33.5t31 12.5q16 0 26 -10.5t10 -25.5q0 -20 -12.5 -32.5t-31.5 -12.5z" />
    <glyph glyph-name="copyright" unicode="&#xa9;" horiz-adv-x="799" 
d="M418 -10q-101 0 -177 45t-118.5 122t-42.5 173q0 97 42.5 173.5t118.5 121.5t177 45t176.5 -44.5t118 -121.5t42.5 -174q0 -96 -42 -173t-118 -122t-177 -45zM418 31q87 0 153 39.5t102.5 107.5t36.5 152q0 85 -36.5 152.5t-102.5 107t-153 39.5t-153 -39.5t-102.5 -107
t-36.5 -152.5q0 -84 36.5 -152t102.5 -107.5t153 -39.5zM427 143q-85 0 -133.5 49.5t-48.5 135.5t48.5 135.5t133.5 49.5q58 0 96.5 -25.5t56.5 -71.5l-38 -19q-13 39 -42 58.5t-74 19.5q-64 0 -101 -39t-37 -108t37 -108t101 -39q46 0 78 22t44 62l36 -15q-16 -49 -57 -78
t-100 -29z" />
    <glyph glyph-name="ordfeminine" unicode="&#xaa;" horiz-adv-x="364" 
d="M202 327q-55 0 -88.5 39t-33.5 104q0 41 11.5 76.5t33.5 62.5t52 42t67 15q34 0 58 -16t36 -45t9 -72l-11 -19l36 146h42l-77 -324h-38l29 124l-1 -29q-14 -48 -48 -76t-77 -28zM34 211l8 35h276l-8 -35h-276zM215 363q37 0 62.5 23t39 60.5t13.5 77.5q0 51 -23 78.5
t-63 27.5t-67 -23t-41 -59.5t-14 -76.5q0 -48 24.5 -78t68.5 -30z" />
    <glyph glyph-name="guillemotleft" unicode="&#xab;" horiz-adv-x="438" 
d="M288 461l-196 -212l1 35l97 -215h-50l-89 196l180 196h57zM437 461l-196 -212l1 35l97 -215h-50l-89 196l180 196h57z" />
    <glyph glyph-name="logicalnot" unicode="&#xac;" horiz-adv-x="604" 
d="M552 318l-38 -166h-50l38 166h50zM557 339l-10 -46h-469l10 46h469z" />
    <glyph glyph-name="uni00AD" unicode="&#xad;" horiz-adv-x="466" 
d="M396 291l-12 -51h-307l12 51h307z" />
    <glyph glyph-name="registered" unicode="&#xae;" horiz-adv-x="810" 
d="M423 670q104 0 181 -42t119 -118.5t42 -179.5t-42 -179.5t-119 -118.5t-181 -42q-103 0 -180 42t-119.5 118.5t-42.5 179.5t42.5 179.5t119.5 118.5t180 42zM341 513v-370h-43v370h43zM470 319l118 -176h-48l-106 161zM423 629q-89 0 -155.5 -37.5t-103.5 -104
t-37 -157.5q0 -90 37 -157t103.5 -104.5t155.5 -37.5q91 0 157 37.5t103 104.5t37 157q0 91 -37 157.5t-103 104t-157 37.5zM451 513q41 0 70 -13t44.5 -37t15.5 -60q0 -52 -34.5 -81t-95.5 -29h-129v33h129q43 1 65.5 20t22.5 57q0 39 -22.5 57.5t-65.5 18.5h-129v34h129z
" />
    <glyph glyph-name="macron" unicode="&#xaf;" horiz-adv-x="523" 
d="M498 642l-9 -42h-293l10 42h292z" />
    <glyph glyph-name="degree" unicode="&#xb0;" horiz-adv-x="404" 
d="M264 368q-45 0 -79.5 19.5t-54 53.5t-19.5 78t19.5 78.5t54 53.5t79.5 19q46 0 80 -19t53.5 -53.5t19.5 -78.5t-19.5 -78t-53.5 -53.5t-80 -19.5zM264 409q49 0 79 31t30 79t-30 79t-79 31q-48 0 -78 -31t-30 -79t30 -79t78 -31z" />
    <glyph glyph-name="plusminus" unicode="&#xb1;" horiz-adv-x="604" 
d="M414 632l-115 -500h-47l115 500h47zM572 406l-10 -47h-470l11 47h469zM490 46l-11 -46h-470l12 46h469z" />
    <glyph glyph-name="uni00B2" unicode="&#xb2;" horiz-adv-x="376" 
d="M88 333l8 36q44 31 89 60.5t82 60t59.5 64t22.5 71.5q0 37 -20.5 55t-54.5 18q-41 0 -69.5 -26t-37.5 -70l-38 21q14 50 51 81t95 31q56 0 87.5 -30t31.5 -75q0 -44 -23 -80.5t-59 -68t-78 -59t-80 -53.5v0q10 0 22.5 0.5t21.5 0.5h169l-9 -37h-270z" />
    <glyph glyph-name="uni00B3" unicode="&#xb3;" horiz-adv-x="361" 
d="M221 327q-55 0 -93.5 28t-49.5 82l44 11q8 -42 33.5 -62.5t66.5 -20.5q40 0 64 23t24 59q0 34 -23 51t-59 17h-8t-9 -1l9 38q6 -1 12 -1.5t12 -0.5q38 0 63.5 22t25.5 59q0 33 -21 50t-56 17q-34 0 -58.5 -16t-35.5 -46l-39 19q17 38 52 59t83 21q53 0 86 -26.5t33 -71.5
t-26 -73t-66 -33l-1 -2q29 -5 50 -25t21 -58q0 -37 -18.5 -63.5t-48.5 -41t-67 -14.5z" />
    <glyph glyph-name="acute" unicode="&#xb4;" 
d="M426 741h60l-133 -158h-48z" />
    <glyph glyph-name="uni00B5" unicode="&#xb5;" horiz-adv-x="589" 
d="M-19 -210l164 710h50l-69 -297q-18 -79 16 -123.5t105 -44.5q53 0 93 23t66.5 65t38.5 96l65 281h50l-116 -500h-44l19 94q-26 -48 -72.5 -75.5t-106.5 -27.5q-51 0 -89.5 24t-51.5 69v0l-68 -294h-50z" />
    <glyph glyph-name="paragraph" unicode="&#xb6;" horiz-adv-x="593" 
d="M201 -100l74 321q-46 1 -82 15.5t-61.5 40t-38.5 60.5t-13 78q0 76 30.5 130.5t90.5 84.5t146 30h255l-176 -760h-45l166 718h-134l-165 -718h-47zM285 263l82 355h-38q-64 0 -110 -24.5t-70 -68.5t-24 -106q0 -70 42 -113t118 -43z" />
    <glyph glyph-name="periodcentered" unicode="&#xb7;" horiz-adv-x="208" 
d="M126 312q-18 0 -29.5 11t-11.5 28q0 23 13.5 37t33.5 14q17 0 28.5 -11t11.5 -28q0 -23 -13.5 -37t-32.5 -14z" />
    <glyph glyph-name="cedilla" unicode="&#xb8;" horiz-adv-x="547" 
d="M184 4l32 13q35 -19 55 -46t20 -65q0 -37 -16 -62.5t-42.5 -38.5t-58.5 -13q-36 0 -60 14t-34 31l21 31q12 -17 30 -27t44 -10q34 0 55 21t21 55q0 31 -17 54t-50 43z" />
    <glyph glyph-name="uni00B9" unicode="&#xb9;" horiz-adv-x="235" 
d="M146 333l66 281q3 13 6.5 26t6.5 23t4 14q-19 -17 -51.5 -34t-69.5 -26l3 41q20 5 46 16t50 26t39 29h37l-92 -396h-45z" />
    <glyph glyph-name="ordmasculine" unicode="&#xba;" horiz-adv-x="365" 
d="M224 326q-60 0 -97.5 37t-37.5 107q0 54 20.5 98.5t58.5 71t88 26.5q60 0 97 -37t37 -107q0 -52 -20.5 -97t-58 -72t-87.5 -27zM38 211l7 35h273l-8 -35h-272zM225 362q39 0 65.5 22.5t41 59.5t14.5 77q0 54 -24.5 81.5t-66.5 27.5q-39 0 -66 -23t-41.5 -59t-14.5 -78
q0 -53 25.5 -80.5t66.5 -27.5z" />
    <glyph glyph-name="guillemotright" unicode="&#xbb;" horiz-adv-x="439" 
d="M8 69l197 212l-2 -35l-97 215h50l90 -196l-181 -196h-57zM157 69l197 212l-2 -35l-97 215h50l90 -196l-181 -196h-57z" />
    <glyph glyph-name="onequarter" unicode="&#xbc;" horiz-adv-x="748" 
d="M131 268l66 281q3 13 6.5 26t6.5 23t4 14q-19 -17 -51.5 -34t-69.5 -26l3 41q20 5 46 16t50 26t39 29h37l-92 -396h-45zM39 0l617 660h56l-617 -660h-56zM551 -4l25 109h-185l7 34q8 9 14 16t12.5 14.5t16.5 17.5l185 206h56l-60 -255h77l-7 -33h-77l-25 -109h-39z
M441 138h142l50 214l-160 -181q-8 -8 -16 -16.5t-16 -16.5z" />
    <glyph glyph-name="onehalf" unicode="&#xbd;" horiz-adv-x="855" 
d="M131 268l66 281q3 13 6.5 26t6.5 23t4 14q-19 -17 -51.5 -34t-69.5 -26l3 41q20 5 46 16t50 26t39 29h37l-92 -396h-45zM39 0l617 660h56l-617 -660h-56zM489 -4l8 36q44 31 89 60.5t82 60t59.5 64t22.5 71.5q0 37 -20.5 55t-54.5 18q-41 0 -69.5 -26t-37.5 -70l-38 21
q14 50 51 81t95 31q56 0 87.5 -30t31.5 -75q0 -44 -23 -80.5t-59 -68t-78 -59t-80 -53.5v0q10 0 22.5 0.5t21.5 0.5h169l-9 -37h-270z" />
    <glyph glyph-name="threequarters" unicode="&#xbe;" horiz-adv-x="873" 
d="M206 262q-55 0 -93.5 28t-49.5 82l44 11q8 -42 33.5 -62.5t66.5 -20.5q40 0 64 23t24 59q0 34 -23 51t-59 17h-8t-9 -1l9 38q6 -1 12 -1.5t12 -0.5q38 0 63.5 22t25.5 59q0 33 -21 50t-56 17q-34 0 -58.5 -16t-35.5 -46l-39 19q17 38 52 59t83 21q53 0 86 -26.5t33 -71.5
t-26 -73t-66 -33l-1 -2q29 -5 50 -25t21 -58q0 -37 -18.5 -63.5t-48.5 -41t-67 -14.5zM165 0l617 660h56l-617 -660h-56zM677 -4l25 109h-185l7 34q8 9 14 16t12.5 14.5t16.5 17.5l185 206h56l-60 -255h77l-7 -33h-77l-25 -109h-39zM567 138h142l50 214l-160 -181
q-8 -8 -16 -16.5t-16 -16.5z" />
    <glyph glyph-name="questiondown" unicode="&#xbf;" horiz-adv-x="487" 
d="M308 317l-36 -151q-75 0 -126 -18.5t-77 -55t-26 -90.5q0 -60 40.5 -93t107.5 -33q73 0 118 35t64 88l41 -28q-17 -41 -47.5 -73t-75 -50t-101.5 -18q-59 0 -103.5 20.5t-69.5 58.5t-25 91q0 63 29.5 107.5t83 69.5t125.5 28l26 112h52zM317 506q17 0 28.5 -11t11.5 -28
q0 -23 -13.5 -37t-32.5 -14q-18 0 -29.5 11t-11.5 28q0 23 13.5 37t33.5 14z" />
    <glyph glyph-name="Agrave" unicode="&#xc0;" horiz-adv-x="611" 
d="M-40 0l409 660h63l103 -660h-49l-85 531l-11 75v0l-43 -72l-330 -534h-57zM123 211l11 46h344l-11 -46h-344zM401 897l40 -154h-36l-56 154h52z" />
    <glyph glyph-name="Aacute" unicode="&#xc1;" horiz-adv-x="611" 
d="M-40 0l409 660h63l103 -660h-49l-85 531l-11 75v0l-43 -72l-330 -534h-57zM123 211l11 46h344l-11 -46h-344zM483 897h59l-116 -154h-44z" />
    <glyph glyph-name="Acircumflex" unicode="&#xc2;" horiz-adv-x="611" 
d="M-40 0l409 660h63l103 -660h-49l-85 531l-11 75v0l-43 -72l-330 -534h-57zM123 211l11 46h344l-11 -46h-344zM475 894l74 -151h-43l-63 117l-116 -117h-51l144 151h55z" />
    <glyph glyph-name="Atilde" unicode="&#xc3;" horiz-adv-x="611" 
d="M-40 0l409 660h63l103 -660h-49l-85 531l-11 75v0l-43 -72l-330 -534h-57zM123 211l11 46h344l-11 -46h-344zM596 861q-12 -55 -41 -82.5t-65 -27.5q-25 0 -41.5 10.5t-29.5 24t-26 24t-31 10.5q-23 0 -38 -19t-26 -51h-40q12 55 41 82.5t67 27.5q26 0 42.5 -10.5t29 -24
t25.5 -24t31 -10.5q20 0 36 18.5t26 51.5h40z" />
    <glyph glyph-name="Adieresis" unicode="&#xc4;" horiz-adv-x="611" 
d="M-40 0l409 660h63l103 -660h-49l-85 531l-11 75v0l-43 -72l-330 -534h-57zM123 211l11 46h344l-11 -46h-344zM512 750q-16 0 -26 10t-10 25q0 21 12.5 33.5t30.5 12.5q17 0 26.5 -10.5t9.5 -25.5q0 -20 -12.5 -32.5t-30.5 -12.5zM322 750q-15 0 -25 10t-10 25
q0 21 12 33.5t31 12.5q16 0 26 -10.5t10 -25.5q0 -20 -12.5 -32.5t-31.5 -12.5z" />
    <glyph glyph-name="Aring" unicode="&#xc5;" horiz-adv-x="611" 
d="M-40 0l409 660h63l103 -660h-49l-85 531l-11 75v0l-43 -72l-330 -534h-57zM123 211l11 46h344l-11 -46h-344zM412 827q44 0 71.5 -26t27.5 -65q0 -48 -30.5 -78.5t-76.5 -30.5q-44 0 -72 26.5t-28 64.5q0 48 31 78.5t77 30.5zM412 794q-31 0 -51 -20.5t-20 -52.5
q0 -27 18.5 -44t45.5 -17q29 0 49.5 19.5t20.5 53.5q0 27 -17 44t-46 17z" />
    <glyph glyph-name="AE" unicode="&#xc6;" horiz-adv-x="904" 
d="M-59 0l543 660h458l-11 -46h-361l-59 -256h281l-10 -46h-282l-61 -266h377l-12 -46h-426l54 232h-239l-189 -232h-63zM230 279h213l77 335h-14z" />
    <glyph glyph-name="Ccedilla" unicode="&#xc7;" horiz-adv-x="668" 
d="M354 -10q-76 0 -138.5 32.5t-99.5 96t-37 156.5q0 75 21 146t63.5 127t105.5 89t146 33q61 0 110 -20.5t83.5 -61t51.5 -101.5l-52 -16q-20 77 -71.5 115t-126.5 38q-68 0 -120 -29t-87.5 -78t-53.5 -109.5t-18 -124.5q0 -78 30.5 -133t82 -84.5t113.5 -29.5
q74 0 122.5 31t79.5 87l47 -25q-40 -64 -101.5 -101.5t-150.5 -37.5zM307 4l32 13q35 -19 55 -46t20 -65q0 -37 -16 -62.5t-42.5 -38.5t-58.5 -13q-36 0 -60 14t-34 31l21 31q12 -17 30 -27t44 -10q34 0 55 21t21 55q0 31 -17 54t-50 43z" />
    <glyph glyph-name="Egrave" unicode="&#xc8;" 
d="M43 0l153 660h441l-12 -46h-390l-59 -255h311l-11 -47h-310l-61 -266h407l-11 -46h-458zM409 897l40 -154h-36l-56 154h52z" />
    <glyph glyph-name="Eacute" unicode="&#xc9;" 
d="M43 0l153 660h441l-12 -46h-390l-59 -255h311l-11 -47h-310l-61 -266h407l-11 -46h-458zM497 897h59l-116 -154h-44z" />
    <glyph glyph-name="Ecircumflex" unicode="&#xca;" 
d="M43 0l153 660h441l-12 -46h-390l-59 -255h311l-11 -47h-310l-61 -266h407l-11 -46h-458zM489 894l74 -151h-43l-63 117l-116 -117h-51l144 151h55z" />
    <glyph glyph-name="Edieresis" unicode="&#xcb;" 
d="M43 0l153 660h441l-12 -46h-390l-59 -255h311l-11 -47h-310l-61 -266h407l-11 -46h-458zM526 750q-16 0 -26 10t-10 25q0 21 12.5 33.5t30.5 12.5q17 0 26.5 -10.5t9.5 -25.5q0 -20 -12.5 -32.5t-30.5 -12.5zM336 750q-15 0 -25 10t-10 25q0 21 12 33.5t31 12.5
q16 0 26 -10.5t10 -25.5q0 -20 -12.5 -32.5t-31.5 -12.5z" />
    <glyph glyph-name="Igrave" unicode="&#xcc;" horiz-adv-x="253" 
d="M246 660l-153 -660h-50l153 660h50zM218 897l40 -154h-36l-56 154h52z" />
    <glyph glyph-name="Iacute" unicode="&#xcd;" horiz-adv-x="253" 
d="M246 660l-153 -660h-50l153 660h50zM316 897h59l-116 -154h-44z" />
    <glyph glyph-name="Icircumflex" unicode="&#xce;" horiz-adv-x="253" 
d="M246 660l-153 -660h-50l153 660h50zM301 894l74 -151h-43l-63 117l-116 -117h-51l144 151h55z" />
    <glyph glyph-name="Idieresis" unicode="&#xcf;" horiz-adv-x="252" 
d="M319 750q-16 0 -26 10t-10 25q0 21 12.5 33.5t30.5 12.5q16 0 26 -10t10 -26q0 -20 -12.5 -32.5t-30.5 -12.5zM168 750q-16 0 -26 10t-10 25q0 21 12.5 33.5t30.5 12.5q17 0 26.5 -10t9.5 -26q0 -20 -12 -32.5t-31 -12.5zM246 660l-153 -660h-50l153 660h50z" />
    <glyph glyph-name="Eth" unicode="&#xd0;" horiz-adv-x="710" 
d="M25 311l10 46h354l-11 -46h-353zM59 0l153 660h192q85 0 144 -35t90.5 -96t31.5 -139q0 -83 -26 -154t-74 -124t-116.5 -82.5t-151.5 -29.5h-243zM120 46h189q71 0 127.5 26.5t97 73t62 107.5t21.5 130q0 66 -24.5 118t-72.5 82.5t-122 30.5h-146z" />
    <glyph glyph-name="Ntilde" unicode="&#xd1;" horiz-adv-x="701" 
d="M43 0l153 660h61l220 -517l31 -89h1l16 83l122 523h47l-153 -660h-60l-221 518l-30 88h-1l-17 -83l-121 -523h-48zM641 861q-12 -55 -41 -82.5t-65 -27.5q-25 0 -41.5 10.5t-29.5 24t-26 24t-31 10.5q-23 0 -38 -19t-26 -51h-40q12 55 41 82.5t67 27.5q26 0 42.5 -10.5
t29 -24t25.5 -24t31 -10.5q20 0 36 18.5t26 51.5h40z" />
    <glyph glyph-name="Ograve" unicode="&#xd2;" horiz-adv-x="728" 
d="M352 -10q-74 0 -136 33.5t-99 98.5t-37 158q0 77 21.5 147t64 124.5t105.5 86.5t145 32q74 0 135 -34t97.5 -98.5t36.5 -157.5q0 -76 -21.5 -146t-63.5 -125t-104 -87t-144 -32zM357 37q68 0 119.5 28.5t86 76.5t52.5 109t18 126q0 79 -29.5 133.5t-79.5 83.5t-114 29
q-68 0 -120 -28.5t-87 -76.5t-53 -108.5t-18 -126.5q0 -79 29.5 -133.5t80.5 -83.5t115 -29zM429 897l40 -154h-36l-56 154h52z" />
    <glyph glyph-name="Oacute" unicode="&#xd3;" horiz-adv-x="728" 
d="M352 -10q-74 0 -136 33.5t-99 98.5t-37 158q0 77 21.5 147t64 124.5t105.5 86.5t145 32q74 0 135 -34t97.5 -98.5t36.5 -157.5q0 -76 -21.5 -146t-63.5 -125t-104 -87t-144 -32zM357 37q68 0 119.5 28.5t86 76.5t52.5 109t18 126q0 79 -29.5 133.5t-79.5 83.5t-114 29
q-68 0 -120 -28.5t-87 -76.5t-53 -108.5t-18 -126.5q0 -79 29.5 -133.5t80.5 -83.5t115 -29zM517 897h59l-116 -154h-44z" />
    <glyph glyph-name="Ocircumflex" unicode="&#xd4;" horiz-adv-x="728" 
d="M352 -10q-74 0 -136 33.5t-99 98.5t-37 158q0 77 21.5 147t64 124.5t105.5 86.5t145 32q74 0 135 -34t97.5 -98.5t36.5 -157.5q0 -76 -21.5 -146t-63.5 -125t-104 -87t-144 -32zM357 37q68 0 119.5 28.5t86 76.5t52.5 109t18 126q0 79 -29.5 133.5t-79.5 83.5t-114 29
q-68 0 -120 -28.5t-87 -76.5t-53 -108.5t-18 -126.5q0 -79 29.5 -133.5t80.5 -83.5t115 -29zM509 894l74 -151h-43l-63 117l-116 -117h-51l144 151h55z" />
    <glyph glyph-name="Otilde" unicode="&#xd5;" horiz-adv-x="728" 
d="M352 -10q-74 0 -136 33.5t-99 98.5t-37 158q0 77 21.5 147t64 124.5t105.5 86.5t145 32q74 0 135 -34t97.5 -98.5t36.5 -157.5q0 -76 -21.5 -146t-63.5 -125t-104 -87t-144 -32zM357 37q68 0 119.5 28.5t86 76.5t52.5 109t18 126q0 79 -29.5 133.5t-79.5 83.5t-114 29
q-68 0 -120 -28.5t-87 -76.5t-53 -108.5t-18 -126.5q0 -79 29.5 -133.5t80.5 -83.5t115 -29zM630 861q-12 -55 -41 -82.5t-65 -27.5q-25 0 -41.5 10.5t-29.5 24t-26 24t-31 10.5q-23 0 -38 -19t-26 -51h-40q12 55 41 82.5t67 27.5q26 0 42.5 -10.5t29 -24t25.5 -24t31 -10.5
q20 0 36 18.5t26 51.5h40z" />
    <glyph glyph-name="Odieresis" unicode="&#xd6;" horiz-adv-x="728" 
d="M352 -10q-74 0 -136 33.5t-99 98.5t-37 158q0 77 21.5 147t64 124.5t105.5 86.5t145 32q74 0 135 -34t97.5 -98.5t36.5 -157.5q0 -76 -21.5 -146t-63.5 -125t-104 -87t-144 -32zM357 37q68 0 119.5 28.5t86 76.5t52.5 109t18 126q0 79 -29.5 133.5t-79.5 83.5t-114 29
q-68 0 -120 -28.5t-87 -76.5t-53 -108.5t-18 -126.5q0 -79 29.5 -133.5t80.5 -83.5t115 -29zM546 750q-16 0 -26 10t-10 25q0 21 12.5 33.5t30.5 12.5q17 0 26.5 -10.5t9.5 -25.5q0 -20 -12.5 -32.5t-30.5 -12.5zM356 750q-15 0 -25 10t-10 25q0 21 12 33.5t31 12.5
q16 0 26 -10.5t10 -25.5q0 -20 -12.5 -32.5t-31.5 -12.5z" />
    <glyph glyph-name="multiply" unicode="&#xd7;" horiz-adv-x="604" 
d="M98 114l-28 38l448 364l29 -38zM432 114l-284 372l37 30l283 -373z" />
    <glyph glyph-name="Oslash" unicode="&#xd8;" horiz-adv-x="728" 
d="M190 83l-26 28l417 460l24 -29zM54 -12l110 123l26 -28l-86 -95h-50zM605 542l-24 29l93 103h50zM352 -10q-74 0 -136 33.5t-99 98.5t-37 158q0 77 21.5 147t64 124.5t105.5 86.5t145 32q74 0 135 -34t97.5 -98.5t36.5 -157.5q0 -76 -21.5 -146t-63.5 -125t-104 -87
t-144 -32zM357 37q68 0 119.5 28.5t86 76.5t52.5 109t18 126q0 79 -29.5 133.5t-79.5 83.5t-114 29q-68 0 -120 -28.5t-87 -76.5t-53 -108.5t-18 -126.5q0 -79 29.5 -133.5t80.5 -83.5t115 -29z" />
    <glyph glyph-name="Ugrave" unicode="&#xd9;" horiz-adv-x="676" 
d="M317 -10q-87 0 -144.5 35t-78 100.5t-0.5 155.5l89 379h50l-90 -391q-18 -75 0 -127t63.5 -79t112.5 -27q90 0 143 57t76 156l95 411h50l-98 -425q-27 -113 -92.5 -179t-175.5 -66zM425 868l40 -154h-36l-56 154h52z" />
    <glyph glyph-name="Uacute" unicode="&#xda;" horiz-adv-x="676" 
d="M317 -10q-87 0 -144.5 35t-78 100.5t-0.5 155.5l89 379h50l-90 -391q-18 -75 0 -127t63.5 -79t112.5 -27q90 0 143 57t76 156l95 411h50l-98 -425q-27 -113 -92.5 -179t-175.5 -66zM504 868h59l-116 -154h-44z" />
    <glyph glyph-name="Ucircumflex" unicode="&#xdb;" horiz-adv-x="676" 
d="M317 -10q-87 0 -144.5 35t-78 100.5t-0.5 155.5l89 379h50l-90 -391q-18 -75 0 -127t63.5 -79t112.5 -27q90 0 143 57t76 156l95 411h50l-98 -425q-27 -113 -92.5 -179t-175.5 -66zM505 865l74 -151h-43l-63 117l-116 -117h-51l144 151h55z" />
    <glyph glyph-name="Udieresis" unicode="&#xdc;" horiz-adv-x="676" 
d="M317 -10q-87 0 -144.5 35t-78 100.5t-0.5 155.5l89 379h50l-90 -391q-18 -75 0 -127t63.5 -79t112.5 -27q90 0 143 57t76 156l95 411h50l-98 -425q-27 -113 -92.5 -179t-175.5 -66zM542 721q-16 0 -26 10t-10 25q0 21 12.5 33.5t30.5 12.5q17 0 26.5 -10.5t9.5 -25.5
q0 -20 -12.5 -32.5t-30.5 -12.5zM352 721q-15 0 -25 10t-10 25q0 21 12 33.5t31 12.5q16 0 26 -10.5t10 -25.5q0 -20 -12.5 -32.5t-31.5 -12.5z" />
    <glyph glyph-name="Yacute" unicode="&#xdd;" horiz-adv-x="534" 
d="M184 0l59 257l-133 403h54l75 -235l37 -121l99 130l179 226h60l-321 -407l-59 -253h-50zM432 868h59l-116 -154h-44z" />
    <glyph glyph-name="Thorn" unicode="&#xde;" horiz-adv-x="587" 
d="M109 133l9 46h207q62 0 104 24.5t63.5 64t21.5 86.5q0 58 -42.5 92t-119.5 34h-164l10 47h158q96 0 152.5 -47t56.5 -127q0 -63 -30 -113t-85 -78.5t-130 -28.5h-211zM43 0l153 660h50l-153 -660h-50z" />
    <glyph glyph-name="germandbls" unicode="&#xdf;" horiz-adv-x="571" 
d="M298 -10q-39 0 -69.5 10.5t-49.5 24.5l17 44q18 -15 44.5 -24.5t60.5 -9.5q54 0 90.5 24.5t55 64.5t18.5 87q0 69 -42.5 108t-123.5 40h-9h-8l10 45q10 -1 19 -1.5t18 -0.5q58 0 99.5 21t63.5 57.5t22 83.5q0 37 -15 64.5t-45 44t-75 16.5q-71 0 -116.5 -41.5
t-65.5 -132.5l-119 -515h-50l123 534q24 102 83.5 151.5t148.5 49.5q61 0 100.5 -22t60 -59t20.5 -83q0 -52 -24.5 -95t-66 -68.5t-95.5 -29.5v-1q38 -5 68 -26.5t48.5 -55.5t18.5 -81q0 -67 -26.5 -117.5t-74 -78.5t-114.5 -28z" />
    <glyph glyph-name="agrave" unicode="&#xe0;" 
d="M252 -9q-61 0 -106 28.5t-69.5 79t-24.5 115.5q0 62 18 115.5t52 94t81 63.5t104 23q53 0 91.5 -19.5t61.5 -54.5t27 -82l34 146h50l-116 -500h-44l22 108q-25 -51 -71.5 -84t-109.5 -33zM265 34q43 0 79.5 21.5t63.5 59t42 84.5t15 98q0 57 -21 94.5t-56 56.5t-79 19
q-46 0 -84 -19t-66 -53t-43 -80t-15 -101q0 -57 20.5 -97.5t57.5 -61.5t86 -21zM316 741l48 -158h-38l-60 158h50z" />
    <glyph glyph-name="aacute" unicode="&#xe1;" 
d="M252 -9q-61 0 -106 28.5t-69.5 79t-24.5 115.5q0 62 18 115.5t52 94t81 63.5t104 23q53 0 91.5 -19.5t61.5 -54.5t27 -82l34 146h50l-116 -500h-44l22 108q-25 -51 -71.5 -84t-109.5 -33zM265 34q43 0 79.5 21.5t63.5 59t42 84.5t15 98q0 57 -21 94.5t-56 56.5t-79 19
q-46 0 -84 -19t-66 -53t-43 -80t-15 -101q0 -57 20.5 -97.5t57.5 -61.5t86 -21zM431 741h60l-133 -158h-48z" />
    <glyph glyph-name="acircumflex" unicode="&#xe2;" 
d="M252 -9q-61 0 -106 28.5t-69.5 79t-24.5 115.5q0 62 18 115.5t52 94t81 63.5t104 23q53 0 91.5 -19.5t61.5 -54.5t27 -82l34 146h50l-116 -500h-44l22 108q-25 -51 -71.5 -84t-109.5 -33zM265 34q43 0 79.5 21.5t63.5 59t42 84.5t15 98q0 57 -21 94.5t-56 56.5t-79 19
q-46 0 -84 -19t-66 -53t-43 -80t-15 -101q0 -57 20.5 -97.5t57.5 -61.5t86 -21zM200 579l147 156h56l76 -156h-44l-65 121l-120 -121h-50z" />
    <glyph glyph-name="atilde" unicode="&#xe3;" 
d="M252 -9q-61 0 -106 28.5t-69.5 79t-24.5 115.5q0 62 18 115.5t52 94t81 63.5t104 23q53 0 91.5 -19.5t61.5 -54.5t27 -82l34 146h50l-116 -500h-44l22 108q-25 -51 -71.5 -84t-109.5 -33zM265 34q43 0 79.5 21.5t63.5 59t42 84.5t15 98q0 57 -21 94.5t-56 56.5t-79 19
q-46 0 -84 -19t-66 -53t-43 -80t-15 -101q0 -57 20.5 -97.5t57.5 -61.5t86 -21zM524 701q-12 -55 -41 -82.5t-65 -27.5q-25 0 -41.5 10.5t-29.5 24t-26 24t-31 10.5q-23 0 -38 -19t-26 -51h-40q12 55 41 82.5t67 27.5q26 0 42.5 -10.5t29 -24t25.5 -24t31 -10.5
q20 0 36 18.5t26 51.5h40z" />
    <glyph glyph-name="adieresis" unicode="&#xe4;" 
d="M252 -9q-61 0 -106 28.5t-69.5 79t-24.5 115.5q0 62 18 115.5t52 94t81 63.5t104 23q53 0 91.5 -19.5t61.5 -54.5t27 -82l34 146h50l-116 -500h-44l22 108q-25 -51 -71.5 -84t-109.5 -33zM265 34q43 0 79.5 21.5t63.5 59t42 84.5t15 98q0 57 -21 94.5t-56 56.5t-79 19
q-46 0 -84 -19t-66 -53t-43 -80t-15 -101q0 -57 20.5 -97.5t57.5 -61.5t86 -21zM440 590q-16 0 -26 10t-10 25q0 21 12.5 33.5t30.5 12.5q17 0 26.5 -10.5t9.5 -25.5q0 -20 -12.5 -32.5t-30.5 -12.5zM250 590q-15 0 -25 10t-10 25q0 21 12 33.5t31 12.5q16 0 26 -10.5
t10 -25.5q0 -20 -12.5 -32.5t-31.5 -12.5z" />
    <glyph glyph-name="aring" unicode="&#xe5;" 
d="M252 -9q-61 0 -106 28.5t-69.5 79t-24.5 115.5q0 62 18 115.5t52 94t81 63.5t104 23q53 0 91.5 -19.5t61.5 -54.5t27 -82l34 146h50l-116 -500h-44l22 108q-25 -51 -71.5 -84t-109.5 -33zM265 34q43 0 79.5 21.5t63.5 59t42 84.5t15 98q0 57 -21 94.5t-56 56.5t-79 19
q-46 0 -84 -19t-66 -53t-43 -80t-15 -101q0 -57 20.5 -97.5t57.5 -61.5t86 -21zM361 776q44 0 71.5 -26t27.5 -65q0 -48 -30.5 -78.5t-76.5 -30.5q-44 0 -72 26.5t-28 64.5q0 48 31 78.5t77 30.5zM361 743q-31 0 -51 -20.5t-20 -52.5q0 -27 18.5 -44t45.5 -17
q29 0 49.5 19.5t20.5 53.5q0 27 -17 44t-46 17z" />
    <glyph glyph-name="ae" unicode="&#xe6;" horiz-adv-x="867" 
d="M188 -10q-74 0 -115.5 35.5t-41.5 94.5q0 43 23.5 73.5t67 49t103.5 25.5l184 20l-2 -39l-163 -19q-78 -9 -119.5 -34t-41.5 -74q0 -43 29 -66t79 -23q74 0 119.5 41.5t64.5 130.5l23 105q3 11 4.5 22t1.5 19q0 55 -35.5 85t-93.5 30q-60 0 -97.5 -25t-63.5 -76l-37 25
q29 57 78 88t124 31q47 0 82.5 -16.5t55.5 -44.5t22 -65l-9 2q18 37 48.5 64.5t71 43.5t88.5 16q56 0 95.5 -25.5t61 -70t21.5 -101.5q0 -16 -2 -33t-7 -34h-383l5 43h337q2 6 2 12.5v11.5q0 44 -16.5 79t-46.5 55t-71 20q-50 0 -87.5 -20.5t-63 -56t-38.5 -81t-13 -95.5
t18.5 -91t54.5 -64.5t87 -23.5q55 0 95 25.5t64 66.5l39 -26q-21 -32 -50.5 -57t-67 -38.5t-84.5 -13.5q-61 0 -104 26.5t-66 69t-24 89.5l10 7q-10 -62 -40 -105t-74.5 -65.5t-101.5 -22.5z" />
    <glyph glyph-name="ccedilla" unicode="&#xe7;" horiz-adv-x="528" 
d="M269 -9q-65 0 -114 29t-76 80t-27 116q0 84 32 150t90 104.5t136 38.5q52 0 92.5 -18.5t66.5 -52.5t35 -79l-51 -12q-9 53 -45.5 86t-99.5 33q-47 0 -84.5 -18.5t-64.5 -52.5t-41.5 -79t-14.5 -98q0 -55 21.5 -96.5t59.5 -64.5t90 -23q50 0 90.5 26.5t59.5 71.5l47 -18
q-26 -57 -79 -90t-123 -33zM208 4l32 13q35 -19 55 -46t20 -65q0 -37 -16 -62.5t-42.5 -38.5t-58.5 -13q-36 0 -60 14t-34 31l21 31q12 -17 30 -27t44 -10q34 0 55 21t21 55q0 31 -17 54t-50 43z" />
    <glyph glyph-name="egrave" unicode="&#xe8;" horiz-adv-x="551" 
d="M269 -9q-69 0 -118 30t-74 81.5t-25 113.5q0 78 30 145t88 107.5t140 40.5q60 0 102.5 -26t65.5 -70.5t23 -101.5q0 -15 -2 -32t-7 -34h-414v43h391l-21 -16q2 10 3 20t1 20q0 44 -17 78.5t-49.5 55t-78.5 20.5q-51 0 -89.5 -20.5t-64.5 -56t-38.5 -80.5t-12.5 -94
q0 -53 21 -93.5t59.5 -64t90.5 -23.5q57 1 97.5 26.5t64.5 65.5l40 -26q-21 -32 -51.5 -57t-69 -38.5t-85.5 -13.5zM303 741l48 -158h-38l-60 158h50z" />
    <glyph glyph-name="eacute" unicode="&#xe9;" horiz-adv-x="551" 
d="M269 -9q-69 0 -118 30t-74 81.5t-25 113.5q0 78 30 145t88 107.5t140 40.5q60 0 102.5 -26t65.5 -70.5t23 -101.5q0 -15 -2 -32t-7 -34h-414v43h391l-21 -16q2 10 3 20t1 20q0 44 -17 78.5t-49.5 55t-78.5 20.5q-51 0 -89.5 -20.5t-64.5 -56t-38.5 -80.5t-12.5 -94
q0 -53 21 -93.5t59.5 -64t90.5 -23.5q57 1 97.5 26.5t64.5 65.5l40 -26q-21 -32 -51.5 -57t-69 -38.5t-85.5 -13.5zM418 741h60l-133 -158h-48z" />
    <glyph glyph-name="ecircumflex" unicode="&#xea;" horiz-adv-x="551" 
d="M269 -9q-69 0 -118 30t-74 81.5t-25 113.5q0 78 30 145t88 107.5t140 40.5q60 0 102.5 -26t65.5 -70.5t23 -101.5q0 -15 -2 -32t-7 -34h-414v43h391l-21 -16q2 10 3 20t1 20q0 44 -17 78.5t-49.5 55t-78.5 20.5q-51 0 -89.5 -20.5t-64.5 -56t-38.5 -80.5t-12.5 -94
q0 -53 21 -93.5t59.5 -64t90.5 -23.5q57 1 97.5 26.5t64.5 65.5l40 -26q-21 -32 -51.5 -57t-69 -38.5t-85.5 -13.5zM187 579l147 156h56l76 -156h-44l-65 121l-120 -121h-50z" />
    <glyph glyph-name="edieresis" unicode="&#xeb;" horiz-adv-x="551" 
d="M269 -9q-69 0 -118 30t-74 81.5t-25 113.5q0 78 30 145t88 107.5t140 40.5q60 0 102.5 -26t65.5 -70.5t23 -101.5q0 -15 -2 -32t-7 -34h-414v43h391l-21 -16q2 10 3 20t1 20q0 44 -17 78.5t-49.5 55t-78.5 20.5q-51 0 -89.5 -20.5t-64.5 -56t-38.5 -80.5t-12.5 -94
q0 -53 21 -93.5t59.5 -64t90.5 -23.5q57 1 97.5 26.5t64.5 65.5l40 -26q-21 -32 -51.5 -57t-69 -38.5t-85.5 -13.5zM427 590q-16 0 -26 10t-10 25q0 21 12.5 33.5t30.5 12.5q17 0 26.5 -10.5t9.5 -25.5q0 -20 -12.5 -32.5t-30.5 -12.5zM237 590q-15 0 -25 10t-10 25
q0 21 12 33.5t31 12.5q16 0 26 -10.5t10 -25.5q0 -20 -12.5 -32.5t-31.5 -12.5z" />
    <glyph glyph-name="igrave" unicode="&#xec;" horiz-adv-x="222" 
d="M194 500l-116 -500h-50l116 500h50zM162 741l48 -158h-38l-60 158h50z" />
    <glyph glyph-name="iacute" unicode="&#xed;" horiz-adv-x="222" 
d="M194 500l-116 -500h-50l116 500h50zM277 741h60l-133 -158h-48z" />
    <glyph glyph-name="icircumflex" unicode="&#xee;" horiz-adv-x="222" 
d="M194 500l-116 -500h-50l116 500h50zM46 579l147 156h56l76 -156h-44l-65 121l-120 -121h-50z" />
    <glyph glyph-name="idieresis" unicode="&#xef;" horiz-adv-x="222" 
d="M262 590q-16 0 -26 10t-10 25q0 21 12.5 33.5t30.5 12.5q17 0 26.5 -10t9.5 -26q0 -20 -12.5 -32.5t-30.5 -12.5zM121 590q-16 0 -26 10t-10 25q0 21 12.5 33.5t30.5 12.5q16 0 26 -10t10 -26q0 -20 -12.5 -32.5t-30.5 -12.5zM194 500l-116 -500h-50l116 500h50z" />
    <glyph glyph-name="eth" unicode="&#xf0;" horiz-adv-x="583" 
d="M261 -10q-68 0 -115 31.5t-71.5 83t-24.5 110.5q0 77 33.5 138.5t89.5 97.5t125 36q55 0 97.5 -22t66.5 -62.5t24 -95.5l-10 -5q7 30 8.5 57.5t1.5 48.5q0 73 -21 133t-62.5 107.5t-104.5 81.5h65q41 -19 73.5 -52.5t54.5 -77.5t33.5 -93.5t11.5 -102.5q0 -85 -17 -160
t-50.5 -132t-85.5 -89.5t-122 -32.5zM267 34q46 0 83 19.5t63 53t39.5 75t13.5 84.5q0 57 -21.5 96t-59.5 60t-86 21q-42 0 -78 -17.5t-63 -48.5t-42.5 -72.5t-15.5 -88.5q0 -52 21 -93t59 -65t87 -24zM271 554l-8 36l189 40l21 -30zM473 600l-20 30l143 35l9 -36z" />
    <glyph glyph-name="ntilde" unicode="&#xf1;" horiz-adv-x="582" 
d="M29 0l116 500h44l-25 -125l-7 3q21 61 75.5 96.5t128.5 35.5q59 0 98.5 -25.5t55 -73t0.5 -113.5l-69 -298h-50l68 297q19 81 -14 125t-102 44q-55 0 -96 -23.5t-68 -65t-40 -96.5l-65 -281h-50zM548 701q-12 -55 -41 -82.5t-65 -27.5q-25 0 -41.5 10.5t-29.5 24t-26 24
t-31 10.5q-23 0 -38 -19t-26 -51h-40q12 55 41 82.5t67 27.5q26 0 42.5 -10.5t29 -24t25.5 -24t31 -10.5q20 0 36 18.5t26 51.5h40z" />
    <glyph glyph-name="ograve" unicode="&#xf2;" horiz-adv-x="579" 
d="M273 -9q-70 0 -119.5 30.5t-75.5 82t-26 112.5q0 86 32.5 152t89.5 103.5t133 37.5q72 0 120.5 -30.5t74 -81t25.5 -112.5q0 -85 -32 -151.5t-89 -104.5t-133 -38zM275 34q43 0 80 17.5t64.5 51t42 79.5t14.5 101q0 54 -19.5 95t-57.5 64.5t-94 23.5q-43 0 -80.5 -17.5
t-64.5 -50.5t-42 -79t-15 -101q0 -53 20 -94.5t58.5 -65.5t93.5 -24zM311 741l48 -158h-38l-60 158h50z" />
    <glyph glyph-name="oacute" unicode="&#xf3;" horiz-adv-x="579" 
d="M273 -9q-70 0 -119.5 30.5t-75.5 82t-26 112.5q0 86 32.5 152t89.5 103.5t133 37.5q72 0 120.5 -30.5t74 -81t25.5 -112.5q0 -85 -32 -151.5t-89 -104.5t-133 -38zM275 34q43 0 80 17.5t64.5 51t42 79.5t14.5 101q0 54 -19.5 95t-57.5 64.5t-94 23.5q-43 0 -80.5 -17.5
t-64.5 -50.5t-42 -79t-15 -101q0 -53 20 -94.5t58.5 -65.5t93.5 -24zM426 741h60l-133 -158h-48z" />
    <glyph glyph-name="ocircumflex" unicode="&#xf4;" horiz-adv-x="579" 
d="M273 -9q-70 0 -119.5 30.5t-75.5 82t-26 112.5q0 86 32.5 152t89.5 103.5t133 37.5q72 0 120.5 -30.5t74 -81t25.5 -112.5q0 -85 -32 -151.5t-89 -104.5t-133 -38zM275 34q43 0 80 17.5t64.5 51t42 79.5t14.5 101q0 54 -19.5 95t-57.5 64.5t-94 23.5q-43 0 -80.5 -17.5
t-64.5 -50.5t-42 -79t-15 -101q0 -53 20 -94.5t58.5 -65.5t93.5 -24zM195 579l147 156h56l76 -156h-44l-65 121l-120 -121h-50z" />
    <glyph glyph-name="otilde" unicode="&#xf5;" horiz-adv-x="579" 
d="M273 -9q-70 0 -119.5 30.5t-75.5 82t-26 112.5q0 86 32.5 152t89.5 103.5t133 37.5q72 0 120.5 -30.5t74 -81t25.5 -112.5q0 -85 -32 -151.5t-89 -104.5t-133 -38zM275 34q43 0 80 17.5t64.5 51t42 79.5t14.5 101q0 54 -19.5 95t-57.5 64.5t-94 23.5q-43 0 -80.5 -17.5
t-64.5 -50.5t-42 -79t-15 -101q0 -53 20 -94.5t58.5 -65.5t93.5 -24zM519 701q-12 -55 -41 -82.5t-65 -27.5q-25 0 -41.5 10.5t-29.5 24t-26 24t-31 10.5q-23 0 -38 -19t-26 -51h-40q12 55 41 82.5t67 27.5q26 0 42.5 -10.5t29 -24t25.5 -24t31 -10.5q20 0 36 18.5t26 51.5
h40z" />
    <glyph glyph-name="odieresis" unicode="&#xf6;" horiz-adv-x="579" 
d="M273 -9q-70 0 -119.5 30.5t-75.5 82t-26 112.5q0 86 32.5 152t89.5 103.5t133 37.5q72 0 120.5 -30.5t74 -81t25.5 -112.5q0 -85 -32 -151.5t-89 -104.5t-133 -38zM275 34q43 0 80 17.5t64.5 51t42 79.5t14.5 101q0 54 -19.5 95t-57.5 64.5t-94 23.5q-43 0 -80.5 -17.5
t-64.5 -50.5t-42 -79t-15 -101q0 -53 20 -94.5t58.5 -65.5t93.5 -24zM435 590q-16 0 -26 10t-10 25q0 21 12.5 33.5t30.5 12.5q17 0 26.5 -10.5t9.5 -25.5q0 -20 -12.5 -32.5t-30.5 -12.5zM245 590q-15 0 -25 10t-10 25q0 21 12 33.5t31 12.5q16 0 26 -10.5t10 -25.5
q0 -20 -12.5 -32.5t-31.5 -12.5z" />
    <glyph glyph-name="divide" unicode="&#xf7;" horiz-adv-x="604" 
d="M557 339l-10 -46h-469l10 46h469zM270 81q-17 0 -28.5 10.5t-11.5 28.5q0 23 13.5 36.5t33.5 13.5q17 0 28.5 -10.5t11.5 -28.5q0 -22 -13.5 -36t-33.5 -14zM358 462q-17 0 -28.5 11t-11.5 28q0 23 13.5 37t32.5 14q18 0 29 -11t11 -28q0 -23 -13 -37t-33 -14z" />
    <glyph glyph-name="oslash" unicode="&#xf8;" horiz-adv-x="579" 
d="M273 -9q-70 0 -119.5 30.5t-75.5 82t-26 112.5q0 86 32.5 152t89.5 103.5t133 37.5q72 0 120.5 -30.5t74 -81t25.5 -112.5q0 -85 -32 -151.5t-89 -104.5t-133 -38zM275 34q43 0 80 17.5t64.5 51t42 79.5t14.5 101q0 54 -19.5 95t-57.5 64.5t-94 23.5q-43 0 -80.5 -17.5
t-64.5 -50.5t-42 -79t-15 -101q0 -53 20 -94.5t58.5 -65.5t93.5 -24zM-1 -26l530 553h48l-530 -553h-48z" />
    <glyph glyph-name="ugrave" unicode="&#xf9;" horiz-adv-x="581" 
d="M228 -9q-60 0 -101.5 25t-57.5 73t-1 115l69 296h50l-68 -296q-20 -82 14.5 -125.5t105.5 -43.5q53 0 93 23t66.5 65t38.5 96l65 281h50l-116 -500h-44l25 125l8 -3q-23 -61 -75 -96t-122 -35zM327 726l48 -158h-38l-60 158h50z" />
    <glyph glyph-name="uacute" unicode="&#xfa;" horiz-adv-x="581" 
d="M228 -9q-60 0 -101.5 25t-57.5 73t-1 115l69 296h50l-68 -296q-20 -82 14.5 -125.5t105.5 -43.5q53 0 93 23t66.5 65t38.5 96l65 281h50l-116 -500h-44l25 125l8 -3q-23 -61 -75 -96t-122 -35zM442 726h60l-133 -158h-48z" />
    <glyph glyph-name="ucircumflex" unicode="&#xfb;" horiz-adv-x="581" 
d="M228 -9q-60 0 -101.5 25t-57.5 73t-1 115l69 296h50l-68 -296q-20 -82 14.5 -125.5t105.5 -43.5q53 0 93 23t66.5 65t38.5 96l65 281h50l-116 -500h-44l25 125l8 -3q-23 -61 -75 -96t-122 -35zM211 564l147 156h56l76 -156h-44l-65 121l-120 -121h-50z" />
    <glyph glyph-name="udieresis" unicode="&#xfc;" horiz-adv-x="581" 
d="M228 -9q-60 0 -101.5 25t-57.5 73t-1 115l69 296h50l-68 -296q-20 -82 14.5 -125.5t105.5 -43.5q53 0 93 23t66.5 65t38.5 96l65 281h50l-116 -500h-44l25 125l8 -3q-23 -61 -75 -96t-122 -35zM451 575q-16 0 -26 10t-10 25q0 21 12.5 33.5t30.5 12.5q17 0 26.5 -10.5
t9.5 -25.5q0 -20 -12.5 -32.5t-30.5 -12.5zM261 575q-15 0 -25 10t-10 25q0 21 12 33.5t31 12.5q16 0 26 -10.5t10 -25.5q0 -20 -12.5 -32.5t-31.5 -12.5z" />
    <glyph glyph-name="yacute" unicode="&#xfd;" horiz-adv-x="489" 
d="M-8 -215q-33 0 -56.5 8.5t-36.5 24.5l22 40q27 -29 70 -29q35 0 63.5 21t58.5 69l52 83l-89 498h49l63 -360l13 -85l50 84l225 361h58l-381 -599q-26 -42 -52 -67.5t-52.5 -37t-56.5 -11.5zM402 726h60l-133 -158h-48z" />
    <glyph glyph-name="thorn" unicode="&#xfe;" 
d="M-19 -210l217 940h50l-84 -362l-11 -10q21 72 76 111.5t129 39.5q56 0 99 -28t67 -78t24 -115q0 -62 -18 -116.5t-51 -95t-79 -63.5t-102 -23q-57 0 -99 24t-64.5 67.5t-23.5 99.5l14 18l-94 -409h-50zM299 33q43 0 79.5 19t63.5 54t42 81t15 101q0 56 -20.5 96t-55.5 61
t-81 21q-47 0 -84 -19.5t-64 -55t-41.5 -83.5t-14.5 -104q0 -78 43 -124.5t118 -46.5z" />
    <glyph glyph-name="ydieresis" unicode="&#xff;" horiz-adv-x="489" 
d="M-8 -215q-33 0 -56.5 8.5t-36.5 24.5l22 40q27 -29 70 -29q35 0 63.5 21t58.5 69l52 83l-89 498h49l63 -360l13 -85l50 84l225 361h58l-381 -599q-26 -42 -52 -67.5t-52.5 -37t-56.5 -11.5zM411 575q-16 0 -26 10t-10 25q0 21 12.5 33.5t30.5 12.5q17 0 26.5 -10.5
t9.5 -25.5q0 -20 -12.5 -32.5t-30.5 -12.5zM221 575q-15 0 -25 10t-10 25q0 21 12 33.5t31 12.5q16 0 26 -10.5t10 -25.5q0 -20 -12.5 -32.5t-31.5 -12.5z" />
    <glyph glyph-name="Amacron" unicode="&#x100;" horiz-adv-x="611" 
d="M-40 0l409 660h63l103 -660h-49l-85 531l-11 75v0l-43 -72l-330 -534h-57zM123 211l11 46h344l-11 -46h-344zM568 802l-9 -42h-293l10 42h292z" />
    <glyph glyph-name="amacron" unicode="&#x101;" 
d="M252 -9q-61 0 -106 28.5t-69.5 79t-24.5 115.5q0 62 18 115.5t52 94t81 63.5t104 23q53 0 91.5 -19.5t61.5 -54.5t27 -82l34 146h50l-116 -500h-44l22 108q-25 -51 -71.5 -84t-109.5 -33zM265 34q43 0 79.5 21.5t63.5 59t42 84.5t15 98q0 57 -21 94.5t-56 56.5t-79 19
q-46 0 -84 -19t-66 -53t-43 -80t-15 -101q0 -57 20.5 -97.5t57.5 -61.5t86 -21zM496 642l-9 -42h-293l10 42h292z" />
    <glyph glyph-name="Abreve" unicode="&#x102;" horiz-adv-x="611" 
d="M-40 0l409 660h63l103 -660h-49l-85 531l-11 75v0l-43 -72l-330 -534h-57zM123 211l11 46h344l-11 -46h-344zM575 874q-11 -65 -53.5 -100t-103.5 -35q-55 0 -86.5 29t-31.5 74q0 8 1 16.5t2 15.5h38q-1 -5 -1.5 -11.5t-0.5 -11.5q0 -34 23 -54t60 -20q43 0 73.5 25
t38.5 72h41z" />
    <glyph glyph-name="abreve" unicode="&#x103;" 
d="M252 -9q-61 0 -106 28.5t-69.5 79t-24.5 115.5q0 62 18 115.5t52 94t81 63.5t104 23q53 0 91.5 -19.5t61.5 -54.5t27 -82l34 146h50l-116 -500h-44l22 108q-25 -51 -71.5 -84t-109.5 -33zM265 34q43 0 79.5 21.5t63.5 59t42 84.5t15 98q0 57 -21 94.5t-56 56.5t-79 19
q-46 0 -84 -19t-66 -53t-43 -80t-15 -101q0 -57 20.5 -97.5t57.5 -61.5t86 -21zM505 714q-11 -65 -53.5 -100t-103.5 -35q-55 0 -86.5 29t-31.5 74q0 8 1 16.5t2 15.5h38q-1 -5 -1.5 -11.5t-0.5 -11.5q0 -34 23 -54t60 -20q43 0 73.5 25t38.5 72h41z" />
    <glyph glyph-name="Aogonek" unicode="&#x104;" horiz-adv-x="611" 
d="M451 -212q-26 0 -47.5 9.5t-34.5 28.5t-13 48q0 32 17 58t51.5 47.5t85.5 39.5l25 -19q-37 -14 -68.5 -32t-51 -40t-19.5 -50t19 -40.5t43 -12.5q13 0 24 2.5t21 6.5l-4 -37q-9 -4 -21.5 -6.5t-26.5 -2.5zM-40 0l409 660h63l103 -660h-49l-85 531l-11 75v0l-43 -72
l-330 -534h-57zM123 211l11 46h344l-11 -46h-344z" />
    <glyph glyph-name="aogonek" unicode="&#x105;" 
d="M376 -212q-24 0 -44.5 8.5t-33.5 26t-13 45.5q0 30 16.5 56.5t49 50t79.5 44.5l25 -19q-63 -32 -96.5 -62t-33.5 -65q0 -27 18 -37.5t40 -10.5q15 0 24 2.5t19 6.5l-5 -37q-8 -4 -18.5 -6.5t-26.5 -2.5zM252 -9q-61 0 -106 28.5t-69.5 79t-24.5 115.5q0 62 18 115.5
t52 94t81 63.5t104 23q53 0 91.5 -19.5t61.5 -54.5t27 -82l34 146h50l-116 -500h-44l22 108q-25 -51 -71.5 -84t-109.5 -33zM265 34q43 0 79.5 21.5t63.5 59t42 84.5t15 98q0 57 -21 94.5t-56 56.5t-79 19q-46 0 -84 -19t-66 -53t-43 -80t-15 -101q0 -57 20.5 -97.5
t57.5 -61.5t86 -21z" />
    <glyph glyph-name="Cacute" unicode="&#x106;" horiz-adv-x="668" 
d="M354 -10q-76 0 -138.5 32.5t-99.5 96t-37 156.5q0 75 21 146t63.5 127t105.5 89t146 33q61 0 110 -20.5t83.5 -61t51.5 -101.5l-52 -16q-20 77 -71.5 115t-126.5 38q-68 0 -120 -29t-87.5 -78t-53.5 -109.5t-18 -124.5q0 -78 30.5 -133t82 -84.5t113.5 -29.5
q74 0 122.5 31t79.5 87l47 -25q-40 -64 -101.5 -101.5t-150.5 -37.5zM517 897h59l-116 -154h-44z" />
    <glyph glyph-name="cacute" unicode="&#x107;" horiz-adv-x="528" 
d="M269 -9q-65 0 -114 29t-76 80t-27 116q0 84 32 150t90 104.5t136 38.5q52 0 92.5 -18.5t66.5 -52.5t35 -79l-51 -12q-9 53 -45.5 86t-99.5 33q-47 0 -84.5 -18.5t-64.5 -52.5t-41.5 -79t-14.5 -98q0 -55 21.5 -96.5t59.5 -64.5t90 -23q50 0 90.5 26.5t59.5 71.5l47 -18
q-26 -57 -79 -90t-123 -33zM424 741h60l-133 -158h-48z" />
    <glyph glyph-name="Ccircumflex" unicode="&#x108;" horiz-adv-x="668" 
d="M354 -10q-76 0 -138.5 32.5t-99.5 96t-37 156.5q0 75 21 146t63.5 127t105.5 89t146 33q61 0 110 -20.5t83.5 -61t51.5 -101.5l-52 -16q-20 77 -71.5 115t-126.5 38q-68 0 -120 -29t-87.5 -78t-53.5 -109.5t-18 -124.5q0 -78 30.5 -133t82 -84.5t113.5 -29.5
q74 0 122.5 31t79.5 87l47 -25q-40 -64 -101.5 -101.5t-150.5 -37.5zM509 894l74 -151h-43l-63 117l-116 -117h-51l144 151h55z" />
    <glyph glyph-name="ccircumflex" unicode="&#x109;" horiz-adv-x="528" 
d="M269 -9q-65 0 -114 29t-76 80t-27 116q0 84 32 150t90 104.5t136 38.5q52 0 92.5 -18.5t66.5 -52.5t35 -79l-51 -12q-9 53 -45.5 86t-99.5 33q-47 0 -84.5 -18.5t-64.5 -52.5t-41.5 -79t-14.5 -98q0 -55 21.5 -96.5t59.5 -64.5t90 -23q50 0 90.5 26.5t59.5 71.5l47 -18
q-26 -57 -79 -90t-123 -33zM193 579l147 156h56l76 -156h-44l-65 121l-120 -121h-50z" />
    <glyph glyph-name="Cdotaccent" unicode="&#x10a;" horiz-adv-x="668" 
d="M354 -10q-76 0 -138.5 32.5t-99.5 96t-37 156.5q0 75 21 146t63.5 127t105.5 89t146 33q61 0 110 -20.5t83.5 -61t51.5 -101.5l-52 -16q-20 77 -71.5 115t-126.5 38q-68 0 -120 -29t-87.5 -78t-53.5 -109.5t-18 -124.5q0 -78 30.5 -133t82 -84.5t113.5 -29.5
q74 0 122.5 31t79.5 87l47 -25q-40 -64 -101.5 -101.5t-150.5 -37.5zM458 757q-17 0 -27.5 10.5t-10.5 26.5q0 21 12.5 34t31.5 13q17 0 27.5 -10t10.5 -27q0 -21 -13 -34t-31 -13z" />
    <glyph glyph-name="cdotaccent" unicode="&#x10b;" horiz-adv-x="528" 
d="M269 -9q-65 0 -114 29t-76 80t-27 116q0 84 32 150t90 104.5t136 38.5q52 0 92.5 -18.5t66.5 -52.5t35 -79l-51 -12q-9 53 -45.5 86t-99.5 33q-47 0 -84.5 -18.5t-64.5 -52.5t-41.5 -79t-14.5 -98q0 -55 21.5 -96.5t59.5 -64.5t90 -23q50 0 90.5 26.5t59.5 71.5l47 -18
q-26 -57 -79 -90t-123 -33zM345 597q-17 0 -27.5 10.5t-10.5 26.5q0 21 12.5 34t31.5 13q17 0 27.5 -10t10.5 -27q0 -21 -13 -34t-31 -13z" />
    <glyph glyph-name="Ccaron" unicode="&#x10c;" horiz-adv-x="668" 
d="M354 -10q-76 0 -138.5 32.5t-99.5 96t-37 156.5q0 75 21 146t63.5 127t105.5 89t146 33q61 0 110 -20.5t83.5 -61t51.5 -101.5l-52 -16q-20 77 -71.5 115t-126.5 38q-68 0 -120 -29t-87.5 -78t-53.5 -109.5t-18 -124.5q0 -78 30.5 -133t82 -84.5t113.5 -29.5
q74 0 122.5 31t79.5 87l47 -25q-40 -64 -101.5 -101.5t-150.5 -37.5zM420 743l-74 151h44l63 -117l115 117h52l-144 -151h-56z" />
    <glyph glyph-name="ccaron" unicode="&#x10d;" horiz-adv-x="528" 
d="M269 -9q-65 0 -114 29t-76 80t-27 116q0 84 32 150t90 104.5t136 38.5q52 0 92.5 -18.5t66.5 -52.5t35 -79l-51 -12q-9 53 -45.5 86t-99.5 33q-47 0 -84.5 -18.5t-64.5 -52.5t-41.5 -79t-14.5 -98q0 -55 21.5 -96.5t59.5 -64.5t90 -23q50 0 90.5 26.5t59.5 71.5l47 -18
q-26 -57 -79 -90t-123 -33zM305 583l-75 155h44l64 -121l120 121h50l-146 -155h-57z" />
    <glyph glyph-name="Dcaron" unicode="&#x10e;" horiz-adv-x="697" 
d="M46 0l153 660h192q85 0 144 -35t90 -96t31 -139q0 -83 -25.5 -154t-74 -124t-116.5 -82.5t-151 -29.5h-243zM107 46h188q71 0 128 26.5t97 73t61.5 107.5t21.5 130q0 66 -24 118t-72.5 82.5t-122.5 30.5h-146zM398 743l-74 151h44l63 -117l115 117h52l-144 -151h-56z" />
    <glyph glyph-name="dcaron" unicode="&#x10f;" horiz-adv-x="614" 
d="M757 730l-80 -197h-39l69 197h50zM252 -9q-61 0 -106 28.5t-69.5 79t-24.5 115.5q0 62 18 115.5t52 94t81 63.5t104 23q52 0 91 -19t62 -54.5t27 -85.5l87 379h50l-169 -730h-44l22 108q-25 -51 -71.5 -84t-109.5 -33zM264 34q44 0 81 21.5t63.5 59t41.5 84.5t15 98
q0 57 -21 94.5t-56 56.5t-79 19q-46 0 -84 -19t-66 -53t-43 -80t-15 -101q0 -57 20.5 -97.5t57.5 -61.5t85 -21z" />
    <glyph glyph-name="Dcroat" unicode="&#x110;" horiz-adv-x="710" 
d="M25 311l10 46h354l-11 -46h-353zM59 0l153 660h192q85 0 144 -35t90.5 -96t31.5 -139q0 -83 -26 -154t-74 -124t-116.5 -82.5t-151.5 -29.5h-243zM120 46h189q71 0 127.5 26.5t97 73t62 107.5t21.5 130q0 66 -24.5 118t-72.5 82.5t-122 30.5h-146z" />
    <glyph glyph-name="dcroat" unicode="&#x111;" horiz-adv-x="603" 
d="M546 617l130 -32l-183 -6l-129 33zM252 -9q-61 0 -106 28.5t-69.5 79t-24.5 115.5q0 62 18 115.5t52 94t81 63.5t104 23q52 0 91 -19t62 -54.5t27 -85.5l87 379h50l-169 -730h-44l22 108q-25 -51 -71.5 -84t-109.5 -33zM264 34q44 0 81 21.5t63.5 59t41.5 84.5t15 98
q0 57 -21 94.5t-56 56.5t-79 19q-46 0 -84 -19t-66 -53t-43 -80t-15 -101q0 -57 20.5 -97.5t57.5 -61.5t85 -21z" />
    <glyph glyph-name="Emacron" unicode="&#x112;" 
d="M43 0l153 660h441l-12 -46h-390l-59 -255h311l-11 -47h-310l-61 -266h407l-11 -46h-458zM582 802l-9 -42h-293l10 42h292z" />
    <glyph glyph-name="emacron" unicode="&#x113;" horiz-adv-x="551" 
d="M269 -9q-69 0 -118 30t-74 81.5t-25 113.5q0 78 30 145t88 107.5t140 40.5q60 0 102.5 -26t65.5 -70.5t23 -101.5q0 -15 -2 -32t-7 -34h-414v43h391l-21 -16q2 10 3 20t1 20q0 44 -17 78.5t-49.5 55t-78.5 20.5q-51 0 -89.5 -20.5t-64.5 -56t-38.5 -80.5t-12.5 -94
q0 -53 21 -93.5t59.5 -64t90.5 -23.5q57 1 97.5 26.5t64.5 65.5l40 -26q-21 -32 -51.5 -57t-69 -38.5t-85.5 -13.5zM483 642l-9 -42h-293l10 42h292z" />
    <glyph glyph-name="Ebreve" unicode="&#x114;" 
d="M43 0l153 660h441l-12 -46h-390l-59 -255h311l-11 -47h-310l-61 -266h407l-11 -46h-458zM589 874q-11 -65 -53.5 -100t-103.5 -35q-55 0 -86.5 29t-31.5 74q0 8 1 16.5t2 15.5h38q-1 -5 -1.5 -11.5t-0.5 -11.5q0 -34 23 -54t60 -20q43 0 73.5 25t38.5 72h41z" />
    <glyph glyph-name="ebreve" unicode="&#x115;" horiz-adv-x="551" 
d="M269 -9q-69 0 -118 30t-74 81.5t-25 113.5q0 78 30 145t88 107.5t140 40.5q60 0 102.5 -26t65.5 -70.5t23 -101.5q0 -15 -2 -32t-7 -34h-414v43h391l-21 -16q2 10 3 20t1 20q0 44 -17 78.5t-49.5 55t-78.5 20.5q-51 0 -89.5 -20.5t-64.5 -56t-38.5 -80.5t-12.5 -94
q0 -53 21 -93.5t59.5 -64t90.5 -23.5q57 1 97.5 26.5t64.5 65.5l40 -26q-21 -32 -51.5 -57t-69 -38.5t-85.5 -13.5zM492 714q-11 -65 -53.5 -100t-103.5 -35q-55 0 -86.5 29t-31.5 74q0 8 1 16.5t2 15.5h38q-1 -5 -1.5 -11.5t-0.5 -11.5q0 -34 23 -54t60 -20q43 0 73.5 25
t38.5 72h41z" />
    <glyph glyph-name="Edotaccent" unicode="&#x116;" 
d="M43 0l153 660h441l-12 -46h-390l-59 -255h311l-11 -47h-310l-61 -266h407l-11 -46h-458zM438 757q-17 0 -27.5 10.5t-10.5 26.5q0 21 12.5 34t31.5 13q17 0 27.5 -10t10.5 -27q0 -21 -13 -34t-31 -13z" />
    <glyph glyph-name="edotaccent" unicode="&#x117;" horiz-adv-x="551" 
d="M269 -9q-69 0 -118 30t-74 81.5t-25 113.5q0 78 30 145t88 107.5t140 40.5q60 0 102.5 -26t65.5 -70.5t23 -101.5q0 -15 -2 -32t-7 -34h-414v43h391l-21 -16q2 10 3 20t1 20q0 44 -17 78.5t-49.5 55t-78.5 20.5q-51 0 -89.5 -20.5t-64.5 -56t-38.5 -80.5t-12.5 -94
q0 -53 21 -93.5t59.5 -64t90.5 -23.5q57 1 97.5 26.5t64.5 65.5l40 -26q-21 -32 -51.5 -57t-69 -38.5t-85.5 -13.5zM339 597q-17 0 -27.5 10.5t-10.5 26.5q0 21 12.5 34t31.5 13q17 0 27.5 -10t10.5 -27q0 -21 -13 -34t-31 -13z" />
    <glyph glyph-name="Eogonek" unicode="&#x118;" 
d="M412 -212q-26 0 -47.5 9.5t-34.5 28t-13 46.5q0 32 18.5 58.5t54 48.5t85.5 40l26 -19q-37 -14 -70 -32t-53.5 -40t-20.5 -50t19 -40.5t43 -12.5q13 0 24 2.5t21 6.5l-4 -37q-9 -4 -21.5 -6.5t-26.5 -2.5zM43 0l153 660h441l-12 -46h-390l-59 -255h311l-11 -47h-310
l-61 -266h407l-11 -46h-458z" />
    <glyph glyph-name="eogonek" unicode="&#x119;" horiz-adv-x="551" 
d="M269 -9q-69 0 -118 30t-74 81.5t-25 113.5q0 78 30 145t88 107.5t140 40.5q60 0 102.5 -26t65.5 -70.5t23 -101.5q0 -15 -2 -32t-7 -34h-414v43h391l-21 -16q2 10 3 20t1 20q0 44 -17 78.5t-49.5 55t-78.5 20.5q-51 0 -89.5 -20.5t-64.5 -56t-38.5 -80.5t-12.5 -94
q0 -53 21 -93.5t59.5 -64t90.5 -23.5q57 1 97.5 26.5t64.5 65.5l40 -26q-21 -32 -51.5 -57t-69 -38.5t-85.5 -13.5zM263 -209q-26 0 -48 9.5t-34.5 28.5t-12.5 48q0 32 17 58t51.5 47.5t85.5 39.5l25 -19q-37 -14 -68.5 -32t-51 -40t-19.5 -50t19 -40.5t43 -12.5
q13 0 24 2.5t21 6.5l-4 -37q-9 -4 -21.5 -6.5t-26.5 -2.5z" />
    <glyph glyph-name="Ecaron" unicode="&#x11a;" 
d="M43 0l153 660h441l-12 -46h-390l-59 -255h311l-11 -47h-310l-61 -266h407l-11 -46h-458zM400 743l-74 151h44l63 -117l115 117h52l-144 -151h-56z" />
    <glyph glyph-name="ecaron" unicode="&#x11b;" horiz-adv-x="551" 
d="M269 -9q-69 0 -118 30t-74 81.5t-25 113.5q0 78 30 145t88 107.5t140 40.5q60 0 102.5 -26t65.5 -70.5t23 -101.5q0 -15 -2 -32t-7 -34h-414v43h391l-21 -16q2 10 3 20t1 20q0 44 -17 78.5t-49.5 55t-78.5 20.5q-51 0 -89.5 -20.5t-64.5 -56t-38.5 -80.5t-12.5 -94
q0 -53 21 -93.5t59.5 -64t90.5 -23.5q57 1 97.5 26.5t64.5 65.5l40 -26q-21 -32 -51.5 -57t-69 -38.5t-85.5 -13.5zM299 583l-75 155h44l64 -121l120 121h50l-146 -155h-57z" />
    <glyph glyph-name="Gcircumflex" unicode="&#x11c;" horiz-adv-x="699" 
d="M343 -8q-72 0 -132 33t-96 96.5t-36 153.5q0 77 22 148t65.5 126.5t108 88t149.5 32.5q59 0 109 -18.5t87 -57t57 -100.5l-50 -17q-25 76 -78.5 111.5t-127.5 35.5q-71 0 -125 -29t-91 -78t-55.5 -110t-18.5 -125q0 -77 29 -131.5t79 -83.5t113 -29q56 0 102.5 20.5
t79.5 62.5t48 107l9 42h-220l11 47h265l-75 -317h-41l35 157l8 1q-18 -59 -52 -95.5t-79.5 -53.5t-99.5 -17zM514 894l74 -151h-43l-63 117l-116 -117h-51l144 151h55z" />
    <glyph glyph-name="gcircumflex" unicode="&#x11d;" horiz-adv-x="599" 
d="M211 -215q-42 0 -79 11.5t-65.5 32.5t-47 51t-25.5 68l49 17q13 -66 56.5 -101t116.5 -35q45 0 82.5 16t65 54t41.5 103l32 138l5 -5q-21 -55 -71.5 -89.5t-117.5 -34.5q-58 0 -104 27.5t-72 77t-26 114.5q0 59 17.5 110t50.5 89t79 59.5t103 21.5q62 0 104.5 -27.5
t63.5 -75t15 -107.5l-10 1l46 199h50l-118 -506q-17 -74 -51 -120t-81.5 -67.5t-108.5 -21.5zM265 54q60 0 104 33t67.5 87.5t23.5 119.5q0 57 -20.5 95.5t-56.5 58t-80 19.5q-62 0 -107.5 -32t-70 -85.5t-24.5 -119.5q0 -81 44.5 -128.5t119.5 -47.5zM195 579l147 156h56
l76 -156h-44l-65 121l-120 -121h-50z" />
    <glyph glyph-name="Gbreve" unicode="&#x11e;" horiz-adv-x="699" 
d="M343 -8q-72 0 -132 33t-96 96.5t-36 153.5q0 77 22 148t65.5 126.5t108 88t149.5 32.5q59 0 109 -18.5t87 -57t57 -100.5l-50 -17q-25 76 -78.5 111.5t-127.5 35.5q-71 0 -125 -29t-91 -78t-55.5 -110t-18.5 -125q0 -77 29 -131.5t79 -83.5t113 -29q56 0 102.5 20.5
t79.5 62.5t48 107l9 42h-220l11 47h265l-75 -317h-41l35 157l8 1q-18 -59 -52 -95.5t-79.5 -53.5t-99.5 -17zM615 874q-11 -65 -53.5 -100t-103.5 -35q-55 0 -86.5 29t-31.5 74q0 8 1 16.5t2 15.5h38q-1 -5 -1.5 -11.5t-0.5 -11.5q0 -34 23 -54t60 -20q43 0 73.5 25t38.5 72
h41z" />
    <glyph glyph-name="gbreve" unicode="&#x11f;" horiz-adv-x="599" 
d="M211 -215q-42 0 -79 11.5t-65.5 32.5t-47 51t-25.5 68l49 17q13 -66 56.5 -101t116.5 -35q45 0 82.5 16t65 54t41.5 103l32 138l5 -5q-21 -55 -71.5 -89.5t-117.5 -34.5q-58 0 -104 27.5t-72 77t-26 114.5q0 59 17.5 110t50.5 89t79 59.5t103 21.5q62 0 104.5 -27.5
t63.5 -75t15 -107.5l-10 1l46 199h50l-118 -506q-17 -74 -51 -120t-81.5 -67.5t-108.5 -21.5zM265 54q60 0 104 33t67.5 87.5t23.5 119.5q0 57 -20.5 95.5t-56.5 58t-80 19.5q-62 0 -107.5 -32t-70 -85.5t-24.5 -119.5q0 -81 44.5 -128.5t119.5 -47.5zM500 714
q-11 -65 -53.5 -100t-103.5 -35q-55 0 -86.5 29t-31.5 74q0 8 1 16.5t2 15.5h38q-1 -5 -1.5 -11.5t-0.5 -11.5q0 -34 23 -54t60 -20q43 0 73.5 25t38.5 72h41z" />
    <glyph glyph-name="Gdotaccent" unicode="&#x120;" horiz-adv-x="699" 
d="M343 -8q-72 0 -132 33t-96 96.5t-36 153.5q0 77 22 148t65.5 126.5t108 88t149.5 32.5q59 0 109 -18.5t87 -57t57 -100.5l-50 -17q-25 76 -78.5 111.5t-127.5 35.5q-71 0 -125 -29t-91 -78t-55.5 -110t-18.5 -125q0 -77 29 -131.5t79 -83.5t113 -29q56 0 102.5 20.5
t79.5 62.5t48 107l9 42h-220l11 47h265l-75 -317h-41l35 157l8 1q-18 -59 -52 -95.5t-79.5 -53.5t-99.5 -17zM463 757q-17 0 -27.5 10.5t-10.5 26.5q0 21 12.5 34t31.5 13q17 0 27.5 -10t10.5 -27q0 -21 -13 -34t-31 -13z" />
    <glyph glyph-name="gdotaccent" unicode="&#x121;" horiz-adv-x="599" 
d="M211 -215q-42 0 -79 11.5t-65.5 32.5t-47 51t-25.5 68l49 17q13 -66 56.5 -101t116.5 -35q45 0 82.5 16t65 54t41.5 103l32 138l5 -5q-21 -55 -71.5 -89.5t-117.5 -34.5q-58 0 -104 27.5t-72 77t-26 114.5q0 59 17.5 110t50.5 89t79 59.5t103 21.5q62 0 104.5 -27.5
t63.5 -75t15 -107.5l-10 1l46 199h50l-118 -506q-17 -74 -51 -120t-81.5 -67.5t-108.5 -21.5zM265 54q60 0 104 33t67.5 87.5t23.5 119.5q0 57 -20.5 95.5t-56.5 58t-80 19.5q-62 0 -107.5 -32t-70 -85.5t-24.5 -119.5q0 -81 44.5 -128.5t119.5 -47.5zM347 597
q-17 0 -27.5 10.5t-10.5 26.5q0 21 12.5 34t31.5 13q17 0 27.5 -10t10.5 -27q0 -21 -13 -34t-31 -13z" />
    <glyph glyph-name="uni0122" unicode="&#x122;" horiz-adv-x="699" 
d="M343 -8q-72 0 -132 33t-96 96.5t-36 153.5q0 77 22 148t65.5 126.5t108 88t149.5 32.5q59 0 109 -18.5t87 -57t57 -100.5l-50 -17q-25 76 -78.5 111.5t-127.5 35.5q-71 0 -125 -29t-91 -78t-55.5 -110t-18.5 -125q0 -77 29 -131.5t79 -83.5t113 -29q56 0 102.5 20.5
t79.5 62.5t48 107l9 42h-220l11 47h265l-75 -317h-41l35 157l8 1q-18 -59 -52 -95.5t-79.5 -53.5t-99.5 -17zM378 -72l-97 -161h-44l84 161h57z" />
    <glyph glyph-name="uni0123" unicode="&#x123;" horiz-adv-x="599" 
d="M211 -215q-42 0 -79 11.5t-65.5 32.5t-47 51t-25.5 68l49 17q13 -66 56.5 -101t116.5 -35q45 0 82.5 16t65 54t41.5 103l32 138l5 -5q-21 -55 -71.5 -89.5t-117.5 -34.5q-58 0 -104 27.5t-72 77t-26 114.5q0 59 17.5 110t50.5 89t79 59.5t103 21.5q62 0 104.5 -27.5
t63.5 -75t15 -107.5l-10 1l46 199h50l-118 -506q-17 -74 -51 -120t-81.5 -67.5t-108.5 -21.5zM265 54q60 0 104 33t67.5 87.5t23.5 119.5q0 57 -20.5 95.5t-56.5 58t-80 19.5q-62 0 -107.5 -32t-70 -85.5t-24.5 -119.5q0 -81 44.5 -128.5t119.5 -47.5zM454 778l-91 -191h-60
l111 191h40z" />
    <glyph glyph-name="Hcircumflex" unicode="&#x124;" horiz-adv-x="702" 
d="M695 660l-153 -660h-50l153 660h50zM246 660l-153 -660h-50l153 660h50zM599 359l-10 -47h-447l11 47h446zM528 894l74 -151h-43l-63 117l-116 -117h-51l144 151h55z" />
    <glyph glyph-name="hcircumflex" unicode="&#x125;" horiz-adv-x="582" 
d="M29 0l169 730h50l-81 -349l-10 -3q15 40 44 69.5t70 46t90 16.5q57 0 97 -25.5t56 -73t1 -113.5l-69 -298h-50l68 297q19 81 -14 125t-102 44q-55 0 -96 -23.5t-68 -65t-40 -96.5l-65 -281h-50zM294 930l74 -151h-43l-63 117l-116 -117h-51l144 151h55z" />
    <glyph glyph-name="Hbar" unicode="&#x126;" horiz-adv-x="702" 
d="M695 660l-153 -660h-50l153 660h50zM246 660l-153 -660h-50l153 660h50zM599 359l-10 -47h-447l11 47h446zM745 529l-10 -43h-655l10 43h655z" />
    <glyph glyph-name="hbar" unicode="&#x127;" horiz-adv-x="582" 
d="M88 617h304l-9 -38h-304zM29 0l169 730h50l-81 -349l-10 -3q15 40 44 69.5t70 46t90 16.5q57 0 97 -25.5t56 -73t1 -113.5l-69 -298h-50l68 297q19 81 -14 125t-102 44q-55 0 -96 -23.5t-68 -65t-40 -96.5l-65 -281h-50z" />
    <glyph glyph-name="Itilde" unicode="&#x128;" horiz-adv-x="253" 
d="M246 660l-153 -660h-50l153 660h50zM422 861q-12 -55 -41 -82.5t-65 -27.5q-25 0 -41.5 10.5t-29.5 24t-26 24t-31 10.5q-23 0 -38 -19t-26 -51h-40q12 55 41 82.5t67 27.5q26 0 42.5 -10.5t29 -24t25.5 -24t31 -10.5q20 0 36 18.5t26 51.5h40z" />
    <glyph glyph-name="itilde" unicode="&#x129;" horiz-adv-x="222" 
d="M194 500l-116 -500h-50l116 500h50zM370 701q-12 -55 -41 -82.5t-65 -27.5q-25 0 -41.5 10.5t-29.5 24t-26 24t-31 10.5q-23 0 -38 -19t-26 -51h-40q12 55 41 82.5t67 27.5q26 0 42.5 -10.5t29 -24t25.5 -24t31 -10.5q20 0 36 18.5t26 51.5h40z" />
    <glyph glyph-name="Imacron" unicode="&#x12a;" horiz-adv-x="256" 
d="M363 802l-9 -42h-216l9 42h216zM246 660l-153 -660h-50l153 660h50z" />
    <glyph glyph-name="imacron" unicode="&#x12b;" horiz-adv-x="222" 
d="M291 642l-9 -42h-187l9 42h187zM194 500l-116 -500h-50l116 500h50z" />
    <glyph glyph-name="Ibreve" unicode="&#x12c;" horiz-adv-x="253" 
d="M246 660l-153 -660h-50l153 660h50zM402 874q-11 -65 -53.5 -100t-103.5 -35q-55 0 -86.5 29t-31.5 74q0 8 1 16.5t2 15.5h38q-1 -5 -1.5 -11.5t-0.5 -11.5q0 -34 23 -54t60 -20q43 0 73.5 25t38.5 72h41z" />
    <glyph glyph-name="ibreve" unicode="&#x12d;" horiz-adv-x="222" 
d="M194 500l-116 -500h-50l116 500h50zM351 714q-11 -65 -53.5 -100t-103.5 -35q-55 0 -86.5 29t-31.5 74q0 8 1 16.5t2 15.5h38q-1 -5 -1.5 -11.5t-0.5 -11.5q0 -34 23 -54t60 -20q43 0 73.5 25t38.5 72h41z" />
    <glyph glyph-name="Iogonek" unicode="&#x12e;" horiz-adv-x="253" 
d="M24 -212q-25 0 -46.5 9.5t-34 28t-12.5 46.5q0 31 14.5 57.5t44.5 49t78 40.5l25 -19q-35 -14 -63 -31.5t-43.5 -40t-15.5 -50.5q0 -31 19 -42t42 -11q11 0 20 1.5t18 5.5l-4 -36q-8 -4 -18.5 -6t-23.5 -2zM246 660l-153 -660h-50l153 660h50z" />
    <glyph glyph-name="iogonek" unicode="&#x12f;" horiz-adv-x="223" 
d="M9 -212q-25 0 -46.5 9.5t-34 28t-12.5 46.5q0 31 14 57.5t44.5 49t77.5 40.5l26 -19q-35 -14 -63 -31.5t-43.5 -40t-15.5 -50.5q0 -31 19 -42t42 -11q11 0 20 1.5t18 5.5l-4 -36q-8 -4 -18.5 -6t-23.5 -2zM198 597q-17 0 -27.5 10.5t-10.5 26.5q0 22 13 34.5t31 12.5
q17 0 27.5 -10.5t10.5 -26.5q0 -21 -12.5 -34t-31.5 -13zM194 500l-116 -500h-50l116 500h50z" />
    <glyph glyph-name="Idotaccent" unicode="&#x130;" horiz-adv-x="253" 
d="M246 660l-153 -660h-50l153 660h50zM250 757q-17 0 -27.5 10.5t-10.5 26.5q0 21 12.5 34t31.5 13q17 0 27.5 -10t10.5 -27q0 -21 -13 -34t-31 -13z" />
    <glyph glyph-name="dotlessi" unicode="&#x131;" horiz-adv-x="222" 
d="M194 500l-116 -500h-50l116 500h50z" />
    <glyph glyph-name="IJ" unicode="&#x132;" horiz-adv-x="771" 
d="M246 660l-153 -660h-50l153 660h50zM450 -9q-50 0 -88 17.5t-59.5 50t-25.5 76t13 95.5l48 3q-18 -59 -11 -103.5t39.5 -69t87.5 -24.5q70 0 109 40.5t59 132.5l104 451h50l-107 -462q-14 -65 -41.5 -111t-70.5 -71t-107 -25z" />
    <glyph glyph-name="ij" unicode="&#x133;" horiz-adv-x="446" 
d="M198 597q-17 0 -27.5 10.5t-10.5 26.5q0 22 13 34.5t31 12.5q17 0 27.5 -10.5t10.5 -26.5q0 -21 -12.5 -34t-31.5 -13zM194 500l-116 -500h-50l116 500h50zM421 597q-17 0 -27.5 10.5t-10.5 26.5q0 22 13 34.5t31 12.5q17 0 27.5 -10.5t10.5 -26.5q0 -21 -12.5 -34
t-31.5 -13zM137 -215q-25 0 -48 7t-37 20l19 45q13 -10 29.5 -16.5t33.5 -6.5q39 0 64 24.5t38 80.5l131 561h50l-133 -576q-16 -68 -54.5 -103.5t-92.5 -35.5z" />
    <glyph glyph-name="Jcircumflex" unicode="&#x134;" horiz-adv-x="518" 
d="M197 -9q-50 0 -88 17.5t-59.5 50t-25.5 76t13 95.5l48 3q-18 -59 -11 -103.5t39.5 -69t87.5 -24.5q70 0 109 40.5t59 132.5l104 451h50l-107 -462q-14 -65 -41.5 -111t-70.5 -71t-107 -25zM578 894l74 -151h-43l-63 117l-116 -117h-51l144 151h55z" />
    <glyph glyph-name="jcircumflex" unicode="&#x135;" horiz-adv-x="222" 
d="M-86 -215q-25 0 -48 7t-37 20l19 45q13 -10 29.5 -16.5t33.5 -6.5q39 0 64 24.5t38 80.5l131 561h50l-133 -576q-16 -68 -54.5 -103.5t-92.5 -35.5zM46 579l147 156h56l76 -156h-44l-65 121l-120 -121h-50z" />
    <glyph glyph-name="uni0136" unicode="&#x136;" horiz-adv-x="594" 
d="M43 0l153 660h50l-85 -366l429 366h72l-314 -269l167 -391h-55l-152 356l-164 -139l-51 -217h-50zM302 -72l-97 -161h-44l84 161h57z" />
    <glyph glyph-name="uni0137" unicode="&#x137;" horiz-adv-x="512" 
d="M543 500l-263 -211l-12 -9l-185 -149l11 66l377 303h72zM248 730l-169 -730h-50l169 730h50zM287 314l148 -314h-54l-135 288zM262 -72l-97 -161h-44l84 161h57z" />
    <glyph glyph-name="kgreenlandic" unicode="&#x138;" horiz-adv-x="512" 
d="M543 500l-263 -211l-12 -9l-185 -149l11 66l377 303h72zM195 500l-116 -500h-50l116 500h50zM287 314l148 -314h-54l-135 288z" />
    <glyph glyph-name="Lacute" unicode="&#x139;" horiz-adv-x="561" 
d="M104 46h388l-11 -46h-438l153 660h50zM309 897h59l-116 -154h-44z" />
    <glyph glyph-name="lacute" unicode="&#x13a;" horiz-adv-x="270" 
d="M143 -8q-59 0 -81 37.5t-7 102.5l139 598h50l-140 -601q-11 -48 3 -70.5t54 -22.5q17 0 28.5 1.5t21.5 4.5l-12 -40q-12 -5 -25.5 -7.5t-30.5 -2.5zM204 797l88 133h53l-100 -133h-41z" />
    <glyph glyph-name="uni013B" unicode="&#x13b;" horiz-adv-x="561" 
d="M104 46h388l-11 -46h-438l153 660h50zM300 -72l-97 -161h-44l84 161h57z" />
    <glyph glyph-name="uni013C" unicode="&#x13c;" horiz-adv-x="270" 
d="M143 -8q-59 0 -81 37.5t-7 102.5l139 598h50l-140 -601q-11 -48 3 -70.5t54 -22.5q17 0 28.5 1.5t21.5 4.5l-12 -40q-12 -5 -25.5 -7.5t-30.5 -2.5zM137 -72l-97 -161h-44l84 161h57z" />
    <glyph glyph-name="Lcaron" unicode="&#x13d;" horiz-adv-x="561" 
d="M459 660l-80 -197h-39l69 197h50zM104 46h388l-11 -46h-438l153 660h50z" />
    <glyph glyph-name="lcaron" unicode="&#x13e;" horiz-adv-x="276" 
d="M387 730l-80 -197h-39l69 197h50zM143 -8q-59 0 -81 37.5t-7 102.5l139 598h50l-140 -601q-11 -48 3 -70.5t54 -22.5q17 0 28.5 1.5t21.5 4.5l-12 -40q-12 -5 -25.5 -7.5t-30.5 -2.5z" />
    <glyph glyph-name="Ldot" unicode="&#x13f;" horiz-adv-x="578" 
d="M104 46h388l-11 -46h-438l153 660h50zM433 305q-18 0 -29.5 11t-11.5 28q0 23 13.5 37t33.5 14q17 0 28.5 -11t11.5 -28q0 -23 -13.5 -37t-32.5 -14z" />
    <glyph glyph-name="ldot" unicode="&#x140;" horiz-adv-x="340" 
d="M143 -8q-59 0 -81 37.5t-7 102.5l139 598h50l-140 -601q-11 -48 3 -70.5t54 -22.5q17 0 28.5 1.5t21.5 4.5l-12 -40q-12 -5 -25.5 -7.5t-30.5 -2.5zM304 319q-18 0 -29.5 11t-11.5 28q0 23 13.5 37t33.5 14q17 0 28.5 -11t11.5 -28q0 -23 -13.5 -37t-32.5 -14z" />
    <glyph glyph-name="Lslash" unicode="&#x141;" horiz-adv-x="577" 
d="M395 462l-13 -57l-375 -199l14 57zM120 46h388l-11 -46h-437l153 660h50z" />
    <glyph glyph-name="lslash" unicode="&#x142;" horiz-adv-x="317" 
d="M26 247l13 56l119 73l19 8l154 94l-14 -57l-148 -91l-8 -1zM178 -8q-59 0 -80.5 37.5t-6.5 102.5l138 598h50l-139 -601q-12 -48 2.5 -70.5t53.5 -22.5q17 0 28.5 1.5t21.5 4.5l-12 -40q-12 -5 -25 -7.5t-31 -2.5z" />
    <glyph glyph-name="Nacute" unicode="&#x143;" horiz-adv-x="701" 
d="M43 0l153 660h61l220 -517l31 -89h1l16 83l122 523h47l-153 -660h-60l-221 518l-30 88h-1l-17 -83l-121 -523h-48zM528 897h59l-116 -154h-44z" />
    <glyph glyph-name="nacute" unicode="&#x144;" horiz-adv-x="582" 
d="M29 0l116 500h44l-25 -125l-7 3q21 61 75.5 96.5t128.5 35.5q59 0 98.5 -25.5t55 -73t0.5 -113.5l-69 -298h-50l68 297q19 81 -14 125t-102 44q-55 0 -96 -23.5t-68 -65t-40 -96.5l-65 -281h-50zM455 741h60l-133 -158h-48z" />
    <glyph glyph-name="uni0145" unicode="&#x145;" horiz-adv-x="701" 
d="M43 0l153 660h61l220 -517l31 -89h1l16 83l122 523h47l-153 -660h-60l-221 518l-30 88h-1l-17 -83l-121 -523h-48zM323 -72l-97 -161h-44l84 161h57z" />
    <glyph glyph-name="uni0146" unicode="&#x146;" horiz-adv-x="582" 
d="M29 0l116 500h44l-25 -125l-7 3q21 61 75.5 96.5t128.5 35.5q59 0 98.5 -25.5t55 -73t0.5 -113.5l-69 -298h-50l68 297q19 81 -14 125t-102 44q-55 0 -96 -23.5t-68 -65t-40 -96.5l-65 -281h-50zM273 -72l-97 -161h-44l84 161h57z" />
    <glyph glyph-name="Ncaron" unicode="&#x147;" horiz-adv-x="701" 
d="M43 0l153 660h61l220 -517l31 -89h1l16 83l122 523h47l-153 -660h-60l-221 518l-30 88h-1l-17 -83l-121 -523h-48zM431 743l-74 151h44l63 -117l115 117h52l-144 -151h-56z" />
    <glyph glyph-name="ncaron" unicode="&#x148;" horiz-adv-x="582" 
d="M29 0l116 500h44l-25 -125l-7 3q21 61 75.5 96.5t128.5 35.5q59 0 98.5 -25.5t55 -73t0.5 -113.5l-69 -298h-50l68 297q19 81 -14 125t-102 44q-55 0 -96 -23.5t-68 -65t-40 -96.5l-65 -281h-50zM336 583l-75 155h44l64 -121l120 121h50l-146 -155h-57z" />
    <glyph glyph-name="Eng" unicode="&#x14a;" horiz-adv-x="701" 
d="M378 -215q-25 0 -49 7.5t-38 20.5l19 45q12 -11 29.5 -17.5t35.5 -6.5q40 0 66 24.5t40 80.5l14 62l-232 518l-33 87v0l-18 -83l-121 -523h-48l153 660h62l220 -495l35 -91h1l19 92l114 494h47l-170 -736q-15 -67 -53.5 -103t-92.5 -36z" />
    <glyph glyph-name="eng" unicode="&#x14b;" horiz-adv-x="582" 
d="M282 -215q-26 0 -49.5 7.5t-37.5 20.5l18 45q13 -11 30.5 -17.5t34.5 -6.5q39 0 65 24.5t39 80.5l82 358q19 81 -14 125t-102 44q-55 0 -96 -23.5t-68 -65t-40 -96.5l-65 -281h-50l116 500h44l-19 -94q26 48 76 76t115 28q59 0 98.5 -25.5t55 -73t0.5 -113.5l-87 -374
q-16 -68 -54 -103.5t-92 -35.5z" />
    <glyph glyph-name="Omacron" unicode="&#x14c;" horiz-adv-x="728" 
d="M352 -10q-74 0 -136 33.5t-99 98.5t-37 158q0 77 21.5 147t64 124.5t105.5 86.5t145 32q74 0 135 -34t97.5 -98.5t36.5 -157.5q0 -76 -21.5 -146t-63.5 -125t-104 -87t-144 -32zM357 37q68 0 119.5 28.5t86 76.5t52.5 109t18 126q0 79 -29.5 133.5t-79.5 83.5t-114 29
q-68 0 -120 -28.5t-87 -76.5t-53 -108.5t-18 -126.5q0 -79 29.5 -133.5t80.5 -83.5t115 -29zM602 802l-9 -42h-293l10 42h292z" />
    <glyph glyph-name="omacron" unicode="&#x14d;" horiz-adv-x="579" 
d="M273 -9q-70 0 -119.5 30.5t-75.5 82t-26 112.5q0 86 32.5 152t89.5 103.5t133 37.5q72 0 120.5 -30.5t74 -81t25.5 -112.5q0 -85 -32 -151.5t-89 -104.5t-133 -38zM275 34q43 0 80 17.5t64.5 51t42 79.5t14.5 101q0 54 -19.5 95t-57.5 64.5t-94 23.5q-43 0 -80.5 -17.5
t-64.5 -50.5t-42 -79t-15 -101q0 -53 20 -94.5t58.5 -65.5t93.5 -24zM491 642l-9 -42h-293l10 42h292z" />
    <glyph glyph-name="Obreve" unicode="&#x14e;" horiz-adv-x="728" 
d="M352 -10q-74 0 -136 33.5t-99 98.5t-37 158q0 77 21.5 147t64 124.5t105.5 86.5t145 32q74 0 135 -34t97.5 -98.5t36.5 -157.5q0 -76 -21.5 -146t-63.5 -125t-104 -87t-144 -32zM357 37q68 0 119.5 28.5t86 76.5t52.5 109t18 126q0 79 -29.5 133.5t-79.5 83.5t-114 29
q-68 0 -120 -28.5t-87 -76.5t-53 -108.5t-18 -126.5q0 -79 29.5 -133.5t80.5 -83.5t115 -29zM610 874q-11 -65 -53.5 -100t-103.5 -35q-55 0 -86.5 29t-31.5 74q0 8 1 16.5t2 15.5h38q-1 -5 -1.5 -11.5t-0.5 -11.5q0 -34 23 -54t60 -20q43 0 73.5 25t38.5 72h41z" />
    <glyph glyph-name="obreve" unicode="&#x14f;" horiz-adv-x="579" 
d="M273 -9q-70 0 -119.5 30.5t-75.5 82t-26 112.5q0 86 32.5 152t89.5 103.5t133 37.5q72 0 120.5 -30.5t74 -81t25.5 -112.5q0 -85 -32 -151.5t-89 -104.5t-133 -38zM275 34q43 0 80 17.5t64.5 51t42 79.5t14.5 101q0 54 -19.5 95t-57.5 64.5t-94 23.5q-43 0 -80.5 -17.5
t-64.5 -50.5t-42 -79t-15 -101q0 -53 20 -94.5t58.5 -65.5t93.5 -24zM501 714q-11 -65 -53.5 -100t-103.5 -35q-55 0 -86.5 29t-31.5 74q0 8 1 16.5t2 15.5h38q-1 -5 -1.5 -11.5t-0.5 -11.5q0 -34 23 -54t60 -20q43 0 73.5 25t38.5 72h41z" />
    <glyph glyph-name="Ohungarumlaut" unicode="&#x150;" horiz-adv-x="728" 
d="M352 -10q-74 0 -136 33.5t-99 98.5t-37 158q0 77 21.5 147t64 124.5t105.5 86.5t145 32q74 0 135 -34t97.5 -98.5t36.5 -157.5q0 -76 -21.5 -146t-63.5 -125t-104 -87t-144 -32zM357 37q68 0 119.5 28.5t86 76.5t52.5 109t18 126q0 79 -29.5 133.5t-79.5 83.5t-114 29
q-68 0 -120 -28.5t-87 -76.5t-53 -108.5t-18 -126.5q0 -79 29.5 -133.5t80.5 -83.5t115 -29zM496 743l101 154h59l-116 -154h-44zM346 743l102 154h59l-117 -154h-44z" />
    <glyph glyph-name="ohungarumlaut" unicode="&#x151;" horiz-adv-x="579" 
d="M273 -9q-70 0 -119.5 30.5t-75.5 82t-26 112.5q0 86 32.5 152t89.5 103.5t133 37.5q72 0 120.5 -30.5t74 -81t25.5 -112.5q0 -85 -32 -151.5t-89 -104.5t-133 -38zM275 34q43 0 80 17.5t64.5 51t42 79.5t14.5 101q0 54 -19.5 95t-57.5 64.5t-94 23.5q-43 0 -80.5 -17.5
t-64.5 -50.5t-42 -79t-15 -101q0 -53 20 -94.5t58.5 -65.5t93.5 -24zM385 583l121 158h60l-133 -158h-48zM227 583l121 158h60l-133 -158h-48z" />
    <glyph glyph-name="OE" unicode="&#x152;" horiz-adv-x="1055" 
d="M338 -10q-72 0 -130 33.5t-92.5 97.5t-35.5 154q-1 77 20.5 148t64.5 126.5t105 88t140 32.5q65 0 113.5 -25.5t77 -73t34.5 -112.5l47 201h410l-11 -46h-364l-59 -255h283l-11 -47h-283l-61 -266h381l-11 -46h-427l26 110q-40 -60 -94.5 -90t-122.5 -30zM343 37
q62 0 110 27t81.5 74t51.5 109t19 131q2 73 -20 128t-67.5 86t-113.5 31q-64 0 -114 -28.5t-85.5 -76.5t-54 -108.5t-18.5 -124.5q0 -79 27 -134t74 -84.5t110 -29.5z" />
    <glyph glyph-name="oe" unicode="&#x153;" horiz-adv-x="956" 
d="M268 -9q-70 0 -118.5 30t-72.5 81.5t-24 112.5q0 86 31 152t88.5 104t135.5 38q53 0 92 -19t65 -52.5t38 -77.5q29 67 82 108t129 41q60 0 103 -26t66 -70.5t23 -100.5q0 -16 -2.5 -33t-6.5 -34h-380q-1 -8 -1 -16v-16q0 -52 19.5 -92.5t56.5 -63.5t88 -23
q55 0 95.5 25.5t64.5 66.5l40 -26q-32 -48 -83.5 -78.5t-120.5 -30.5q-51 0 -90.5 18.5t-65 51.5t-38.5 76q-29 -68 -85 -107t-129 -39zM270 34q43 0 79.5 18t63.5 51t42 79t15 101q0 54 -19.5 95t-56 64.5t-88.5 23.5q-46 0 -83.5 -18t-64 -51t-41 -78.5t-14.5 -101.5
q0 -80 43 -131.5t124 -51.5zM524 288h331q1 7 1.5 12.5t0.5 11.5q0 43 -17 78t-49.5 55.5t-80.5 20.5q-51 0 -89.5 -24t-62.5 -64t-34 -90z" />
    <glyph glyph-name="Racute" unicode="&#x154;" horiz-adv-x="622" 
d="M43 0l153 660h210q91 0 142 -45.5t51 -125.5q0 -56 -25.5 -101t-71.5 -72t-108 -32l-26 -4h-222l9 46h209q62 0 103 22.5t60.5 59.5t19.5 82q0 58 -38.5 91t-111.5 33h-161l-143 -614h-50zM480 0l-116 294l51 5l119 -299h-54zM477 897h59l-116 -154h-44z" />
    <glyph glyph-name="racute" unicode="&#x155;" horiz-adv-x="365" 
d="M29 0l116 500h42l-23 -132l-8 7q17 40 44 70.5t63 47.5t77 17q17 0 31.5 -2.5t24.5 -9.5l-16 -46q-10 6 -23.5 9t-30.5 3q-44 0 -80.5 -22t-62.5 -62t-38 -95l-66 -285h-50zM374 741h60l-133 -158h-48z" />
    <glyph glyph-name="uni0156" unicode="&#x156;" horiz-adv-x="622" 
d="M43 0l153 660h210q91 0 142 -45.5t51 -125.5q0 -56 -25.5 -101t-71.5 -72t-108 -32l-26 -4h-222l9 46h209q62 0 103 22.5t60.5 59.5t19.5 82q0 58 -38.5 91t-111.5 33h-161l-143 -614h-50zM480 0l-116 294l51 5l119 -299h-54zM314 -72l-97 -161h-44l84 161h57z" />
    <glyph glyph-name="uni0157" unicode="&#x157;" horiz-adv-x="365" 
d="M29 0l116 500h42l-23 -132l-8 7q17 40 44 70.5t63 47.5t77 17q17 0 31.5 -2.5t24.5 -9.5l-16 -46q-10 6 -23.5 9t-30.5 3q-44 0 -80.5 -22t-62.5 -62t-38 -95l-66 -285h-50zM74 -72l-97 -161h-44l84 161h57z" />
    <glyph glyph-name="Rcaron" unicode="&#x158;" horiz-adv-x="622" 
d="M43 0l153 660h210q91 0 142 -45.5t51 -125.5q0 -56 -25.5 -101t-71.5 -72t-108 -32l-26 -4h-222l9 46h209q62 0 103 22.5t60.5 59.5t19.5 82q0 58 -38.5 91t-111.5 33h-161l-143 -614h-50zM480 0l-116 294l51 5l119 -299h-54zM380 743l-74 151h44l63 -117l115 117h52
l-144 -151h-56z" />
    <glyph glyph-name="rcaron" unicode="&#x159;" horiz-adv-x="365" 
d="M29 0l116 500h42l-23 -132l-8 7q17 40 44 70.5t63 47.5t77 17q17 0 31.5 -2.5t24.5 -9.5l-16 -46q-10 6 -23.5 9t-30.5 3q-44 0 -80.5 -22t-62.5 -62t-38 -95l-66 -285h-50zM255 583l-75 155h44l64 -121l120 121h50l-146 -155h-57z" />
    <glyph glyph-name="Sacute" unicode="&#x15a;" horiz-adv-x="619" 
d="M320 -8q-72 0 -131 23.5t-97.5 66.5t-54.5 104l50 24q12 -56 45.5 -94.5t83 -58t108.5 -19.5q53 0 93.5 17.5t64 48.5t23.5 72q0 44 -32 71.5t-92 43.5l-94 26q-50 15 -85.5 38.5t-53.5 56.5t-18 73q0 52 28 94t80 67t124 25q93 0 158 -40t89 -121l-50 -23
q-13 52 -42.5 82t-69.5 43t-88 13q-56 0 -96 -18t-61 -48t-21 -66q0 -44 31 -77.5t88 -49.5l98 -27q79 -22 118.5 -60.5t39.5 -94.5q0 -61 -32.5 -104t-86 -65.5t-117.5 -22.5zM470 897h59l-116 -154h-44z" />
    <glyph glyph-name="sacute" unicode="&#x15b;" horiz-adv-x="501" 
d="M244 -11q-60 0 -106 19t-75 53t-39 80l47 20q12 -61 56 -94.5t118 -33.5q64 0 99 29t35 74q0 32 -18 51t-59 31l-95 27q-58 16 -88 47t-30 76q0 42 23 73.5t64.5 50t96.5 18.5q72 0 125.5 -33t69.5 -101l-45 -21q-8 37 -29.5 62t-53.5 37t-71 12q-62 0 -96.5 -25.5
t-34.5 -67.5q0 -35 22.5 -54.5t59.5 -30.5l102 -29q52 -15 79 -44t27 -73q0 -46 -23.5 -80.5t-65 -53.5t-95.5 -19zM392 741h60l-133 -158h-48z" />
    <glyph glyph-name="Scircumflex" unicode="&#x15c;" horiz-adv-x="619" 
d="M320 -8q-72 0 -131 23.5t-97.5 66.5t-54.5 104l50 24q12 -56 45.5 -94.5t83 -58t108.5 -19.5q53 0 93.5 17.5t64 48.5t23.5 72q0 44 -32 71.5t-92 43.5l-94 26q-50 15 -85.5 38.5t-53.5 56.5t-18 73q0 52 28 94t80 67t124 25q93 0 158 -40t89 -121l-50 -23
q-13 52 -42.5 82t-69.5 43t-88 13q-56 0 -96 -18t-61 -48t-21 -66q0 -44 31 -77.5t88 -49.5l98 -27q79 -22 118.5 -60.5t39.5 -94.5q0 -61 -32.5 -104t-86 -65.5t-117.5 -22.5zM462 894l74 -151h-43l-63 117l-116 -117h-51l144 151h55z" />
    <glyph glyph-name="scircumflex" unicode="&#x15d;" horiz-adv-x="501" 
d="M244 -11q-60 0 -106 19t-75 53t-39 80l47 20q12 -61 56 -94.5t118 -33.5q64 0 99 29t35 74q0 32 -18 51t-59 31l-95 27q-58 16 -88 47t-30 76q0 42 23 73.5t64.5 50t96.5 18.5q72 0 125.5 -33t69.5 -101l-45 -21q-8 37 -29.5 62t-53.5 37t-71 12q-62 0 -96.5 -25.5
t-34.5 -67.5q0 -35 22.5 -54.5t59.5 -30.5l102 -29q52 -15 79 -44t27 -73q0 -46 -23.5 -80.5t-65 -53.5t-95.5 -19zM161 579l147 156h56l76 -156h-44l-65 121l-120 -121h-50z" />
    <glyph glyph-name="Scedilla" unicode="&#x15e;" horiz-adv-x="619" 
d="M320 -8q-72 0 -131 23.5t-97.5 66.5t-54.5 104l50 24q12 -56 45.5 -94.5t83 -58t108.5 -19.5q53 0 93.5 17.5t64 48.5t23.5 72q0 44 -32 71.5t-92 43.5l-94 26q-50 15 -85.5 38.5t-53.5 56.5t-18 73q0 52 28 94t80 67t124 25q93 0 158 -40t89 -121l-50 -23
q-13 52 -42.5 82t-69.5 43t-88 13q-56 0 -96 -18t-61 -48t-21 -66q0 -44 31 -77.5t88 -49.5l98 -27q79 -22 118.5 -60.5t39.5 -94.5q0 -61 -32.5 -104t-86 -65.5t-117.5 -22.5zM247 4l32 13q35 -19 55 -46t20 -65q0 -37 -16 -62.5t-42.5 -38.5t-58.5 -13q-36 0 -60 14
t-34 31l21 31q12 -17 30 -27t44 -10q34 0 55 21t21 55q0 31 -17 54t-50 43z" />
    <glyph glyph-name="scedilla" unicode="&#x15f;" horiz-adv-x="501" 
d="M244 -11q-60 0 -106 19t-75 53t-39 80l47 20q12 -61 56 -94.5t118 -33.5q64 0 99 29t35 74q0 32 -18 51t-59 31l-95 27q-58 16 -88 47t-30 76q0 42 23 73.5t64.5 50t96.5 18.5q72 0 125.5 -33t69.5 -101l-45 -21q-8 37 -29.5 62t-53.5 37t-71 12q-62 0 -96.5 -25.5
t-34.5 -67.5q0 -35 22.5 -54.5t59.5 -30.5l102 -29q52 -15 79 -44t27 -73q0 -46 -23.5 -80.5t-65 -53.5t-95.5 -19zM187 4l32 13q35 -19 55 -46t20 -65q0 -37 -16 -62.5t-42.5 -38.5t-58.5 -13q-36 0 -60 14t-34 31l21 31q12 -17 30 -27t44 -10q34 0 55 21t21 55
q0 31 -17 54t-50 43z" />
    <glyph glyph-name="Scaron" unicode="&#x160;" horiz-adv-x="619" 
d="M320 -8q-72 0 -131 23.5t-97.5 66.5t-54.5 104l50 24q12 -56 45.5 -94.5t83 -58t108.5 -19.5q53 0 93.5 17.5t64 48.5t23.5 72q0 44 -32 71.5t-92 43.5l-94 26q-50 15 -85.5 38.5t-53.5 56.5t-18 73q0 52 28 94t80 67t124 25q93 0 158 -40t89 -121l-50 -23
q-13 52 -42.5 82t-69.5 43t-88 13q-56 0 -96 -18t-61 -48t-21 -66q0 -44 31 -77.5t88 -49.5l98 -27q79 -22 118.5 -60.5t39.5 -94.5q0 -61 -32.5 -104t-86 -65.5t-117.5 -22.5zM373 743l-74 151h44l63 -117l115 117h52l-144 -151h-56z" />
    <glyph glyph-name="scaron" unicode="&#x161;" horiz-adv-x="501" 
d="M244 -11q-60 0 -106 19t-75 53t-39 80l47 20q12 -61 56 -94.5t118 -33.5q64 0 99 29t35 74q0 32 -18 51t-59 31l-95 27q-58 16 -88 47t-30 76q0 42 23 73.5t64.5 50t96.5 18.5q72 0 125.5 -33t69.5 -101l-45 -21q-8 37 -29.5 62t-53.5 37t-71 12q-62 0 -96.5 -25.5
t-34.5 -67.5q0 -35 22.5 -54.5t59.5 -30.5l102 -29q52 -15 79 -44t27 -73q0 -46 -23.5 -80.5t-65 -53.5t-95.5 -19zM273 583l-75 155h44l64 -121l120 121h50l-146 -155h-57z" />
    <glyph glyph-name="uni0162" unicode="&#x162;" horiz-adv-x="565" 
d="M188 -208q-36 0 -60 14t-34 31l21 31q12 -17 30 -27t44 -10q33 0 54.5 21t21.5 55q0 31 -17 54t-47 39l29 17q35 -19 55 -46t20 -65q0 -37 -16 -62.5t-42.5 -38.5t-58.5 -13zM638 660l-11 -46h-234l-142 -614h-50l142 614h-238l12 46h521z" />
    <glyph glyph-name="uni0163" unicode="&#x163;" horiz-adv-x="368" 
d="M212 -9q-47 0 -77 18.5t-41 53t-1 83.5l109 473l55 16l-115 -492q-12 -54 9.5 -81t67.5 -27q25 0 45 7t37 19l11 -41q-22 -15 -47 -22t-53 -7zM62 457l11 43h313l-11 -43h-313zM161 4l32 13q35 -19 55 -46t20 -65q0 -37 -16 -62.5t-42.5 -38.5t-58.5 -13q-36 0 -60 14
t-34 31l21 31q12 -17 30 -27t44 -10q34 0 55 21t21 55q0 31 -17 54t-50 43z" />
    <glyph glyph-name="Tcaron" unicode="&#x164;" horiz-adv-x="565" 
d="M638 660l-11 -46h-234l-142 -614h-50l142 614h-238l12 46h521zM369 743l-74 151h44l63 -117l115 117h52l-144 -151h-56z" />
    <glyph glyph-name="tcaron" unicode="&#x165;" horiz-adv-x="368" 
d="M433 767l-80 -197h-39l69 197h50zM212 -9q-47 0 -77 18.5t-41 53t-1 83.5l109 473l55 16l-115 -492q-12 -54 9.5 -81t67.5 -27q25 0 45 7t37 19l11 -41q-22 -15 -47 -22t-53 -7zM62 457l11 43h313l-11 -43h-313z" />
    <glyph glyph-name="Tbar" unicode="&#x166;" horiz-adv-x="565" 
d="M638 660l-11 -46h-234l-142 -614h-50l142 614h-238l12 46h521zM494 353l-10 -46h-373l11 46h372z" />
    <glyph glyph-name="tbar" unicode="&#x167;" horiz-adv-x="368" 
d="M358 348l-9 -39h-317l9 39h317zM212 -9q-47 0 -77 18.5t-41 53t-1 83.5l109 473l55 16l-115 -492q-12 -54 9.5 -81t67.5 -27q25 0 45 7t37 19l11 -41q-22 -15 -47 -22t-53 -7zM62 457l11 43h313l-11 -43h-313z" />
    <glyph glyph-name="Utilde" unicode="&#x168;" horiz-adv-x="676" 
d="M317 -10q-87 0 -144.5 35t-78 100.5t-0.5 155.5l89 379h50l-90 -391q-18 -75 0 -127t63.5 -79t112.5 -27q90 0 143 57t76 156l95 411h50l-98 -425q-27 -113 -92.5 -179t-175.5 -66zM626 832q-12 -55 -41 -82.5t-65 -27.5q-25 0 -41.5 10.5t-29.5 24t-26 24t-31 10.5
q-23 0 -38 -19t-26 -51h-40q12 55 41 82.5t67 27.5q26 0 42.5 -10.5t29 -24t25.5 -24t31 -10.5q20 0 36 18.5t26 51.5h40z" />
    <glyph glyph-name="utilde" unicode="&#x169;" horiz-adv-x="581" 
d="M228 -9q-60 0 -101.5 25t-57.5 73t-1 115l69 296h50l-68 -296q-20 -82 14.5 -125.5t105.5 -43.5q53 0 93 23t66.5 65t38.5 96l65 281h50l-116 -500h-44l25 125l8 -3q-23 -61 -75 -96t-122 -35zM535 686q-12 -55 -41 -82.5t-65 -27.5q-25 0 -41.5 10.5t-29.5 24t-26 24
t-31 10.5q-23 0 -38 -19t-26 -51h-40q12 55 41 82.5t67 27.5q26 0 42.5 -10.5t29 -24t25.5 -24t31 -10.5q20 0 36 18.5t26 51.5h40z" />
    <glyph glyph-name="Umacron" unicode="&#x16a;" horiz-adv-x="676" 
d="M317 -10q-87 0 -144.5 35t-78 100.5t-0.5 155.5l89 379h50l-90 -391q-18 -75 0 -127t63.5 -79t112.5 -27q90 0 143 57t76 156l95 411h50l-98 -425q-27 -113 -92.5 -179t-175.5 -66zM598 773l-9 -42h-293l10 42h292z" />
    <glyph glyph-name="umacron" unicode="&#x16b;" horiz-adv-x="581" 
d="M228 -9q-60 0 -101.5 25t-57.5 73t-1 115l69 296h50l-68 -296q-20 -82 14.5 -125.5t105.5 -43.5q53 0 93 23t66.5 65t38.5 96l65 281h50l-116 -500h-44l25 125l8 -3q-23 -61 -75 -96t-122 -35zM507 627l-9 -42h-293l10 42h292z" />
    <glyph glyph-name="Ubreve" unicode="&#x16c;" horiz-adv-x="676" 
d="M317 -10q-87 0 -144.5 35t-78 100.5t-0.5 155.5l89 379h50l-90 -391q-18 -75 0 -127t63.5 -79t112.5 -27q90 0 143 57t76 156l95 411h50l-98 -425q-27 -113 -92.5 -179t-175.5 -66zM606 845q-11 -65 -53.5 -100t-103.5 -35q-55 0 -86.5 29t-31.5 74q0 8 1 16.5t2 15.5h38
q-1 -5 -1.5 -11.5t-0.5 -11.5q0 -34 23 -54t60 -20q43 0 73.5 25t38.5 72h41z" />
    <glyph glyph-name="ubreve" unicode="&#x16d;" horiz-adv-x="581" 
d="M228 -9q-60 0 -101.5 25t-57.5 73t-1 115l69 296h50l-68 -296q-20 -82 14.5 -125.5t105.5 -43.5q53 0 93 23t66.5 65t38.5 96l65 281h50l-116 -500h-44l25 125l8 -3q-23 -61 -75 -96t-122 -35zM516 699q-11 -65 -53.5 -100t-103.5 -35q-55 0 -86.5 29t-31.5 74
q0 8 1 16.5t2 15.5h38q-1 -5 -1.5 -11.5t-0.5 -11.5q0 -34 23 -54t60 -20q43 0 73.5 25t38.5 72h41z" />
    <glyph glyph-name="Uring" unicode="&#x16e;" horiz-adv-x="676" 
d="M317 -10q-87 0 -144.5 35t-78 100.5t-0.5 155.5l89 379h50l-90 -391q-18 -75 0 -127t63.5 -79t112.5 -27q90 0 143 57t76 156l95 411h50l-98 -425q-27 -113 -92.5 -179t-175.5 -66zM452 879q44 0 71.5 -26t27.5 -65q0 -48 -30.5 -78.5t-76.5 -30.5q-44 0 -72 26.5
t-28 64.5q0 48 31 78.5t77 30.5zM452 846q-31 0 -51 -20.5t-20 -52.5q0 -27 18.5 -44t45.5 -17q29 0 49.5 19.5t20.5 53.5q0 27 -17 44t-46 17z" />
    <glyph glyph-name="uring" unicode="&#x16f;" horiz-adv-x="581" 
d="M228 -9q-60 0 -101.5 25t-57.5 73t-1 115l69 296h50l-68 -296q-20 -82 14.5 -125.5t105.5 -43.5q53 0 93 23t66.5 65t38.5 96l65 281h50l-116 -500h-44l25 125l8 -3q-23 -61 -75 -96t-122 -35zM372 761q44 0 71.5 -26t27.5 -65q0 -48 -30.5 -78.5t-76.5 -30.5
q-44 0 -72 26.5t-28 64.5q0 48 31 78.5t77 30.5zM372 728q-31 0 -51 -20.5t-20 -52.5q0 -27 18.5 -44t45.5 -17q29 0 49.5 19.5t20.5 53.5q0 27 -17 44t-46 17z" />
    <glyph glyph-name="Uhungarumlaut" unicode="&#x170;" horiz-adv-x="676" 
d="M317 -10q-87 0 -144.5 35t-78 100.5t-0.5 155.5l89 379h50l-90 -391q-18 -75 0 -127t63.5 -79t112.5 -27q90 0 143 57t76 156l95 411h50l-98 -425q-27 -113 -92.5 -179t-175.5 -66zM492 714l101 154h59l-116 -154h-44zM342 714l102 154h59l-117 -154h-44z" />
    <glyph glyph-name="uhungarumlaut" unicode="&#x171;" horiz-adv-x="581" 
d="M228 -9q-60 0 -101.5 25t-57.5 73t-1 115l69 296h50l-68 -296q-20 -82 14.5 -125.5t105.5 -43.5q53 0 93 23t66.5 65t38.5 96l65 281h50l-116 -500h-44l25 125l8 -3q-23 -61 -75 -96t-122 -35zM401 568l121 158h60l-133 -158h-48zM243 568l121 158h60l-133 -158h-48z" />
    <glyph glyph-name="Uogonek" unicode="&#x172;" horiz-adv-x="676" 
d="M317 -10q-87 0 -144.5 35t-78 100.5t-0.5 155.5l89 379h50l-90 -391q-18 -75 0 -127t63.5 -79t112.5 -27q90 0 143 57t76 156l95 411h50l-98 -425q-27 -113 -92.5 -179t-175.5 -66zM287 -215q-26 0 -48 9.5t-34.5 28.5t-12.5 48q0 32 17 58t51.5 47.5t85.5 39.5l25 -19
q-37 -14 -68.5 -32t-51 -40t-19.5 -50t19 -40.5t43 -12.5q13 0 24 2.5t21 6.5l-4 -37q-9 -4 -21.5 -6.5t-26.5 -2.5z" />
    <glyph glyph-name="uogonek" unicode="&#x173;" horiz-adv-x="581" 
d="M357 -212q-24 0 -44.5 8.5t-33.5 26t-13 45.5q0 30 16.5 56.5t49 50t79.5 44.5l25 -19q-62 -32 -96 -62t-34 -65q0 -27 18 -37.5t40 -10.5q15 0 24 2.5t19 6.5l-4 -37q-9 -4 -19.5 -6.5t-26.5 -2.5zM228 -9q-60 0 -101.5 25t-57.5 73t-1 115l69 296h50l-68 -296
q-20 -82 14.5 -125.5t105.5 -43.5q53 0 93 23t66.5 65t38.5 96l65 281h50l-116 -500h-44l25 125l8 -3q-23 -61 -75 -96t-122 -35z" />
    <glyph glyph-name="Wcircumflex" unicode="&#x174;" horiz-adv-x="917" 
d="M172 0l-49 660h49l42 -607l303 607h63l27 -610l323 610h54l-355 -660h-64l-24 468l-4 139h-1l-68 -144l-235 -463h-61zM630 894l74 -151h-43l-63 117l-116 -117h-51l144 151h55z" />
    <glyph glyph-name="wcircumflex" unicode="&#x175;" horiz-adv-x="784" 
d="M131 0l-50 500h48l41 -436l246 436h50l57 -438l238 438h54l-278 -500h-50l-59 433l-246 -433h-51zM313 579l147 156h56l76 -156h-44l-65 121l-120 -121h-50z" />
    <glyph glyph-name="Ycircumflex" unicode="&#x176;" horiz-adv-x="534" 
d="M184 0l59 257l-133 403h54l75 -235l37 -121l99 130l179 226h60l-321 -407l-59 -253h-50zM428 865l74 -151h-43l-63 117l-116 -117h-51l144 151h55z" />
    <glyph glyph-name="ycircumflex" unicode="&#x177;" horiz-adv-x="489" 
d="M-8 -215q-33 0 -56.5 8.5t-36.5 24.5l22 40q27 -29 70 -29q35 0 63.5 21t58.5 69l52 83l-89 498h49l63 -360l13 -85l50 84l225 361h58l-381 -599q-26 -42 -52 -67.5t-52.5 -37t-56.5 -11.5zM171 564l147 156h56l76 -156h-44l-65 121l-120 -121h-50z" />
    <glyph glyph-name="Ydieresis" unicode="&#x178;" horiz-adv-x="534" 
d="M184 0l59 257l-133 403h54l75 -235l37 -121l99 130l179 226h60l-321 -407l-59 -253h-50zM465 721q-16 0 -26 10t-10 25q0 21 12.5 33.5t30.5 12.5q17 0 26.5 -10.5t9.5 -25.5q0 -20 -12.5 -32.5t-30.5 -12.5zM275 721q-15 0 -25 10t-10 25q0 21 12 33.5t31 12.5
q16 0 26 -10.5t10 -25.5q0 -20 -12.5 -32.5t-31.5 -12.5z" />
    <glyph glyph-name="Zacute" unicode="&#x179;" horiz-adv-x="568" 
d="M-15 0l10 45l537 569h-406l11 46h470l-11 -45l-538 -569h433l-11 -46h-495zM452 897h59l-116 -154h-44z" />
    <glyph glyph-name="zacute" unicode="&#x17a;" horiz-adv-x="490" 
d="M-8 0l9 41l374 369l51 48l-77 -1h-256l10 43h392l-9 -43l-349 -344l-75 -70h95h251l-10 -43h-406zM392 741h60l-133 -158h-48z" />
    <glyph glyph-name="Zdotaccent" unicode="&#x17b;" horiz-adv-x="568" 
d="M-15 0l10 45l537 569h-406l11 46h470l-11 -45l-538 -569h433l-11 -46h-495zM393 757q-17 0 -27.5 10.5t-10.5 26.5q0 21 12.5 34t31.5 13q17 0 27.5 -10t10.5 -27q0 -21 -13 -34t-31 -13z" />
    <glyph glyph-name="zdotaccent" unicode="&#x17c;" horiz-adv-x="490" 
d="M-8 0l9 41l374 369l51 48l-77 -1h-256l10 43h392l-9 -43l-349 -344l-75 -70h95h251l-10 -43h-406zM313 597q-17 0 -27.5 10.5t-10.5 26.5q0 21 12.5 34t31.5 13q17 0 27.5 -10t10.5 -27q0 -21 -13 -34t-31 -13z" />
    <glyph glyph-name="Zcaron" unicode="&#x17d;" horiz-adv-x="568" 
d="M-15 0l10 45l537 569h-406l11 46h470l-11 -45l-538 -569h433l-11 -46h-495zM355 743l-74 151h44l63 -117l115 117h52l-144 -151h-56z" />
    <glyph glyph-name="zcaron" unicode="&#x17e;" horiz-adv-x="490" 
d="M-8 0l9 41l374 369l51 48l-77 -1h-256l10 43h392l-9 -43l-349 -344l-75 -70h95h251l-10 -43h-406zM273 583l-75 155h44l64 -121l120 121h50l-146 -155h-57z" />
    <glyph glyph-name="longs" unicode="&#x17f;" horiz-adv-x="233" 
d="M25 0l136 590q11 45 31 77t50.5 50t72.5 18q25 0 41 -5.5t25 -15.5l-20 -41q-19 17 -46 17q-39 0 -66 -26.5t-40 -81.5l-134 -582h-50z" />
    <glyph glyph-name="uni018F" unicode="&#x18f;" horiz-adv-x="707" 
d="M331 -10q-82 0 -139.5 36t-87 98.5t-29.5 140.5q0 18 2 37t5 38h527q1 10 1.5 19t0.5 18q0 80 -28 134.5t-77 83t-114 28.5q-76 0 -135 -33t-92 -96l-42 25q37 73 109 112t166 39q74 0 133.5 -32.5t95 -95.5t36.5 -154q1 -78 -19.5 -149.5t-62 -127.5t-104 -88.5
t-146.5 -32.5zM336 37q79 0 134 34.5t88 92.5t45 127h-475q-4 -74 18.5 -131.5t71 -90t118.5 -32.5z" />
    <glyph glyph-name="florin" unicode="&#x192;" horiz-adv-x="446" 
d="M476 735q24 0 41.5 -4t34.5 -15l-18 -45q-12 10 -25.5 14.5t-31.5 4.5q-41 0 -72 -26t-52 -80l-218 -565q-29 -73 -72.5 -110t-98.5 -37q-25 0 -43.5 4.5t-35.5 16.5l19 43q24 -19 64 -19q39 0 67.5 26.5t48.5 79.5l220 565q28 74 70 110.5t102 36.5zM440 400l-10 -43
h-364l10 43h364z" />
    <glyph glyph-name="Ohorn" unicode="&#x1a0;" horiz-adv-x="728" 
d="M522 630l-40 32q51 -8 86 -2t56 21.5t32 38t15 48.5h50q-7 -49 -32.5 -84.5t-67.5 -50.5t-99 -3zM352 -10q-74 0 -136 33.5t-99 98.5t-37 158q0 77 21.5 147t64 124.5t105.5 86.5t145 32q74 0 135 -34t97.5 -98.5t36.5 -157.5q0 -76 -21.5 -146t-63.5 -125t-104 -87
t-144 -32zM357 37q68 0 119.5 28.5t86 76.5t52.5 109t18 126q0 79 -29.5 133.5t-79.5 83.5t-114 29q-68 0 -120 -28.5t-87 -76.5t-53 -108.5t-18 -126.5q0 -79 29.5 -133.5t80.5 -83.5t115 -29z" />
    <glyph glyph-name="ohorn" unicode="&#x1a1;" horiz-adv-x="579" 
d="M388 471l-16 30q48 -9 78 3.5t46 41.5t23 67h45q-8 -56 -33 -92t-62 -48.5t-81 -1.5zM273 -9q-70 0 -119.5 30.5t-75.5 82t-26 112.5q0 86 32.5 152t89.5 103.5t133 37.5q72 0 120.5 -30.5t74 -81t25.5 -112.5q0 -85 -32 -151.5t-89 -104.5t-133 -38zM275 34
q43 0 80 17.5t64.5 51t42 79.5t14.5 101q0 54 -19.5 95t-57.5 64.5t-94 23.5q-43 0 -80.5 -17.5t-64.5 -50.5t-42 -79t-15 -101q0 -53 20 -94.5t58.5 -65.5t93.5 -24z" />
    <glyph glyph-name="Uhorn" unicode="&#x1af;" horiz-adv-x="676" 
d="M317 -10q-87 0 -144.5 35t-78 100.5t-0.5 155.5l89 379h50l-90 -391q-18 -75 0 -127t63.5 -79t112.5 -27q90 0 143 57t76 156l95 411h50l-98 -425q-27 -113 -92.5 -179t-175.5 -66zM634 627l7 33q37 0 64 27t37 81h50q-8 -52 -31 -85t-56 -47t-71 -9z" />
    <glyph glyph-name="uhorn" unicode="&#x1b0;" horiz-adv-x="586" 
d="M228 -9q-60 0 -101.5 25t-57.5 73t-1 115l69 296h50l-68 -296q-20 -82 14.5 -125.5t105.5 -43.5q53 0 93 23t66.5 65t38.5 96l65 281h50l-116 -500h-44l25 125l8 -3q-23 -61 -75 -96t-122 -35zM529 470l-14 30q41 0 68 28.5t38 84.5h43q-6 -52 -26.5 -83.5t-48.5 -45.5
t-60 -14z" />
    <glyph glyph-name="uni01C4" unicode="&#x1c4;" horiz-adv-x="1249" 
d="M46 0l153 660h192q85 0 144 -35t90 -96t31 -139q0 -83 -25.5 -154t-74 -124t-116.5 -82.5t-151 -29.5h-243zM107 46h188q71 0 128 26.5t97 73t61.5 107.5t21.5 130q0 66 -24 118t-72.5 82.5t-122.5 30.5h-146zM666 0l10 45l537 569h-406l11 46h470l-11 -45l-538 -569h433
l-11 -46h-495zM1035 743l-74 151h44l63 -117l115 117h52l-144 -151h-56z" />
    <glyph glyph-name="uni01C5" unicode="&#x1c5;" horiz-adv-x="1183" 
d="M46 0l153 660h192q85 0 144 -35t90 -96t31 -139q0 -83 -25.5 -154t-74 -124t-116.5 -82.5t-151 -29.5h-243zM107 46h188q71 0 128 26.5t97 73t61.5 107.5t21.5 130q0 66 -24 118t-72.5 82.5t-122.5 30.5h-146zM685 0l9 41l374 369l51 48l-77 -1h-256l10 43h392l-9 -43
l-349 -344l-75 -70h95h251l-10 -43h-406zM966 583l-75 155h44l64 -121l120 121h50l-146 -155h-57z" />
    <glyph glyph-name="uni01C6" unicode="&#x1c6;" horiz-adv-x="1090" 
d="M252 -9q-61 0 -106 28.5t-69.5 79t-24.5 115.5q0 62 18 115.5t52 94t81 63.5t104 23q52 0 91 -19t62 -54.5t27 -85.5l87 379h50l-169 -730h-44l22 108q-25 -51 -71.5 -84t-109.5 -33zM264 34q44 0 81 21.5t63.5 59t41.5 84.5t15 98q0 57 -21 94.5t-56 56.5t-79 19
q-46 0 -84 -19t-66 -53t-43 -80t-15 -101q0 -57 20.5 -97.5t57.5 -61.5t85 -21zM592 0l9 41l374 369l51 48l-77 -1h-256l10 43h392l-9 -43l-349 -344l-75 -70h95h251l-10 -43h-406zM873 583l-75 155h44l64 -121l120 121h50l-146 -155h-57z" />
    <glyph glyph-name="uni01C7" unicode="&#x1c7;" horiz-adv-x="1079" 
d="M104 46h388l-11 -46h-438l153 660h50zM758 -9q-50 0 -88 17.5t-59.5 50t-25.5 76t13 95.5l48 3q-18 -59 -11 -103.5t39.5 -69t87.5 -24.5q70 0 109 40.5t59 132.5l104 451h50l-107 -462q-14 -65 -41.5 -111t-70.5 -71t-107 -25z" />
    <glyph glyph-name="uni01C8" unicode="&#x1c8;" horiz-adv-x="783" 
d="M104 46h388l-11 -46h-438l153 660h50zM759 597q-17 0 -27.5 10.5t-10.5 26.5q0 22 13 34.5t31 12.5q17 0 27.5 -10.5t10.5 -26.5q0 -21 -12.5 -34t-31.5 -13zM475 -215q-25 0 -48 7t-37 20l19 45q13 -10 29.5 -16.5t33.5 -6.5q39 0 64 24.5t38 80.5l131 561h50l-133 -576
q-16 -68 -54.5 -103.5t-92.5 -35.5z" />
    <glyph glyph-name="uni01C9" unicode="&#x1c9;" horiz-adv-x="492" 
d="M143 -8q-59 0 -81 37.5t-7 102.5l139 598h50l-140 -601q-11 -48 3 -70.5t54 -22.5q17 0 28.5 1.5t21.5 4.5l-12 -40q-12 -5 -25.5 -7.5t-30.5 -2.5zM468 597q-17 0 -27.5 10.5t-10.5 26.5q0 22 13 34.5t31 12.5q17 0 27.5 -10.5t10.5 -26.5q0 -21 -12.5 -34t-31.5 -13z
M184 -215q-25 0 -48 7t-37 20l19 45q13 -10 29.5 -16.5t33.5 -6.5q39 0 64 24.5t38 80.5l131 561h50l-133 -576q-16 -68 -54.5 -103.5t-92.5 -35.5z" />
    <glyph glyph-name="uni01CA" unicode="&#x1ca;" horiz-adv-x="1219" 
d="M43 0l153 660h61l220 -517l31 -89h1l16 83l122 523h47l-153 -660h-60l-221 518l-30 88h-1l-17 -83l-121 -523h-48zM898 -9q-50 0 -88 17.5t-59.5 50t-25.5 76t13 95.5l48 3q-18 -59 -11 -103.5t39.5 -69t87.5 -24.5q70 0 109 40.5t59 132.5l104 451h50l-107 -462
q-14 -65 -41.5 -111t-70.5 -71t-107 -25z" />
    <glyph glyph-name="uni01CB" unicode="&#x1cb;" horiz-adv-x="923" 
d="M43 0l153 660h61l220 -517l31 -89h1l16 83l122 523h47l-153 -660h-60l-221 518l-30 88h-1l-17 -83l-121 -523h-48zM899 597q-17 0 -27.5 10.5t-10.5 26.5q0 22 13 34.5t31 12.5q17 0 27.5 -10.5t10.5 -26.5q0 -21 -12.5 -34t-31.5 -13zM615 -215q-25 0 -48 7t-37 20
l19 45q13 -10 29.5 -16.5t33.5 -6.5q39 0 64 24.5t38 80.5l131 561h50l-133 -576q-16 -68 -54.5 -103.5t-92.5 -35.5z" />
    <glyph glyph-name="uni01CC" unicode="&#x1cc;" horiz-adv-x="805" 
d="M29 0l116 500h44l-25 -125l-7 3q21 61 75.5 96.5t128.5 35.5q59 0 98.5 -25.5t55 -73t0.5 -113.5l-69 -298h-50l68 297q19 81 -14 125t-102 44q-55 0 -96 -23.5t-68 -65t-40 -96.5l-65 -281h-50zM780 597q-17 0 -27.5 10.5t-10.5 26.5q0 22 13 34.5t31 12.5
q17 0 27.5 -10.5t10.5 -26.5q0 -21 -12.5 -34t-31.5 -13zM496 -215q-25 0 -48 7t-37 20l19 45q13 -10 29.5 -16.5t33.5 -6.5q39 0 64 24.5t38 80.5l131 561h50l-133 -576q-16 -68 -54.5 -103.5t-92.5 -35.5z" />
    <glyph glyph-name="Gcaron" unicode="&#x1e6;" horiz-adv-x="699" 
d="M343 -8q-72 0 -132 33t-96 96.5t-36 153.5q0 77 22 148t65.5 126.5t108 88t149.5 32.5q59 0 109 -18.5t87 -57t57 -100.5l-50 -17q-25 76 -78.5 111.5t-127.5 35.5q-71 0 -125 -29t-91 -78t-55.5 -110t-18.5 -125q0 -77 29 -131.5t79 -83.5t113 -29q56 0 102.5 20.5
t79.5 62.5t48 107l9 42h-220l11 47h265l-75 -317h-41l35 157l8 1q-18 -59 -52 -95.5t-79.5 -53.5t-99.5 -17zM425 743l-74 151h44l63 -117l115 117h52l-144 -151h-56z" />
    <glyph glyph-name="gcaron" unicode="&#x1e7;" horiz-adv-x="599" 
d="M211 -215q-42 0 -79 11.5t-65.5 32.5t-47 51t-25.5 68l49 17q13 -66 56.5 -101t116.5 -35q45 0 82.5 16t65 54t41.5 103l32 138l5 -5q-21 -55 -71.5 -89.5t-117.5 -34.5q-58 0 -104 27.5t-72 77t-26 114.5q0 59 17.5 110t50.5 89t79 59.5t103 21.5q62 0 104.5 -27.5
t63.5 -75t15 -107.5l-10 1l46 199h50l-118 -506q-17 -74 -51 -120t-81.5 -67.5t-108.5 -21.5zM265 54q60 0 104 33t67.5 87.5t23.5 119.5q0 57 -20.5 95.5t-56.5 58t-80 19.5q-62 0 -107.5 -32t-70 -85.5t-24.5 -119.5q0 -81 44.5 -128.5t119.5 -47.5zM307 583l-75 155h44
l64 -121l120 121h50l-146 -155h-57z" />
    <glyph glyph-name="uni01EA" unicode="&#x1ea;" horiz-adv-x="728" 
d="M352 -10q-74 0 -136 33.5t-99 98.5t-37 158q0 77 21.5 147t64 124.5t105.5 86.5t145 32q74 0 135 -34t97.5 -98.5t36.5 -157.5q0 -76 -21.5 -146t-63.5 -125t-104 -87t-144 -32zM357 37q68 0 119.5 28.5t86 76.5t52.5 109t18 126q0 79 -29.5 133.5t-79.5 83.5t-114 29
q-68 0 -120 -28.5t-87 -76.5t-53 -108.5t-18 -126.5q0 -79 29.5 -133.5t80.5 -83.5t115 -29zM340 -214q-26 0 -48 9.5t-34.5 28.5t-12.5 48q0 32 17 58t51.5 47.5t85.5 39.5l25 -19q-37 -14 -68.5 -32t-51 -40t-19.5 -50t19 -40.5t43 -12.5q13 0 24 2.5t21 6.5l-4 -37
q-9 -4 -21.5 -6.5t-26.5 -2.5z" />
    <glyph glyph-name="uni01EB" unicode="&#x1eb;" horiz-adv-x="579" 
d="M273 -9q-70 0 -119.5 30.5t-75.5 82t-26 112.5q0 86 32.5 152t89.5 103.5t133 37.5q72 0 120.5 -30.5t74 -81t25.5 -112.5q0 -85 -32 -151.5t-89 -104.5t-133 -38zM275 34q43 0 80 17.5t64.5 51t42 79.5t14.5 101q0 54 -19.5 95t-57.5 64.5t-94 23.5q-43 0 -80.5 -17.5
t-64.5 -50.5t-42 -79t-15 -101q0 -53 20 -94.5t58.5 -65.5t93.5 -24zM258 -211q-26 0 -48 9.5t-34.5 28.5t-12.5 48q0 32 17 58t51.5 47.5t85.5 39.5l25 -19q-37 -14 -68.5 -32t-51 -40t-19.5 -50t19 -40.5t43 -12.5q13 0 24 2.5t21 6.5l-4 -37q-9 -4 -21.5 -6.5t-26.5 -2.5
z" />
    <glyph glyph-name="uni01F1" unicode="&#x1f1;" horiz-adv-x="1249" 
d="M46 0l153 660h192q85 0 144 -35t90 -96t31 -139q0 -83 -25.5 -154t-74 -124t-116.5 -82.5t-151 -29.5h-243zM107 46h188q71 0 128 26.5t97 73t61.5 107.5t21.5 130q0 66 -24 118t-72.5 82.5t-122.5 30.5h-146zM666 0l10 45l537 569h-406l11 46h470l-11 -45l-538 -569h433
l-11 -46h-495z" />
    <glyph glyph-name="uni01F2" unicode="&#x1f2;" horiz-adv-x="1183" 
d="M46 0l153 660h192q85 0 144 -35t90 -96t31 -139q0 -83 -25.5 -154t-74 -124t-116.5 -82.5t-151 -29.5h-243zM107 46h188q71 0 128 26.5t97 73t61.5 107.5t21.5 130q0 66 -24 118t-72.5 82.5t-122.5 30.5h-146zM685 0l9 41l374 369l51 48l-77 -1h-256l10 43h392l-9 -43
l-349 -344l-75 -70h95h251l-10 -43h-406z" />
    <glyph glyph-name="uni01F3" unicode="&#x1f3;" horiz-adv-x="1090" 
d="M252 -9q-61 0 -106 28.5t-69.5 79t-24.5 115.5q0 62 18 115.5t52 94t81 63.5t104 23q52 0 91 -19t62 -54.5t27 -85.5l87 379h50l-169 -730h-44l22 108q-25 -51 -71.5 -84t-109.5 -33zM264 34q44 0 81 21.5t63.5 59t41.5 84.5t15 98q0 57 -21 94.5t-56 56.5t-79 19
q-46 0 -84 -19t-66 -53t-43 -80t-15 -101q0 -57 20.5 -97.5t57.5 -61.5t85 -21zM592 0l9 41l374 369l51 48l-77 -1h-256l10 43h392l-9 -43l-349 -344l-75 -70h95h251l-10 -43h-406z" />
    <glyph glyph-name="Aringacute" unicode="&#x1fa;" horiz-adv-x="611" 
d="M-40 0l409 660h63l103 -660h-49l-85 531l-11 75v0l-43 -72l-330 -534h-57zM123 211l11 46h344l-11 -46h-344zM412 827q44 0 71.5 -26t27.5 -65q0 -48 -30.5 -78.5t-76.5 -30.5q-44 0 -72 26.5t-28 64.5q0 48 31 78.5t77 30.5zM412 794q-31 0 -51 -20.5t-20 -52.5
q0 -27 18.5 -44t45.5 -17q29 0 49.5 19.5t20.5 53.5q0 27 -17 44t-46 17zM508 1042h59l-116 -154h-44z" />
    <glyph glyph-name="aringacute" unicode="&#x1fb;" 
d="M252 -9q-61 0 -106 28.5t-69.5 79t-24.5 115.5q0 62 18 115.5t52 94t81 63.5t104 23q53 0 91.5 -19.5t61.5 -54.5t27 -82l34 146h50l-116 -500h-44l22 108q-25 -51 -71.5 -84t-109.5 -33zM265 34q43 0 79.5 21.5t63.5 59t42 84.5t15 98q0 57 -21 94.5t-56 56.5t-79 19
q-46 0 -84 -19t-66 -53t-43 -80t-15 -101q0 -57 20.5 -97.5t57.5 -61.5t86 -21zM361 776q44 0 71.5 -26t27.5 -65q0 -48 -30.5 -78.5t-76.5 -30.5q-44 0 -72 26.5t-28 64.5q0 48 31 78.5t77 30.5zM361 743q-31 0 -51 -20.5t-20 -52.5q0 -27 18.5 -44t45.5 -17
q29 0 49.5 19.5t20.5 53.5q0 27 -17 44t-46 17zM354 812l88 133h53l-100 -133h-41z" />
    <glyph glyph-name="AEacute" unicode="&#x1fc;" horiz-adv-x="904" 
d="M-59 0l543 660h458l-11 -46h-361l-59 -256h281l-10 -46h-282l-61 -266h377l-12 -46h-426l54 232h-239l-189 -232h-63zM230 279h213l77 335h-14zM644 897h59l-116 -154h-44z" />
    <glyph glyph-name="aeacute" unicode="&#x1fd;" horiz-adv-x="867" 
d="M188 -10q-74 0 -115.5 35.5t-41.5 94.5q0 43 23.5 73.5t67 49t103.5 25.5l184 20l-2 -39l-163 -19q-78 -9 -119.5 -34t-41.5 -74q0 -43 29 -66t79 -23q74 0 119.5 41.5t64.5 130.5l23 105q3 11 4.5 22t1.5 19q0 55 -35.5 85t-93.5 30q-60 0 -97.5 -25t-63.5 -76l-37 25
q29 57 78 88t124 31q47 0 82.5 -16.5t55.5 -44.5t22 -65l-9 2q18 37 48.5 64.5t71 43.5t88.5 16q56 0 95.5 -25.5t61 -70t21.5 -101.5q0 -16 -2 -33t-7 -34h-383l5 43h337q2 6 2 12.5v11.5q0 44 -16.5 79t-46.5 55t-71 20q-50 0 -87.5 -20.5t-63 -56t-38.5 -81t-13 -95.5
t18.5 -91t54.5 -64.5t87 -23.5q55 0 95 25.5t64 66.5l39 -26q-21 -32 -50.5 -57t-67 -38.5t-84.5 -13.5q-61 0 -104 26.5t-66 69t-24 89.5l10 7q-10 -62 -40 -105t-74.5 -65.5t-101.5 -22.5zM560 741h60l-133 -158h-48z" />
    <glyph glyph-name="Oslashacute" unicode="&#x1fe;" horiz-adv-x="728" 
d="M190 83l-26 28l417 460l24 -29zM54 -12l110 123l26 -28l-86 -95h-50zM605 542l-24 29l93 103h50zM352 -10q-74 0 -136 33.5t-99 98.5t-37 158q0 77 21.5 147t64 124.5t105.5 86.5t145 32q74 0 135 -34t97.5 -98.5t36.5 -157.5q0 -76 -21.5 -146t-63.5 -125t-104 -87
t-144 -32zM357 37q68 0 119.5 28.5t86 76.5t52.5 109t18 126q0 79 -29.5 133.5t-79.5 83.5t-114 29q-68 0 -120 -28.5t-87 -76.5t-53 -108.5t-18 -126.5q0 -79 29.5 -133.5t80.5 -83.5t115 -29zM517 897h59l-116 -154h-44z" />
    <glyph glyph-name="oslashacute" unicode="&#x1ff;" horiz-adv-x="579" 
d="M273 -9q-70 0 -119.5 30.5t-75.5 82t-26 112.5q0 86 32.5 152t89.5 103.5t133 37.5q72 0 120.5 -30.5t74 -81t25.5 -112.5q0 -85 -32 -151.5t-89 -104.5t-133 -38zM275 34q43 0 80 17.5t64.5 51t42 79.5t14.5 101q0 54 -19.5 95t-57.5 64.5t-94 23.5q-43 0 -80.5 -17.5
t-64.5 -50.5t-42 -79t-15 -101q0 -53 20 -94.5t58.5 -65.5t93.5 -24zM-1 -26l530 553h48l-530 -553h-48zM426 741h60l-133 -158h-48z" />
    <glyph glyph-name="uni0200" unicode="&#x200;" horiz-adv-x="611" 
d="M-40 0l409 660h63l103 -660h-49l-85 531l-11 75v0l-43 -72l-330 -534h-57zM123 211l11 46h344l-11 -46h-344zM320 897l40 -154h-36l-56 154h52zM457 897l40 -154h-36l-56 154h52z" />
    <glyph glyph-name="uni0201" unicode="&#x201;" 
d="M252 -9q-61 0 -106 28.5t-69.5 79t-24.5 115.5q0 62 18 115.5t52 94t81 63.5t104 23q53 0 91.5 -19.5t61.5 -54.5t27 -82l34 146h50l-116 -500h-44l22 108q-25 -51 -71.5 -84t-109.5 -33zM265 34q43 0 79.5 21.5t63.5 59t42 84.5t15 98q0 57 -21 94.5t-56 56.5t-79 19
q-46 0 -84 -19t-66 -53t-43 -80t-15 -101q0 -57 20.5 -97.5t57.5 -61.5t86 -21zM241 740l49 -157h-39l-60 157h50zM387 740l49 -157h-39l-60 157h50z" />
    <glyph glyph-name="uni0202" unicode="&#x202;" horiz-adv-x="611" 
d="M-40 0l409 660h63l103 -660h-49l-85 531l-11 75v0l-43 -72l-330 -534h-57zM123 211l11 46h344l-11 -46h-344zM271 735q9 63 50.5 99t101.5 36q55 0 88.5 -30.5t33.5 -78.5q0 -6 -0.5 -12.5t-2.5 -13.5h-39q1 5 1.5 10.5t0.5 9.5q0 38 -25 57.5t-60 19.5q-47 0 -74 -27
t-34 -70h-41z" />
    <glyph glyph-name="uni0203" unicode="&#x203;" 
d="M252 -9q-61 0 -106 28.5t-69.5 79t-24.5 115.5q0 62 18 115.5t52 94t81 63.5t104 23q53 0 91.5 -19.5t61.5 -54.5t27 -82l34 146h50l-116 -500h-44l22 108q-25 -51 -71.5 -84t-109.5 -33zM265 34q43 0 79.5 21.5t63.5 59t42 84.5t15 98q0 57 -21 94.5t-56 56.5t-79 19
q-46 0 -84 -19t-66 -53t-43 -80t-15 -101q0 -57 20.5 -97.5t57.5 -61.5t86 -21zM199 575q9 63 50.5 99t101.5 36q55 0 88.5 -30.5t33.5 -78.5q0 -6 -0.5 -12.5t-2.5 -13.5h-39q1 5 1.5 10.5t0.5 9.5q0 38 -25 57.5t-60 19.5q-47 0 -74 -27t-34 -70h-41z" />
    <glyph glyph-name="uni0204" unicode="&#x204;" 
d="M43 0l153 660h441l-12 -46h-390l-59 -255h311l-11 -47h-310l-61 -266h407l-11 -46h-458zM334 897l40 -154h-36l-56 154h52zM471 897l40 -154h-36l-56 154h52z" />
    <glyph glyph-name="uni0205" unicode="&#x205;" horiz-adv-x="551" 
d="M269 -9q-69 0 -118 30t-74 81.5t-25 113.5q0 78 30 145t88 107.5t140 40.5q60 0 102.5 -26t65.5 -70.5t23 -101.5q0 -15 -2 -32t-7 -34h-414v43h391l-21 -16q2 10 3 20t1 20q0 44 -17 78.5t-49.5 55t-78.5 20.5q-51 0 -89.5 -20.5t-64.5 -56t-38.5 -80.5t-12.5 -94
q0 -53 21 -93.5t59.5 -64t90.5 -23.5q57 1 97.5 26.5t64.5 65.5l40 -26q-21 -32 -51.5 -57t-69 -38.5t-85.5 -13.5zM228 740l49 -157h-39l-60 157h50zM374 740l49 -157h-39l-60 157h50z" />
    <glyph glyph-name="uni0206" unicode="&#x206;" 
d="M43 0l153 660h441l-12 -46h-390l-59 -255h311l-11 -47h-310l-61 -266h407l-11 -46h-458zM285 735q9 63 50.5 99t101.5 36q55 0 88.5 -30.5t33.5 -78.5q0 -6 -0.5 -12.5t-2.5 -13.5h-39q1 5 1.5 10.5t0.5 9.5q0 38 -25 57.5t-60 19.5q-47 0 -74 -27t-34 -70h-41z" />
    <glyph glyph-name="uni0207" unicode="&#x207;" horiz-adv-x="551" 
d="M269 -9q-69 0 -118 30t-74 81.5t-25 113.5q0 78 30 145t88 107.5t140 40.5q60 0 102.5 -26t65.5 -70.5t23 -101.5q0 -15 -2 -32t-7 -34h-414v43h391l-21 -16q2 10 3 20t1 20q0 44 -17 78.5t-49.5 55t-78.5 20.5q-51 0 -89.5 -20.5t-64.5 -56t-38.5 -80.5t-12.5 -94
q0 -53 21 -93.5t59.5 -64t90.5 -23.5q57 1 97.5 26.5t64.5 65.5l40 -26q-21 -32 -51.5 -57t-69 -38.5t-85.5 -13.5zM186 575q9 63 50.5 99t101.5 36q55 0 88.5 -30.5t33.5 -78.5q0 -6 -0.5 -12.5t-2.5 -13.5h-39q1 5 1.5 10.5t0.5 9.5q0 38 -25 57.5t-60 19.5q-47 0 -74 -27
t-34 -70h-41z" />
    <glyph glyph-name="uni0208" unicode="&#x208;" horiz-adv-x="253" 
d="M246 660l-153 -660h-50l153 660h50zM146 897l40 -154h-36l-56 154h52zM283 897l40 -154h-36l-56 154h52z" />
    <glyph glyph-name="uni0209" unicode="&#x209;" horiz-adv-x="222" 
d="M194 500l-116 -500h-50l116 500h50zM87 740l49 -157h-39l-60 157h50zM233 740l49 -157h-39l-60 157h50z" />
    <glyph glyph-name="uni020A" unicode="&#x20a;" horiz-adv-x="253" 
d="M246 660l-153 -660h-50l153 660h50zM97 735q9 63 50.5 99t101.5 36q55 0 88.5 -30.5t33.5 -78.5q0 -6 -0.5 -12.5t-2.5 -13.5h-39q1 5 1.5 10.5t0.5 9.5q0 38 -25 57.5t-60 19.5q-47 0 -74 -27t-34 -70h-41z" />
    <glyph glyph-name="uni020B" unicode="&#x20b;" horiz-adv-x="222" 
d="M194 500l-116 -500h-50l116 500h50zM45 575q9 63 50.5 99t101.5 36q55 0 88.5 -30.5t33.5 -78.5q0 -6 -0.5 -12.5t-2.5 -13.5h-39q1 5 1.5 10.5t0.5 9.5q0 38 -25 57.5t-60 19.5q-47 0 -74 -27t-34 -70h-41z" />
    <glyph glyph-name="uni020C" unicode="&#x20c;" horiz-adv-x="728" 
d="M352 -10q-74 0 -136 33.5t-99 98.5t-37 158q0 77 21.5 147t64 124.5t105.5 86.5t145 32q74 0 135 -34t97.5 -98.5t36.5 -157.5q0 -76 -21.5 -146t-63.5 -125t-104 -87t-144 -32zM357 37q68 0 119.5 28.5t86 76.5t52.5 109t18 126q0 79 -29.5 133.5t-79.5 83.5t-114 29
q-68 0 -120 -28.5t-87 -76.5t-53 -108.5t-18 -126.5q0 -79 29.5 -133.5t80.5 -83.5t115 -29zM354 897l40 -154h-36l-56 154h52zM491 897l40 -154h-36l-56 154h52z" />
    <glyph glyph-name="uni020D" unicode="&#x20d;" horiz-adv-x="579" 
d="M273 -9q-70 0 -119.5 30.5t-75.5 82t-26 112.5q0 86 32.5 152t89.5 103.5t133 37.5q72 0 120.5 -30.5t74 -81t25.5 -112.5q0 -85 -32 -151.5t-89 -104.5t-133 -38zM275 34q43 0 80 17.5t64.5 51t42 79.5t14.5 101q0 54 -19.5 95t-57.5 64.5t-94 23.5q-43 0 -80.5 -17.5
t-64.5 -50.5t-42 -79t-15 -101q0 -53 20 -94.5t58.5 -65.5t93.5 -24zM236 740l49 -157h-39l-60 157h50zM382 740l49 -157h-39l-60 157h50z" />
    <glyph glyph-name="uni020E" unicode="&#x20e;" horiz-adv-x="728" 
d="M352 -10q-74 0 -136 33.5t-99 98.5t-37 158q0 77 21.5 147t64 124.5t105.5 86.5t145 32q74 0 135 -34t97.5 -98.5t36.5 -157.5q0 -76 -21.5 -146t-63.5 -125t-104 -87t-144 -32zM357 37q68 0 119.5 28.5t86 76.5t52.5 109t18 126q0 79 -29.5 133.5t-79.5 83.5t-114 29
q-68 0 -120 -28.5t-87 -76.5t-53 -108.5t-18 -126.5q0 -79 29.5 -133.5t80.5 -83.5t115 -29zM305 735q9 63 50.5 99t101.5 36q55 0 88.5 -30.5t33.5 -78.5q0 -6 -0.5 -12.5t-2.5 -13.5h-39q1 5 1.5 10.5t0.5 9.5q0 38 -25 57.5t-60 19.5q-47 0 -74 -27t-34 -70h-41z" />
    <glyph glyph-name="uni020F" unicode="&#x20f;" horiz-adv-x="579" 
d="M273 -9q-70 0 -119.5 30.5t-75.5 82t-26 112.5q0 86 32.5 152t89.5 103.5t133 37.5q72 0 120.5 -30.5t74 -81t25.5 -112.5q0 -85 -32 -151.5t-89 -104.5t-133 -38zM275 34q43 0 80 17.5t64.5 51t42 79.5t14.5 101q0 54 -19.5 95t-57.5 64.5t-94 23.5q-43 0 -80.5 -17.5
t-64.5 -50.5t-42 -79t-15 -101q0 -53 20 -94.5t58.5 -65.5t93.5 -24zM194 575q9 63 50.5 99t101.5 36q55 0 88.5 -30.5t33.5 -78.5q0 -6 -0.5 -12.5t-2.5 -13.5h-39q1 5 1.5 10.5t0.5 9.5q0 38 -25 57.5t-60 19.5q-47 0 -74 -27t-34 -70h-41z" />
    <glyph glyph-name="uni0210" unicode="&#x210;" horiz-adv-x="622" 
d="M43 0l153 660h210q91 0 142 -45.5t51 -125.5q0 -56 -25.5 -101t-71.5 -72t-108 -32l-26 -4h-222l9 46h209q62 0 103 22.5t60.5 59.5t19.5 82q0 58 -38.5 91t-111.5 33h-161l-143 -614h-50zM480 0l-116 294l51 5l119 -299h-54zM314 897l40 -154h-36l-56 154h52zM451 897
l40 -154h-36l-56 154h52z" />
    <glyph glyph-name="uni0211" unicode="&#x211;" horiz-adv-x="365" 
d="M29 0l116 500h42l-23 -132l-8 7q17 40 44 70.5t63 47.5t77 17q17 0 31.5 -2.5t24.5 -9.5l-16 -46q-10 6 -23.5 9t-30.5 3q-44 0 -80.5 -22t-62.5 -62t-38 -95l-66 -285h-50zM184 740l49 -157h-39l-60 157h50zM330 740l49 -157h-39l-60 157h50z" />
    <glyph glyph-name="uni0212" unicode="&#x212;" horiz-adv-x="622" 
d="M43 0l153 660h210q91 0 142 -45.5t51 -125.5q0 -56 -25.5 -101t-71.5 -72t-108 -32l-26 -4h-222l9 46h209q62 0 103 22.5t60.5 59.5t19.5 82q0 58 -38.5 91t-111.5 33h-161l-143 -614h-50zM480 0l-116 294l51 5l119 -299h-54zM265 735q9 63 50.5 99t101.5 36
q55 0 88.5 -30.5t33.5 -78.5q0 -6 -0.5 -12.5t-2.5 -13.5h-39q1 5 1.5 10.5t0.5 9.5q0 38 -25 57.5t-60 19.5q-47 0 -74 -27t-34 -70h-41z" />
    <glyph glyph-name="uni0213" unicode="&#x213;" horiz-adv-x="365" 
d="M29 0l116 500h42l-23 -132l-8 7q17 40 44 70.5t63 47.5t77 17q17 0 31.5 -2.5t24.5 -9.5l-16 -46q-10 6 -23.5 9t-30.5 3q-44 0 -80.5 -22t-62.5 -62t-38 -95l-66 -285h-50zM142 575q9 63 50.5 99t101.5 36q55 0 88.5 -30.5t33.5 -78.5q0 -6 -0.5 -12.5t-2.5 -13.5h-39
q1 5 1.5 10.5t0.5 9.5q0 38 -25 57.5t-60 19.5q-47 0 -74 -27t-34 -70h-41z" />
    <glyph glyph-name="uni0214" unicode="&#x214;" horiz-adv-x="676" 
d="M317 -10q-87 0 -144.5 35t-78 100.5t-0.5 155.5l89 379h50l-90 -391q-18 -75 0 -127t63.5 -79t112.5 -27q90 0 143 57t76 156l95 411h50l-98 -425q-27 -113 -92.5 -179t-175.5 -66zM350 868l40 -154h-36l-56 154h52zM487 868l40 -154h-36l-56 154h52z" />
    <glyph glyph-name="uni0215" unicode="&#x215;" horiz-adv-x="581" 
d="M228 -9q-60 0 -101.5 25t-57.5 73t-1 115l69 296h50l-68 -296q-20 -82 14.5 -125.5t105.5 -43.5q53 0 93 23t66.5 65t38.5 96l65 281h50l-116 -500h-44l25 125l8 -3q-23 -61 -75 -96t-122 -35zM252 725l49 -157h-39l-60 157h50zM398 725l49 -157h-39l-60 157h50z" />
    <glyph glyph-name="uni0216" unicode="&#x216;" horiz-adv-x="676" 
d="M317 -10q-87 0 -144.5 35t-78 100.5t-0.5 155.5l89 379h50l-90 -391q-18 -75 0 -127t63.5 -79t112.5 -27q90 0 143 57t76 156l95 411h50l-98 -425q-27 -113 -92.5 -179t-175.5 -66zM301 706q9 63 50.5 99t101.5 36q55 0 88.5 -30.5t33.5 -78.5q0 -6 -0.5 -12.5
t-2.5 -13.5h-39q1 5 1.5 10.5t0.5 9.5q0 38 -25 57.5t-60 19.5q-47 0 -74 -27t-34 -70h-41z" />
    <glyph glyph-name="uni0217" unicode="&#x217;" horiz-adv-x="581" 
d="M228 -9q-60 0 -101.5 25t-57.5 73t-1 115l69 296h50l-68 -296q-20 -82 14.5 -125.5t105.5 -43.5q53 0 93 23t66.5 65t38.5 96l65 281h50l-116 -500h-44l25 125l8 -3q-23 -61 -75 -96t-122 -35zM210 560q9 63 50.5 99t101.5 36q55 0 88.5 -30.5t33.5 -78.5
q0 -6 -0.5 -12.5t-2.5 -13.5h-39q1 5 1.5 10.5t0.5 9.5q0 38 -25 57.5t-60 19.5q-47 0 -74 -27t-34 -70h-41z" />
    <glyph glyph-name="uni0218" unicode="&#x218;" horiz-adv-x="619" 
d="M320 -8q-72 0 -131 23.5t-97.5 66.5t-54.5 104l50 24q12 -56 45.5 -94.5t83 -58t108.5 -19.5q53 0 93.5 17.5t64 48.5t23.5 72q0 44 -32 71.5t-92 43.5l-94 26q-50 15 -85.5 38.5t-53.5 56.5t-18 73q0 52 28 94t80 67t124 25q93 0 158 -40t89 -121l-50 -23
q-13 52 -42.5 82t-69.5 43t-88 13q-56 0 -96 -18t-61 -48t-21 -66q0 -44 31 -77.5t88 -49.5l98 -27q79 -22 118.5 -60.5t39.5 -94.5q0 -61 -32.5 -104t-86 -65.5t-117.5 -22.5zM292 -72l-97 -161h-44l84 161h57z" />
    <glyph glyph-name="uni0219" unicode="&#x219;" horiz-adv-x="501" 
d="M244 -11q-60 0 -106 19t-75 53t-39 80l47 20q12 -61 56 -94.5t118 -33.5q64 0 99 29t35 74q0 32 -18 51t-59 31l-95 27q-58 16 -88 47t-30 76q0 42 23 73.5t64.5 50t96.5 18.5q72 0 125.5 -33t69.5 -101l-45 -21q-8 37 -29.5 62t-53.5 37t-71 12q-62 0 -96.5 -25.5
t-34.5 -67.5q0 -35 22.5 -54.5t59.5 -30.5l102 -29q52 -15 79 -44t27 -73q0 -46 -23.5 -80.5t-65 -53.5t-95.5 -19zM232 -72l-97 -161h-44l84 161h57z" />
    <glyph glyph-name="uni021A" unicode="&#x21a;" horiz-adv-x="565" 
d="M638 660l-11 -46h-234l-142 -614h-50l142 614h-238l12 46h521zM247 -72l-97 -161h-44l84 161h57z" />
    <glyph glyph-name="uni021B" unicode="&#x21b;" horiz-adv-x="368" 
d="M212 -9q-47 0 -77 18.5t-41 53t-1 83.5l109 473l55 16l-115 -492q-12 -54 9.5 -81t67.5 -27q25 0 45 7t37 19l11 -41q-22 -15 -47 -22t-53 -7zM62 457l11 43h313l-11 -43h-313zM206 -72l-97 -161h-44l84 161h57z" />
    <glyph glyph-name="uni022A" unicode="&#x22a;" horiz-adv-x="728" 
d="M352 -10q-74 0 -136 33.5t-99 98.5t-37 158q0 77 21.5 147t64 124.5t105.5 86.5t145 32q74 0 135 -34t97.5 -98.5t36.5 -157.5q0 -76 -21.5 -146t-63.5 -125t-104 -87t-144 -32zM357 37q68 0 119.5 28.5t86 76.5t52.5 109t18 126q0 79 -29.5 133.5t-79.5 83.5t-114 29
q-68 0 -120 -28.5t-87 -76.5t-53 -108.5t-18 -126.5q0 -79 29.5 -133.5t80.5 -83.5t115 -29zM546 750q-16 0 -26 10t-10 25q0 21 12.5 33.5t30.5 12.5q17 0 26.5 -10.5t9.5 -25.5q0 -20 -12.5 -32.5t-30.5 -12.5zM356 750q-15 0 -25 10t-10 25q0 21 12 33.5t31 12.5
q16 0 26 -10.5t10 -25.5q0 -20 -12.5 -32.5t-31.5 -12.5zM636 956l-9 -42h-293l10 42h292z" />
    <glyph glyph-name="uni022B" unicode="&#x22b;" horiz-adv-x="579" 
d="M273 -9q-70 0 -119.5 30.5t-75.5 82t-26 112.5q0 86 32.5 152t89.5 103.5t133 37.5q72 0 120.5 -30.5t74 -81t25.5 -112.5q0 -85 -32 -151.5t-89 -104.5t-133 -38zM275 34q43 0 80 17.5t64.5 51t42 79.5t14.5 101q0 54 -19.5 95t-57.5 64.5t-94 23.5q-43 0 -80.5 -17.5
t-64.5 -50.5t-42 -79t-15 -101q0 -53 20 -94.5t58.5 -65.5t93.5 -24zM435 590q-16 0 -26 10t-10 25q0 21 12.5 33.5t30.5 12.5q17 0 26.5 -10.5t9.5 -25.5q0 -20 -12.5 -32.5t-30.5 -12.5zM245 590q-15 0 -25 10t-10 25q0 21 12 33.5t31 12.5q16 0 26 -10.5t10 -25.5
q0 -20 -12.5 -32.5t-31.5 -12.5zM525 796l-9 -42h-293l10 42h292z" />
    <glyph glyph-name="uni022C" unicode="&#x22c;" horiz-adv-x="728" 
d="M352 -10q-74 0 -136 33.5t-99 98.5t-37 158q0 77 21.5 147t64 124.5t105.5 86.5t145 32q74 0 135 -34t97.5 -98.5t36.5 -157.5q0 -76 -21.5 -146t-63.5 -125t-104 -87t-144 -32zM357 37q68 0 119.5 28.5t86 76.5t52.5 109t18 126q0 79 -29.5 133.5t-79.5 83.5t-114 29
q-68 0 -120 -28.5t-87 -76.5t-53 -108.5t-18 -126.5q0 -79 29.5 -133.5t80.5 -83.5t115 -29zM630 861q-12 -55 -41 -82.5t-65 -27.5q-25 0 -41.5 10.5t-29.5 24t-26 24t-31 10.5q-23 0 -38 -19t-26 -51h-40q12 55 41 82.5t67 27.5q26 0 42.5 -10.5t29 -24t25.5 -24t31 -10.5
q20 0 36 18.5t26 51.5h40zM639 982l-9 -42h-293l10 42h292z" />
    <glyph glyph-name="uni022D" unicode="&#x22d;" horiz-adv-x="579" 
d="M273 -9q-70 0 -119.5 30.5t-75.5 82t-26 112.5q0 86 32.5 152t89.5 103.5t133 37.5q72 0 120.5 -30.5t74 -81t25.5 -112.5q0 -85 -32 -151.5t-89 -104.5t-133 -38zM275 34q43 0 80 17.5t64.5 51t42 79.5t14.5 101q0 54 -19.5 95t-57.5 64.5t-94 23.5q-43 0 -80.5 -17.5
t-64.5 -50.5t-42 -79t-15 -101q0 -53 20 -94.5t58.5 -65.5t93.5 -24zM519 701q-12 -55 -41 -82.5t-65 -27.5q-25 0 -41.5 10.5t-29.5 24t-26 24t-31 10.5q-23 0 -38 -19t-26 -51h-40q12 55 41 82.5t67 27.5q26 0 42.5 -10.5t29 -24t25.5 -24t31 -10.5q20 0 36 18.5t26 51.5
h40zM529 822l-9 -42h-293l10 42h292z" />
    <glyph glyph-name="uni0230" unicode="&#x230;" horiz-adv-x="728" 
d="M352 -10q-74 0 -136 33.5t-99 98.5t-37 158q0 77 21.5 147t64 124.5t105.5 86.5t145 32q74 0 135 -34t97.5 -98.5t36.5 -157.5q0 -76 -21.5 -146t-63.5 -125t-104 -87t-144 -32zM357 37q68 0 119.5 28.5t86 76.5t52.5 109t18 126q0 79 -29.5 133.5t-79.5 83.5t-114 29
q-68 0 -120 -28.5t-87 -76.5t-53 -108.5t-18 -126.5q0 -79 29.5 -133.5t80.5 -83.5t115 -29zM458 757q-17 0 -27.5 10.5t-10.5 26.5q0 21 12.5 34t31.5 13q17 0 27.5 -10t10.5 -27q0 -21 -13 -34t-31 -13zM641 967l-9 -42h-293l10 42h292z" />
    <glyph glyph-name="uni0231" unicode="&#x231;" horiz-adv-x="579" 
d="M273 -9q-70 0 -119.5 30.5t-75.5 82t-26 112.5q0 86 32.5 152t89.5 103.5t133 37.5q72 0 120.5 -30.5t74 -81t25.5 -112.5q0 -85 -32 -151.5t-89 -104.5t-133 -38zM275 34q43 0 80 17.5t64.5 51t42 79.5t14.5 101q0 54 -19.5 95t-57.5 64.5t-94 23.5q-43 0 -80.5 -17.5
t-64.5 -50.5t-42 -79t-15 -101q0 -53 20 -94.5t58.5 -65.5t93.5 -24zM347 597q-17 0 -27.5 10.5t-10.5 26.5q0 21 12.5 34t31.5 13q17 0 27.5 -10t10.5 -27q0 -21 -13 -34t-31 -13zM531 807l-9 -42h-293l10 42h292z" />
    <glyph glyph-name="uni0232" unicode="&#x232;" horiz-adv-x="534" 
d="M184 0l59 257l-133 403h54l75 -235l37 -121l99 130l179 226h60l-321 -407l-59 -253h-50zM521 773l-9 -42h-293l10 42h292z" />
    <glyph glyph-name="uni0233" unicode="&#x233;" horiz-adv-x="489" 
d="M-8 -215q-33 0 -56.5 8.5t-36.5 24.5l22 40q27 -29 70 -29q35 0 63.5 21t58.5 69l52 83l-89 498h49l63 -360l13 -85l50 84l225 361h58l-381 -599q-26 -42 -52 -67.5t-52.5 -37t-56.5 -11.5zM467 627l-9 -42h-293l10 42h292z" />
    <glyph glyph-name="uni0237" unicode="&#x237;" horiz-adv-x="222" 
d="M-86 -215q-25 0 -48 7t-37 20l19 45q13 -10 29.5 -16.5t33.5 -6.5q39 0 64 24.5t38 80.5l131 561h50l-133 -576q-16 -68 -54.5 -103.5t-92.5 -35.5z" />
    <glyph glyph-name="uni0259" unicode="&#x259;" horiz-adv-x="556" 
d="M250 -9q-62 0 -105.5 26t-66 71t-22.5 101q0 16 2.5 34.5t8.5 40.5h412v-43h-391l21 14q-3 -12 -4 -24t-1 -23q0 -44 17 -78.5t50.5 -55t82.5 -20.5t86.5 20.5t63.5 56t39 80.5t13 94q0 52 -20 93t-56 64.5t-85 23.5q-61 0 -104 -29t-67 -73l-38 26q30 50 82 84.5
t129 34.5q64 0 110 -29.5t71.5 -80.5t25.5 -115q0 -78 -30.5 -145t-87 -107.5t-136.5 -40.5z" />
    <glyph glyph-name="uni02B9" unicode="&#x2b9;" horiz-adv-x="547" 
d="M319 685l-102 -205h-45l88 205h59z" />
    <glyph glyph-name="uni02BA" unicode="&#x2ba;" horiz-adv-x="325" 
d="M387 685l-102 -205h-45l88 205h59zM249 685l-102 -205h-45l88 205h59z" />
    <glyph glyph-name="uni02BB" unicode="&#x2bb;" horiz-adv-x="547" 
d="M297 778l-91 -191h-60l111 191h40z" />
    <glyph glyph-name="uni02BC" unicode="&#x2bc;" 
d="M205 694q22 0 35 -16t13 -42q0 -30 -16 -62.5t-45 -57.5t-68 -33l-16 32q33 6 55.5 21.5t35.5 36t17 41.5l-1 1q-4 -6 -9.5 -8t-14.5 -2q-17 0 -26 12t-9 28q0 21 14 35t35 14z" />
    <glyph glyph-name="uni02BE" unicode="&#x2be;" horiz-adv-x="277" 
d="M191 730q36 0 60.5 -13.5t38 -37.5t13.5 -54q0 -61 -42 -95.5t-107 -34.5h-36l9 37h35q43 0 71.5 24t28.5 66q0 32 -21 51.5t-59 19.5h-18l9 37h18z" />
    <glyph glyph-name="uni02BF" unicode="&#x2bf;" horiz-adv-x="277" 
d="M254 495q-36 0 -60.5 13.5t-38 37.5t-13.5 54q0 61 42 95.5t107 34.5h36l-9 -37h-35q-43 0 -71.5 -24t-28.5 -66q0 -32 21 -51.5t59 -19.5h18l-9 -37h-18z" />
    <glyph glyph-name="circumflex" unicode="&#x2c6;" horiz-adv-x="577" 
d="M225 579l147 156h56l76 -156h-44l-65 121l-120 -121h-50z" />
    <glyph glyph-name="caron" unicode="&#x2c7;" horiz-adv-x="523" 
d="M310 583l-75 155h44l64 -121l120 121h50l-146 -155h-57z" />
    <glyph glyph-name="uni02C8" unicode="&#x2c8;" horiz-adv-x="196" 
d="M185 730h47l-61 -265h-47z" />
    <glyph glyph-name="uni02C9" unicode="&#x2c9;" horiz-adv-x="523" 
d="M498 642l-9 -42h-293l10 42h292z" />
    <glyph glyph-name="uni02CA" unicode="&#x2ca;" horiz-adv-x="547" 
d="M399 741h60l-133 -158h-48z" />
    <glyph glyph-name="uni02CB" unicode="&#x2cb;" horiz-adv-x="523" 
d="M353 741l48 -158h-38l-60 158h50z" />
    <glyph glyph-name="uni02CC" unicode="&#x2cc;" horiz-adv-x="196" 
d="M30 60h47l-61 -265h-47z" />
    <glyph glyph-name="breve" unicode="&#x2d8;" horiz-adv-x="523" 
d="M505 714q-11 -65 -53.5 -100t-103.5 -35q-55 0 -86.5 29t-31.5 74q0 8 1 16.5t2 15.5h38q-1 -5 -1.5 -11.5t-0.5 -11.5q0 -34 23 -54t60 -20q43 0 73.5 25t38.5 72h41z" />
    <glyph glyph-name="dotaccent" unicode="&#x2d9;" horiz-adv-x="523" 
d="M349 597q-17 0 -27.5 10.5t-10.5 26.5q0 21 12.5 34t31.5 13q17 0 27.5 -10t10.5 -27q0 -21 -13 -34t-31 -13z" />
    <glyph glyph-name="ring" unicode="&#x2da;" horiz-adv-x="547" 
d="M376 776q44 0 71.5 -26t27.5 -65q0 -48 -30.5 -78.5t-76.5 -30.5q-44 0 -72 26.5t-28 64.5q0 48 31 78.5t77 30.5zM376 743q-31 0 -51 -20.5t-20 -52.5q0 -27 18.5 -44t45.5 -17q29 0 49.5 19.5t20.5 53.5q0 27 -17 44t-46 17z" />
    <glyph glyph-name="ogonek" unicode="&#x2db;" horiz-adv-x="547" 
d="M203 -212q-26 0 -48 9.5t-34.5 28.5t-12.5 48q0 32 17 58t51.5 47.5t85.5 39.5l25 -19q-37 -14 -68.5 -32t-51 -40t-19.5 -50t19 -40.5t43 -12.5q13 0 24 2.5t21 6.5l-4 -37q-9 -4 -21.5 -6.5t-26.5 -2.5z" />
    <glyph glyph-name="tilde" unicode="&#x2dc;" horiz-adv-x="523" 
d="M522 701q-12 -55 -41 -82.5t-65 -27.5q-25 0 -41.5 10.5t-29.5 24t-26 24t-31 10.5q-23 0 -38 -19t-26 -51h-40q12 55 41 82.5t67 27.5q26 0 42.5 -10.5t29 -24t25.5 -24t31 -10.5q20 0 36 18.5t26 51.5h40z" />
    <glyph glyph-name="hungarumlaut" unicode="&#x2dd;" horiz-adv-x="547" 
d="M357 583l121 158h60l-133 -158h-48zM199 583l121 158h60l-133 -158h-48z" />
    <glyph glyph-name="gravecomb" unicode="&#x300;" horiz-adv-x="0" 
d="M51 741l48 -158h-38l-60 158h50z" />
    <glyph glyph-name="acutecomb" unicode="&#x301;" horiz-adv-x="0" 
d="M166 741h60l-133 -158h-48z" />
    <glyph glyph-name="uni0302" unicode="&#x302;" horiz-adv-x="0" 
d="M-65 579l147 156h56l76 -156h-44l-65 121l-120 -121h-50z" />
    <glyph glyph-name="tildecomb" unicode="&#x303;" horiz-adv-x="0" 
d="M259 701q-12 -55 -41 -82.5t-65 -27.5q-25 0 -41.5 10.5t-29.5 24t-26 24t-31 10.5q-23 0 -38 -19t-26 -51h-40q12 55 41 82.5t67 27.5q26 0 42.5 -10.5t29 -24t25.5 -24t31 -10.5q20 0 36 18.5t26 51.5h40z" />
    <glyph glyph-name="uni0304" unicode="&#x304;" horiz-adv-x="0" 
d="M231 642l-9 -42h-293l10 42h292z" />
    <glyph glyph-name="uni0306" unicode="&#x306;" horiz-adv-x="0" 
d="M244 714q-11 -65 -53.5 -100t-103.5 -35q-55 0 -86.5 29t-31.5 74q0 8 1 16.5t2 15.5h38q-1 -5 -1.5 -11.5t-0.5 -11.5q0 -34 23 -54t60 -20q43 0 73.5 25t38.5 72h41z" />
    <glyph glyph-name="uni0307" unicode="&#x307;" horiz-adv-x="0" 
d="M87 597q-17 0 -27.5 10.5t-10.5 26.5q0 21 12.5 34t31.5 13q17 0 27.5 -10t10.5 -27q0 -21 -13 -34t-31 -13z" />
    <glyph glyph-name="uni0308" unicode="&#x308;" horiz-adv-x="0" 
d="M175 590q-16 0 -26 10t-10 25q0 21 12.5 33.5t30.5 12.5q17 0 26.5 -10.5t9.5 -25.5q0 -20 -12.5 -32.5t-30.5 -12.5zM-15 590q-15 0 -25 10t-10 25q0 21 12 33.5t31 12.5q16 0 26 -10.5t10 -25.5q0 -20 -12.5 -32.5t-31.5 -12.5z" />
    <glyph glyph-name="hookabovecomb" unicode="&#x309;" horiz-adv-x="0" 
d="M342 566l-10 30q33 6 53 23t20 42q0 20 -11.5 30t-29.5 10q-16 0 -29.5 -8t-24.5 -21l-23 28q15 18 36.5 29.5t47.5 11.5q36 0 56.5 -20t20.5 -54q0 -24 -12 -45t-36 -35.5t-58 -20.5z" />
    <glyph glyph-name="uni030A" unicode="&#x30a;" horiz-adv-x="0" 
d="M99 776q44 0 71.5 -26t27.5 -65q0 -48 -30.5 -78.5t-76.5 -30.5q-44 0 -72 26.5t-28 64.5q0 48 31 78.5t77 30.5zM99 743q-31 0 -51 -20.5t-20 -52.5q0 -27 18.5 -44t45.5 -17q29 0 49.5 19.5t20.5 53.5q0 27 -17 44t-46 17z" />
    <glyph glyph-name="uni030B" unicode="&#x30b;" horiz-adv-x="0" 
d="M125 583l121 158h60l-133 -158h-48zM-33 583l121 158h60l-133 -158h-48z" />
    <glyph glyph-name="uni030C" unicode="&#x30c;" horiz-adv-x="0" 
d="M47 583l-75 155h44l64 -121l120 121h50l-146 -155h-57z" />
    <glyph glyph-name="uni030F" unicode="&#x30f;" horiz-adv-x="0" 
d="M-24 740l49 -157h-39l-60 157h50zM122 740l49 -157h-39l-60 157h50z" />
    <glyph glyph-name="uni0311" unicode="&#x311;" horiz-adv-x="0" 
d="M-66 575q9 63 50.5 99t101.5 36q55 0 88.5 -30.5t33.5 -78.5q0 -6 -0.5 -12.5t-2.5 -13.5h-39q1 5 1.5 10.5t0.5 9.5q0 38 -25 57.5t-60 19.5q-47 0 -74 -27t-34 -70h-41z" />
    <glyph glyph-name="uni0312" unicode="&#x312;" horiz-adv-x="0" 
d="M455 778l-91 -191h-60l111 191h40z" />
    <glyph glyph-name="uni031B" unicode="&#x31b;" horiz-adv-x="0" 
d="M321 470l-14 30q41 0 68 28.5t38 84.5h43q-6 -52 -26.5 -83.5t-48.5 -45.5t-60 -14z" />
    <glyph glyph-name="dotbelowcomb" unicode="&#x323;" horiz-adv-x="0" 
d="M-91 -161q-8 0 -13.5 5t-5.5 14q0 11 6.5 17.5t16.5 6.5q9 0 14 -5t5 -13q0 -12 -7 -18.5t-16 -6.5z" />
    <glyph glyph-name="uni0324" unicode="&#x324;" horiz-adv-x="0" 
d="M4 -170q-16 0 -26 10t-10 25q0 21 12.5 33.5t30.5 12.5q17 0 26.5 -10.5t9.5 -25.5q0 -20 -12.5 -32.5t-30.5 -12.5zM-186 -170q-15 0 -25 10t-10 25q0 21 12 33.5t31 12.5q16 0 26 -10.5t10 -25.5q0 -20 -12.5 -32.5t-31.5 -12.5z" />
    <glyph glyph-name="uni0326" unicode="&#x326;" horiz-adv-x="0" 
d="M-41 -72l-97 -161h-44l84 161h57z" />
    <glyph glyph-name="uni0327" unicode="&#x327;" horiz-adv-x="0" 
d="M-77 4l32 13q35 -19 55 -46t20 -65q0 -37 -16 -62.5t-42.5 -38.5t-58.5 -13q-36 0 -60 14t-34 31l21 31q12 -17 30 -27t44 -10q34 0 55 21t21 55q0 31 -17 54t-50 43z" />
    <glyph glyph-name="uni0328" unicode="&#x328;" horiz-adv-x="0" 
d="M-145 -212q-26 0 -48 9.5t-34.5 28.5t-12.5 48q0 32 17 58t51.5 47.5t85.5 39.5l25 -19q-37 -14 -68.5 -32t-51 -40t-19.5 -50t19 -40.5t43 -12.5q13 0 24 2.5t21 6.5l-4 -37q-9 -4 -21.5 -6.5t-26.5 -2.5z" />
    <glyph glyph-name="uni032E" unicode="&#x32e;" horiz-adv-x="0" 
d="M59 -75q-11 -65 -53.5 -100t-103.5 -35q-55 0 -86.5 29t-31.5 74q0 8 1 16.5t2 15.5h38q-1 -5 -1.5 -11.5t-0.5 -11.5q0 -34 23 -54t60 -20q43 0 73.5 25t38.5 72h41z" />
    <glyph glyph-name="uni0331" unicode="&#x331;" horiz-adv-x="0" 
d="M67 -101l-9 -42h-293l10 42h292z" />
    <glyph glyph-name="uni0335" unicode="&#x335;" horiz-adv-x="0" 
d="M210 349l-8 -38h-376l9 38h375z" />
    <glyph glyph-name="uni0338" unicode="&#x338;" horiz-adv-x="0" 
d="M1 -26l530 553h48l-530 -553h-48z" />
    <glyph glyph-name="uni03A9" unicode="&#x3a9;" horiz-adv-x="735" 
d="M20 0l10 43h198l-7 -8q-38 20 -68.5 59t-48.5 91t-18 111q0 78 23 146.5t66 119.5t105.5 79.5t141.5 28.5t139 -37t93.5 -103t33.5 -154q0 -79 -24.5 -147.5t-71.5 -118.5t-117 -75l-11 8h194l-10 -43h-242l10 44q52 12 93 42t69.5 73t43 97.5t14.5 116.5
q0 73 -26.5 129.5t-75.5 88.5t-118 32q-67 0 -118.5 -25.5t-87.5 -70.5t-54 -104t-18 -125q0 -61 17 -112t47.5 -87.5t71.5 -52.5l-11 -46h-243z" />
    <glyph glyph-name="uni03BC" unicode="&#x3bc;" horiz-adv-x="589" 
d="M-19 -210l164 710h50l-69 -297q-18 -79 16 -123.5t105 -44.5q53 0 93 23t66.5 65t38.5 96l65 281h50l-116 -500h-44l19 94q-26 -48 -72.5 -75.5t-106.5 -27.5q-51 0 -89.5 24t-51.5 69v0l-68 -294h-50z" />
    <glyph glyph-name="pi" unicode="&#x3c0;" horiz-adv-x="695" 
d="M112 0l105 458h-151l11 42h648l-10 -42h-145l-80 -347q-5 -24 3 -41t30.5 -24.5t59.5 -3.5l-20 -42q-49 -5 -79.5 7t-41 40t-1.5 71l79 340h-253l-105 -458h-50z" />
    <glyph glyph-name="uni1E08" unicode="&#x1e08;" horiz-adv-x="668" 
d="M354 -10q-76 0 -138.5 32.5t-99.5 96t-37 156.5q0 75 21 146t63.5 127t105.5 89t146 33q61 0 110 -20.5t83.5 -61t51.5 -101.5l-52 -16q-20 77 -71.5 115t-126.5 38q-68 0 -120 -29t-87.5 -78t-53.5 -109.5t-18 -124.5q0 -78 30.5 -133t82 -84.5t113.5 -29.5
q74 0 122.5 31t79.5 87l47 -25q-40 -64 -101.5 -101.5t-150.5 -37.5zM307 4l32 13q35 -19 55 -46t20 -65q0 -37 -16 -62.5t-42.5 -38.5t-58.5 -13q-36 0 -60 14t-34 31l21 31q12 -17 30 -27t44 -10q34 0 55 21t21 55q0 31 -17 54t-50 43zM517 897h59l-116 -154h-44z" />
    <glyph glyph-name="uni1E09" unicode="&#x1e09;" horiz-adv-x="528" 
d="M269 -9q-65 0 -114 29t-76 80t-27 116q0 84 32 150t90 104.5t136 38.5q52 0 92.5 -18.5t66.5 -52.5t35 -79l-51 -12q-9 53 -45.5 86t-99.5 33q-47 0 -84.5 -18.5t-64.5 -52.5t-41.5 -79t-14.5 -98q0 -55 21.5 -96.5t59.5 -64.5t90 -23q50 0 90.5 26.5t59.5 71.5l47 -18
q-26 -57 -79 -90t-123 -33zM208 4l32 13q35 -19 55 -46t20 -65q0 -37 -16 -62.5t-42.5 -38.5t-58.5 -13q-36 0 -60 14t-34 31l21 31q12 -17 30 -27t44 -10q34 0 55 21t21 55q0 31 -17 54t-50 43zM424 741h60l-133 -158h-48z" />
    <glyph glyph-name="uni1E0C" unicode="&#x1e0c;" horiz-adv-x="697" 
d="M46 0l153 660h192q85 0 144 -35t90 -96t31 -139q0 -83 -25.5 -154t-74 -124t-116.5 -82.5t-151 -29.5h-243zM107 46h188q71 0 128 26.5t97 73t61.5 107.5t21.5 130q0 66 -24 118t-72.5 82.5t-122.5 30.5h-146zM259 -161q-8 0 -13.5 5t-5.5 14q0 11 6.5 17.5t16.5 6.5
q9 0 14 -5t5 -13q0 -12 -7 -18.5t-16 -6.5z" />
    <glyph glyph-name="uni1E0D" unicode="&#x1e0d;" 
d="M252 -9q-61 0 -106 28.5t-69.5 79t-24.5 115.5q0 62 18 115.5t52 94t81 63.5t104 23q52 0 91 -19t62 -54.5t27 -85.5l87 379h50l-169 -730h-44l22 108q-25 -51 -71.5 -84t-109.5 -33zM264 34q44 0 81 21.5t63.5 59t41.5 84.5t15 98q0 57 -21 94.5t-56 56.5t-79 19
q-46 0 -84 -19t-66 -53t-43 -80t-15 -101q0 -57 20.5 -97.5t57.5 -61.5t85 -21zM213 -161q-8 0 -13.5 5t-5.5 14q0 11 6.5 17.5t16.5 6.5q9 0 14 -5t5 -13q0 -12 -7 -18.5t-16 -6.5z" />
    <glyph glyph-name="uni1E0E" unicode="&#x1e0e;" horiz-adv-x="697" 
d="M46 0l153 660h192q85 0 144 -35t90 -96t31 -139q0 -83 -25.5 -154t-74 -124t-116.5 -82.5t-151 -29.5h-243zM107 46h188q71 0 128 26.5t97 73t61.5 107.5t21.5 130q0 66 -24 118t-72.5 82.5t-122.5 30.5h-146zM417 -101l-9 -42h-293l10 42h292z" />
    <glyph glyph-name="uni1E0F" unicode="&#x1e0f;" 
d="M252 -9q-61 0 -106 28.5t-69.5 79t-24.5 115.5q0 62 18 115.5t52 94t81 63.5t104 23q52 0 91 -19t62 -54.5t27 -85.5l87 379h50l-169 -730h-44l22 108q-25 -51 -71.5 -84t-109.5 -33zM264 34q44 0 81 21.5t63.5 59t41.5 84.5t15 98q0 57 -21 94.5t-56 56.5t-79 19
q-46 0 -84 -19t-66 -53t-43 -80t-15 -101q0 -57 20.5 -97.5t57.5 -61.5t85 -21zM371 -101l-9 -42h-293l10 42h292z" />
    <glyph glyph-name="uni1E14" unicode="&#x1e14;" 
d="M43 0l153 660h441l-12 -46h-390l-59 -255h311l-11 -47h-310l-61 -266h407l-11 -46h-458zM582 802l-9 -42h-293l10 42h292zM443 1037l40 -154h-36l-56 154h52z" />
    <glyph glyph-name="uni1E15" unicode="&#x1e15;" horiz-adv-x="551" 
d="M269 -9q-69 0 -118 30t-74 81.5t-25 113.5q0 78 30 145t88 107.5t140 40.5q60 0 102.5 -26t65.5 -70.5t23 -101.5q0 -15 -2 -32t-7 -34h-414v43h391l-21 -16q2 10 3 20t1 20q0 44 -17 78.5t-49.5 55t-78.5 20.5q-51 0 -89.5 -20.5t-64.5 -56t-38.5 -80.5t-12.5 -94
q0 -53 21 -93.5t59.5 -64t90.5 -23.5q57 1 97.5 26.5t64.5 65.5l40 -26q-21 -32 -51.5 -57t-69 -38.5t-85.5 -13.5zM483 642l-9 -42h-293l10 42h292zM345 877l40 -154h-36l-56 154h52z" />
    <glyph glyph-name="uni1E16" unicode="&#x1e16;" 
d="M43 0l153 660h441l-12 -46h-390l-59 -255h311l-11 -47h-310l-61 -266h407l-11 -46h-458zM582 802l-9 -42h-293l10 42h292zM531 1037h59l-116 -154h-44z" />
    <glyph glyph-name="uni1E17" unicode="&#x1e17;" horiz-adv-x="551" 
d="M269 -9q-69 0 -118 30t-74 81.5t-25 113.5q0 78 30 145t88 107.5t140 40.5q60 0 102.5 -26t65.5 -70.5t23 -101.5q0 -15 -2 -32t-7 -34h-414v43h391l-21 -16q2 10 3 20t1 20q0 44 -17 78.5t-49.5 55t-78.5 20.5q-51 0 -89.5 -20.5t-64.5 -56t-38.5 -80.5t-12.5 -94
q0 -53 21 -93.5t59.5 -64t90.5 -23.5q57 1 97.5 26.5t64.5 65.5l40 -26q-21 -32 -51.5 -57t-69 -38.5t-85.5 -13.5zM483 642l-9 -42h-293l10 42h292zM433 877h59l-116 -154h-44z" />
    <glyph glyph-name="uni1E1C" unicode="&#x1e1c;" 
d="M43 0l153 660h441l-12 -46h-390l-59 -255h311l-11 -47h-310l-61 -266h407l-11 -46h-458zM270 4l32 13q35 -19 55 -46t20 -65q0 -37 -16 -62.5t-42.5 -38.5t-58.5 -13q-36 0 -60 14t-34 31l21 31q12 -17 30 -27t44 -10q34 0 55 21t21 55q0 31 -17 54t-50 43zM589 874
q-11 -65 -53.5 -100t-103.5 -35q-55 0 -86.5 29t-31.5 74q0 8 1 16.5t2 15.5h38q-1 -5 -1.5 -11.5t-0.5 -11.5q0 -34 23 -54t60 -20q43 0 73.5 25t38.5 72h41z" />
    <glyph glyph-name="uni1E1D" unicode="&#x1e1d;" horiz-adv-x="551" 
d="M269 -9q-69 0 -118 30t-74 81.5t-25 113.5q0 78 30 145t88 107.5t140 40.5q60 0 102.5 -26t65.5 -70.5t23 -101.5q0 -15 -2 -32t-7 -34h-414v43h391l-21 -16q2 10 3 20t1 20q0 44 -17 78.5t-49.5 55t-78.5 20.5q-51 0 -89.5 -20.5t-64.5 -56t-38.5 -80.5t-12.5 -94
q0 -53 21 -93.5t59.5 -64t90.5 -23.5q57 1 97.5 26.5t64.5 65.5l40 -26q-21 -32 -51.5 -57t-69 -38.5t-85.5 -13.5zM232 4l32 13q35 -19 55 -46t20 -65q0 -37 -16 -62.5t-42.5 -38.5t-58.5 -13q-36 0 -60 14t-34 31l21 31q12 -17 30 -27t44 -10q34 0 55 21t21 55
q0 31 -17 54t-50 43zM492 714q-11 -65 -53.5 -100t-103.5 -35q-55 0 -86.5 29t-31.5 74q0 8 1 16.5t2 15.5h38q-1 -5 -1.5 -11.5t-0.5 -11.5q0 -34 23 -54t60 -20q43 0 73.5 25t38.5 72h41z" />
    <glyph glyph-name="uni1E20" unicode="&#x1e20;" horiz-adv-x="699" 
d="M343 -8q-72 0 -132 33t-96 96.5t-36 153.5q0 77 22 148t65.5 126.5t108 88t149.5 32.5q59 0 109 -18.5t87 -57t57 -100.5l-50 -17q-25 76 -78.5 111.5t-127.5 35.5q-71 0 -125 -29t-91 -78t-55.5 -110t-18.5 -125q0 -77 29 -131.5t79 -83.5t113 -29q56 0 102.5 20.5
t79.5 62.5t48 107l9 42h-220l11 47h265l-75 -317h-41l35 157l8 1q-18 -59 -52 -95.5t-79.5 -53.5t-99.5 -17zM607 802l-9 -42h-293l10 42h292z" />
    <glyph glyph-name="uni1E21" unicode="&#x1e21;" horiz-adv-x="599" 
d="M211 -215q-42 0 -79 11.5t-65.5 32.5t-47 51t-25.5 68l49 17q13 -66 56.5 -101t116.5 -35q45 0 82.5 16t65 54t41.5 103l32 138l5 -5q-21 -55 -71.5 -89.5t-117.5 -34.5q-58 0 -104 27.5t-72 77t-26 114.5q0 59 17.5 110t50.5 89t79 59.5t103 21.5q62 0 104.5 -27.5
t63.5 -75t15 -107.5l-10 1l46 199h50l-118 -506q-17 -74 -51 -120t-81.5 -67.5t-108.5 -21.5zM265 54q60 0 104 33t67.5 87.5t23.5 119.5q0 57 -20.5 95.5t-56.5 58t-80 19.5q-62 0 -107.5 -32t-70 -85.5t-24.5 -119.5q0 -81 44.5 -128.5t119.5 -47.5zM500 642l-9 -42h-293
l10 42h292z" />
    <glyph glyph-name="uni1E24" unicode="&#x1e24;" horiz-adv-x="702" 
d="M695 660l-153 -660h-50l153 660h50zM246 660l-153 -660h-50l153 660h50zM599 359l-10 -47h-447l11 47h446zM265 -161q-8 0 -13.5 5t-5.5 14q0 11 6.5 17.5t16.5 6.5q9 0 14 -5t5 -13q0 -12 -7 -18.5t-16 -6.5z" />
    <glyph glyph-name="uni1E25" unicode="&#x1e25;" horiz-adv-x="582" 
d="M29 0l169 730h50l-81 -349l-10 -3q15 40 44 69.5t70 46t90 16.5q57 0 97 -25.5t56 -73t1 -113.5l-69 -298h-50l68 297q19 81 -14 125t-102 44q-55 0 -96 -23.5t-68 -65t-40 -96.5l-65 -281h-50zM212 -161q-8 0 -13.5 5t-5.5 14q0 11 6.5 17.5t16.5 6.5q9 0 14 -5t5 -13
q0 -12 -7 -18.5t-16 -6.5z" />
    <glyph glyph-name="uni1E2A" unicode="&#x1e2a;" horiz-adv-x="702" 
d="M695 660l-153 -660h-50l153 660h50zM246 660l-153 -660h-50l153 660h50zM599 359l-10 -47h-447l11 47h446zM415 -75q-11 -65 -53.5 -100t-103.5 -35q-55 0 -86.5 29t-31.5 74q0 8 1 16.5t2 15.5h38q-1 -5 -1.5 -11.5t-0.5 -11.5q0 -34 23 -54t60 -20q43 0 73.5 25
t38.5 72h41z" />
    <glyph glyph-name="uni1E2B" unicode="&#x1e2b;" horiz-adv-x="582" 
d="M29 0l169 730h50l-81 -349l-10 -3q15 40 44 69.5t70 46t90 16.5q57 0 97 -25.5t56 -73t1 -113.5l-69 -298h-50l68 297q19 81 -14 125t-102 44q-55 0 -96 -23.5t-68 -65t-40 -96.5l-65 -281h-50zM362 -75q-11 -65 -53.5 -100t-103.5 -35q-55 0 -86.5 29t-31.5 74
q0 8 1 16.5t2 15.5h38q-1 -5 -1.5 -11.5t-0.5 -11.5q0 -34 23 -54t60 -20q43 0 73.5 25t38.5 72h41z" />
    <glyph glyph-name="uni1E2E" unicode="&#x1e2e;" horiz-adv-x="253" 
d="M246 660l-153 -660h-50l153 660h50zM338 750q-16 0 -26 10t-10 25q0 21 12.5 33.5t30.5 12.5q17 0 26.5 -10.5t9.5 -25.5q0 -20 -12.5 -32.5t-30.5 -12.5zM148 750q-15 0 -25 10t-10 25q0 21 12 33.5t31 12.5q16 0 26 -10.5t10 -25.5q0 -20 -12.5 -32.5t-31.5 -12.5z
M343 1051h59l-116 -154h-44z" />
    <glyph glyph-name="uni1E2F" unicode="&#x1e2f;" horiz-adv-x="222" 
d="M194 500l-116 -500h-50l116 500h50zM286 590q-16 0 -26 10t-10 25q0 21 12.5 33.5t30.5 12.5q17 0 26.5 -10.5t9.5 -25.5q0 -20 -12.5 -32.5t-30.5 -12.5zM96 590q-15 0 -25 10t-10 25q0 21 12 33.5t31 12.5q16 0 26 -10.5t10 -25.5q0 -20 -12.5 -32.5t-31.5 -12.5z
M291 891h59l-116 -154h-44z" />
    <glyph glyph-name="uni1E36" unicode="&#x1e36;" horiz-adv-x="561" 
d="M104 46h388l-11 -46h-438l153 660h50zM250 -161q-8 0 -13.5 5t-5.5 14q0 11 6.5 17.5t16.5 6.5q9 0 14 -5t5 -13q0 -12 -7 -18.5t-16 -6.5z" />
    <glyph glyph-name="uni1E37" unicode="&#x1e37;" horiz-adv-x="270" 
d="M143 -8q-59 0 -81 37.5t-7 102.5l139 598h50l-140 -601q-11 -48 3 -70.5t54 -22.5q17 0 28.5 1.5t21.5 4.5l-12 -40q-12 -5 -25.5 -7.5t-30.5 -2.5zM87 -161q-8 0 -13.5 5t-5.5 14q0 11 6.5 17.5t16.5 6.5q9 0 14 -5t5 -13q0 -12 -7 -18.5t-16 -6.5z" />
    <glyph glyph-name="uni1E3A" unicode="&#x1e3a;" horiz-adv-x="561" 
d="M104 46h388l-11 -46h-438l153 660h50zM408 -101l-9 -42h-293l10 42h292z" />
    <glyph glyph-name="uni1E3B" unicode="&#x1e3b;" horiz-adv-x="270" 
d="M-23 -142l9 42h198l-9 -42h-198zM143 -8q-59 0 -81 37.5t-7 102.5l139 598h50l-140 -601q-11 -48 3 -70.5t54 -22.5q17 0 28.5 1.5t21.5 4.5l-12 -40q-12 -5 -25.5 -7.5t-30.5 -2.5z" />
    <glyph glyph-name="uni1E42" unicode="&#x1e42;" horiz-adv-x="806" 
d="M43 0l153 660h71l79 -504l10 -96v0l52 94l313 506h78l-153 -660h-47l114 493l31 119h-1l-377 -612h-45l-93 612v0l-23 -119l-114 -493h-48zM317 -161q-8 0 -13.5 5t-5.5 14q0 11 6.5 17.5t16.5 6.5q9 0 14 -5t5 -13q0 -12 -7 -18.5t-16 -6.5z" />
    <glyph glyph-name="uni1E43" unicode="&#x1e43;" horiz-adv-x="935" 
d="M29 0l116 500h44l-25 -125l-7 3q21 61 75 96.5t128 35.5q57 0 94.5 -25.5t52 -73t-1.5 -114.5l-69 -297h-50l69 296q19 82 -11 126t-97 44q-55 0 -96 -23.5t-67.5 -65t-39.5 -96.5l-65 -281h-50zM744 0l68 296q19 82 -11 126t-97 44q-55 0 -96.5 -24t-68 -66t-39.5 -98
l-2 85q28 70 85 108.5t134 38.5q57 0 95 -25.5t52 -73t-2 -114.5l-68 -297h-50zM381 -161q-8 0 -13.5 5t-5.5 14q0 11 6.5 17.5t16.5 6.5q9 0 14 -5t5 -13q0 -12 -7 -18.5t-16 -6.5z" />
    <glyph glyph-name="uni1E44" unicode="&#x1e44;" horiz-adv-x="701" 
d="M43 0l153 660h61l220 -517l31 -89h1l16 83l122 523h47l-153 -660h-60l-221 518l-30 88h-1l-17 -83l-121 -523h-48zM469 757q-17 0 -27.5 10.5t-10.5 26.5q0 21 12.5 34t31.5 13q17 0 27.5 -10t10.5 -27q0 -21 -13 -34t-31 -13z" />
    <glyph glyph-name="uni1E45" unicode="&#x1e45;" horiz-adv-x="582" 
d="M29 0l116 500h44l-25 -125l-7 3q21 61 75.5 96.5t128.5 35.5q59 0 98.5 -25.5t55 -73t0.5 -113.5l-69 -298h-50l68 297q19 81 -14 125t-102 44q-55 0 -96 -23.5t-68 -65t-40 -96.5l-65 -281h-50zM376 597q-17 0 -27.5 10.5t-10.5 26.5q0 21 12.5 34t31.5 13
q17 0 27.5 -10t10.5 -27q0 -21 -13 -34t-31 -13z" />
    <glyph glyph-name="uni1E46" unicode="&#x1e46;" horiz-adv-x="701" 
d="M43 0l153 660h61l220 -517l31 -89h1l16 83l122 523h47l-153 -660h-60l-221 518l-30 88h-1l-17 -83l-121 -523h-48zM273 -161q-8 0 -13.5 5t-5.5 14q0 11 6.5 17.5t16.5 6.5q9 0 14 -5t5 -13q0 -12 -7 -18.5t-16 -6.5z" />
    <glyph glyph-name="uni1E47" unicode="&#x1e47;" horiz-adv-x="582" 
d="M29 0l116 500h44l-25 -125l-7 3q21 61 75.5 96.5t128.5 35.5q59 0 98.5 -25.5t55 -73t0.5 -113.5l-69 -298h-50l68 297q19 81 -14 125t-102 44q-55 0 -96 -23.5t-68 -65t-40 -96.5l-65 -281h-50zM223 -161q-8 0 -13.5 5t-5.5 14q0 11 6.5 17.5t16.5 6.5q9 0 14 -5t5 -13
q0 -12 -7 -18.5t-16 -6.5z" />
    <glyph glyph-name="uni1E48" unicode="&#x1e48;" horiz-adv-x="701" 
d="M43 0l153 660h61l220 -517l31 -89h1l16 83l122 523h47l-153 -660h-60l-221 518l-30 88h-1l-17 -83l-121 -523h-48zM431 -101l-9 -42h-293l10 42h292z" />
    <glyph glyph-name="uni1E49" unicode="&#x1e49;" horiz-adv-x="582" 
d="M29 0l116 500h44l-25 -125l-7 3q21 61 75.5 96.5t128.5 35.5q59 0 98.5 -25.5t55 -73t0.5 -113.5l-69 -298h-50l68 297q19 81 -14 125t-102 44q-55 0 -96 -23.5t-68 -65t-40 -96.5l-65 -281h-50zM381 -101l-9 -42h-293l10 42h292z" />
    <glyph glyph-name="uni1E4C" unicode="&#x1e4c;" horiz-adv-x="728" 
d="M352 -10q-74 0 -136 33.5t-99 98.5t-37 158q0 77 21.5 147t64 124.5t105.5 86.5t145 32q74 0 135 -34t97.5 -98.5t36.5 -157.5q0 -76 -21.5 -146t-63.5 -125t-104 -87t-144 -32zM357 37q68 0 119.5 28.5t86 76.5t52.5 109t18 126q0 79 -29.5 133.5t-79.5 83.5t-114 29
q-68 0 -120 -28.5t-87 -76.5t-53 -108.5t-18 -126.5q0 -79 29.5 -133.5t80.5 -83.5t115 -29zM630 861q-12 -55 -41 -82.5t-65 -27.5q-25 0 -41.5 10.5t-29.5 24t-26 24t-31 10.5q-23 0 -38 -19t-26 -51h-40q12 55 41 82.5t67 27.5q26 0 42.5 -10.5t29 -24t25.5 -24t31 -10.5
q20 0 36 18.5t26 51.5h40zM554 1077h59l-116 -154h-44z" />
    <glyph glyph-name="uni1E4D" unicode="&#x1e4d;" horiz-adv-x="579" 
d="M273 -9q-70 0 -119.5 30.5t-75.5 82t-26 112.5q0 86 32.5 152t89.5 103.5t133 37.5q72 0 120.5 -30.5t74 -81t25.5 -112.5q0 -85 -32 -151.5t-89 -104.5t-133 -38zM275 34q43 0 80 17.5t64.5 51t42 79.5t14.5 101q0 54 -19.5 95t-57.5 64.5t-94 23.5q-43 0 -80.5 -17.5
t-64.5 -50.5t-42 -79t-15 -101q0 -53 20 -94.5t58.5 -65.5t93.5 -24zM519 701q-12 -55 -41 -82.5t-65 -27.5q-25 0 -41.5 10.5t-29.5 24t-26 24t-31 10.5q-23 0 -38 -19t-26 -51h-40q12 55 41 82.5t67 27.5q26 0 42.5 -10.5t29 -24t25.5 -24t31 -10.5q20 0 36 18.5t26 51.5
h40zM444 917h59l-116 -154h-44z" />
    <glyph glyph-name="uni1E4E" unicode="&#x1e4e;" horiz-adv-x="728" 
d="M352 -10q-74 0 -136 33.5t-99 98.5t-37 158q0 77 21.5 147t64 124.5t105.5 86.5t145 32q74 0 135 -34t97.5 -98.5t36.5 -157.5q0 -76 -21.5 -146t-63.5 -125t-104 -87t-144 -32zM357 37q68 0 119.5 28.5t86 76.5t52.5 109t18 126q0 79 -29.5 133.5t-79.5 83.5t-114 29
q-68 0 -120 -28.5t-87 -76.5t-53 -108.5t-18 -126.5q0 -79 29.5 -133.5t80.5 -83.5t115 -29zM630 861q-12 -55 -41 -82.5t-65 -27.5q-25 0 -41.5 10.5t-29.5 24t-26 24t-31 10.5q-23 0 -38 -19t-26 -51h-40q12 55 41 82.5t67 27.5q26 0 42.5 -10.5t29 -24t25.5 -24t31 -10.5
q20 0 36 18.5t26 51.5h40zM583 930q-16 0 -26 10t-10 25q0 21 12.5 33.5t30.5 12.5q17 0 26.5 -10.5t9.5 -25.5q0 -20 -12.5 -32.5t-30.5 -12.5zM393 930q-15 0 -25 10t-10 25q0 21 12 33.5t31 12.5q16 0 26 -10.5t10 -25.5q0 -20 -12.5 -32.5t-31.5 -12.5z" />
    <glyph glyph-name="uni1E4F" unicode="&#x1e4f;" horiz-adv-x="579" 
d="M273 -9q-70 0 -119.5 30.5t-75.5 82t-26 112.5q0 86 32.5 152t89.5 103.5t133 37.5q72 0 120.5 -30.5t74 -81t25.5 -112.5q0 -85 -32 -151.5t-89 -104.5t-133 -38zM275 34q43 0 80 17.5t64.5 51t42 79.5t14.5 101q0 54 -19.5 95t-57.5 64.5t-94 23.5q-43 0 -80.5 -17.5
t-64.5 -50.5t-42 -79t-15 -101q0 -53 20 -94.5t58.5 -65.5t93.5 -24zM519 701q-12 -55 -41 -82.5t-65 -27.5q-25 0 -41.5 10.5t-29.5 24t-26 24t-31 10.5q-23 0 -38 -19t-26 -51h-40q12 55 41 82.5t67 27.5q26 0 42.5 -10.5t29 -24t25.5 -24t31 -10.5q20 0 36 18.5t26 51.5
h40zM473 770q-16 0 -26 10t-10 25q0 21 12.5 33.5t30.5 12.5q17 0 26.5 -10.5t9.5 -25.5q0 -20 -12.5 -32.5t-30.5 -12.5zM283 770q-15 0 -25 10t-10 25q0 21 12 33.5t31 12.5q16 0 26 -10.5t10 -25.5q0 -20 -12.5 -32.5t-31.5 -12.5z" />
    <glyph glyph-name="uni1E50" unicode="&#x1e50;" horiz-adv-x="728" 
d="M352 -10q-74 0 -136 33.5t-99 98.5t-37 158q0 77 21.5 147t64 124.5t105.5 86.5t145 32q74 0 135 -34t97.5 -98.5t36.5 -157.5q0 -76 -21.5 -146t-63.5 -125t-104 -87t-144 -32zM357 37q68 0 119.5 28.5t86 76.5t52.5 109t18 126q0 79 -29.5 133.5t-79.5 83.5t-114 29
q-68 0 -120 -28.5t-87 -76.5t-53 -108.5t-18 -126.5q0 -79 29.5 -133.5t80.5 -83.5t115 -29zM602 802l-9 -42h-293l10 42h292zM463 1037l40 -154h-36l-56 154h52z" />
    <glyph glyph-name="uni1E51" unicode="&#x1e51;" horiz-adv-x="579" 
d="M273 -9q-70 0 -119.5 30.5t-75.5 82t-26 112.5q0 86 32.5 152t89.5 103.5t133 37.5q72 0 120.5 -30.5t74 -81t25.5 -112.5q0 -85 -32 -151.5t-89 -104.5t-133 -38zM275 34q43 0 80 17.5t64.5 51t42 79.5t14.5 101q0 54 -19.5 95t-57.5 64.5t-94 23.5q-43 0 -80.5 -17.5
t-64.5 -50.5t-42 -79t-15 -101q0 -53 20 -94.5t58.5 -65.5t93.5 -24zM491 642l-9 -42h-293l10 42h292zM353 877l40 -154h-36l-56 154h52z" />
    <glyph glyph-name="uni1E52" unicode="&#x1e52;" horiz-adv-x="728" 
d="M352 -10q-74 0 -136 33.5t-99 98.5t-37 158q0 77 21.5 147t64 124.5t105.5 86.5t145 32q74 0 135 -34t97.5 -98.5t36.5 -157.5q0 -76 -21.5 -146t-63.5 -125t-104 -87t-144 -32zM357 37q68 0 119.5 28.5t86 76.5t52.5 109t18 126q0 79 -29.5 133.5t-79.5 83.5t-114 29
q-68 0 -120 -28.5t-87 -76.5t-53 -108.5t-18 -126.5q0 -79 29.5 -133.5t80.5 -83.5t115 -29zM602 802l-9 -42h-293l10 42h292zM551 1037h59l-116 -154h-44z" />
    <glyph glyph-name="uni1E53" unicode="&#x1e53;" horiz-adv-x="579" 
d="M273 -9q-70 0 -119.5 30.5t-75.5 82t-26 112.5q0 86 32.5 152t89.5 103.5t133 37.5q72 0 120.5 -30.5t74 -81t25.5 -112.5q0 -85 -32 -151.5t-89 -104.5t-133 -38zM275 34q43 0 80 17.5t64.5 51t42 79.5t14.5 101q0 54 -19.5 95t-57.5 64.5t-94 23.5q-43 0 -80.5 -17.5
t-64.5 -50.5t-42 -79t-15 -101q0 -53 20 -94.5t58.5 -65.5t93.5 -24zM491 642l-9 -42h-293l10 42h292zM441 877h59l-116 -154h-44z" />
    <glyph glyph-name="uni1E5A" unicode="&#x1e5a;" horiz-adv-x="622" 
d="M43 0l153 660h210q91 0 142 -45.5t51 -125.5q0 -56 -25.5 -101t-71.5 -72t-108 -32l-26 -4h-222l9 46h209q62 0 103 22.5t60.5 59.5t19.5 82q0 58 -38.5 91t-111.5 33h-161l-143 -614h-50zM480 0l-116 294l51 5l119 -299h-54zM264 -161q-8 0 -13.5 5t-5.5 14
q0 11 6.5 17.5t16.5 6.5q9 0 14 -5t5 -13q0 -12 -7 -18.5t-16 -6.5z" />
    <glyph glyph-name="uni1E5B" unicode="&#x1e5b;" horiz-adv-x="365" 
d="M29 0l116 500h42l-23 -132l-8 7q17 40 44 70.5t63 47.5t77 17q17 0 31.5 -2.5t24.5 -9.5l-16 -46q-10 6 -23.5 9t-30.5 3q-44 0 -80.5 -22t-62.5 -62t-38 -95l-66 -285h-50zM24 -161q-8 0 -13.5 5t-5.5 14q0 11 6.5 17.5t16.5 6.5q9 0 14 -5t5 -13q0 -12 -7 -18.5
t-16 -6.5z" />
    <glyph glyph-name="uni1E5E" unicode="&#x1e5e;" horiz-adv-x="622" 
d="M43 0l153 660h210q91 0 142 -45.5t51 -125.5q0 -56 -25.5 -101t-71.5 -72t-108 -32l-26 -4h-222l9 46h209q62 0 103 22.5t60.5 59.5t19.5 82q0 58 -38.5 91t-111.5 33h-161l-143 -614h-50zM480 0l-116 294l51 5l119 -299h-54zM422 -101l-9 -42h-293l10 42h292z" />
    <glyph glyph-name="uni1E5F" unicode="&#x1e5f;" horiz-adv-x="365" 
d="M-62 -142l9 42h186l-10 -42h-185zM29 0l116 500h42l-23 -132l-8 7q17 40 44 70.5t63 47.5t77 17q17 0 31.5 -2.5t24.5 -9.5l-16 -46q-10 6 -23.5 9t-30.5 3q-44 0 -80.5 -22t-62.5 -62t-38 -95l-66 -285h-50z" />
    <glyph glyph-name="uni1E60" unicode="&#x1e60;" horiz-adv-x="619" 
d="M320 -8q-72 0 -131 23.5t-97.5 66.5t-54.5 104l50 24q12 -56 45.5 -94.5t83 -58t108.5 -19.5q53 0 93.5 17.5t64 48.5t23.5 72q0 44 -32 71.5t-92 43.5l-94 26q-50 15 -85.5 38.5t-53.5 56.5t-18 73q0 52 28 94t80 67t124 25q93 0 158 -40t89 -121l-50 -23
q-13 52 -42.5 82t-69.5 43t-88 13q-56 0 -96 -18t-61 -48t-21 -66q0 -44 31 -77.5t88 -49.5l98 -27q79 -22 118.5 -60.5t39.5 -94.5q0 -61 -32.5 -104t-86 -65.5t-117.5 -22.5zM411 757q-17 0 -27.5 10.5t-10.5 26.5q0 21 12.5 34t31.5 13q17 0 27.5 -10t10.5 -27
q0 -21 -13 -34t-31 -13z" />
    <glyph glyph-name="uni1E61" unicode="&#x1e61;" horiz-adv-x="501" 
d="M244 -11q-60 0 -106 19t-75 53t-39 80l47 20q12 -61 56 -94.5t118 -33.5q64 0 99 29t35 74q0 32 -18 51t-59 31l-95 27q-58 16 -88 47t-30 76q0 42 23 73.5t64.5 50t96.5 18.5q72 0 125.5 -33t69.5 -101l-45 -21q-8 37 -29.5 62t-53.5 37t-71 12q-62 0 -96.5 -25.5
t-34.5 -67.5q0 -35 22.5 -54.5t59.5 -30.5l102 -29q52 -15 79 -44t27 -73q0 -46 -23.5 -80.5t-65 -53.5t-95.5 -19zM313 597q-17 0 -27.5 10.5t-10.5 26.5q0 21 12.5 34t31.5 13q17 0 27.5 -10t10.5 -27q0 -21 -13 -34t-31 -13z" />
    <glyph glyph-name="uni1E62" unicode="&#x1e62;" horiz-adv-x="619" 
d="M320 -8q-72 0 -131 23.5t-97.5 66.5t-54.5 104l50 24q12 -56 45.5 -94.5t83 -58t108.5 -19.5q53 0 93.5 17.5t64 48.5t23.5 72q0 44 -32 71.5t-92 43.5l-94 26q-50 15 -85.5 38.5t-53.5 56.5t-18 73q0 52 28 94t80 67t124 25q93 0 158 -40t89 -121l-50 -23
q-13 52 -42.5 82t-69.5 43t-88 13q-56 0 -96 -18t-61 -48t-21 -66q0 -44 31 -77.5t88 -49.5l98 -27q79 -22 118.5 -60.5t39.5 -94.5q0 -61 -32.5 -104t-86 -65.5t-117.5 -22.5zM242 -161q-8 0 -13.5 5t-5.5 14q0 11 6.5 17.5t16.5 6.5q9 0 14 -5t5 -13q0 -12 -7 -18.5
t-16 -6.5z" />
    <glyph glyph-name="uni1E63" unicode="&#x1e63;" horiz-adv-x="501" 
d="M244 -11q-60 0 -106 19t-75 53t-39 80l47 20q12 -61 56 -94.5t118 -33.5q64 0 99 29t35 74q0 32 -18 51t-59 31l-95 27q-58 16 -88 47t-30 76q0 42 23 73.5t64.5 50t96.5 18.5q72 0 125.5 -33t69.5 -101l-45 -21q-8 37 -29.5 62t-53.5 37t-71 12q-62 0 -96.5 -25.5
t-34.5 -67.5q0 -35 22.5 -54.5t59.5 -30.5l102 -29q52 -15 79 -44t27 -73q0 -46 -23.5 -80.5t-65 -53.5t-95.5 -19zM182 -161q-8 0 -13.5 5t-5.5 14q0 11 6.5 17.5t16.5 6.5q9 0 14 -5t5 -13q0 -12 -7 -18.5t-16 -6.5z" />
    <glyph glyph-name="uni1E64" unicode="&#x1e64;" horiz-adv-x="619" 
d="M320 -8q-72 0 -131 23.5t-97.5 66.5t-54.5 104l50 24q12 -56 45.5 -94.5t83 -58t108.5 -19.5q53 0 93.5 17.5t64 48.5t23.5 72q0 44 -32 71.5t-92 43.5l-94 26q-50 15 -85.5 38.5t-53.5 56.5t-18 73q0 52 28 94t80 67t124 25q93 0 158 -40t89 -121l-50 -23
q-13 52 -42.5 82t-69.5 43t-88 13q-56 0 -96 -18t-61 -48t-21 -66q0 -44 31 -77.5t88 -49.5l98 -27q79 -22 118.5 -60.5t39.5 -94.5q0 -61 -32.5 -104t-86 -65.5t-117.5 -22.5zM470 897h59l-116 -154h-44zM455 950q-17 0 -27.5 10.5t-10.5 26.5q0 21 12.5 34t31.5 13
q17 0 27.5 -10t10.5 -27q0 -21 -13 -34t-31 -13z" />
    <glyph glyph-name="uni1E65" unicode="&#x1e65;" horiz-adv-x="501" 
d="M244 -11q-60 0 -106 19t-75 53t-39 80l47 20q12 -61 56 -94.5t118 -33.5q64 0 99 29t35 74q0 32 -18 51t-59 31l-95 27q-58 16 -88 47t-30 76q0 42 23 73.5t64.5 50t96.5 18.5q72 0 125.5 -33t69.5 -101l-45 -21q-8 37 -29.5 62t-53.5 37t-71 12q-62 0 -96.5 -25.5
t-34.5 -67.5q0 -35 22.5 -54.5t59.5 -30.5l102 -29q52 -15 79 -44t27 -73q0 -46 -23.5 -80.5t-65 -53.5t-95.5 -19zM392 741h60l-133 -158h-48zM347 783q-17 0 -27.5 10.5t-10.5 26.5q0 21 12.5 34t31.5 13q17 0 27.5 -10t10.5 -27q0 -21 -13 -34t-31 -13z" />
    <glyph glyph-name="uni1E66" unicode="&#x1e66;" horiz-adv-x="619" 
d="M320 -8q-72 0 -131 23.5t-97.5 66.5t-54.5 104l50 24q12 -56 45.5 -94.5t83 -58t108.5 -19.5q53 0 93.5 17.5t64 48.5t23.5 72q0 44 -32 71.5t-92 43.5l-94 26q-50 15 -85.5 38.5t-53.5 56.5t-18 73q0 52 28 94t80 67t124 25q93 0 158 -40t89 -121l-50 -23
q-13 52 -42.5 82t-69.5 43t-88 13q-56 0 -96 -18t-61 -48t-21 -66q0 -44 31 -77.5t88 -49.5l98 -27q79 -22 118.5 -60.5t39.5 -94.5q0 -61 -32.5 -104t-86 -65.5t-117.5 -22.5zM373 743l-74 151h44l63 -117l115 117h52l-144 -151h-56zM454 944q-17 0 -27.5 10.5t-10.5 26.5
q0 21 12.5 34t31.5 13q17 0 27.5 -10t10.5 -27q0 -21 -13 -34t-31 -13z" />
    <glyph glyph-name="uni1E67" unicode="&#x1e67;" horiz-adv-x="501" 
d="M244 -11q-60 0 -106 19t-75 53t-39 80l47 20q12 -61 56 -94.5t118 -33.5q64 0 99 29t35 74q0 32 -18 51t-59 31l-95 27q-58 16 -88 47t-30 76q0 42 23 73.5t64.5 50t96.5 18.5q72 0 125.5 -33t69.5 -101l-45 -21q-8 37 -29.5 62t-53.5 37t-71 12q-62 0 -96.5 -25.5
t-34.5 -67.5q0 -35 22.5 -54.5t59.5 -30.5l102 -29q52 -15 79 -44t27 -73q0 -46 -23.5 -80.5t-65 -53.5t-95.5 -19zM273 583l-75 155h44l64 -121l120 121h50l-146 -155h-57zM346 780q-17 0 -27.5 10.5t-10.5 26.5q0 21 12.5 34t31.5 13q17 0 27.5 -10t10.5 -27
q0 -21 -13 -34t-31 -13z" />
    <glyph glyph-name="uni1E68" unicode="&#x1e68;" horiz-adv-x="619" 
d="M320 -8q-72 0 -131 23.5t-97.5 66.5t-54.5 104l50 24q12 -56 45.5 -94.5t83 -58t108.5 -19.5q53 0 93.5 17.5t64 48.5t23.5 72q0 44 -32 71.5t-92 43.5l-94 26q-50 15 -85.5 38.5t-53.5 56.5t-18 73q0 52 28 94t80 67t124 25q93 0 158 -40t89 -121l-50 -23
q-13 52 -42.5 82t-69.5 43t-88 13q-56 0 -96 -18t-61 -48t-21 -66q0 -44 31 -77.5t88 -49.5l98 -27q79 -22 118.5 -60.5t39.5 -94.5q0 -61 -32.5 -104t-86 -65.5t-117.5 -22.5zM411 757q-17 0 -27.5 10.5t-10.5 26.5q0 21 12.5 34t31.5 13q17 0 27.5 -10t10.5 -27
q0 -21 -13 -34t-31 -13zM242 -161q-8 0 -13.5 5t-5.5 14q0 11 6.5 17.5t16.5 6.5q9 0 14 -5t5 -13q0 -12 -7 -18.5t-16 -6.5z" />
    <glyph glyph-name="uni1E69" unicode="&#x1e69;" horiz-adv-x="501" 
d="M244 -11q-60 0 -106 19t-75 53t-39 80l47 20q12 -61 56 -94.5t118 -33.5q64 0 99 29t35 74q0 32 -18 51t-59 31l-95 27q-58 16 -88 47t-30 76q0 42 23 73.5t64.5 50t96.5 18.5q72 0 125.5 -33t69.5 -101l-45 -21q-8 37 -29.5 62t-53.5 37t-71 12q-62 0 -96.5 -25.5
t-34.5 -67.5q0 -35 22.5 -54.5t59.5 -30.5l102 -29q52 -15 79 -44t27 -73q0 -46 -23.5 -80.5t-65 -53.5t-95.5 -19zM313 597q-17 0 -27.5 10.5t-10.5 26.5q0 21 12.5 34t31.5 13q17 0 27.5 -10t10.5 -27q0 -21 -13 -34t-31 -13zM182 -161q-8 0 -13.5 5t-5.5 14
q0 11 6.5 17.5t16.5 6.5q9 0 14 -5t5 -13q0 -12 -7 -18.5t-16 -6.5z" />
    <glyph glyph-name="uni1E6C" unicode="&#x1e6c;" horiz-adv-x="565" 
d="M638 660l-11 -46h-234l-142 -614h-50l142 614h-238l12 46h521zM193 -161q-8 0 -13.5 5t-5.5 14q0 11 6.5 17.5t16.5 6.5q9 0 14 -5t5 -13q0 -12 -7 -18.5t-16 -6.5z" />
    <glyph glyph-name="uni1E6D" unicode="&#x1e6d;" horiz-adv-x="368" 
d="M212 -9q-47 0 -77 18.5t-41 53t-1 83.5l109 473l55 16l-115 -492q-12 -54 9.5 -81t67.5 -27q25 0 45 7t37 19l11 -41q-22 -15 -47 -22t-53 -7zM62 457l11 43h313l-11 -43h-313zM156 -161q-8 0 -13.5 5t-5.5 14q0 11 6.5 17.5t16.5 6.5q9 0 14 -5t5 -13q0 -12 -7 -18.5
t-16 -6.5z" />
    <glyph glyph-name="uni1E6E" unicode="&#x1e6e;" horiz-adv-x="565" 
d="M638 660l-11 -46h-234l-142 -614h-50l142 614h-238l12 46h521zM356 -101l-9 -42h-293l10 42h292z" />
    <glyph glyph-name="uni1E6F" unicode="&#x1e6f;" horiz-adv-x="368" 
d="M212 -9q-47 0 -77 18.5t-41 53t-1 83.5l109 473l55 16l-115 -492q-12 -54 9.5 -81t67.5 -27q25 0 45 7t37 19l11 -41q-22 -15 -47 -22t-53 -7zM62 457l11 43h313l-11 -43h-313zM314 -101l-9 -42h-293l10 42h292z" />
    <glyph glyph-name="uni1E78" unicode="&#x1e78;" horiz-adv-x="676" 
d="M317 -10q-87 0 -144.5 35t-78 100.5t-0.5 155.5l89 379h50l-90 -391q-18 -75 0 -127t63.5 -79t112.5 -27q90 0 143 57t76 156l95 411h50l-98 -425q-27 -113 -92.5 -179t-175.5 -66zM626 832q-12 -55 -41 -82.5t-65 -27.5q-25 0 -41.5 10.5t-29.5 24t-26 24t-31 10.5
q-23 0 -38 -19t-26 -51h-40q12 55 41 82.5t67 27.5q26 0 42.5 -10.5t29 -24t25.5 -24t31 -10.5q20 0 36 18.5t26 51.5h40zM551 1047h59l-116 -154h-44z" />
    <glyph glyph-name="uni1E79" unicode="&#x1e79;" horiz-adv-x="581" 
d="M228 -9q-60 0 -101.5 25t-57.5 73t-1 115l69 296h50l-68 -296q-20 -82 14.5 -125.5t105.5 -43.5q53 0 93 23t66.5 65t38.5 96l65 281h50l-116 -500h-44l25 125l8 -3q-23 -61 -75 -96t-122 -35zM535 686q-12 -55 -41 -82.5t-65 -27.5q-25 0 -41.5 10.5t-29.5 24t-26 24
t-31 10.5q-23 0 -38 -19t-26 -51h-40q12 55 41 82.5t67 27.5q26 0 42.5 -10.5t29 -24t25.5 -24t31 -10.5q20 0 36 18.5t26 51.5h40zM459 902h59l-116 -154h-44z" />
    <glyph glyph-name="uni1E7A" unicode="&#x1e7a;" horiz-adv-x="676" 
d="M317 -10q-87 0 -144.5 35t-78 100.5t-0.5 155.5l89 379h50l-90 -391q-18 -75 0 -127t63.5 -79t112.5 -27q90 0 143 57t76 156l95 411h50l-98 -425q-27 -113 -92.5 -179t-175.5 -66zM598 773l-9 -42h-293l10 42h292zM577 861q-16 0 -26 10t-10 25q0 21 12.5 33.5
t30.5 12.5q17 0 26.5 -10.5t9.5 -25.5q0 -20 -12.5 -32.5t-30.5 -12.5zM387 861q-15 0 -25 10t-10 25q0 21 12 33.5t31 12.5q16 0 26 -10.5t10 -25.5q0 -20 -12.5 -32.5t-31.5 -12.5z" />
    <glyph glyph-name="uni1E7B" unicode="&#x1e7b;" horiz-adv-x="581" 
d="M228 -9q-60 0 -101.5 25t-57.5 73t-1 115l69 296h50l-68 -296q-20 -82 14.5 -125.5t105.5 -43.5q53 0 93 23t66.5 65t38.5 96l65 281h50l-116 -500h-44l25 125l8 -3q-23 -61 -75 -96t-122 -35zM507 627l-9 -42h-293l10 42h292zM486 716q-16 0 -26 10t-10 25
q0 21 12.5 33.5t30.5 12.5q17 0 26.5 -10.5t9.5 -25.5q0 -20 -12.5 -32.5t-30.5 -12.5zM296 716q-15 0 -25 10t-10 25q0 21 12 33.5t31 12.5q16 0 26 -10.5t10 -25.5q0 -20 -12.5 -32.5t-31.5 -12.5z" />
    <glyph glyph-name="Wgrave" unicode="&#x1e80;" horiz-adv-x="917" 
d="M172 0l-49 660h49l42 -607l303 607h63l27 -610l323 610h54l-355 -660h-64l-24 468l-4 139h-1l-68 -144l-235 -463h-61zM550 897l40 -154h-36l-56 154h52z" />
    <glyph glyph-name="wgrave" unicode="&#x1e81;" horiz-adv-x="784" 
d="M131 0l-50 500h48l41 -436l246 436h50l57 -438l238 438h54l-278 -500h-50l-59 433l-246 -433h-51zM429 741l48 -158h-38l-60 158h50z" />
    <glyph glyph-name="Wacute" unicode="&#x1e82;" horiz-adv-x="917" 
d="M172 0l-49 660h49l42 -607l303 607h63l27 -610l323 610h54l-355 -660h-64l-24 468l-4 139h-1l-68 -144l-235 -463h-61zM638 897h59l-116 -154h-44z" />
    <glyph glyph-name="wacute" unicode="&#x1e83;" horiz-adv-x="784" 
d="M131 0l-50 500h48l41 -436l246 436h50l57 -438l238 438h54l-278 -500h-50l-59 433l-246 -433h-51zM544 741h60l-133 -158h-48z" />
    <glyph glyph-name="Wdieresis" unicode="&#x1e84;" horiz-adv-x="917" 
d="M172 0l-49 660h49l42 -607l303 607h63l27 -610l323 610h54l-355 -660h-64l-24 468l-4 139h-1l-68 -144l-235 -463h-61zM667 750q-16 0 -26 10t-10 25q0 21 12.5 33.5t30.5 12.5q17 0 26.5 -10.5t9.5 -25.5q0 -20 -12.5 -32.5t-30.5 -12.5zM477 750q-15 0 -25 10t-10 25
q0 21 12 33.5t31 12.5q16 0 26 -10.5t10 -25.5q0 -20 -12.5 -32.5t-31.5 -12.5z" />
    <glyph glyph-name="wdieresis" unicode="&#x1e85;" horiz-adv-x="784" 
d="M131 0l-50 500h48l41 -436l246 436h50l57 -438l238 438h54l-278 -500h-50l-59 433l-246 -433h-51zM553 590q-16 0 -26 10t-10 25q0 21 12.5 33.5t30.5 12.5q17 0 26.5 -10.5t9.5 -25.5q0 -20 -12.5 -32.5t-30.5 -12.5zM363 590q-15 0 -25 10t-10 25q0 21 12 33.5t31 12.5
q16 0 26 -10.5t10 -25.5q0 -20 -12.5 -32.5t-31.5 -12.5z" />
    <glyph glyph-name="uni1E8E" unicode="&#x1e8e;" horiz-adv-x="534" 
d="M184 0l59 257l-133 403h54l75 -235l37 -121l99 130l179 226h60l-321 -407l-59 -253h-50zM377 728q-17 0 -27.5 10.5t-10.5 26.5q0 21 12.5 34t31.5 13q17 0 27.5 -10t10.5 -27q0 -21 -13 -34t-31 -13z" />
    <glyph glyph-name="uni1E8F" unicode="&#x1e8f;" horiz-adv-x="489" 
d="M-8 -215q-33 0 -56.5 8.5t-36.5 24.5l22 40q27 -29 70 -29q35 0 63.5 21t58.5 69l52 83l-89 498h49l63 -360l13 -85l50 84l225 361h58l-381 -599q-26 -42 -52 -67.5t-52.5 -37t-56.5 -11.5zM323 582q-17 0 -27.5 10.5t-10.5 26.5q0 21 12.5 34t31.5 13q17 0 27.5 -10
t10.5 -27q0 -21 -13 -34t-31 -13z" />
    <glyph glyph-name="uni1E92" unicode="&#x1e92;" horiz-adv-x="568" 
d="M-15 0l10 45l537 569h-406l11 46h470l-11 -45l-538 -569h433l-11 -46h-495zM232 -161q-8 0 -13.5 5t-5.5 14q0 11 6.5 17.5t16.5 6.5q9 0 14 -5t5 -13q0 -12 -7 -18.5t-16 -6.5z" />
    <glyph glyph-name="uni1E93" unicode="&#x1e93;" horiz-adv-x="490" 
d="M-8 0l9 41l374 369l51 48l-77 -1h-256l10 43h392l-9 -43l-349 -344l-75 -70h95h251l-10 -43h-406zM188 -161q-8 0 -13.5 5t-5.5 14q0 11 6.5 17.5t16.5 6.5q9 0 14 -5t5 -13q0 -12 -7 -18.5t-16 -6.5z" />
    <glyph glyph-name="uni1E97" unicode="&#x1e97;" horiz-adv-x="368" 
d="M212 -9q-47 0 -77 18.5t-41 53t-1 83.5l109 473l55 16l-115 -492q-12 -54 9.5 -81t67.5 -27q25 0 45 7t37 19l11 -41q-22 -15 -47 -22t-53 -7zM62 457l11 43h313l-11 -43h-313zM344 712q-16 0 -26 10t-10 25q0 21 12.5 33.5t30.5 12.5q17 0 26.5 -10.5t9.5 -25.5
q0 -20 -12.5 -32.5t-30.5 -12.5zM154 712q-15 0 -25 10t-10 25q0 21 12 33.5t31 12.5q16 0 26 -10.5t10 -25.5q0 -20 -12.5 -32.5t-31.5 -12.5z" />
    <glyph glyph-name="uni1E9E" unicode="&#x1e9e;" horiz-adv-x="637" 
d="M385 -5q-49 0 -90 18t-65 46l28 41q19 -28 54 -44t78 -16q45 0 80 19t54.5 53t19.5 78q0 67 -37 98.5t-109 31.5h-74l10 45l267 249h-235q-55 0 -90.5 -20t-56 -55t-32.5 -83l-105 -456h-50l108 469q13 56 41.5 99t76.5 67.5t118 24.5h301l-11 -47l-274 -252h26
q54 0 93.5 -19t61.5 -56.5t22 -92.5q0 -59 -26.5 -103.5t-73.5 -69.5t-110 -25z" />
    <glyph glyph-name="uni1EA0" unicode="&#x1ea0;" horiz-adv-x="611" 
d="M-40 0l409 660h63l103 -660h-49l-85 531l-11 75v0l-43 -72l-330 -534h-57zM123 211l11 46h344l-11 -46h-344zM240 -161q-8 0 -13.5 5t-5.5 14q0 11 6.5 17.5t16.5 6.5q9 0 14 -5t5 -13q0 -12 -7 -18.5t-16 -6.5z" />
    <glyph glyph-name="uni1EA1" unicode="&#x1ea1;" 
d="M252 -9q-61 0 -106 28.5t-69.5 79t-24.5 115.5q0 62 18 115.5t52 94t81 63.5t104 23q53 0 91.5 -19.5t61.5 -54.5t27 -82l34 146h50l-116 -500h-44l22 108q-25 -51 -71.5 -84t-109.5 -33zM265 34q43 0 79.5 21.5t63.5 59t42 84.5t15 98q0 57 -21 94.5t-56 56.5t-79 19
q-46 0 -84 -19t-66 -53t-43 -80t-15 -101q0 -57 20.5 -97.5t57.5 -61.5t86 -21zM215 -161q-8 0 -13.5 5t-5.5 14q0 11 6.5 17.5t16.5 6.5q9 0 14 -5t5 -13q0 -12 -7 -18.5t-16 -6.5z" />
    <glyph glyph-name="uni1EA2" unicode="&#x1ea2;" horiz-adv-x="611" 
d="M-40 0l409 660h63l103 -660h-49l-85 531l-11 75v0l-43 -72l-330 -534h-57zM123 211l11 46h344l-11 -46h-344zM399 712l-9 28q31 5 48 22t17 40t-12.5 32t-29.5 9q-16 0 -29 -7t-23 -24l-26 28q15 21 36.5 33t48.5 12q31 0 54.5 -19t23.5 -56q0 -23 -11.5 -43.5t-33.5 -35
t-54 -19.5z" />
    <glyph glyph-name="uni1EA3" unicode="&#x1ea3;" 
d="M252 -9q-61 0 -106 28.5t-69.5 79t-24.5 115.5q0 62 18 115.5t52 94t81 63.5t104 23q53 0 91.5 -19.5t61.5 -54.5t27 -82l34 146h50l-116 -500h-44l22 108q-25 -51 -71.5 -84t-109.5 -33zM265 34q43 0 79.5 21.5t63.5 59t42 84.5t15 98q0 57 -21 94.5t-56 56.5t-79 19
q-46 0 -84 -19t-66 -53t-43 -80t-15 -101q0 -57 20.5 -97.5t57.5 -61.5t86 -21zM327 566l-10 30q33 6 53 23t20 42q0 20 -11.5 30t-29.5 10q-16 0 -29.5 -8t-24.5 -21l-23 28q15 18 36.5 29.5t47.5 11.5q36 0 56.5 -20t20.5 -54q0 -24 -12 -45t-36 -35.5t-58 -20.5z" />
    <glyph glyph-name="uni1EA4" unicode="&#x1ea4;" horiz-adv-x="611" 
d="M272 739l146 156h57l75 -156h-44l-64 121l-120 -121h-50zM633 992h54l-105 -138h-40zM-40 0l409 660h63l103 -660h-49l-85 531l-11 75v0l-43 -72l-330 -534h-57zM123 211l11 46h344l-11 -46h-344z" />
    <glyph glyph-name="uni1EA5" unicode="&#x1ea5;" 
d="M200 579l147 156h56l76 -156h-45l-64 121l-120 -121h-50zM562 832h53l-105 -138h-39zM252 -9q-61 0 -106 28.5t-69.5 79t-24.5 115.5q0 62 18 115.5t52 94t81 63.5t104 23q53 0 91.5 -19.5t61.5 -54.5t27 -82l34 146h50l-116 -500h-44l22 108q-25 -51 -71.5 -84
t-109.5 -33zM265 34q43 0 79.5 21.5t63.5 59t42 84.5t15 98q0 57 -21 94.5t-56 56.5t-79 19q-46 0 -84 -19t-66 -53t-43 -80t-15 -101q0 -57 20.5 -97.5t57.5 -61.5t86 -21z" />
    <glyph glyph-name="uni1EA6" unicode="&#x1ea6;" horiz-adv-x="611" 
d="M272 739l147 156h56l76 -156h-45l-64 121l-120 -121h-50zM557 992l37 -138h-33l-50 138h46zM-40 0l409 660h63l103 -660h-49l-85 531l-11 75v0l-43 -72l-330 -534h-57zM123 211l11 46h344l-11 -46h-344z" />
    <glyph glyph-name="uni1EA7" unicode="&#x1ea7;" 
d="M200 579l147 156h56l76 -156h-45l-64 121l-120 -121h-50zM485 832l37 -138h-33l-50 138h46zM252 -9q-61 0 -106 28.5t-69.5 79t-24.5 115.5q0 62 18 115.5t52 94t81 63.5t104 23q53 0 91.5 -19.5t61.5 -54.5t27 -82l34 146h50l-116 -500h-44l22 108q-25 -51 -71.5 -84
t-109.5 -33zM265 34q43 0 79.5 21.5t63.5 59t42 84.5t15 98q0 57 -21 94.5t-56 56.5t-79 19q-46 0 -84 -19t-66 -53t-43 -80t-15 -101q0 -57 20.5 -97.5t57.5 -61.5t86 -21z" />
    <glyph glyph-name="uni1EA8" unicode="&#x1ea8;" horiz-adv-x="611" 
d="M272 739l147 156h56l76 -156h-45l-64 121l-120 -121h-50zM556 831l-9 28q32 5 48.5 22t16.5 40t-12.5 32t-29.5 9q-16 0 -29 -7t-23 -24l-26 28q15 21 36.5 33t48.5 12q31 0 54.5 -19t23.5 -56q0 -23 -11.5 -43.5t-33.5 -35t-54 -19.5zM-40 0l409 660h63l103 -660h-49
l-85 531l-11 75v0l-43 -72l-330 -534h-57zM123 211l11 46h344l-11 -46h-344z" />
    <glyph glyph-name="uni1EA9" unicode="&#x1ea9;" 
d="M200 579l147 156h56l76 -156h-45l-64 121l-120 -121h-50zM484 671l-9 28q32 5 48.5 22t16.5 40t-12.5 32t-29.5 9q-16 0 -29 -7t-23 -24l-25 28q14 21 35.5 33t48.5 12q31 0 54.5 -19t23.5 -56q0 -23 -11.5 -43.5t-33.5 -35t-54 -19.5zM252 -9q-61 0 -106 28.5t-69.5 79
t-24.5 115.5q0 62 18 115.5t52 94t81 63.5t104 23q53 0 91.5 -19.5t61.5 -54.5t27 -82l34 146h50l-116 -500h-44l22 108q-25 -51 -71.5 -84t-109.5 -33zM265 34q43 0 79.5 21.5t63.5 59t42 84.5t15 98q0 57 -21 94.5t-56 56.5t-79 19q-46 0 -84 -19t-66 -53t-43 -80
t-15 -101q0 -57 20.5 -97.5t57.5 -61.5t86 -21z" />
    <glyph glyph-name="uni1EAA" unicode="&#x1eaa;" horiz-adv-x="611" 
d="M272 739l147 156h57l75 -156h-44l-64 121l-120 -121h-51zM625 1026q-11 -54 -38.5 -79.5t-63.5 -25.5q-24 0 -40.5 10t-29.5 23t-26 23t-32 10q-21 0 -36.5 -17t-22.5 -48h-41q11 53 38.5 79t65.5 26q24 0 41 -9.5t29.5 -22.5t26 -23t31.5 -10q20 0 34.5 16t22.5 48h41z
M-40 0l409 660h63l103 -660h-49l-85 531l-11 75v0l-43 -72l-330 -534h-57zM123 211l11 46h344l-11 -46h-344z" />
    <glyph glyph-name="uni1EAB" unicode="&#x1eab;" 
d="M200 579l146 156h57l75 -156h-44l-64 121l-120 -121h-50zM552 866q-11 -54 -38.5 -79.5t-63.5 -25.5q-24 0 -40.5 10t-29.5 23t-26 23t-32 10q-21 0 -36 -17t-23 -48h-41q11 53 38.5 79t65.5 26q25 0 41.5 -9.5t29 -22.5t26 -23t31.5 -10q20 0 34.5 16t22.5 48h41z
M252 -9q-61 0 -106 28.5t-69.5 79t-24.5 115.5q0 62 18 115.5t52 94t81 63.5t104 23q53 0 91.5 -19.5t61.5 -54.5t27 -82l34 146h50l-116 -500h-44l22 108q-25 -51 -71.5 -84t-109.5 -33zM265 34q43 0 79.5 21.5t63.5 59t42 84.5t15 98q0 57 -21 94.5t-56 56.5t-79 19
q-46 0 -84 -19t-66 -53t-43 -80t-15 -101q0 -57 20.5 -97.5t57.5 -61.5t86 -21z" />
    <glyph glyph-name="uni1EAC" unicode="&#x1eac;" horiz-adv-x="611" 
d="M-40 0l409 660h63l103 -660h-49l-85 531l-11 75v0l-43 -72l-330 -534h-57zM123 211l11 46h344l-11 -46h-344zM240 -161q-8 0 -13.5 5t-5.5 14q0 11 6.5 17.5t16.5 6.5q9 0 14 -5t5 -13q0 -12 -7 -18.5t-16 -6.5zM475 894l74 -151h-43l-63 117l-116 -117h-51l144 151h55z
" />
    <glyph glyph-name="uni1EAD" unicode="&#x1ead;" 
d="M252 -9q-61 0 -106 28.5t-69.5 79t-24.5 115.5q0 62 18 115.5t52 94t81 63.5t104 23q53 0 91.5 -19.5t61.5 -54.5t27 -82l34 146h50l-116 -500h-44l22 108q-25 -51 -71.5 -84t-109.5 -33zM265 34q43 0 79.5 21.5t63.5 59t42 84.5t15 98q0 57 -21 94.5t-56 56.5t-79 19
q-46 0 -84 -19t-66 -53t-43 -80t-15 -101q0 -57 20.5 -97.5t57.5 -61.5t86 -21zM215 -161q-8 0 -13.5 5t-5.5 14q0 11 6.5 17.5t16.5 6.5q9 0 14 -5t5 -13q0 -12 -7 -18.5t-16 -6.5zM200 579l147 156h56l76 -156h-44l-65 121l-120 -121h-50z" />
    <glyph glyph-name="uni1EAE" unicode="&#x1eae;" horiz-adv-x="611" 
d="M575 874q-11 -65 -53.5 -100t-103.5 -35q-55 0 -86.5 29t-31.5 74q0 18 3 32h38q-1 -5 -1.5 -11.5t-0.5 -11.5q0 -34 23 -54t60 -20q44 0 74 25t38 72h41zM408 884l88 134h53l-101 -134h-40zM-40 0l409 660h63l103 -660h-49l-85 531l-11 75v0l-43 -72l-330 -534h-57z
M123 211l11 46h344l-11 -46h-344z" />
    <glyph glyph-name="uni1EAF" unicode="&#x1eaf;" 
d="M509 714q-11 -65 -53.5 -100t-103.5 -35q-55 0 -86.5 29t-31.5 74q0 18 3 32h38q-1 -5 -1.5 -11.5t-0.5 -11.5q0 -34 23 -54t60 -20q43 0 73.5 25t38.5 72h41zM342 724l88 134h52l-100 -134h-40zM252 -9q-61 0 -106 28.5t-69.5 79t-24.5 115.5q0 62 18 115.5t52 94
t81 63.5t104 23q53 0 91.5 -19.5t61.5 -54.5t27 -82l34 146h50l-116 -500h-44l22 108q-25 -51 -71.5 -84t-109.5 -33zM265 34q43 0 79.5 21.5t63.5 59t42 84.5t15 98q0 57 -21 94.5t-56 56.5t-79 19q-46 0 -84 -19t-66 -53t-43 -80t-15 -101q0 -57 20.5 -97.5t57.5 -61.5
t86 -21z" />
    <glyph glyph-name="uni1EB0" unicode="&#x1eb0;" horiz-adv-x="611" 
d="M575 874q-11 -65 -53.5 -100t-103.5 -35q-55 0 -86.5 29t-31.5 74q0 18 3 32h38q-1 -5 -1.5 -11.5t-0.5 -11.5q0 -34 23 -54t60 -20q44 0 74 25t38 72h41zM432 884l-57 134h51l43 -134h-37zM-40 0l409 660h63l103 -660h-49l-85 531l-11 75v0l-43 -72l-330 -534h-57z
M123 211l11 46h344l-11 -46h-344z" />
    <glyph glyph-name="uni1EB1" unicode="&#x1eb1;" 
d="M509 714q-11 -65 -53.5 -100t-103.5 -35q-55 0 -86.5 29t-31.5 74q0 18 3 32h38q-1 -5 -1.5 -11.5t-0.5 -11.5q0 -34 23 -54t60 -20q43 0 73.5 25t38.5 72h41zM365 724l-56 134h51l43 -134h-38zM252 -9q-61 0 -106 28.5t-69.5 79t-24.5 115.5q0 62 18 115.5t52 94
t81 63.5t104 23q53 0 91.5 -19.5t61.5 -54.5t27 -82l34 146h50l-116 -500h-44l22 108q-25 -51 -71.5 -84t-109.5 -33zM265 34q43 0 79.5 21.5t63.5 59t42 84.5t15 98q0 57 -21 94.5t-56 56.5t-79 19q-46 0 -84 -19t-66 -53t-43 -80t-15 -101q0 -57 20.5 -97.5t57.5 -61.5
t86 -21z" />
    <glyph glyph-name="uni1EB2" unicode="&#x1eb2;" horiz-adv-x="611" 
d="M575 874q-11 -65 -53.5 -100t-103.5 -35q-55 0 -86.5 29t-31.5 74q0 18 3 32h38q-1 -5 -1.5 -11.5t-0.5 -11.5q0 -34 23 -54t60 -20q44 0 74 25t38 72h41zM427 872l-9 27q32 6 48.5 23t16.5 40q0 22 -12.5 31.5t-29.5 9.5q-16 0 -29 -7.5t-23 -23.5l-25 28q14 21 35.5 33
t48.5 12q31 0 54.5 -19.5t23.5 -55.5q0 -23 -11.5 -44t-33 -35t-54.5 -19zM-40 0l409 660h63l103 -660h-49l-85 531l-11 75v0l-43 -72l-330 -534h-57zM123 211l11 46h344l-11 -46h-344z" />
    <glyph glyph-name="uni1EB3" unicode="&#x1eb3;" 
d="M509 714q-11 -65 -53.5 -100t-103.5 -35q-55 0 -86.5 29t-31.5 74q0 18 3 32h38q-1 -5 -1.5 -11.5t-0.5 -11.5q0 -34 23 -54t60 -20q43 0 73.5 25t38.5 72h41zM361 712l-9 27q32 6 48.5 23t16.5 40q0 22 -12.5 31.5t-29.5 9.5q-16 0 -29 -7.5t-23 -23.5l-25 28
q14 21 35.5 33t48.5 12q31 0 54.5 -19.5t23.5 -55.5q0 -23 -11.5 -44t-33.5 -35t-54 -19zM252 -9q-61 0 -106 28.5t-69.5 79t-24.5 115.5q0 62 18 115.5t52 94t81 63.5t104 23q53 0 91.5 -19.5t61.5 -54.5t27 -82l34 146h50l-116 -500h-44l22 108q-25 -51 -71.5 -84
t-109.5 -33zM265 34q43 0 79.5 21.5t63.5 59t42 84.5t15 98q0 57 -21 94.5t-56 56.5t-79 19q-46 0 -84 -19t-66 -53t-43 -80t-15 -101q0 -57 20.5 -97.5t57.5 -61.5t86 -21z" />
    <glyph glyph-name="uni1EB4" unicode="&#x1eb4;" horiz-adv-x="611" 
d="M575 874q-10 -65 -52.5 -100t-104.5 -35q-54 0 -86 29t-32 74q0 18 4 32h38q-1 -5 -1.5 -11.5t-0.5 -11.5q0 -34 22.5 -54t59.5 -20q44 0 74.5 25t38.5 72h40zM616 1017q-10 -54 -37.5 -79.5t-63.5 -25.5q-25 0 -41.5 10t-29 23t-26 22.5t-32.5 9.5q-21 0 -36 -16.5
t-22 -47.5h-41q11 53 38.5 79t65.5 26q24 0 40.5 -10t29 -23t26 -23t32.5 -10q20 0 34.5 16.5t22.5 48.5h40zM-40 0l409 660h63l103 -660h-49l-85 531l-11 75v0l-43 -72l-330 -534h-57zM123 211l11 46h344l-11 -46h-344z" />
    <glyph glyph-name="uni1EB5" unicode="&#x1eb5;" 
d="M509 714q-11 -65 -53.5 -100t-103.5 -35q-55 0 -86.5 29t-31.5 74q0 18 3 32h38q-1 -5 -1.5 -11.5t-0.5 -11.5q0 -34 23 -54t60 -20q44 0 74 25t38 72h41zM550 857q-11 -54 -38.5 -79.5t-63.5 -25.5q-24 0 -40.5 10t-29.5 23t-26 22.5t-32 9.5q-21 0 -36 -16.5t-23 -47.5
h-41q11 53 38.5 79t65.5 26q25 0 41.5 -10t29 -23t26 -23t31.5 -10q20 0 34.5 16.5t22.5 48.5h41zM252 -9q-61 0 -106 28.5t-69.5 79t-24.5 115.5q0 62 18 115.5t52 94t81 63.5t104 23q53 0 91.5 -19.5t61.5 -54.5t27 -82l34 146h50l-116 -500h-44l22 108q-25 -51 -71.5 -84
t-109.5 -33zM265 34q43 0 79.5 21.5t63.5 59t42 84.5t15 98q0 57 -21 94.5t-56 56.5t-79 19q-46 0 -84 -19t-66 -53t-43 -80t-15 -101q0 -57 20.5 -97.5t57.5 -61.5t86 -21z" />
    <glyph glyph-name="uni1EB6" unicode="&#x1eb6;" horiz-adv-x="611" 
d="M-40 0l409 660h63l103 -660h-49l-85 531l-11 75v0l-43 -72l-330 -534h-57zM123 211l11 46h344l-11 -46h-344zM240 -161q-8 0 -13.5 5t-5.5 14q0 11 6.5 17.5t16.5 6.5q9 0 14 -5t5 -13q0 -12 -7 -18.5t-16 -6.5zM575 874q-11 -65 -53.5 -100t-103.5 -35q-55 0 -86.5 29
t-31.5 74q0 8 1 16.5t2 15.5h38q-1 -5 -1.5 -11.5t-0.5 -11.5q0 -34 23 -54t60 -20q43 0 73.5 25t38.5 72h41z" />
    <glyph glyph-name="uni1EB7" unicode="&#x1eb7;" 
d="M252 -9q-61 0 -106 28.5t-69.5 79t-24.5 115.5q0 62 18 115.5t52 94t81 63.5t104 23q53 0 91.5 -19.5t61.5 -54.5t27 -82l34 146h50l-116 -500h-44l22 108q-25 -51 -71.5 -84t-109.5 -33zM265 34q43 0 79.5 21.5t63.5 59t42 84.5t15 98q0 57 -21 94.5t-56 56.5t-79 19
q-46 0 -84 -19t-66 -53t-43 -80t-15 -101q0 -57 20.5 -97.5t57.5 -61.5t86 -21zM215 -161q-8 0 -13.5 5t-5.5 14q0 11 6.5 17.5t16.5 6.5q9 0 14 -5t5 -13q0 -12 -7 -18.5t-16 -6.5zM505 714q-11 -65 -53.5 -100t-103.5 -35q-55 0 -86.5 29t-31.5 74q0 8 1 16.5t2 15.5h38
q-1 -5 -1.5 -11.5t-0.5 -11.5q0 -34 23 -54t60 -20q43 0 73.5 25t38.5 72h41z" />
    <glyph glyph-name="uni1EB8" unicode="&#x1eb8;" 
d="M43 0l153 660h441l-12 -46h-390l-59 -255h311l-11 -47h-310l-61 -266h407l-11 -46h-458zM265 -161q-8 0 -13.5 5t-5.5 14q0 11 6.5 17.5t16.5 6.5q9 0 14 -5t5 -13q0 -12 -7 -18.5t-16 -6.5z" />
    <glyph glyph-name="uni1EB9" unicode="&#x1eb9;" horiz-adv-x="551" 
d="M269 -9q-69 0 -118 30t-74 81.5t-25 113.5q0 78 30 145t88 107.5t140 40.5q60 0 102.5 -26t65.5 -70.5t23 -101.5q0 -15 -2 -32t-7 -34h-414v43h391l-21 -16q2 10 3 20t1 20q0 44 -17 78.5t-49.5 55t-78.5 20.5q-51 0 -89.5 -20.5t-64.5 -56t-38.5 -80.5t-12.5 -94
q0 -53 21 -93.5t59.5 -64t90.5 -23.5q57 1 97.5 26.5t64.5 65.5l40 -26q-21 -32 -51.5 -57t-69 -38.5t-85.5 -13.5zM227 -161q-8 0 -13.5 5t-5.5 14q0 11 6.5 17.5t16.5 6.5q9 0 14 -5t5 -13q0 -12 -7 -18.5t-16 -6.5z" />
    <glyph glyph-name="uni1EBA" unicode="&#x1eba;" 
d="M43 0l153 660h441l-12 -46h-390l-59 -255h311l-11 -47h-310l-61 -266h407l-11 -46h-458zM413 712l-9 28q31 5 48 22t17 40t-12.5 32t-29.5 9q-16 0 -29 -7t-23 -24l-26 28q15 21 36.5 33t48.5 12q31 0 54.5 -19t23.5 -56q0 -23 -11.5 -43.5t-33.5 -35t-54 -19.5z" />
    <glyph glyph-name="uni1EBB" unicode="&#x1ebb;" horiz-adv-x="551" 
d="M269 -9q-69 0 -118 30t-74 81.5t-25 113.5q0 78 30 145t88 107.5t140 40.5q60 0 102.5 -26t65.5 -70.5t23 -101.5q0 -15 -2 -32t-7 -34h-414v43h391l-21 -16q2 10 3 20t1 20q0 44 -17 78.5t-49.5 55t-78.5 20.5q-51 0 -89.5 -20.5t-64.5 -56t-38.5 -80.5t-12.5 -94
q0 -53 21 -93.5t59.5 -64t90.5 -23.5q57 1 97.5 26.5t64.5 65.5l40 -26q-21 -32 -51.5 -57t-69 -38.5t-85.5 -13.5zM314 566l-10 30q33 6 53 23t20 42q0 20 -11.5 30t-29.5 10q-16 0 -29.5 -8t-24.5 -21l-23 28q15 18 36.5 29.5t47.5 11.5q36 0 56.5 -20t20.5 -54
q0 -24 -12 -45t-36 -35.5t-58 -20.5z" />
    <glyph glyph-name="uni1EBC" unicode="&#x1ebc;" 
d="M43 0l153 660h441l-12 -46h-390l-59 -255h311l-11 -47h-310l-61 -266h407l-11 -46h-458zM610 861q-12 -55 -41 -82.5t-65 -27.5q-25 0 -41.5 10.5t-29.5 24t-26 24t-31 10.5q-23 0 -38 -19t-26 -51h-40q12 55 41 82.5t67 27.5q26 0 42.5 -10.5t29 -24t25.5 -24t31 -10.5
q20 0 36 18.5t26 51.5h40z" />
    <glyph glyph-name="uni1EBD" unicode="&#x1ebd;" horiz-adv-x="551" 
d="M269 -9q-69 0 -118 30t-74 81.5t-25 113.5q0 78 30 145t88 107.5t140 40.5q60 0 102.5 -26t65.5 -70.5t23 -101.5q0 -15 -2 -32t-7 -34h-414v43h391l-21 -16q2 10 3 20t1 20q0 44 -17 78.5t-49.5 55t-78.5 20.5q-51 0 -89.5 -20.5t-64.5 -56t-38.5 -80.5t-12.5 -94
q0 -53 21 -93.5t59.5 -64t90.5 -23.5q57 1 97.5 26.5t64.5 65.5l40 -26q-21 -32 -51.5 -57t-69 -38.5t-85.5 -13.5zM511 701q-12 -55 -41 -82.5t-65 -27.5q-25 0 -41.5 10.5t-29.5 24t-26 24t-31 10.5q-23 0 -38 -19t-26 -51h-40q12 55 41 82.5t67 27.5q26 0 42.5 -10.5
t29 -24t25.5 -24t31 -10.5q20 0 36 18.5t26 51.5h40z" />
    <glyph glyph-name="uni1EBE" unicode="&#x1ebe;" 
d="M285 739l147 156h56l76 -156h-44l-64 121l-120 -121h-51zM647 992h53l-104 -138h-40zM43 0l153 660h441l-12 -46h-390l-59 -255h311l-11 -47h-310l-61 -266h407l-11 -46h-458z" />
    <glyph glyph-name="uni1EBF" unicode="&#x1ebf;" horiz-adv-x="551" 
d="M549 832h53l-105 -138h-39zM187 579l147 156h56l76 -156h-44l-65 121l-119 -121h-51zM269 -9q-69 0 -118 30t-74 81.5t-25 113.5q0 78 30 145t88 107.5t140 40.5q60 0 102.5 -26t65.5 -70.5t23 -101.5q0 -15 -2 -32t-7 -34h-414v43h391l-21 -16q2 10 3 20t1 20
q0 44 -17 78.5t-49.5 55t-78.5 20.5q-51 0 -89.5 -20.5t-64.5 -56t-38.5 -80.5t-12.5 -94q0 -53 21 -93.5t59.5 -64t90.5 -23.5q57 1 97.5 26.5t64.5 65.5l40 -26q-21 -32 -51.5 -57t-69 -38.5t-85.5 -13.5z" />
    <glyph glyph-name="uni1EC0" unicode="&#x1ec0;" 
d="M286 739l147 156h56l75 -156h-44l-64 121l-120 -121h-50zM571 992l37 -138h-33l-50 138h46zM43 0l153 660h441l-12 -46h-390l-59 -255h311l-11 -47h-310l-61 -266h407l-11 -46h-458z" />
    <glyph glyph-name="uni1EC1" unicode="&#x1ec1;" horiz-adv-x="551" 
d="M472 832l37 -138h-33l-50 138h46zM187 579l147 156h56l76 -156h-44l-65 121l-119 -121h-51zM269 -9q-69 0 -118 30t-74 81.5t-25 113.5q0 78 30 145t88 107.5t140 40.5q60 0 102.5 -26t65.5 -70.5t23 -101.5q0 -15 -2 -32t-7 -34h-414v43h391l-21 -16q2 10 3 20t1 20
q0 44 -17 78.5t-49.5 55t-78.5 20.5q-51 0 -89.5 -20.5t-64.5 -56t-38.5 -80.5t-12.5 -94q0 -53 21 -93.5t59.5 -64t90.5 -23.5q57 1 97.5 26.5t64.5 65.5l40 -26q-21 -32 -51.5 -57t-69 -38.5t-85.5 -13.5z" />
    <glyph glyph-name="uni1EC2" unicode="&#x1ec2;" 
d="M286 739l147 156h56l75 -156h-44l-64 121l-120 -121h-50zM570 831l-9 28q31 5 48 22t17 40t-12.5 32t-29.5 9q-16 0 -29 -7t-23 -24l-26 28q15 21 36.5 33t48.5 12q31 0 54.5 -19t23.5 -56q0 -23 -11.5 -43.5t-33.5 -35t-54 -19.5zM43 0l153 660h441l-12 -46h-390
l-59 -255h311l-11 -47h-310l-61 -266h407l-11 -46h-458z" />
    <glyph glyph-name="uni1EC3" unicode="&#x1ec3;" horiz-adv-x="551" 
d="M471 671l-9 28q32 5 48.5 22t16.5 40t-12.5 32t-29.5 9q-16 0 -29 -7t-22 -24l-26 28q14 21 35.5 33t48.5 12q32 0 55 -19t23 -56q0 -23 -11.5 -43.5t-33 -35t-54.5 -19.5zM187 579l147 156h56l76 -156h-44l-65 121l-119 -121h-51zM269 -9q-69 0 -118 30t-74 81.5
t-25 113.5q0 78 30 145t88 107.5t140 40.5q60 0 102.5 -26t65.5 -70.5t23 -101.5q0 -15 -2 -32t-7 -34h-414v43h391l-21 -16q2 10 3 20t1 20q0 44 -17 78.5t-49.5 55t-78.5 20.5q-51 0 -89.5 -20.5t-64.5 -56t-38.5 -80.5t-12.5 -94q0 -53 21 -93.5t59.5 -64t90.5 -23.5
q57 1 97.5 26.5t64.5 65.5l40 -26q-21 -32 -51.5 -57t-69 -38.5t-85.5 -13.5z" />
    <glyph glyph-name="uni1EC4" unicode="&#x1ec4;" 
d="M286 739l147 156h56l76 -156h-44l-64 121l-120 -121h-51zM639 1026q-11 -54 -38.5 -79.5t-63.5 -25.5q-24 0 -40.5 10t-29.5 23t-26 23t-32 10q-22 0 -37 -17t-22 -48h-41q11 53 38.5 79t65.5 26q24 0 40.5 -9.5t29 -22.5t26 -23t32.5 -10q20 0 34.5 16t22.5 48h41zM43 0
l153 660h441l-12 -46h-390l-59 -255h311l-11 -47h-310l-61 -266h407l-11 -46h-458z" />
    <glyph glyph-name="uni1EC5" unicode="&#x1ec5;" horiz-adv-x="551" 
d="M187 579l147 156h56l75 -156h-44l-64 121l-120 -121h-50zM539 866q-10 -54 -37.5 -79.5t-63.5 -25.5q-25 0 -41.5 10t-29.5 23t-26 23t-32 10q-21 0 -36 -17t-23 -48h-41q11 53 38.5 79t65.5 26q25 0 41.5 -9.5t29 -22.5t26 -23t31.5 -10q21 0 35.5 16t22.5 48h40z
M269 -9q-69 0 -118 30t-74 81.5t-25 113.5q0 78 30 145t88 107.5t140 40.5q60 0 102.5 -26t65.5 -70.5t23 -101.5q0 -15 -2 -32t-7 -34h-414v43h391l-21 -16q2 10 3 20t1 20q0 44 -17 78.5t-49.5 55t-78.5 20.5q-51 0 -89.5 -20.5t-64.5 -56t-38.5 -80.5t-12.5 -94
q0 -53 21 -93.5t59.5 -64t90.5 -23.5q57 1 97.5 26.5t64.5 65.5l40 -26q-21 -32 -51.5 -57t-69 -38.5t-85.5 -13.5z" />
    <glyph glyph-name="uni1EC6" unicode="&#x1ec6;" 
d="M43 0l153 660h441l-12 -46h-390l-59 -255h311l-11 -47h-310l-61 -266h407l-11 -46h-458zM265 -161q-8 0 -13.5 5t-5.5 14q0 11 6.5 17.5t16.5 6.5q9 0 14 -5t5 -13q0 -12 -7 -18.5t-16 -6.5zM489 894l74 -151h-43l-63 117l-116 -117h-51l144 151h55z" />
    <glyph glyph-name="uni1EC7" unicode="&#x1ec7;" horiz-adv-x="551" 
d="M269 -9q-69 0 -118 30t-74 81.5t-25 113.5q0 78 30 145t88 107.5t140 40.5q60 0 102.5 -26t65.5 -70.5t23 -101.5q0 -15 -2 -32t-7 -34h-414v43h391l-21 -16q2 10 3 20t1 20q0 44 -17 78.5t-49.5 55t-78.5 20.5q-51 0 -89.5 -20.5t-64.5 -56t-38.5 -80.5t-12.5 -94
q0 -53 21 -93.5t59.5 -64t90.5 -23.5q57 1 97.5 26.5t64.5 65.5l40 -26q-21 -32 -51.5 -57t-69 -38.5t-85.5 -13.5zM227 -161q-8 0 -13.5 5t-5.5 14q0 11 6.5 17.5t16.5 6.5q9 0 14 -5t5 -13q0 -12 -7 -18.5t-16 -6.5zM187 579l147 156h56l76 -156h-44l-65 121l-120 -121
h-50z" />
    <glyph glyph-name="uni1EC8" unicode="&#x1ec8;" horiz-adv-x="253" 
d="M246 660l-153 -660h-50l153 660h50zM225 712l-9 28q31 5 48 22t17 40t-12.5 32t-29.5 9q-16 0 -29 -7t-23 -24l-26 28q15 21 36.5 33t48.5 12q31 0 54.5 -19t23.5 -56q0 -23 -11.5 -43.5t-33.5 -35t-54 -19.5z" />
    <glyph glyph-name="uni1EC9" unicode="&#x1ec9;" horiz-adv-x="222" 
d="M194 500l-116 -500h-50l116 500h50zM173 566l-10 30q33 6 53 23t20 42q0 20 -11.5 30t-29.5 10q-16 0 -29.5 -8t-24.5 -21l-23 28q15 18 36.5 29.5t47.5 11.5q36 0 56.5 -20t20.5 -54q0 -24 -12 -45t-36 -35.5t-58 -20.5z" />
    <glyph glyph-name="uni1ECA" unicode="&#x1eca;" horiz-adv-x="253" 
d="M246 660l-153 -660h-50l153 660h50zM35 -161q-8 0 -13.5 5t-5.5 14q0 11 6.5 17.5t16.5 6.5q9 0 14 -5t5 -13q0 -12 -7 -18.5t-16 -6.5z" />
    <glyph glyph-name="uni1ECB" unicode="&#x1ecb;" horiz-adv-x="223" 
d="M198 597q-17 0 -27.5 10.5t-10.5 26.5q0 22 13 34.5t31 12.5q17 0 27.5 -10.5t10.5 -26.5q0 -21 -12.5 -34t-31.5 -13zM194 500l-116 -500h-50l116 500h50zM20 -161q-8 0 -13.5 5t-5.5 14q0 11 6.5 17.5t16.5 6.5q9 0 14 -5t5 -13q0 -12 -7 -18.5t-16 -6.5z" />
    <glyph glyph-name="uni1ECC" unicode="&#x1ecc;" horiz-adv-x="728" 
d="M352 -10q-74 0 -136 33.5t-99 98.5t-37 158q0 77 21.5 147t64 124.5t105.5 86.5t145 32q74 0 135 -34t97.5 -98.5t36.5 -157.5q0 -76 -21.5 -146t-63.5 -125t-104 -87t-144 -32zM357 37q68 0 119.5 28.5t86 76.5t52.5 109t18 126q0 79 -29.5 133.5t-79.5 83.5t-114 29
q-68 0 -120 -28.5t-87 -76.5t-53 -108.5t-18 -126.5q0 -79 29.5 -133.5t80.5 -83.5t115 -29zM303 -161q-8 0 -13.5 5t-5.5 14q0 11 6.5 17.5t16.5 6.5q9 0 14 -5t5 -13q0 -12 -7 -18.5t-16 -6.5z" />
    <glyph glyph-name="uni1ECD" unicode="&#x1ecd;" horiz-adv-x="579" 
d="M273 -9q-70 0 -119.5 30.5t-75.5 82t-26 112.5q0 86 32.5 152t89.5 103.5t133 37.5q72 0 120.5 -30.5t74 -81t25.5 -112.5q0 -85 -32 -151.5t-89 -104.5t-133 -38zM275 34q43 0 80 17.5t64.5 51t42 79.5t14.5 101q0 54 -19.5 95t-57.5 64.5t-94 23.5q-43 0 -80.5 -17.5
t-64.5 -50.5t-42 -79t-15 -101q0 -53 20 -94.5t58.5 -65.5t93.5 -24zM229 -161q-8 0 -13.5 5t-5.5 14q0 11 6.5 17.5t16.5 6.5q9 0 14 -5t5 -13q0 -12 -7 -18.5t-16 -6.5z" />
    <glyph glyph-name="uni1ECE" unicode="&#x1ece;" horiz-adv-x="728" 
d="M352 -10q-74 0 -136 33.5t-99 98.5t-37 158q0 77 21.5 147t64 124.5t105.5 86.5t145 32q74 0 135 -34t97.5 -98.5t36.5 -157.5q0 -76 -21.5 -146t-63.5 -125t-104 -87t-144 -32zM357 37q68 0 119.5 28.5t86 76.5t52.5 109t18 126q0 79 -29.5 133.5t-79.5 83.5t-114 29
q-68 0 -120 -28.5t-87 -76.5t-53 -108.5t-18 -126.5q0 -79 29.5 -133.5t80.5 -83.5t115 -29zM433 712l-9 28q31 5 48 22t17 40t-12.5 32t-29.5 9q-16 0 -29 -7t-23 -24l-26 28q15 21 36.5 33t48.5 12q31 0 54.5 -19t23.5 -56q0 -23 -11.5 -43.5t-33.5 -35t-54 -19.5z" />
    <glyph glyph-name="uni1ECF" unicode="&#x1ecf;" horiz-adv-x="579" 
d="M273 -9q-70 0 -119.5 30.5t-75.5 82t-26 112.5q0 86 32.5 152t89.5 103.5t133 37.5q72 0 120.5 -30.5t74 -81t25.5 -112.5q0 -85 -32 -151.5t-89 -104.5t-133 -38zM275 34q43 0 80 17.5t64.5 51t42 79.5t14.5 101q0 54 -19.5 95t-57.5 64.5t-94 23.5q-43 0 -80.5 -17.5
t-64.5 -50.5t-42 -79t-15 -101q0 -53 20 -94.5t58.5 -65.5t93.5 -24zM322 566l-10 30q33 6 53 23t20 42q0 20 -11.5 30t-29.5 10q-16 0 -29.5 -8t-24.5 -21l-23 28q15 18 36.5 29.5t47.5 11.5q36 0 56.5 -20t20.5 -54q0 -24 -12 -45t-36 -35.5t-58 -20.5z" />
    <glyph glyph-name="uni1ED0" unicode="&#x1ed0;" horiz-adv-x="728" 
d="M306 739l147 156h56l75 -156h-44l-64 121l-120 -121h-50zM668 992h53l-105 -138h-40zM352 -10q-74 0 -136 33.5t-99 98.5t-37 158q0 77 21.5 147t64 124.5t105.5 86.5t145 32q74 0 135 -34t97.5 -98.5t36.5 -157.5q0 -76 -21.5 -146t-63.5 -125t-104 -87t-144 -32z
M357 37q68 0 119.5 28.5t86 76.5t52.5 109t18 126q0 79 -29.5 133.5t-79.5 83.5t-114 29q-68 0 -120 -28.5t-87 -76.5t-53 -108.5t-18 -126.5q0 -79 29.5 -133.5t80.5 -83.5t115 -29z" />
    <glyph glyph-name="uni1ED1" unicode="&#x1ed1;" horiz-adv-x="579" 
d="M557 832h53l-104 -138h-40zM195 579l147 156h56l76 -156h-44l-64 121l-120 -121h-51zM273 -9q-70 0 -119.5 30.5t-75.5 82t-26 112.5q0 86 32.5 152t89.5 103.5t133 37.5q72 0 120.5 -30.5t74 -81t25.5 -112.5q0 -85 -32 -151.5t-89 -104.5t-133 -38zM275 34
q43 0 80 17.5t64.5 51t42 79.5t14.5 101q0 54 -19.5 95t-57.5 64.5t-94 23.5q-43 0 -80.5 -17.5t-64.5 -50.5t-42 -79t-15 -101q0 -53 20 -94.5t58.5 -65.5t93.5 -24z" />
    <glyph glyph-name="uni1ED2" unicode="&#x1ed2;" horiz-adv-x="728" 
d="M306 739l147 156h56l76 -156h-44l-65 121l-120 -121h-50zM591 992l37 -138h-33l-50 138h46zM352 -10q-74 0 -136 33.5t-99 98.5t-37 158q0 77 21.5 147t64 124.5t105.5 86.5t145 32q74 0 135 -34t97.5 -98.5t36.5 -157.5q0 -76 -21.5 -146t-63.5 -125t-104 -87t-144 -32z
M357 37q68 0 119.5 28.5t86 76.5t52.5 109t18 126q0 79 -29.5 133.5t-79.5 83.5t-114 29q-68 0 -120 -28.5t-87 -76.5t-53 -108.5t-18 -126.5q0 -79 29.5 -133.5t80.5 -83.5t115 -29z" />
    <glyph glyph-name="uni1ED3" unicode="&#x1ed3;" horiz-adv-x="579" 
d="M480 832l37 -138h-32l-51 138h46zM195 579l147 156h56l76 -156h-44l-64 121l-120 -121h-51zM273 -9q-70 0 -119.5 30.5t-75.5 82t-26 112.5q0 86 32.5 152t89.5 103.5t133 37.5q72 0 120.5 -30.5t74 -81t25.5 -112.5q0 -85 -32 -151.5t-89 -104.5t-133 -38zM275 34
q43 0 80 17.5t64.5 51t42 79.5t14.5 101q0 54 -19.5 95t-57.5 64.5t-94 23.5q-43 0 -80.5 -17.5t-64.5 -50.5t-42 -79t-15 -101q0 -53 20 -94.5t58.5 -65.5t93.5 -24z" />
    <glyph glyph-name="uni1ED4" unicode="&#x1ed4;" horiz-adv-x="728" 
d="M306 739l147 156h56l76 -156h-44l-65 121l-120 -121h-50zM590 831l-9 28q32 5 48.5 22t16.5 40t-12.5 32t-29.5 9q-16 0 -29 -7t-23 -24l-25 28q14 21 35.5 33t48.5 12q31 0 54.5 -19t23.5 -56q0 -23 -11.5 -43.5t-33 -35t-54.5 -19.5zM352 -10q-74 0 -136 33.5t-99 98.5
t-37 158q0 77 21.5 147t64 124.5t105.5 86.5t145 32q74 0 135 -34t97.5 -98.5t36.5 -157.5q0 -76 -21.5 -146t-63.5 -125t-104 -87t-144 -32zM357 37q68 0 119.5 28.5t86 76.5t52.5 109t18 126q0 79 -29.5 133.5t-79.5 83.5t-114 29q-68 0 -120 -28.5t-87 -76.5t-53 -108.5
t-18 -126.5q0 -79 29.5 -133.5t80.5 -83.5t115 -29z" />
    </font>
</defs>
</svg>
