<?xml version="1.0" standalone="no"?>
<!DOCTYPE svg PUBLIC "-//W3C//DTD SVG 1.1//EN" "http://www.w3.org/Graphics/SVG/1.1/DTD/svg11.dtd" >
<svg xmlns="http://www.w3.org/2000/svg" xmlns:xlink="http://www.w3.org/1999/xlink" version="1.1">
<metadata></metadata>
<defs>
<font id="source_sans_problack_italic" horiz-adv-x="1064" >
<font-face units-per-em="2048" ascent="1536" descent="-512" />
<missing-glyph horiz-adv-x="409" />
<glyph horiz-adv-x="0" />
<glyph horiz-adv-x="682" />
<glyph horiz-adv-x="0" />
<glyph horiz-adv-x="0" />
<glyph unicode="&#xd;" horiz-adv-x="409" />
<glyph unicode=" "  horiz-adv-x="409" />
<glyph unicode="&#x09;" horiz-adv-x="409" />
<glyph unicode="&#xa0;" horiz-adv-x="409" />
<glyph unicode="!" horiz-adv-x="716" d="M94 147q0 41 16.5 82t46 74t70.5 53.5t92 20.5q74 0 119 -49t45 -123q0 -43 -16 -84t-46 -74t-71 -52.5t-92 -19.5q-74 0 -119 47.5t-45 124.5zM246 487l78 598l41 287h327l-65 -287l-168 -598h-213z" />
<glyph unicode="&#x22;" horiz-adv-x="1126" d="M242 692l41 393l41 287h323l-65 -287l-127 -393h-213zM734 692l41 393l41 287h323l-65 -287l-127 -393h-213z" />
<glyph unicode="#" horiz-adv-x="1056" d="M33 373l49 209h168l65 209h-151l49 208h168l106 332h189l-107 -332h185l106 332h189l-107 -332h152l-50 -208h-167l-66 -209h152l-50 -209h-168l-118 -373h-189l119 373h-184l-119 -373h-188l118 373h-151zM438 582h185l65 209h-184z" />
<glyph unicode="$" d="M4 184l201 197q47 -59 109.5 -101t136.5 -42t110.5 31.5t36.5 90.5q0 49 -29.5 89t-74.5 78t-98.5 77t-98.5 85t-74.5 104.5t-29.5 136.5q0 82 27.5 153.5t78.5 125t123 87t162 43.5l39 205h213l-41 -221q139 -43 249 -172l-204 -184q-41 53 -92.5 83.5t-104.5 30.5 q-61 0 -94 -32.5t-33 -81.5q0 -45 29.5 -81t75 -72t98.5 -75t98 -87t75 -109.5t30 -141.5q0 -84 -28 -156.5t-79 -127t-125 -90t-164 -45.5l-43 -207h-213l43 217q-86 23 -165.5 71t-143.5 121z" />
<glyph unicode="%" horiz-adv-x="1728" d="M102 860q0 113 30 208t82 165t126 108.5t164 38.5q59 0 113.5 -23.5t94.5 -66.5t63.5 -104.5t23.5 -136.5q0 -113 -30 -208t-82 -165t-127 -109t-163 -39q-59 0 -113.5 22.5t-94 65.5t-63.5 104.5t-24 139.5zM295 -25l962 1401h185l-963 -1401h-184zM332 864 q0 -68 21.5 -105.5t64.5 -37.5q61 0 106 86t45 238q0 68 -21.5 105.5t-64.5 37.5q-61 0 -106 -86t-45 -238zM962 307q0 113 30 208t82 165t126 108.5t164 38.5q59 0 113.5 -23.5t94.5 -66.5t63.5 -104.5t23.5 -136.5q0 -113 -30 -208t-82 -165t-127 -109t-163 -39 q-59 0 -113.5 22.5t-94 65.5t-63.5 104.5t-24 139.5zM1192 311q0 -68 21.5 -105.5t64.5 -37.5q61 0 106 86t45 238q0 68 -21.5 105.5t-64.5 37.5q-61 0 -106 -86t-45 -238z" />
<glyph unicode="&#x26;" horiz-adv-x="1335" d="M29 315q0 82 24.5 145.5t65.5 114t95 89t114 71.5q-41 117 -41 219q0 82 32.5 155t90 128t135.5 87t168 32q141 0 218 -77t77 -210q0 -74 -30 -134.5t-77 -109.5t-107.5 -91t-123.5 -79q41 -59 90 -113.5t102 -101.5q63 72 110.5 151t84.5 171h295q-57 -123 -128 -237.5 t-165 -223.5q53 -27 102 -42t88 -26l-127 -258q-150 29 -291 121q-88 -59 -188 -90t-217 -31q-193 0 -295 94.5t-102 245.5zM344 348q0 -55 36 -91t103 -36q78 0 154 35q-115 115 -199 252q-43 -35 -68.5 -74t-25.5 -86zM557 963q0 -27 4 -52.5t10 -52.5q80 43 132.5 93 t52.5 124q0 68 -64 68q-51 0 -93 -47t-42 -133z" />
<glyph unicode="'" horiz-adv-x="634" d="M242 692l41 393l41 287h323l-65 -287l-127 -393h-213z" />
<glyph unicode="(" horiz-adv-x="704" d="M106 266q0 178 31 338t92.5 310.5t151.5 295t209 293.5l188 -94q-217 -293 -313 -582.5t-96 -580.5q0 -63 4 -133t12 -140.5t21.5 -136t31.5 -119.5l-209 -86q-23 63 -45 140t-39.5 159t-28 167t-10.5 169z" />
<glyph unicode=")" horiz-adv-x="708" d="M-57 -274q217 293 313 582.5t96 580.5q0 63 -4 133t-12 140.5t-21.5 136t-31.5 118.5l209 86q23 -66 45 -141.5t39.5 -157.5t27.5 -168t10 -168q0 -178 -30.5 -337.5t-92 -310t-151.5 -295t-209 -294.5z" />
<glyph unicode="*" horiz-adv-x="925" d="M188 1139l74 151l225 -69l70 241l168 -12l-16 -250l241 29l25 -164l-234 -82l78 -225l-151 -86l-131 196l-185 -172l-123 115l160 209z" />
<glyph unicode="+" d="M98 561v230h340v372h238v-372h340v-230h-344v-373h-238v373h-336z" />
<glyph unicode="," horiz-adv-x="634" d="M-53 -225q125 35 191.5 96t88.5 133q-76 4 -125 46t-49 118q0 41 14.5 79t42 66.5t67.5 46t89 17.5q92 0 142.5 -58.5t50.5 -162.5q0 -106 -33 -198.5t-94.5 -165.5t-150.5 -123t-201 -70z" />
<glyph unicode="-" horiz-adv-x="671" d="M66 406l49 229h491l-49 -229h-491z" />
<glyph unicode="." horiz-adv-x="634" d="M49 147q0 41 16.5 82t46 74t70.5 53.5t92 20.5q74 0 119 -49t45 -123q0 -43 -16 -84t-46 -74t-71 -52.5t-92 -19.5q-74 0 -119 47.5t-45 124.5z" />
<glyph unicode="/" horiz-adv-x="663" d="M-139 -328l712 1782h213l-716 -1782h-209z" />
<glyph unicode="0" d="M74 451q0 229 53 394t137 271.5t188.5 156.5t206.5 50q80 0 150 -28.5t121 -87t80.5 -148.5t29.5 -215q0 -229 -52 -393t-135 -269.5t-187.5 -156t-206.5 -50.5q-80 0 -150.5 28t-123 86t-82 148.5t-29.5 213.5zM377 414q0 -57 7 -93t20.5 -57.5t33 -30t41.5 -8.5 q45 0 92 48.5t85 134.5t61.5 206.5t23.5 266.5q0 113 -28.5 152.5t-73.5 39.5q-47 0 -93 -48t-84 -135t-61.5 -209t-23.5 -267z" />
<glyph unicode="1" d="M33 0l53 262h262l144 709h-238l41 205q115 18 192.5 46.5t155.5 75.5h242l-209 -1036h229l-53 -262h-819z" />
<glyph unicode="2" d="M-29 0l37 184q143 117 267 217.5t215.5 190.5t142.5 173t51 165q0 61 -35 98t-100 37q-53 0 -96 -26.5t-97 -67.5l-155 188q195 164 389 164q94 0 171 -25.5t131 -72.5t83 -114t29 -148q0 -96 -36 -180.5t-100.5 -166t-151.5 -164.5t-188 -178h394l-54 -274h-897z" />
<glyph unicode="3" d="M-37 213l205 168q53 -72 121.5 -107.5t128.5 -35.5q92 0 144 37.5t52 109.5q0 39 -12 68.5t-46 50t-92 31t-149 10.5l45 229q94 0 157 13.5t98.5 37t50 55t14.5 70.5q0 53 -37 84t-102 31q-43 0 -85 -18.5t-104 -55.5l-155 209q104 72 202.5 97.5t202.5 25.5 q90 0 166 -22.5t131 -64.5t86 -101.5t31 -130.5q0 -123 -58.5 -207t-212.5 -138v-8q104 -43 150.5 -114.5t46.5 -155.5q0 -100 -40 -176t-109.5 -127t-163.5 -77t-203 -26q-59 0 -120.5 12.5t-122 40t-117 73.5t-103.5 112z" />
<glyph unicode="4" d="M16 299l45 229l586 770h397l-149 -749h141l-49 -250h-141l-60 -299h-299l60 299h-531zM377 549h219l35 176q16 74 34.5 149.5t34.5 149.5h-8q-37 -61 -71.5 -124.5t-75.5 -121.5z" />
<glyph unicode="5" d="M-16 213l204 168q106 -143 242 -143q80 0 140.5 53t60.5 151q0 78 -41 117t-115 39q-23 0 -41 -2t-37.5 -8t-44 -17.5t-57.5 -29.5l-119 98l160 659h733l-53 -274h-451l-57 -205q29 12 53.5 16.5t52.5 4.5q74 0 137.5 -22.5t110.5 -65.5t74 -107.5t27 -148.5 q0 -121 -46.5 -217.5t-121 -164t-172 -103.5t-197.5 -36q-117 0 -231.5 52.5t-210.5 185.5z" />
<glyph unicode="6" d="M102 446q0 199 49.5 362t138.5 276.5t212 176t268 62.5q63 0 116.5 -17.5t94.5 -45t71.5 -60.5t53.5 -61l-205 -172q-29 41 -63.5 67.5t-87.5 26.5q-104 0 -189.5 -85t-126.5 -269q27 27 57.5 48t63.5 35.5t62.5 21.5t54.5 7q68 0 127 -19.5t102 -60.5t68.5 -105.5 t25.5 -154.5q0 -94 -34.5 -185t-96 -162t-148.5 -114t-192 -43q-96 0 -174 34t-133 96.5t-85 149.5t-30 191zM406 412q0 -98 38 -146.5t97 -48.5q41 0 70.5 23.5t48 58.5t27.5 76t9 78q0 70 -29.5 107.5t-84.5 37.5q-37 0 -80 -24.5t-94 -88.5q-2 -18 -2 -36.5v-36.5z" />
<glyph unicode="7" d="M188 0q92 328 215 581t314 443h-520l53 274h885l-41 -204q-145 -133 -240.5 -270.5t-159 -275.5t-102.5 -276.5t-68 -271.5h-336z" />
<glyph unicode="8" d="M78 315q0 63 20.5 118.5t57.5 101t86 78t106 55.5v8q-111 117 -110 266q0 88 34.5 158.5t95 120t139.5 76t169 26.5q66 0 131 -17.5t117.5 -54.5t84 -95t31.5 -140q0 -117 -60 -204t-165 -140v-8q74 -49 115 -125t41 -174q0 -90 -39 -162t-105.5 -122t-154.5 -78 t-185 -28q-70 0 -142.5 19.5t-131.5 60.5t-97 105.5t-38 154.5zM369 352q0 -59 34.5 -105t108.5 -46q63 0 111.5 40t48.5 124q0 66 -50.5 110.5t-142.5 97.5q-47 -37 -78.5 -93t-31.5 -128zM524 954q0 -63 37 -107t111 -85q37 37 63.5 87t26.5 118q0 53 -23.5 90t-87.5 37 q-53 0 -90 -36t-37 -104z" />
<glyph unicode="9" d="M16 160l205 172q29 -41 63.5 -67.5t88.5 -26.5q104 0 189 85t126 269q-27 -27 -57.5 -48.5t-63 -35.5t-62.5 -21.5t-54 -7.5q-68 0 -127.5 19.5t-102.5 60.5t-68.5 105.5t-25.5 154.5q0 94 35 185.5t96 162t148.5 113.5t191.5 43q96 0 174 -34t133.5 -96.5t85 -149.5 t29.5 -191q0 -201 -49 -362.5t-138.5 -275.5t-212 -176.5t-268.5 -62.5q-66 0 -118 17.5t-93 45.5t-72.5 60.5t-52.5 61.5zM426 846q0 -70 30 -108t85 -38q37 0 80 25t94 88q2 18 2 36.5v37.5q0 98 -38 146t-97 48q-41 0 -71 -23.5t-48.5 -58t-27.5 -75.5t-9 -78z" />
<glyph unicode=":" horiz-adv-x="634" d="M49 147q0 41 16.5 82t46 74t70.5 53.5t92 20.5q74 0 119 -49t45 -123q0 -43 -16 -84t-46 -74t-71 -52.5t-92 -19.5q-74 0 -119 47.5t-45 124.5zM160 802q0 41 16.5 82t46 74t70.5 53.5t92 20.5q74 0 119 -49t45 -123q0 -43 -16 -84t-46 -74t-71 -52.5t-92 -19.5 q-74 0 -119 47.5t-45 124.5z" />
<glyph unicode=";" horiz-adv-x="634" d="M-53 -225q125 35 191.5 96t88.5 133q-76 4 -125 46t-49 118q0 41 14.5 79t42 66.5t67.5 46t89 17.5q92 0 142.5 -58.5t50.5 -162.5q0 -106 -33 -198.5t-94.5 -165.5t-150.5 -123t-201 -70zM160 802q0 41 16.5 82t46 74t70.5 53.5t92 20.5q74 0 119 -49t45 -123 q0 -43 -16 -84t-46 -74t-71 -52.5t-92 -19.5q-74 0 -119 47.5t-45 124.5z" />
<glyph unicode="&#x3c;" d="M94 565v226l922 364v-266l-324 -111l-266 -94v-8l266 -94l324 -111v-270z" />
<glyph unicode="=" d="M98 317v230h918v-230h-918zM98 807v230h918v-230h-918z" />
<glyph unicode="&#x3e;" d="M98 201v270l324 111l266 94v8l-266 94l-324 111v266l922 -364v-226z" />
<glyph unicode="?" horiz-adv-x="937" d="M180 147q0 41 16.5 82t46 74t70.5 53.5t93 20.5q74 0 118.5 -49t44.5 -123q0 -43 -16 -84t-46 -74t-71 -52.5t-92 -19.5q-74 0 -119 47.5t-45 124.5zM233 1249q154 147 340 148q88 0 160 -21.5t124 -62.5t81 -100.5t29 -135.5q0 -80 -26 -136t-65.5 -101t-87 -82 t-90.5 -78t-76.5 -90t-43.5 -115l-279 25q10 80 39 138t67.5 102t81.5 79t78 67t58.5 65.5t23.5 76.5q0 49 -30.5 78t-84.5 29q-35 0 -66.5 -16.5t-68.5 -53.5z" />
<glyph unicode="@" horiz-adv-x="1814" d="M86 332q0 221 79 412.5t211 333t306 222t367 80.5q164 0 292.5 -50t218 -137t135.5 -204t46 -248q0 -168 -41 -292.5t-110.5 -207.5t-163 -125t-197.5 -42q-72 0 -130.5 36.5t-78.5 114.5h-8q-37 -59 -102.5 -95t-127.5 -36q-57 0 -105 21.5t-83 61.5t-54.5 96.5 t-19.5 123.5q0 98 34 190.5t91 164t134 114.5t163 43q47 0 81 -22.5t58 -75.5h4l33 82h197l-107 -459q-18 -84 1.5 -122t80.5 -38q39 0 82 27t80 81t60.5 136t23.5 191q0 90 -25.5 177t-87 154.5t-161 109.5t-246.5 42q-125 0 -251 -63.5t-227.5 -174t-166 -261 t-64.5 -324.5q0 -137 46 -237.5t120 -166t167 -97.5t187 -32q49 0 115 19.5t115 50.5l86 -176q-88 -43 -172 -66.5t-172 -23.5q-139 0 -268.5 42t-227.5 128t-157.5 216t-59.5 306zM762 414q0 -55 21.5 -87t68.5 -32q29 0 54.5 20.5t60.5 69.5l61 266q-25 53 -78 54 q-41 0 -74.5 -29t-59 -72t-40 -94t-14.5 -96z" />
<glyph unicode="A" horiz-adv-x="1150" d="M-135 0l696 1331h393l127 -1331h-344l-8 303h-367l-137 -303h-360zM475 549h246l-4 156q-4 96 -6 187t-2 193h-9q-41 -98 -76.5 -191t-78.5 -189z" />
<glyph unicode="B" horiz-adv-x="1253" d="M53 0l266 1331h426q100 0 185.5 -17.5t147 -54t96 -95t34.5 -140.5q0 -109 -73.5 -199t-212.5 -133l-4 -8q225 -55 225 -242q0 -121 -48 -204.5t-128 -136t-186.5 -77t-223.5 -24.5h-504zM430 250h152q123 0 184 48t61 132q0 147 -180 148h-151zM541 799h110 q121 0 171 45t50 123q0 114 -177 114h-3h-94z" />
<glyph unicode="C" horiz-adv-x="1175" d="M115 541q0 178 56 327.5t154.5 258t228.5 169t277 60.5q117 0 211.5 -56.5t153.5 -160.5l-221 -172q-72 106 -160 106q-72 0 -138.5 -40t-116.5 -108.5t-79.5 -162.5t-29.5 -201q0 -145 59 -224t195 -79q53 0 105 26.5t99 67.5l135 -209q-29 -27 -69.5 -56.5t-93 -54 t-114.5 -41t-132 -16.5q-117 0 -213 38t-164 110t-105.5 177.5t-37.5 240.5z" />
<glyph unicode="D" horiz-adv-x="1282" d="M53 0l266 1331h312q139 0 250.5 -31.5t188.5 -96t118 -163t41 -233.5q0 -203 -56.5 -354.5t-155.5 -252t-234.5 -150.5t-290.5 -50h-439zM434 262h49q82 0 157 27.5t131 90t89 162t33 244.5q0 78 -20.5 132.5t-56.5 88t-86 48t-107 14.5h-29z" />
<glyph unicode="E" horiz-adv-x="1097" d="M53 0l266 1331h811l-53 -274h-487l-45 -234h413l-53 -274h-413l-58 -275h504l-53 -274h-832z" />
<glyph unicode="F" horiz-adv-x="1056" d="M53 0l266 1331h811l-53 -274h-487l-53 -275h413l-53 -274h-414l-102 -508h-328z" />
<glyph unicode="G" horiz-adv-x="1269" d="M115 541q0 178 57 327.5t156.5 258t233.5 169t290 60.5q133 0 229.5 -56.5t155.5 -160.5l-221 -172q-37 55 -79 80.5t-101 25.5q-80 0 -151 -40t-123 -108.5t-81.5 -162.5t-29.5 -201q0 -145 60 -226t202 -81q29 0 60.5 8t53.5 25l50 221h-197l49 266h483l-127 -659 q-78 -59 -189.5 -99.5t-240.5 -40.5q-125 0 -224 38t-170 110t-108.5 177.5t-37.5 240.5z" />
<glyph unicode="H" horiz-adv-x="1359" d="M53 0l266 1331h328l-102 -500h397l98 500h328l-266 -1331h-328l111 545h-398l-106 -545h-328z" />
<glyph unicode="I" horiz-adv-x="634" d="M53 0l266 1331h328l-266 -1331h-328z" />
<glyph unicode="J" horiz-adv-x="1032" d="M-20 176l196 201q31 -43 81 -81t116 -38q72 0 115.5 54.5t68.5 176.5l168 842h328l-181 -899q-18 -92 -56 -174t-98.5 -145.5t-146.5 -100.5t-198 -37q-115 0 -221.5 51.5t-171.5 149.5z" />
<glyph unicode="K" horiz-adv-x="1273" d="M53 0l266 1331h328l-100 -504h8l436 504h357l-480 -561l295 -770h-340l-196 565l-172 -196l-74 -369h-328z" />
<glyph unicode="L" horiz-adv-x="1052" d="M53 0l266 1331h328l-213 -1057h484l-54 -274h-811z" />
<glyph unicode="M" horiz-adv-x="1544" d="M53 0l266 1331h340l86 -573l31 -226h8l117 226l311 573h340l-266 -1331h-307l94 442q10 51 25.5 112.5t34 123t37 121t34.5 110.5h-6l-166 -311l-282 -483h-123l-86 483l-41 311h-6q-4 -51 -9.5 -111.5t-11.5 -122t-13 -121.5t-18 -112l-90 -442h-299z" />
<glyph unicode="N" horiz-adv-x="1335" d="M53 0l266 1331h316l184 -631l66 -299h8q4 53 8 117t10.5 129.5t14.5 132t20 125.5l86 426h311l-266 -1331h-315l-184 631l-62 299h-8q-10 -115 -21.5 -247t-35.5 -253l-86 -430h-312z" />
<glyph unicode="O" horiz-adv-x="1372" d="M115 541q0 186 58 336.5t153.5 257t219.5 164t257 57.5q115 0 210 -38t162.5 -109.5t105.5 -177t38 -240.5q0 -186 -58.5 -337t-153.5 -257.5t-220 -164t-256 -57.5q-115 0 -210 38t-163 110t-105.5 177.5t-37.5 240.5zM451 561q0 -145 52 -224t144 -79q57 0 116.5 37 t109 104.5t80 161.5t30.5 209q0 145 -52.5 224t-144.5 79q-57 0 -116.5 -37t-108.5 -104.5t-79.5 -161.5t-30.5 -209z" />
<glyph unicode="P" horiz-adv-x="1220" d="M53 0l266 1331h439q98 0 184 -19.5t149.5 -62.5t100.5 -112.5t37 -169.5q0 -145 -51.5 -247t-137.5 -165t-199.5 -92t-238.5 -29h-135l-86 -434h-328zM520 692h121q127 0 195.5 57.5t68.5 168.5q0 80 -50 117.5t-142 37.5h-119z" />
<glyph unicode="Q" horiz-adv-x="1372" d="M115 541q0 186 58 336.5t153.5 257t219.5 164t257 57.5q115 0 210 -38t162.5 -109.5t105.5 -177t38 -240.5q0 -162 -44 -297.5t-120 -237.5t-176 -170t-213 -94q43 -53 114.5 -78t147.5 -25q43 0 76 5.5t67 15.5l13 -246q-37 -16 -88.5 -26.5t-87.5 -10.5 q-436 0 -592 387q-141 57 -221 190.5t-80 336.5zM451 561q0 -145 52 -224t144 -79q57 0 116.5 37t109 104.5t80 161.5t30.5 209q0 145 -52.5 224t-144.5 79q-57 0 -116.5 -37t-108.5 -104.5t-79.5 -161.5t-30.5 -209z" />
<glyph unicode="R" horiz-adv-x="1253" d="M53 0l266 1331h439q100 0 186 -18.5t149.5 -60.5t99.5 -109.5t36 -163.5q0 -92 -23.5 -167t-66.5 -133t-102.5 -100t-129.5 -69l199 -510h-344l-154 459h-137l-90 -459h-328zM524 717h119q133 0 197.5 58.5t64.5 154.5q0 74 -50 108.5t-142 34.5h-119z" />
<glyph unicode="S" horiz-adv-x="1101" d="M4 231l234 185q53 -72 126.5 -117t151.5 -45q72 0 114 30.5t42 86.5q0 45 -41 72.5t-111 70.5l-114 72q-92 59 -144.5 137t-52.5 203q0 90 39 167.5t104.5 136t154.5 92.5t191 34q117 0 224.5 -54.5t189.5 -152.5l-205 -193q-51 51 -103 84t-118 33q-72 0 -106.5 -33.5 t-34.5 -81.5q0 -41 42 -68.5t122 -78.5l122 -76q96 -59 138.5 -129.5t42.5 -187.5q0 -92 -37 -172t-104.5 -140.5t-164 -95.5t-214.5 -35q-127 0 -255 58.5t-233 197.5z" />
<glyph unicode="T" horiz-adv-x="1105" d="M164 1057l53 274h1000l-54 -274h-336l-209 -1057h-327l209 1057h-336z" />
<glyph unicode="U" horiz-adv-x="1339" d="M152 455q0 47 9 109.5t19 115.5l131 651h328l-143 -717q-6 -41 -11.5 -77.5t-5.5 -73.5q0 -102 37 -153.5t139 -51.5q88 0 141.5 74t88.5 246l151 753h320l-152 -745q-61 -315 -194 -463t-363 -148q-250 0 -372.5 116t-122.5 364z" />
<glyph unicode="V" horiz-adv-x="1179" d="M160 1331h344l24 -622q4 -104 6.5 -210t2.5 -212h8q45 106 88 210.5t88 211.5l270 622h361l-684 -1331h-398z" />
<glyph unicode="W" horiz-adv-x="1654" d="M143 0l58 1331h336l-54 -602q-10 -104 -21 -211.5t-28 -214.5h8q41 106 85 214t83 212l252 602h273v-602q-4 -102 -9.5 -209.5t-11.5 -216.5h8q35 109 72 215.5t68 210.5l200 602h312l-504 -1331h-414l16 569q0 31 2.5 69t5.5 79t7 83t8 79h-8q-27 -74 -57.5 -153 t-59.5 -157l-221 -569h-406z" />
<glyph unicode="X" horiz-adv-x="1179" d="M-74 0l488 684l-201 647h365l49 -233q10 -47 20 -100.5t25 -116.5h8q35 63 65.5 116.5t57.5 100.5l131 233h348l-463 -659l217 -672h-364l-58 258q-12 53 -24 105.5t-25 111.5h-8q-35 -59 -65.5 -111.5t-61.5 -105.5l-156 -258h-348z" />
<glyph unicode="Y" horiz-adv-x="1081" d="M162 1331h340l43 -295q12 -78 22.5 -146.5t22.5 -148.5h8q41 80 77 151t79 148l159 291h353l-566 -864l-94 -467h-325l92 467z" />
<glyph unicode="Z" horiz-adv-x="1085" d="M-12 0l41 197l676 860h-492l53 274h885l-41 -196l-668 -861h541l-57 -274h-938z" />
<glyph unicode="[" horiz-adv-x="704" d="M-16 -311l352 1761h434l-33 -172h-192l-283 -1417h193l-37 -172h-434z" />
<glyph unicode="\" horiz-adv-x="663" d="M172 1454h209l127 -1782h-213z" />
<glyph unicode="]" horiz-adv-x="708" d="M-45 -311l37 172h188l283 1417h-189l33 172h434l-352 -1761h-434z" />
<glyph unicode="^" horiz-adv-x="1056" d="M139 557l307 815h259l307 -815h-267l-77 242l-86 278h-9l-90 -278l-77 -242h-267z" />
<glyph unicode="_" horiz-adv-x="983" d="M-106 -295l36 180h934l-37 -180h-933z" />
<glyph unicode="`" horiz-adv-x="1105" d="M431 1487h299l114 -311h-225z" />
<glyph unicode="a" horiz-adv-x="1142" d="M57 352q0 145 45 272.5t121 221.5t174.5 148.5t204.5 54.5q66 0 125 -34t88 -93h4l45 102h262l-204 -1024h-267v127h-4q-68 -72 -150.5 -112t-156.5 -40q-135 0 -211 97.5t-76 279.5zM397 393q0 -80 26 -115.5t69 -35.5q41 0 90 25.5t90 109.5l65 328q-18 41 -50 59 t-60 18q-45 0 -86 -28.5t-73 -79.5t-51.5 -123t-19.5 -158z" />
<glyph unicode="b" horiz-adv-x="1146" d="M16 0l287 1425h328l-62 -299l-53 -188h4q66 53 136.5 82t142.5 29q135 0 210.5 -97.5t75.5 -279.5q0 -145 -45 -272.5t-120.5 -221.5t-174 -148.5t-204.5 -54.5q-66 0 -121 34t-84 93h-4l-45 -102h-271zM410 319q16 -41 45.5 -59t60.5 -18q45 0 86 28.5t73 79.5t51 123 t19 158q0 80 -25.5 115.5t-68.5 35.5q-41 0 -88 -23.5t-84 -90.5z" />
<glyph unicode="c" horiz-adv-x="913" d="M53 401q0 129 46 246t129 206t195 142.5t245 53.5q98 0 169.5 -40t108.5 -87l-180 -193q-29 29 -55.5 43t-63.5 14q-55 0 -102 -29.5t-82 -81.5t-54.5 -122t-19.5 -147q0 -78 37 -123t111 -45q47 0 78.5 17t60.5 40l135 -201q-59 -43 -142 -81t-206 -38q-86 0 -161 29 t-130 83t-87 133t-32 181z" />
<glyph unicode="d" horiz-adv-x="1126" d="M57 352q0 145 45 272.5t121 221.5t174.5 148.5t204.5 54.5q66 0 117 -31t80 -84h4l20 192l58 299h327l-286 -1425h-267v127h-4q-68 -72 -150.5 -112t-156.5 -40q-135 0 -211 97.5t-76 279.5zM397 393q0 -80 26 -115.5t69 -35.5q39 0 88 25.5t92 109.5l65 328 q-18 41 -50 59t-60 18q-45 0 -86 -28.5t-73 -79.5t-51.5 -123t-19.5 -158z" />
<glyph unicode="e" horiz-adv-x="1028" d="M53 418q0 141 51.5 257t134.5 198.5t186 129t206 46.5q94 0 158.5 -31t104.5 -84t58.5 -124t18.5 -151q0 -39 -7.5 -77.5t-16.5 -72.5t-18 -59.5t-16 -35.5h-553q4 -102 63.5 -147.5t149.5 -45.5q43 0 90.5 20.5t81.5 45.5l115 -205q-61 -43 -157.5 -75t-223.5 -32 q-94 0 -172 31t-134 88.5t-88 139.5t-32 184zM385 610h311q4 12 6.5 29.5t2.5 36.5q0 53 -25 88t-90 35q-59 0 -114.5 -45t-90.5 -144z" />
<glyph unicode="f" horiz-adv-x="704" d="M70 0l155 770h-131l49 242l136 12l4 29q14 80 45.5 151.5t83 126.5t124 87t169.5 32q125 0 233 -57l-102 -230q-16 10 -43 19.5t-52 9.5q-27 0 -47 -4t-36.5 -17.5t-28 -39t-19.5 -66.5l-8 -41h168l-49 -254h-172l-152 -770h-327z" />
<glyph unicode="g" horiz-adv-x="1130" d="M-33 -283l139 217q59 -43 123 -72.5t131 -29.5q180 0 242 180l49 160h-4q-68 -66 -139.5 -98.5t-151.5 -32.5q-129 0 -214 87t-85 269q0 137 43 256t117 207t170 138.5t203 50.5q66 0 123 -34t86 -93h4l45 102h266l-196 -983q-47 -238 -193.5 -352.5t-372.5 -114.5 q-86 0 -189.5 35t-195.5 108zM397 438q0 -68 24.5 -99.5t65.5 -31.5q43 0 91.5 21.5t89.5 93.5l53 283q-18 41 -48 59t-59 18q-45 0 -83.5 -24.5t-68.5 -70.5t-47.5 -109.5t-17.5 -139.5z" />
<glyph unicode="h" horiz-adv-x="1138" d="M16 0l287 1425h328l-70 -331l-49 -181h8q61 55 140 95.5t171 40.5q127 0 184.5 -67t57.5 -200q0 -35 -3 -72.5t-13 -74.5l-127 -635h-328l119 594q6 29 11 50.5t5 39.5q0 43 -22.5 64.5t-63.5 21.5q-43 0 -84 -27.5t-96 -87.5l-127 -655h-328z" />
<glyph unicode="i" horiz-adv-x="565" d="M16 0l205 1024h328l-205 -1024h-328zM266 1307q0 37 15.5 70.5t42 58t62.5 40t77 15.5q33 0 63.5 -10.5t55 -28.5t39 -47t14.5 -66q0 -80 -56.5 -132t-140.5 -52q-33 0 -63.5 9.5t-55 27.5t-39 47t-14.5 68z" />
<glyph unicode="j" horiz-adv-x="569" d="M-274 -336l98 234q43 -25 86 -25q49 0 72.5 34t42.5 113l200 1004h328l-205 -1020q-16 -80 -47 -150.5t-80 -124t-118.5 -84t-163.5 -30.5q-55 0 -106.5 10t-106.5 39zM270 1307q0 37 15.5 70.5t42 58t62.5 40t77 15.5q33 0 63.5 -10.5t55 -28.5t39 -47t14.5 -66 q0 -80 -56.5 -132t-140.5 -52q-33 0 -63.5 9.5t-55 27.5t-39 47t-14.5 68z" />
<glyph unicode="k" horiz-adv-x="1114" d="M16 0l287 1425h328l-156 -770h8l336 369h361l-422 -455l241 -569h-327l-140 381l-139 -139l-49 -242h-328z" />
<glyph unicode="l" horiz-adv-x="585" d="M70 201q0 31 3 63.5t13 75.5l217 1085h328l-221 -1097q-4 -16 -4 -23.5v-15.5q0 -29 12 -40t28 -11h17.5t19.5 4l-12 -242q-29 -10 -71 -17.5t-97 -7.5q-127 0 -180 60.5t-53 165.5z" />
<glyph unicode="m" horiz-adv-x="1716" d="M16 0l201 1024h266v-131h9q72 61 154.5 108.5t172.5 47.5q111 0 162 -46.5t76 -125.5q80 74 165 123t175 49q127 0 184 -67t57 -200q0 -70 -16 -147l-127 -635h-328l119 594q6 29 11.5 50.5t5.5 39.5q0 43 -23 64.5t-63 21.5q-59 0 -168 -115l-131 -655h-328l119 594 q6 29 11 50.5t5 39.5q0 43 -22.5 64.5t-59.5 21.5q-63 0 -172 -115l-127 -655h-328z" />
<glyph unicode="n" horiz-adv-x="1150" d="M16 0l201 1024h266v-131h9q72 61 156.5 108.5t182.5 47.5q127 0 184.5 -67t57.5 -200q0 -70 -16 -147l-127 -635h-328l119 594q6 29 11 50.5t5 39.5q0 43 -22.5 64.5t-63.5 21.5q-43 0 -84 -27.5t-96 -87.5l-127 -655h-328z" />
<glyph unicode="o" horiz-adv-x="1105" d="M53 401q0 150 51.5 270t134.5 203.5t186 129t210 45.5q92 0 168 -31t129 -87.5t82.5 -135t29.5 -172.5q0 -150 -51 -270t-134 -203.5t-186.5 -129t-209.5 -45.5q-92 0 -168 31t-129 87.5t-83 134t-30 173.5zM385 406q0 -78 27.5 -123t87.5 -45q45 0 84 28.5t67.5 78.5 t45 120t16.5 153q0 78 -28 123t-87 45q-45 0 -84 -28.5t-67.5 -78.5t-45 -121t-16.5 -152z" />
<glyph unicode="p" horiz-adv-x="1146" d="M-57 -360l278 1384h266l9 -111h4q68 61 146.5 98.5t152.5 37.5q135 0 210.5 -97.5t75.5 -279.5q0 -145 -45 -272.5t-120.5 -221.5t-174 -148.5t-204.5 -54.5q-59 0 -110.5 29t-82.5 82h-4l-25 -192l-49 -254h-327zM410 319q16 -41 45.5 -59t60.5 -18q45 0 86 28.5 t73 79.5t51 123t19 158q0 80 -25.5 115.5t-68.5 35.5q-41 0 -88 -23.5t-84 -90.5z" />
<glyph unicode="q" horiz-adv-x="1142" d="M57 352q0 145 45 272.5t121 221.5t174.5 148.5t204.5 54.5q66 0 125 -34t88 -93h4l45 102h262l-278 -1384h-328l53 254l82 233h-4q-68 -72 -150.5 -112t-156.5 -40q-135 0 -211 97.5t-76 279.5zM397 393q0 -80 26 -115.5t69 -35.5q39 0 88 25.5t92 109.5l65 328 q-18 41 -50 59t-60 18q-45 0 -86 -28.5t-73 -79.5t-51.5 -123t-19.5 -158z" />
<glyph unicode="r" horiz-adv-x="819" d="M16 0l201 1024h266l-8 -201h8q59 98 142.5 162t169.5 64q43 0 68.5 -5.5t41.5 -15.5l-106 -283q-23 12 -52.5 14.5t-54.5 2.5q-66 0 -122 -43t-115 -146l-111 -573h-328z" />
<glyph unicode="s" horiz-adv-x="884" d="M-20 176l188 156q55 -66 106.5 -92.5t98.5 -26.5t80.5 19.5t33.5 50.5q0 20 -12 34.5t-33.5 29.5t-54.5 31.5t-72 39.5q-37 20 -72.5 49t-63 64.5t-44 78.5t-16.5 95q0 74 32.5 136t88 108t131 73t161.5 27q111 0 197 -48.5t152 -115.5l-176 -168q-37 37 -80 63.5 t-93 26.5q-49 0 -77.5 -21.5t-28.5 -52.5q0 -23 14.5 -38t38 -29.5t53 -28.5t58.5 -31q37 -20 73.5 -45.5t65.5 -60.5t47.5 -79t18.5 -102q0 -78 -33 -140t-91.5 -108t-140 -71t-178.5 -25q-45 0 -96 12.5t-101.5 37t-96.5 62.5t-78 89z" />
<glyph unicode="t" horiz-adv-x="786" d="M86 770l49 242l148 12l90 262h274l-49 -262h221l-49 -254h-229l-78 -385q-4 -18 -4 -33.5v-32.5q0 -90 98 -90q33 0 74 21l57 -230q-43 -16 -107.5 -30.5t-150.5 -14.5q-82 0 -140.5 21.5t-95 59.5t-54 90.5t-17.5 115.5q0 35 5 67.5t11 67.5l78 373h-131z" />
<glyph unicode="u" horiz-adv-x="1130" d="M66 242q0 70 16 147l127 635h328l-119 -594q-6 -29 -11.5 -50.5t-5.5 -39.5q0 -43 22.5 -64.5t63.5 -21.5t80 27.5t88 87.5l127 655h328l-201 -1024h-266v131h-8q-66 -61 -151 -108.5t-177 -47.5q-127 0 -184 67t-57 200z" />
<glyph unicode="v" horiz-adv-x="1060" d="M123 1024h328l20 -467q4 -78 4 -155.5v-159.5h8q35 80 66 157.5t65 157.5l201 467h320l-512 -1024h-377z" />
<glyph unicode="w" horiz-adv-x="1564" d="M150 1024h323l-10 -455q-4 -76 -10.5 -152.5t-10.5 -154.5h9q29 78 55 156t59 151l187 455h278l10 -455q1 -30 1 -61q0 -46 -2 -92q-3 -76 -3 -154h8q29 78 51.5 155t51.5 152l164 455h303l-426 -1024h-381v381q4 72 4 143.5t4 155.5h-8q-29 -84 -52.5 -155.5 t-49.5 -143.5l-148 -381h-369z" />
<glyph unicode="x" horiz-adv-x="1052" d="M-78 0l422 549l-172 475h332l51 -158q10 -43 22.5 -87t22.5 -87h8q23 43 48.5 87t48.5 87l77 158h348l-393 -549l185 -475h-336l-54 156q-14 43 -26 88t-27 88h-8q-25 -43 -51.5 -87t-52.5 -89l-95 -156h-350z" />
<glyph unicode="y" horiz-adv-x="1060" d="M-49 -340l98 234q35 -20 78 -21q47 0 92 32t74 85l20 41l-180 993h326l37 -420q6 -66 9 -150.5t3 -158.5h8q31 72 65.5 156t65.5 153l184 420h316l-535 -1022q-57 -98 -113.5 -172t-115.5 -121t-127 -70.5t-150 -23.5q-31 0 -77.5 13.5t-77.5 31.5z" />
<glyph unicode="z" horiz-adv-x="933" d="M-20 0l36 184l492 586h-336l49 254h746l-37 -188l-492 -582h389l-49 -254h-798z" />
<glyph unicode="{" horiz-adv-x="700" d="M49 475l41 189q51 2 87 16t59.5 36.5t36 49.5t18.5 53q8 47 13 85t8 75t8.5 78t15.5 94q16 84 40.5 141.5t60.5 92t86 50t122 15.5h143l-36 -172h-33q-57 0 -82 -29.5t-41 -109.5q-16 -78 -27.5 -154t-27.5 -166q-25 -123 -76 -179t-137 -75l-2 -8q61 -14 93 -47t32 -104 q0 -51 -14.5 -116t-31 -131.5t-31 -127t-14.5 -101.5q0 -39 15.5 -54t62.5 -15h29l-33 -172h-139q-115 0 -160 47t-45 137q0 61 16.5 131t35 135.5t35 121.5t16.5 91q0 47 -30 83t-114 40z" />
<glyph unicode="|" horiz-adv-x="540" d="M176 -512v2048h201v-2048h-201z" />
<glyph unicode="}" horiz-adv-x="708" d="M-66 -311l37 172h33q57 0 82 29.5t41 109.5q16 78 27.5 153.5t27.5 165.5q25 123 76 179.5t137 74.5l2 9q-61 14 -93 47t-32 104q0 51 14.5 115.5t31 131.5t30.5 127t14 101q0 39 -15 54.5t-62 15.5h-29l33 172h139q115 0 160 -47t45 -137q0 -61 -16.5 -131t-35 -135.5 t-35 -122t-16.5 -91.5q0 -47 30 -82.5t114 -39.5l-41 -189q-51 -2 -87 -16.5t-59.5 -37t-36 -49t-18.5 -53.5q-10 -47 -14 -84.5t-7 -74.5t-8.5 -78t-15.5 -94q-16 -84 -40.5 -141.5t-60.5 -92.5t-87.5 -50t-120.5 -15h-144z" />
<glyph unicode="~" d="M74 643q72 123 152.5 172t158.5 49q57 0 102 -23.5t84 -52t74 -52t76 -23.5q80 0 135 110l164 -110q-72 -123 -153 -172t-158 -49q-59 0 -103.5 23.5t-83.5 52t-74.5 52t-74.5 23.5q-80 0 -135 -111z" />
<glyph unicode="&#xa1;" horiz-adv-x="716" d="M33 -348l65 287l168 598h213l-78 -598l-41 -287h-327zM242 819q0 43 16 84t46 74t71 52.5t92 19.5q74 0 119 -47.5t45 -124.5q0 -41 -16.5 -82t-46 -74t-70.5 -53.5t-92 -20.5q-74 0 -119 49t-45 123z" />
<glyph unicode="&#xa2;" d="M143 586q0 131 46.5 236.5t122 183t174 126t202.5 64.5l37 193h176l-39 -193q74 -16 127 -56t101 -91l-189 -177q-49 45 -90 60l-102 -522q72 12 139 61l98 -209q-70 -45 -141.5 -73.5t-149.5 -38.5l-37 -191h-176l37 191q-154 27 -245 138t-91 298zM463 635 q0 -133 76 -193l94 478q-80 -35 -125 -111t-45 -174z" />
<glyph unicode="&#xa3;" d="M-8 0l41 201q115 47 187.5 133t86.5 203h-192l41 221l141 12q-6 45 -6 86q0 109 40 199t107.5 154.5t159.5 99t197 34.5q111 0 192.5 -46t142.5 -130l-208 -172q-35 43 -66 64.5t-78 21.5q-74 0 -129 -63.5t-55 -210.5v-18.5t2 -18.5h289l-45 -233h-238 q-10 -72 -34.5 -132.5t-71.5 -121.5l-4 -9h462l-49 -274h-913z" />
<glyph unicode="&#xa4;" d="M12 340l129 111q-35 70 -35 155q0 92 32 169t85 136l-92 113l172 147l105 -129q106 47 219 48q57 0 108 -11.5t94 -31.5l146 124l139 -163l-131 -113q33 -72 33 -150q0 -92 -32 -168.5t-85 -136.5l96 -116l-172 -148l-108 131q-53 -23 -108.5 -34t-110.5 -11 q-115 0 -197 41l-147 -127zM406 631q0 -66 33.5 -102.5t92.5 -36.5q35 0 69 16t59.5 47t41 73t15.5 93q0 68 -34 103.5t-93 35.5q-35 0 -69 -16.5t-59.5 -47t-40.5 -72.5t-15 -93z" />
<glyph unicode="&#xa5;" d="M29 297l30 152h297l21 108h-297l31 154h229l-162 589h334l33 -260q8 -68 17 -135t22 -133h6q37 68 73.5 135.5t73.5 132.5l135 260h326l-397 -589h229l-31 -154h-297l-22 -108h297l-31 -152h-297l-59 -297h-324l60 297h-297z" />
<glyph unicode="&#xa6;" horiz-adv-x="540" d="M176 414h201v-926h-201v926zM176 647v889h201v-889h-201z" />
<glyph unicode="&#xa7;" horiz-adv-x="1056" d="M-8 0l160 201q49 -49 120.5 -94.5t145.5 -45.5q98 0 98 78q0 31 -31.5 57.5t-78 56.5t-101.5 64.5t-101 79.5t-78 103.5t-32 138.5q0 102 58.5 179t150.5 122q-33 59 -33 125q0 76 28 140.5t77 111.5t119.5 73.5t156.5 26.5q98 0 192.5 -44t172.5 -124l-164 -180 q-41 37 -91 69.5t-110 32.5q-37 0 -61.5 -18t-24.5 -55q0 -29 33 -55.5t81 -57.5t105.5 -66.5t105.5 -81.5t81 -104.5t33 -134.5q0 -113 -56.5 -191.5t-154.5 -132.5q18 -43 18 -98q0 -82 -29.5 -147.5t-83 -111.5t-129 -71.5t-168.5 -25.5q-102 0 -212.5 47t-196.5 133z M373 676q0 -37 25.5 -66.5t66.5 -57.5t90 -56.5t96 -61.5q33 20 51.5 50t18.5 77q0 35 -25.5 63.5t-65.5 56.5t-89 55.5t-97 60.5q-31 -18 -51 -48t-20 -73z" />
<glyph unicode="&#xa8;" horiz-adv-x="1105" d="M349 1294q0 33 13 64t35.5 53.5t54.5 36.5t69 14q57 0 96 -35.5t39 -99.5q0 -72 -49 -120t-123 -48q-57 0 -96 35t-39 100zM758 1294q0 33 13.5 64t36 53.5t54 36.5t68.5 14q57 0 96 -35.5t39 -99.5q0 -72 -49 -120t-123 -48q-57 0 -96 35t-39 100z" />
<glyph unicode="&#xa9;" horiz-adv-x="1380" d="M57 553q0 166 57.5 310.5t161 251t245 167.5t310.5 61q119 0 220.5 -43t175 -118.5t115.5 -180t42 -227.5q0 -166 -57 -310.5t-160.5 -251t-246 -167.5t-310.5 -61q-121 0 -222 43t-175 118.5t-115 180t-41 227.5zM205 565q0 -88 25.5 -168t77.5 -141t131 -97t184 -36 q129 0 240.5 50t194.5 136t131 203t48 250q0 88 -26.5 168t-79 141.5t-130.5 97t-182 35.5q-129 0 -241.5 -50t-195.5 -136t-130 -203t-47 -250zM352 582q0 109 42 196.5t108.5 149t148.5 95.5t164 34q72 0 127 -35t86 -72l-135 -131q-25 29 -51.5 39t-55.5 10 q-35 0 -70.5 -19.5t-64 -53t-47 -80.5t-18.5 -105q0 -74 38 -116.5t109 -42.5q37 0 63.5 11t67.5 38l90 -140q-66 -53 -135 -75.5t-139 -22.5q-147 0 -237.5 86.5t-90.5 233.5z" />
<glyph unicode="&#xaa;" horiz-adv-x="755" d="M106 766q0 96 31 181t81 147.5t115.5 98.5t137.5 36q43 0 78 -24.5t53 -61.5h8l33 69h184l-135 -680h-184v82h-8q-43 -47 -97.5 -72.5t-103.5 -25.5q-90 0 -141.5 64.5t-51.5 185.5zM340 795q0 -49 16 -72t41 -23q29 0 59.5 16.5t59.5 69.5l37 209q-10 25 -28.5 37 t-37.5 12q-29 0 -54 -18t-46.5 -51t-34 -79t-12.5 -101z" />
<glyph unicode="&#xab;" horiz-adv-x="983" d="M82 410l41 229l311 279l98 -107l-266 -307l156 -311l-127 -82zM492 410l41 229l311 279l98 -107l-266 -307l156 -311l-127 -82z" />
<glyph unicode="&#xac;" d="M98 561v230h918v-603h-234v373h-684z" />
<glyph unicode="&#xad;" horiz-adv-x="671" d="M70 406l49 229h491l-49 -229h-491z" />
<glyph unicode="&#xae;" horiz-adv-x="937" d="M172 999q0 88 30.5 173t88 149.5t137.5 104.5t178 40q72 0 137.5 -27.5t115.5 -76.5t80 -116.5t32 -147.5q0 -90 -32 -174t-89 -148.5t-137 -104.5t-176 -40q-74 0 -140.5 27.5t-116 76.5t-79 117t-29.5 147zM287 1008q0 -57 18.5 -106.5t52 -86.5t80.5 -57.5t107 -20.5 q70 0 127 29t98 77t63.5 111.5t22.5 135.5q0 57 -18.5 106t-52 86t-82 57.5t-105.5 20.5q-70 0 -127 -28.5t-98 -77t-63.5 -113t-22.5 -133.5zM369 852l82 397h180q61 0 100 -31.5t39 -87.5q0 -41 -24.5 -76.5t-73.5 -54.5l49 -147h-123l-33 119h-49l-24 -119h-123z M532 1057h29q37 0 55.5 18.5t18.5 42.5q0 18 -10.5 29.5t-38.5 11.5h-33z" />
<glyph unicode="&#xaf;" horiz-adv-x="1105" d="M406 1208l41 205h561l-41 -205h-561z" />
<glyph unicode="&#xb0;" horiz-adv-x="741" d="M188 1073q0 70 27 130.5t73 105.5t104.5 70.5t123.5 25.5q121 0 195.5 -74t74.5 -196q0 -70 -26.5 -130.5t-72.5 -105.5t-105.5 -70.5t-122.5 -25.5q-121 0 -196 73.5t-75 196.5zM360 1073q0 -47 28 -81t83 -34q66 0 104.5 52.5t38.5 124.5q0 47 -27.5 80.5t-82.5 33.5 q-66 0 -105 -52t-39 -124z" />
<glyph unicode="&#xb1;" d="M98 0v229h918v-229h-918zM98 635v229h340v299h238v-299h340v-229h-344v-299h-238v299h-336z" />
<glyph unicode="&#xb2;" horiz-adv-x="753" d="M148 901l24 127q201 127 305.5 230.5t104.5 183.5q0 35 -21.5 56t-64.5 21q-29 0 -54.5 -18t-56.5 -47l-131 139q74 66 137.5 98.5t149.5 32.5q129 0 203.5 -63.5t74.5 -173.5q0 -104 -71.5 -197.5t-182.5 -187.5h205l-41 -201h-581z" />
<glyph unicode="&#xb3;" horiz-adv-x="745" d="M156 1040l151 111q55 -86 138 -86q53 0 82.5 22.5t29.5 59.5q0 43 -29.5 66.5t-130.5 23.5l29 141q53 0 86 9.5t51.5 23.5t24.5 32.5t6 37.5q0 27 -19.5 43t-54.5 16t-58.5 -8t-64.5 -37l-98 156q74 43 137.5 58t139.5 15q113 0 184.5 -55t71.5 -145q0 -78 -36 -130.5 t-120 -86.5q53 -31 82 -75t29 -98q0 -61 -26 -109t-69 -81t-101 -50.5t-124 -17.5q-115 0 -189.5 45.5t-121.5 118.5z" />
<glyph unicode="&#xb4;" horiz-adv-x="1105" d="M500 1176l238 311h323l-315 -311h-246z" />
<glyph unicode="&#xb5;" horiz-adv-x="1134" d="M-57 -360l274 1384h328l-119 -594q-6 -29 -11 -50.5t-5 -39.5q0 -43 22.5 -64.5t63.5 -21.5t79.5 27.5t88.5 85.5l127 657h323l-196 -1024h-267v131h-8q-37 -59 -91 -99t-110 -40q-35 0 -62.5 7t-43.5 30l-12 -107l-56 -282h-325z" />
<glyph unicode="&#xb6;" horiz-adv-x="1302" d="M139 770q0 150 50.5 256.5t135.5 174t196.5 99t232.5 31.5h86l-189 -942h-73q-88 0 -167 24.5t-139.5 74t-96.5 120t-36 162.5zM655 -164l295 1495h328l-295 -1495h-328z" />
<glyph unicode="&#xb7;" horiz-adv-x="634" d="M151 639q0 41 16.5 82t46 74t70.5 53.5t92 20.5q74 0 119 -49t45 -123q0 -43 -16 -84t-46 -74t-71 -52.5t-92 -19.5q-74 0 -119 47.5t-45 124.5z" />
<glyph unicode="&#xb8;" horiz-adv-x="1105" d="M160 -328q74 6 127 29t53 66q0 23 -17 42t-73 35l111 164h188l-57 -94q41 -16 65.5 -45t24.5 -78q0 -63 -34 -108t-91 -75t-132 -45.5t-157 -17.5z" />
<glyph unicode="&#xb9;" horiz-adv-x="786" d="M340 1462l29 148q43 6 75.5 14t60.5 18.5t54.5 24.5t55.5 33h184l-156 -799h-241l114 561h-176z" />
<glyph unicode="&#xba;" horiz-adv-x="741" d="M102 801q0 98 33 177t88.5 134t125 86t143.5 31q57 0 108 -19.5t89 -55.5t59.5 -89t21.5 -121q0 -98 -32.5 -177t-88 -134t-125 -86t-143.5 -31q-59 0 -109.5 19.5t-88.5 55.5t-59.5 89t-21.5 121zM332 803q0 -49 16.5 -78t52.5 -29q66 0 103 71t37 175q0 49 -16.5 78 t-53.5 29q-66 0 -102.5 -71t-36.5 -175z" />
<glyph unicode="&#xbb;" horiz-adv-x="983" d="M57 217l267 307l-156 312l127 82l213 -300l-41 -229l-311 -278zM467 217l267 307l-156 312l127 82l213 -300l-41 -229l-311 -278z" />
<glyph unicode="&#xbc;" horiz-adv-x="1613" d="M205 1114l29 148q43 6 75.5 14t60.5 18.5t54.5 24.5t55.5 33h184l-156 -799h-241l114 561h-176zM254 -25l962 1401h185l-963 -1401h-184zM835 168l25 123l385 508h299l-92 -475h117l-33 -156h-115l-33 -168h-204l34 168h-383zM1077 324h172l17 77l57 254h-8l-119 -176z " />
<glyph unicode="&#xbd;" horiz-adv-x="1695" d="M196 1114l29 148q43 6 75.5 14t60.5 18.5t54.5 24.5t55.5 33h184l-156 -799h-241l114 561h-176zM234 -25l962 1401h185l-963 -1401h-184zM926 0l24 127q201 127 305.5 230.5t104.5 183.5q0 35 -21.5 56t-64.5 21q-29 0 -54.5 -18t-56.5 -47l-131 139q74 66 137.5 98.5 t149.5 32.5q129 0 203.5 -63.5t74.5 -173.5q0 -104 -71.5 -197.5t-182.5 -187.5h205l-41 -201h-581z" />
<glyph unicode="&#xbe;" horiz-adv-x="1634" d="M74 692l151 111q55 -86 138 -86q53 0 82.5 22.5t29.5 59.5q0 43 -29.5 66.5t-130.5 23.5l29 141q53 0 86 9.5t51.5 23.5t24.5 32.5t6 37.5q0 27 -19.5 43t-54.5 16t-58.5 -8t-64.5 -37l-98 156q74 43 137.5 58t139.5 15q113 0 184.5 -55t71.5 -145q0 -78 -36 -130.5 t-120 -86.5q53 -31 82 -75t29 -98q0 -61 -26 -109t-69 -81t-101 -50.5t-124 -17.5q-115 0 -189.5 45.5t-121.5 118.5zM295 -25l962 1401h185l-963 -1401h-184zM856 168l25 123l385 508h299l-92 -475h117l-33 -156h-115l-33 -168h-204l34 168h-383zM1098 324h172l17 77 l57 254h-8l-119 -176z" />
<glyph unicode="&#xbf;" horiz-adv-x="937" d="M0 -53q0 78 25.5 135t65.5 102t87 82t90 78t76 89t45 116l279 -25q-10 -80 -39 -138t-68 -102t-82 -79t-77.5 -67t-58.5 -65.5t-24 -76.5q0 -49 31 -78t84 -29q66 0 135 70l164 -184q-154 -147 -340 -148q-88 0 -159.5 21.5t-124 62.5t-81 100.5t-28.5 135.5zM397 819 q0 43 16.5 84t46 74t71 52.5t92.5 19.5q74 0 118.5 -47.5t44.5 -124.5q0 -41 -16 -82t-46 -74t-71 -53.5t-92 -20.5q-74 0 -119 49t-45 123z" />
<glyph unicode="&#xc0;" horiz-adv-x="1150" d="M-135 0l696 1331h393l127 -1331h-344l-8 303h-367l-137 -303h-360zM459 1683h332l106 -249h-245zM475 549h246l-4 156q-4 96 -6 187t-2 193h-9q-41 -98 -76.5 -191t-78.5 -189z" />
<glyph unicode="&#xc1;" horiz-adv-x="1150" d="M-135 0l696 1331h393l127 -1331h-344l-8 303h-367l-137 -303h-360zM475 549h246l-4 156q-4 96 -6 187t-2 193h-9q-41 -98 -76.5 -191t-78.5 -189zM578 1434l205 249h352l-291 -249h-266z" />
<glyph unicode="&#xc2;" horiz-adv-x="1150" d="M-135 0l696 1331h393l127 -1331h-344l-8 303h-367l-137 -303h-360zM398 1434l237 249h320l139 -249h-238l-77 122h-5l-118 -122h-258zM475 549h246l-4 156q-4 96 -6 187t-2 193h-9q-41 -98 -76.5 -191t-78.5 -189z" />
<glyph unicode="&#xc3;" horiz-adv-x="1150" d="M-135 0l696 1331h393l127 -1331h-344l-8 303h-367l-137 -303h-360zM398 1434q41 145 114.5 215.5t149.5 70.5q47 0 78.5 -14t57.5 -30.5t49.5 -31t53.5 -14.5q23 0 42.5 19.5t39.5 66.5h168q-41 -145 -114.5 -215.5t-149.5 -70.5q-47 0 -79 14t-57.5 30.5t-49 31 t-54.5 14.5q-23 0 -42 -19.5t-39 -66.5h-168zM475 549h246l-4 156q-4 96 -6 187t-2 193h-9q-41 -98 -76.5 -191t-78.5 -189z" />
<glyph unicode="&#xc4;" horiz-adv-x="1150" d="M-135 0l696 1331h393l127 -1331h-344l-8 303h-367l-137 -303h-360zM422 1556q0 31 12.5 62t35 55.5t53 40t67.5 15.5q53 0 92 -35t39 -97q0 -31 -12 -61.5t-34.5 -55t-53.5 -40t-68 -15.5q-55 0 -93 35t-38 96zM475 549h246l-4 156q-4 96 -6 187t-2 193h-9 q-41 -98 -76.5 -191t-78.5 -189zM832 1556q0 31 12 62t34.5 55.5t53.5 40t68 15.5q53 0 92 -35t39 -97q0 -31 -12.5 -61.5t-35 -55t-53 -40t-67.5 -15.5q-55 0 -93 35t-38 96z" />
<glyph unicode="&#xc5;" horiz-adv-x="1150" d="M-135 0l696 1331h393l127 -1331h-344l-8 303h-367l-137 -303h-360zM475 549h246l-4 156q-4 96 -6 187t-2 193h-9q-41 -98 -76.5 -191t-78.5 -189zM553 1606q0 47 19.5 90t53.5 74.5t78 50t95 18.5q43 0 83 -11t70.5 -32.5t49 -56.5t18.5 -80q0 -49 -19.5 -92t-53 -74 t-78 -49.5t-95.5 -18.5q-45 0 -84.5 10.5t-70.5 32t-48.5 56.5t-17.5 82zM709 1618q0 -29 17.5 -49.5t52.5 -20.5t60.5 29t25.5 70q0 29 -17.5 49t-52.5 20q-37 0 -61.5 -30.5t-24.5 -67.5z" />
<glyph unicode="&#xc6;" horiz-adv-x="1744" d="M-74 0l836 1331h1016l-54 -274h-471l-45 -234h398l-54 -274h-397l-57 -275h487l-53 -274h-815l57 287h-315l-164 -287h-369zM604 541h221l111 557h-6q-55 -96 -107.5 -182.5t-105.5 -178.5z" />
<glyph unicode="&#xc7;" horiz-adv-x="1175" d="M115 541q0 178 56 327.5t154.5 258t228.5 169t277 60.5q117 0 211.5 -56.5t153.5 -160.5l-221 -172q-72 106 -160 106q-72 0 -138.5 -40t-116.5 -108.5t-79.5 -162.5t-29.5 -201q0 -145 59 -224t195 -79q53 0 105 26.5t99 67.5l135 -209q-29 -27 -69.5 -56.5t-93 -54 t-114.5 -41t-132 -16.5q-117 0 -213 38t-164 110t-105.5 177.5t-37.5 240.5zM311 -328q74 6 127 29t53 66q0 23 -17 42t-73 35l111 164h188l-57 -94q41 -16 65.5 -45t24.5 -78q0 -63 -34 -108t-91 -75t-132 -45.5t-157 -17.5z" />
<glyph unicode="&#xc8;" horiz-adv-x="1097" d="M53 0l266 1331h811l-53 -274h-487l-45 -234h413l-53 -274h-413l-58 -275h504l-53 -274h-832zM459 1683h332l106 -249h-245z" />
<glyph unicode="&#xc9;" horiz-adv-x="1097" d="M53 0l266 1331h811l-53 -274h-487l-45 -234h413l-53 -274h-413l-58 -275h504l-53 -274h-832zM578 1434l205 249h352l-291 -249h-266z" />
<glyph unicode="&#xca;" horiz-adv-x="1097" d="M53 0l266 1331h811l-53 -274h-487l-45 -234h413l-53 -274h-413l-58 -275h504l-53 -274h-832zM398 1434l237 249h320l139 -249h-238l-77 122h-5l-118 -122h-258z" />
<glyph unicode="&#xcb;" horiz-adv-x="1097" d="M53 0l266 1331h811l-53 -274h-487l-45 -234h413l-53 -274h-413l-58 -275h504l-53 -274h-832zM422 1556q0 31 12.5 62t35 55.5t53 40t67.5 15.5q53 0 92 -35t39 -97q0 -31 -12 -61.5t-34.5 -55t-53.5 -40t-68 -15.5q-55 0 -93 35t-38 96zM832 1556q0 31 12 62t34.5 55.5 t53.5 40t68 15.5q53 0 92 -35t39 -97q0 -31 -12.5 -61.5t-35 -55t-53 -40t-67.5 -15.5q-55 0 -93 35t-38 96z" />
<glyph unicode="&#xcc;" horiz-adv-x="634" d="M53 0l266 1331h328l-266 -1331h-328zM188 1683h332l106 -249h-245z" />
<glyph unicode="&#xcd;" horiz-adv-x="634" d="M53 0l266 1331h328l-266 -1331h-328zM307 1434l205 249h352l-291 -249h-266z" />
<glyph unicode="&#xce;" horiz-adv-x="634" d="M53 0l266 1331h328l-266 -1331h-328zM127 1434l237 249h320l139 -249h-238l-77 122h-5l-118 -122h-258z" />
<glyph unicode="&#xcf;" horiz-adv-x="634" d="M53 0l266 1331h328l-266 -1331h-328zM151 1556q0 31 12.5 62t35 55.5t53 40t67.5 15.5q53 0 92 -35t39 -97q0 -31 -12 -61.5t-34.5 -55t-53.5 -40t-68 -15.5q-55 0 -93 35t-38 96zM561 1556q0 31 12 62t34.5 55.5t53.5 40t68 15.5q53 0 92 -35t39 -97q0 -31 -12.5 -61.5 t-35 -55t-53 -40t-67.5 -15.5q-55 0 -93 35t-38 96z" />
<glyph unicode="&#xd0;" horiz-adv-x="1318" d="M70 614l28 144l146 12l112 561h312q139 0 250.5 -31.5t188.5 -96t118 -163t41 -233.5q0 -203 -56.5 -354.5t-156 -252t-234.5 -150.5t-291 -50h-438l123 614h-143zM471 262h49q82 0 157 27.5t131 90t89 162t33 244.5q0 78 -20.5 132.5t-56.5 88t-86 48t-108 14.5h-28 l-60 -299h236l-33 -156h-233z" />
<glyph unicode="&#xd1;" horiz-adv-x="1335" d="M53 0l266 1331h316l184 -631l66 -299h8q4 53 8 117t10.5 129.5t14.5 132t20 125.5l86 426h311l-266 -1331h-315l-184 631l-62 299h-8q-10 -115 -21.5 -247t-35.5 -253l-86 -430h-312zM504 1434q41 145 114.5 215.5t149.5 70.5q47 0 78.5 -14t57.5 -30.5t49.5 -31 t53.5 -14.5q23 0 42.5 19.5t39.5 66.5h168q-41 -145 -114.5 -215.5t-149.5 -70.5q-47 0 -79 14t-57.5 30.5t-49 31t-54.5 14.5q-23 0 -42 -19.5t-39 -66.5h-168z" />
<glyph unicode="&#xd2;" horiz-adv-x="1372" d="M115 541q0 186 58 336.5t153.5 257t219.5 164t257 57.5q115 0 210 -38t162.5 -109.5t105.5 -177t38 -240.5q0 -186 -58.5 -337t-153.5 -257.5t-220 -164t-256 -57.5q-115 0 -210 38t-163 110t-105.5 177.5t-37.5 240.5zM451 561q0 -145 52 -224t144 -79q57 0 116.5 37 t109 104.5t80 161.5t30.5 209q0 145 -52.5 224t-144.5 79q-57 0 -116.5 -37t-108.5 -104.5t-79.5 -161.5t-30.5 -209zM569 1683h332l106 -249h-245z" />
<glyph unicode="&#xd3;" horiz-adv-x="1372" d="M115 541q0 186 58 336.5t153.5 257t219.5 164t257 57.5q115 0 210 -38t162.5 -109.5t105.5 -177t38 -240.5q0 -186 -58.5 -337t-153.5 -257.5t-220 -164t-256 -57.5q-115 0 -210 38t-163 110t-105.5 177.5t-37.5 240.5zM451 561q0 -145 52 -224t144 -79q57 0 116.5 37 t109 104.5t80 161.5t30.5 209q0 145 -52.5 224t-144.5 79q-57 0 -116.5 -37t-108.5 -104.5t-79.5 -161.5t-30.5 -209zM688 1434l205 249h352l-291 -249h-266z" />
<glyph unicode="&#xd4;" horiz-adv-x="1372" d="M115 541q0 186 58 336.5t153.5 257t219.5 164t257 57.5q115 0 210 -38t162.5 -109.5t105.5 -177t38 -240.5q0 -186 -58.5 -337t-153.5 -257.5t-220 -164t-256 -57.5q-115 0 -210 38t-163 110t-105.5 177.5t-37.5 240.5zM451 561q0 -145 52 -224t144 -79q57 0 116.5 37 t109 104.5t80 161.5t30.5 209q0 145 -52.5 224t-144.5 79q-57 0 -116.5 -37t-108.5 -104.5t-79.5 -161.5t-30.5 -209zM508 1434l237 249h320l139 -249h-238l-77 122h-5l-118 -122h-258z" />
<glyph unicode="&#xd5;" horiz-adv-x="1372" d="M115 541q0 186 58 336.5t153.5 257t219.5 164t257 57.5q115 0 210 -38t162.5 -109.5t105.5 -177t38 -240.5q0 -186 -58.5 -337t-153.5 -257.5t-220 -164t-256 -57.5q-115 0 -210 38t-163 110t-105.5 177.5t-37.5 240.5zM451 561q0 -145 52 -224t144 -79q57 0 116.5 37 t109 104.5t80 161.5t30.5 209q0 145 -52.5 224t-144.5 79q-57 0 -116.5 -37t-108.5 -104.5t-79.5 -161.5t-30.5 -209zM508 1434q41 145 114.5 215.5t149.5 70.5q47 0 78.5 -14t57.5 -30.5t49.5 -31t53.5 -14.5q23 0 42.5 19.5t39.5 66.5h168q-41 -145 -114.5 -215.5 t-149.5 -70.5q-47 0 -79 14t-57.5 30.5t-49 31t-54.5 14.5q-23 0 -42 -19.5t-39 -66.5h-168z" />
<glyph unicode="&#xd6;" horiz-adv-x="1372" d="M115 541q0 186 58 336.5t153.5 257t219.5 164t257 57.5q115 0 210 -38t162.5 -109.5t105.5 -177t38 -240.5q0 -186 -58.5 -337t-153.5 -257.5t-220 -164t-256 -57.5q-115 0 -210 38t-163 110t-105.5 177.5t-37.5 240.5zM451 561q0 -145 52 -224t144 -79q57 0 116.5 37 t109 104.5t80 161.5t30.5 209q0 145 -52.5 224t-144.5 79q-57 0 -116.5 -37t-108.5 -104.5t-79.5 -161.5t-30.5 -209zM532 1556q0 31 12.5 62t35 55.5t53 40t67.5 15.5q53 0 92 -35t39 -97q0 -31 -12 -61.5t-34.5 -55t-53.5 -40t-68 -15.5q-55 0 -93 35t-38 96zM942 1556 q0 31 12 62t34.5 55.5t53.5 40t68 15.5q53 0 92 -35t39 -97q0 -31 -12.5 -61.5t-35 -55t-53 -40t-67.5 -15.5q-55 0 -93 35t-38 96z" />
<glyph unicode="&#xd7;" d="M127 393l270 283l-270 282l160 160l270 -282l270 282l160 -160l-270 -282l270 -283l-160 -160l-270 283l-270 -283z" />
<glyph unicode="&#xd8;" horiz-adv-x="1372" d="M-25 41l199 203q-59 125 -59 297q0 186 58 336.5t153.5 257t219.5 164t257 57.5q209 0 344 -119l196 201l144 -131l-223 -230q27 -59 41 -131t14 -155q0 -186 -58.5 -337t-153.5 -257.5t-220 -164t-256 -57.5q-203 0 -338 113l-174 -178zM451 526l471 482q-49 66 -136 65 q-57 0 -116.5 -37t-108.5 -104.5t-79.5 -161.5t-30.5 -209v-35zM518 317q49 -59 129 -59q57 0 116.5 37t109 104.5t80 161.5t30.5 209v23z" />
<glyph unicode="&#xd9;" horiz-adv-x="1339" d="M152 455q0 47 9 109.5t19 115.5l131 651h328l-143 -717q-6 -41 -11.5 -77.5t-5.5 -73.5q0 -102 37 -153.5t139 -51.5q88 0 141.5 74t88.5 246l151 753h320l-152 -745q-61 -315 -194 -463t-363 -148q-250 0 -372.5 116t-122.5 364zM557 1683h332l106 -249h-245z" />
<glyph unicode="&#xda;" horiz-adv-x="1339" d="M152 455q0 47 9 109.5t19 115.5l131 651h328l-143 -717q-6 -41 -11.5 -77.5t-5.5 -73.5q0 -102 37 -153.5t139 -51.5q88 0 141.5 74t88.5 246l151 753h320l-152 -745q-61 -315 -194 -463t-363 -148q-250 0 -372.5 116t-122.5 364zM676 1434l205 249h352l-291 -249h-266z " />
<glyph unicode="&#xdb;" horiz-adv-x="1339" d="M152 455q0 47 9 109.5t19 115.5l131 651h328l-143 -717q-6 -41 -11.5 -77.5t-5.5 -73.5q0 -102 37 -153.5t139 -51.5q88 0 141.5 74t88.5 246l151 753h320l-152 -745q-61 -315 -194 -463t-363 -148q-250 0 -372.5 116t-122.5 364zM496 1434l237 249h320l139 -249h-238 l-77 122h-5l-118 -122h-258z" />
<glyph unicode="&#xdc;" horiz-adv-x="1339" d="M152 455q0 47 9 109.5t19 115.5l131 651h328l-143 -717q-6 -41 -11.5 -77.5t-5.5 -73.5q0 -102 37 -153.5t139 -51.5q88 0 141.5 74t88.5 246l151 753h320l-152 -745q-61 -315 -194 -463t-363 -148q-250 0 -372.5 116t-122.5 364zM520 1556q0 31 12.5 62t35 55.5t53 40 t67.5 15.5q53 0 92 -35t39 -97q0 -31 -12 -61.5t-34.5 -55t-53.5 -40t-68 -15.5q-55 0 -93 35t-38 96zM930 1556q0 31 12 62t34.5 55.5t53.5 40t68 15.5q53 0 92 -35t39 -97q0 -31 -12.5 -61.5t-35 -55t-53 -40t-67.5 -15.5q-55 0 -93 35t-38 96z" />
<glyph unicode="&#xdd;" horiz-adv-x="1081" d="M162 1331h340l43 -295q12 -78 22.5 -146.5t22.5 -148.5h8q41 80 77 151t79 148l159 291h353l-566 -864l-94 -467h-325l92 467zM529 1434l205 249h352l-291 -249h-266z" />
<glyph unicode="&#xde;" horiz-adv-x="1245" d="M53 0l266 1352h328l-41 -205h160q90 0 170 -19.5t138.5 -62.5t92 -112.5t33.5 -170.5q0 -145 -52 -246.5t-139 -165t-201 -92t-239 -28.5h-143l-49 -250h-324zM479 508h127q129 0 200 57.5t71 167.5q0 80 -46.5 118t-130.5 38h-147z" />
<glyph unicode="&#xdf;" horiz-adv-x="1290" d="M16 0l205 1020q18 92 61.5 171t109 136t154.5 90t199 33q76 0 151 -18.5t133 -57.5t94 -99.5t36 -144.5t-33.5 -138t-74.5 -95l-75 -75t-34 -72q0 -39 39 -74t86 -78t86 -102.5t39 -147.5q0 -78 -31 -146.5t-85 -118.5t-126.5 -79t-154.5 -29q-80 0 -158 19.5t-150 66.5 l131 218q37 -25 80 -43.5t93 -18.5q47 0 72.5 27.5t25.5 70.5t-42 78t-91 75t-91 93t-42 131q0 66 34.5 112t75.5 87t76 85t35 105q0 53 -25.5 82t-85.5 29q-39 0 -70.5 -18.5t-56 -50t-42 -73.5t-27.5 -92l-193 -958h-328z" />
<glyph unicode="&#xe0;" horiz-adv-x="1142" d="M57 352q0 145 45 272.5t121 221.5t174.5 148.5t204.5 54.5q66 0 125 -34t88 -93h4l45 102h262l-204 -1024h-267v127h-4q-68 -72 -150.5 -112t-156.5 -40q-135 0 -211 97.5t-76 279.5zM397 393q0 -80 26 -115.5t69 -35.5q41 0 90 25.5t90 109.5l65 328q-18 41 -50 59 t-60 18q-45 0 -86 -28.5t-73 -79.5t-51.5 -123t-19.5 -158zM431 1487h299l114 -311h-225z" />
<glyph unicode="&#xe1;" horiz-adv-x="1142" d="M57 352q0 145 45 272.5t121 221.5t174.5 148.5t204.5 54.5q66 0 125 -34t88 -93h4l45 102h262l-204 -1024h-267v127h-4q-68 -72 -150.5 -112t-156.5 -40q-135 0 -211 97.5t-76 279.5zM397 393q0 -80 26 -115.5t69 -35.5q41 0 90 25.5t90 109.5l65 328q-18 41 -50 59 t-60 18q-45 0 -86 -28.5t-73 -79.5t-51.5 -123t-19.5 -158zM500 1176l238 311h323l-315 -311h-246z" />
<glyph unicode="&#xe2;" horiz-adv-x="1142" d="M57 352q0 145 45 272.5t121 221.5t174.5 148.5t204.5 54.5q66 0 125 -34t88 -93h4l45 102h262l-204 -1024h-267v127h-4q-68 -72 -150.5 -112t-156.5 -40q-135 0 -211 97.5t-76 279.5zM365 1176l250 311h258l127 -311h-209l-66 155h-8l-127 -155h-225zM397 393 q0 -80 26 -115.5t69 -35.5q41 0 90 25.5t90 109.5l65 328q-18 41 -50 59t-60 18q-45 0 -86 -28.5t-73 -79.5t-51.5 -123t-19.5 -158z" />
<glyph unicode="&#xe3;" horiz-adv-x="1142" d="M57 352q0 145 45 272.5t121 221.5t174.5 148.5t204.5 54.5q66 0 125 -34t88 -93h4l45 102h262l-204 -1024h-267v127h-4q-68 -72 -150.5 -112t-156.5 -40q-135 0 -211 97.5t-76 279.5zM353 1180q41 145 112.5 213.5t147.5 68.5q47 0 78.5 -13t57.5 -29.5t49.5 -30 t53.5 -13.5q23 0 40.5 17.5t37.5 64.5h168q-41 -145 -112.5 -213.5t-147.5 -68.5q-47 0 -79 13t-57.5 29.5t-49 30t-54.5 13.5q-23 0 -40 -17.5t-37 -64.5h-168zM397 393q0 -80 26 -115.5t69 -35.5q41 0 90 25.5t90 109.5l65 328q-18 41 -50 59t-60 18q-45 0 -86 -28.5 t-73 -79.5t-51.5 -123t-19.5 -158z" />
<glyph unicode="&#xe4;" horiz-adv-x="1142" d="M57 352q0 145 45 272.5t121 221.5t174.5 148.5t204.5 54.5q66 0 125 -34t88 -93h4l45 102h262l-204 -1024h-267v127h-4q-68 -72 -150.5 -112t-156.5 -40q-135 0 -211 97.5t-76 279.5zM349 1294q0 33 13 64t35.5 53.5t54.5 36.5t69 14q57 0 96 -35.5t39 -99.5 q0 -72 -49 -120t-123 -48q-57 0 -96 35t-39 100zM397 393q0 -80 26 -115.5t69 -35.5q41 0 90 25.5t90 109.5l65 328q-18 41 -50 59t-60 18q-45 0 -86 -28.5t-73 -79.5t-51.5 -123t-19.5 -158zM758 1294q0 33 13.5 64t36 53.5t54 36.5t68.5 14q57 0 96 -35.5t39 -99.5 q0 -72 -49 -120t-123 -48q-57 0 -96 35t-39 100z" />
<glyph unicode="&#xe5;" horiz-adv-x="1142" d="M57 352q0 145 45 272.5t121 221.5t174.5 148.5t204.5 54.5q66 0 125 -34t88 -93h4l45 102h262l-204 -1024h-267v127h-4q-68 -72 -150.5 -112t-156.5 -40q-135 0 -211 97.5t-76 279.5zM397 393q0 -80 26 -115.5t69 -35.5q41 0 90 25.5t90 109.5l65 328q-18 41 -50 59 t-60 18q-45 0 -86 -28.5t-73 -79.5t-51.5 -123t-19.5 -158zM488 1315q0 51 18.5 94t50 74.5t75.5 50t98 18.5q96 0 156.5 -49t60.5 -139q0 -51 -18.5 -94t-50.5 -75t-77 -50.5t-96 -18.5q-96 0 -156.5 49.5t-60.5 139.5zM644 1323q0 -31 15 -52.5t50 -21.5t58.5 32t23.5 75 q0 29 -15.5 51t-50.5 22t-58 -31.5t-23 -74.5z" />
<glyph unicode="&#xe6;" horiz-adv-x="1540" d="M37 233q0 113 49 191t132 125t193.5 68.5t235.5 25.5v25q0 68 -31.5 97.5t-91.5 29.5q-55 0 -117.5 -19.5t-136.5 -54.5l-69 225q96 47 198.5 75t206.5 28q174 0 250 -115q66 55 139.5 85t147.5 30q94 0 158.5 -31t104.5 -84t58.5 -124t18.5 -151q0 -39 -7.5 -77.5 t-16.5 -72.5t-18 -59.5t-16 -35.5h-532q-2 -51 12.5 -87t41 -59.5t63.5 -35t80 -11.5q41 0 87 20.5t80 45.5l115 -205q-59 -43 -149 -75t-207 -32q-109 0 -195 45.5t-131 108.5q-88 -72 -176 -113t-199 -41q-59 0 -110 18.5t-88 52.5t-58.5 81t-21.5 106zM356 299 q0 -35 26 -54.5t69 -19.5q37 0 77.5 24.5t81.5 74.5q-4 29 -6 57t2 65q-135 -4 -192.5 -46t-57.5 -101zM918 610h290q4 23 6.5 35t2.5 31q0 53 -25 88t-90 35q-53 0 -103.5 -45t-80.5 -144z" />
<glyph unicode="&#xe7;" horiz-adv-x="913" d="M53 401q0 129 46 246t129 206t195 142.5t245 53.5q98 0 169.5 -40t108.5 -87l-180 -193q-29 29 -55.5 43t-63.5 14q-55 0 -102 -29.5t-82 -81.5t-54.5 -122t-19.5 -147q0 -78 37 -123t111 -45q47 0 78.5 17t60.5 40l135 -201q-59 -43 -142 -81t-206 -38q-86 0 -161 29 t-130 83t-87 133t-32 181zM139 -328q74 6 127 29t53 66q0 23 -17 42t-73 35l111 164h188l-57 -94q41 -16 65.5 -45t24.5 -78q0 -63 -34 -108t-91 -75t-132 -45.5t-157 -17.5z" />
<glyph unicode="&#xe8;" horiz-adv-x="1028" d="M53 418q0 141 51.5 257t134.5 198.5t186 129t206 46.5q94 0 158.5 -31t104.5 -84t58.5 -124t18.5 -151q0 -39 -7.5 -77.5t-16.5 -72.5t-18 -59.5t-16 -35.5h-553q4 -102 63.5 -147.5t149.5 -45.5q43 0 90.5 20.5t81.5 45.5l115 -205q-61 -43 -157.5 -75t-223.5 -32 q-94 0 -172 31t-134 88.5t-88 139.5t-32 184zM385 610h311q4 12 6.5 29.5t2.5 36.5q0 53 -25 88t-90 35q-59 0 -114.5 -45t-90.5 -144zM414 1487h299l114 -311h-225z" />
<glyph unicode="&#xe9;" horiz-adv-x="1028" d="M53 418q0 141 51.5 257t134.5 198.5t186 129t206 46.5q94 0 158.5 -31t104.5 -84t58.5 -124t18.5 -151q0 -39 -7.5 -77.5t-16.5 -72.5t-18 -59.5t-16 -35.5h-553q4 -102 63.5 -147.5t149.5 -45.5q43 0 90.5 20.5t81.5 45.5l115 -205q-61 -43 -157.5 -75t-223.5 -32 q-94 0 -172 31t-134 88.5t-88 139.5t-32 184zM385 610h311q4 12 6.5 29.5t2.5 36.5q0 53 -25 88t-90 35q-59 0 -114.5 -45t-90.5 -144zM483 1176l238 311h323l-315 -311h-246z" />
<glyph unicode="&#xea;" horiz-adv-x="1028" d="M53 418q0 141 51.5 257t134.5 198.5t186 129t206 46.5q94 0 158.5 -31t104.5 -84t58.5 -124t18.5 -151q0 -39 -7.5 -77.5t-16.5 -72.5t-18 -59.5t-16 -35.5h-553q4 -102 63.5 -147.5t149.5 -45.5q43 0 90.5 20.5t81.5 45.5l115 -205q-61 -43 -157.5 -75t-223.5 -32 q-94 0 -172 31t-134 88.5t-88 139.5t-32 184zM348 1176l250 311h258l127 -311h-209l-66 155h-8l-127 -155h-225zM385 610h311q4 12 6.5 29.5t2.5 36.5q0 53 -25 88t-90 35q-59 0 -114.5 -45t-90.5 -144z" />
<glyph unicode="&#xeb;" horiz-adv-x="1028" d="M53 418q0 141 51.5 257t134.5 198.5t186 129t206 46.5q94 0 158.5 -31t104.5 -84t58.5 -124t18.5 -151q0 -39 -7.5 -77.5t-16.5 -72.5t-18 -59.5t-16 -35.5h-553q4 -102 63.5 -147.5t149.5 -45.5q43 0 90.5 20.5t81.5 45.5l115 -205q-61 -43 -157.5 -75t-223.5 -32 q-94 0 -172 31t-134 88.5t-88 139.5t-32 184zM332 1294q0 33 13 64t35.5 53.5t54.5 36.5t69 14q57 0 96 -35.5t39 -99.5q0 -72 -49 -120t-123 -48q-57 0 -96 35t-39 100zM385 610h311q4 12 6.5 29.5t2.5 36.5q0 53 -25 88t-90 35q-59 0 -114.5 -45t-90.5 -144zM741 1294 q0 33 13.5 64t36 53.5t54 36.5t68.5 14q57 0 96 -35.5t39 -99.5q0 -72 -49 -120t-123 -48q-57 0 -96 35t-39 100z" />
<glyph unicode="&#xec;" horiz-adv-x="565" d="M16 0l205 1024h328l-205 -1024h-328zM152 1487h299l114 -311h-225z" />
<glyph unicode="&#xed;" horiz-adv-x="565" d="M16 0l205 1024h328l-205 -1024h-328zM221 1176l238 311h323l-315 -311h-246z" />
<glyph unicode="&#xee;" horiz-adv-x="565" d="M16 0l205 1024h328l-205 -1024h-328zM86 1176l250 311h258l127 -311h-209l-66 155h-8l-127 -155h-225z" />
<glyph unicode="&#xef;" horiz-adv-x="565" d="M16 0l205 1024h328l-205 -1024h-328zM70 1294q0 33 13 64t35.5 53.5t54.5 36.5t69 14q57 0 96 -35.5t39 -99.5q0 -72 -49 -120t-123 -48q-57 0 -96 35t-39 100zM479 1294q0 33 13.5 64t36 53.5t54 36.5t68.5 14q57 0 96 -35.5t39 -99.5q0 -72 -49 -120t-123 -48 q-57 0 -96 35t-39 100z" />
<glyph unicode="&#xf0;" horiz-adv-x="1110" d="M61 381q0 100 31 199.5t90.5 179.5t146.5 129t199 49q59 0 109.5 -23.5t85.5 -70.5q-18 141 -84 248l-295 -117l-61 151l245 97q-33 29 -70.5 56.5t-80.5 55.5l147 189q154 -78 271 -195l295 117l61 -152l-250 -98q63 -98 97 -212t34 -247q0 -139 -33.5 -275 t-103.5 -243.5t-177.5 -175.5t-254.5 -68q-82 0 -154.5 28t-128 80t-87.5 127t-32 171zM356 406q0 -72 34 -120t102 -48q94 0 154.5 101t76.5 265q-23 37 -61.5 62.5t-88.5 25.5q-55 0 -96 -25.5t-67.5 -66.5t-40 -92t-13.5 -102z" />
<glyph unicode="&#xf1;" horiz-adv-x="1150" d="M16 0l201 1024h266v-131h9q72 61 156.5 108.5t182.5 47.5q127 0 184.5 -67t57.5 -200q0 -70 -16 -147l-127 -635h-328l119 594q6 29 11 50.5t5 39.5q0 43 -22.5 64.5t-63.5 21.5q-43 0 -84 -27.5t-96 -87.5l-127 -655h-328zM418 1180q41 145 112.5 213.5t147.5 68.5 q47 0 78.5 -13t57.5 -29.5t49.5 -30t53.5 -13.5q23 0 40.5 17.5t37.5 64.5h168q-41 -145 -112.5 -213.5t-147.5 -68.5q-47 0 -79 13t-57.5 29.5t-49 30t-54.5 13.5q-23 0 -40 -17.5t-37 -64.5h-168z" />
<glyph unicode="&#xf2;" horiz-adv-x="1105" d="M53 401q0 150 51.5 270t134.5 203.5t186 129t210 45.5q92 0 168 -31t129 -87.5t82.5 -135t29.5 -172.5q0 -150 -51 -270t-134 -203.5t-186.5 -129t-209.5 -45.5q-92 0 -168 31t-129 87.5t-83 134t-30 173.5zM385 406q0 -78 27.5 -123t87.5 -45q45 0 84 28.5t67.5 78.5 t45 120t16.5 153q0 78 -28 123t-87 45q-45 0 -84 -28.5t-67.5 -78.5t-45 -121t-16.5 -152zM431 1487h299l114 -311h-225z" />
<glyph unicode="&#xf3;" horiz-adv-x="1105" d="M53 401q0 150 51.5 270t134.5 203.5t186 129t210 45.5q92 0 168 -31t129 -87.5t82.5 -135t29.5 -172.5q0 -150 -51 -270t-134 -203.5t-186.5 -129t-209.5 -45.5q-92 0 -168 31t-129 87.5t-83 134t-30 173.5zM385 406q0 -78 27.5 -123t87.5 -45q45 0 84 28.5t67.5 78.5 t45 120t16.5 153q0 78 -28 123t-87 45q-45 0 -84 -28.5t-67.5 -78.5t-45 -121t-16.5 -152zM500 1176l238 311h323l-315 -311h-246z" />
<glyph unicode="&#xf4;" horiz-adv-x="1105" d="M53 401q0 150 51.5 270t134.5 203.5t186 129t210 45.5q92 0 168 -31t129 -87.5t82.5 -135t29.5 -172.5q0 -150 -51 -270t-134 -203.5t-186.5 -129t-209.5 -45.5q-92 0 -168 31t-129 87.5t-83 134t-30 173.5zM365 1176l250 311h258l127 -311h-209l-66 155h-8l-127 -155 h-225zM385 406q0 -78 27.5 -123t87.5 -45q45 0 84 28.5t67.5 78.5t45 120t16.5 153q0 78 -28 123t-87 45q-45 0 -84 -28.5t-67.5 -78.5t-45 -121t-16.5 -152z" />
<glyph unicode="&#xf5;" horiz-adv-x="1105" d="M53 401q0 150 51.5 270t134.5 203.5t186 129t210 45.5q92 0 168 -31t129 -87.5t82.5 -135t29.5 -172.5q0 -150 -51 -270t-134 -203.5t-186.5 -129t-209.5 -45.5q-92 0 -168 31t-129 87.5t-83 134t-30 173.5zM353 1180q41 145 112.5 213.5t147.5 68.5q47 0 78.5 -13 t57.5 -29.5t49.5 -30t53.5 -13.5q23 0 40.5 17.5t37.5 64.5h168q-41 -145 -112.5 -213.5t-147.5 -68.5q-47 0 -79 13t-57.5 29.5t-49 30t-54.5 13.5q-23 0 -40 -17.5t-37 -64.5h-168zM385 406q0 -78 27.5 -123t87.5 -45q45 0 84 28.5t67.5 78.5t45 120t16.5 153 q0 78 -28 123t-87 45q-45 0 -84 -28.5t-67.5 -78.5t-45 -121t-16.5 -152z" />
<glyph unicode="&#xf6;" horiz-adv-x="1105" d="M53 401q0 150 51.5 270t134.5 203.5t186 129t210 45.5q92 0 168 -31t129 -87.5t82.5 -135t29.5 -172.5q0 -150 -51 -270t-134 -203.5t-186.5 -129t-209.5 -45.5q-92 0 -168 31t-129 87.5t-83 134t-30 173.5zM349 1294q0 33 13 64t35.5 53.5t54.5 36.5t69 14 q57 0 96 -35.5t39 -99.5q0 -72 -49 -120t-123 -48q-57 0 -96 35t-39 100zM385 406q0 -78 27.5 -123t87.5 -45q45 0 84 28.5t67.5 78.5t45 120t16.5 153q0 78 -28 123t-87 45q-45 0 -84 -28.5t-67.5 -78.5t-45 -121t-16.5 -152zM758 1294q0 33 13.5 64t36 53.5t54 36.5 t68.5 14q57 0 96 -35.5t39 -99.5q0 -72 -49 -120t-123 -48q-57 0 -96 35t-39 100z" />
<glyph unicode="&#xf7;" d="M98 561v230h918v-230h-918zM381 303q0 72 51 120t125 48t125 -48t51 -120q0 -74 -51 -119t-125 -45t-125 45t-51 119zM381 1049q0 72 51 117.5t125 45.5t125 -46t51 -117q0 -74 -51 -121t-125 -47t-125 47t-51 121z" />
<glyph unicode="&#xf8;" horiz-adv-x="1105" d="M0 41l115 119q-29 49 -45.5 109.5t-16.5 131.5q0 150 51.5 270t134.5 203.5t186 129t210 45.5q154 0 262 -86l107 110l102 -90l-121 -123q59 -100 59 -237q0 -152 -51 -272t-134 -202.5t-186.5 -128t-209.5 -45.5q-150 0 -256 82l-109 -110zM360 412l334 344 q-33 39 -84 39q-66 0 -111.5 -36t-76.5 -92.5t-46.5 -124t-15.5 -130.5zM406 262q29 -33 81 -33q66 0 113 35t78 90.5t45 122t14 127.5z" />
<glyph unicode="&#xf9;" horiz-adv-x="1130" d="M66 242q0 70 16 147l127 635h328l-119 -594q-6 -29 -11.5 -50.5t-5.5 -39.5q0 -43 22.5 -64.5t63.5 -21.5t80 27.5t88 87.5l127 655h328l-201 -1024h-266v131h-8q-66 -61 -151 -108.5t-177 -47.5q-127 0 -184 67t-57 200zM426 1487h299l114 -311h-225z" />
<glyph unicode="&#xfa;" horiz-adv-x="1130" d="M66 242q0 70 16 147l127 635h328l-119 -594q-6 -29 -11.5 -50.5t-5.5 -39.5q0 -43 22.5 -64.5t63.5 -21.5t80 27.5t88 87.5l127 655h328l-201 -1024h-266v131h-8q-66 -61 -151 -108.5t-177 -47.5q-127 0 -184 67t-57 200zM495 1176l238 311h323l-315 -311h-246z" />
<glyph unicode="&#xfb;" horiz-adv-x="1130" d="M66 242q0 70 16 147l127 635h328l-119 -594q-6 -29 -11.5 -50.5t-5.5 -39.5q0 -43 22.5 -64.5t63.5 -21.5t80 27.5t88 87.5l127 655h328l-201 -1024h-266v131h-8q-66 -61 -151 -108.5t-177 -47.5q-127 0 -184 67t-57 200zM360 1176l250 311h258l127 -311h-209l-66 155h-8 l-127 -155h-225z" />
<glyph unicode="&#xfc;" horiz-adv-x="1130" d="M66 242q0 70 16 147l127 635h328l-119 -594q-6 -29 -11.5 -50.5t-5.5 -39.5q0 -43 22.5 -64.5t63.5 -21.5t80 27.5t88 87.5l127 655h328l-201 -1024h-266v131h-8q-66 -61 -151 -108.5t-177 -47.5q-127 0 -184 67t-57 200zM344 1294q0 33 13 64t35.5 53.5t54.5 36.5t69 14 q57 0 96 -35.5t39 -99.5q0 -72 -49 -120t-123 -48q-57 0 -96 35t-39 100zM753 1294q0 33 13.5 64t36 53.5t54 36.5t68.5 14q57 0 96 -35.5t39 -99.5q0 -72 -49 -120t-123 -48q-57 0 -96 35t-39 100z" />
<glyph unicode="&#xfd;" horiz-adv-x="1060" d="M-49 -340l98 234q35 -20 78 -21q47 0 92 32t74 85l20 41l-180 993h326l37 -420q6 -66 9 -150.5t3 -158.5h8q31 72 65.5 156t65.5 153l184 420h316l-535 -1022q-57 -98 -113.5 -172t-115.5 -121t-127 -70.5t-150 -23.5q-31 0 -77.5 13.5t-77.5 31.5zM446 1176l238 311h323 l-315 -311h-246z" />
<glyph unicode="&#xfe;" horiz-adv-x="1146" d="M-57 -360l360 1785h328l-62 -299l-53 -188h4q66 53 136.5 82t142.5 29q135 0 210.5 -97.5t75.5 -279.5q0 -145 -45 -272.5t-120.5 -221.5t-174 -148.5t-204.5 -54.5q-59 0 -110.5 29t-82.5 82h-4l-25 -192l-49 -254h-327zM410 319q16 -41 45.5 -59t60.5 -18q45 0 86 28.5 t73 79.5t51 123t19 158q0 80 -25.5 115.5t-68.5 35.5q-41 0 -88 -23.5t-84 -90.5z" />
<glyph unicode="&#xff;" horiz-adv-x="1060" d="M-49 -340l98 234q35 -20 78 -21q47 0 92 32t74 85l20 41l-180 993h326l37 -420q6 -66 9 -150.5t3 -158.5h8q31 72 65.5 156t65.5 153l184 420h316l-535 -1022q-57 -98 -113.5 -172t-115.5 -121t-127 -70.5t-150 -23.5q-31 0 -77.5 13.5t-77.5 31.5zM295 1294q0 33 13 64 t35.5 53.5t54.5 36.5t69 14q57 0 96 -35.5t39 -99.5q0 -72 -49 -120t-123 -48q-57 0 -96 35t-39 100zM704 1294q0 33 13.5 64t36 53.5t54 36.5t68.5 14q57 0 96 -35.5t39 -99.5q0 -72 -49 -120t-123 -48q-57 0 -96 35t-39 100z" />
<glyph unicode="&#x152;" horiz-adv-x="1720" d="M115 524q0 203 56 354.5t155.5 252t233.5 150.5t292 50h901l-53 -274h-467l-45 -234h393l-53 -274h-393l-58 -275h484l-54 -274h-794q-281 0 -439.5 127t-158.5 397zM451 545q0 -78 20.5 -132.5t56 -88t85 -48t108.5 -14.5h29l159 807h-49q-84 0 -157.5 -27.5t-130 -90 t-89 -163t-32.5 -243.5z" />
<glyph unicode="&#x153;" horiz-adv-x="1622" d="M53 401q0 150 50.5 270t130 203.5t180 129t200.5 45.5q109 0 172.5 -44t110.5 -128q72 84 158 128t170 44q94 0 158.5 -31t104.5 -84t58.5 -124t18.5 -151q0 -39 -7.5 -77.5t-16.5 -72.5t-18.5 -59.5t-15.5 -35.5h-532q4 -102 58 -147.5t134 -45.5q43 0 90.5 20.5 t81.5 45.5l115 -205q-61 -43 -157.5 -75t-223.5 -32q-90 0 -162.5 45.5t-119.5 131.5q-74 -86 -165.5 -131.5t-183.5 -45.5q-88 0 -159.5 31t-122.5 87.5t-79 134t-28 173.5zM385 406q0 -78 27.5 -123t87.5 -45q39 0 74.5 28.5t61.5 78.5t41 120t15 153q0 78 -27.5 123 t-86.5 45q-37 0 -72 -28.5t-61.5 -78.5t-43 -121t-16.5 -152zM999 610h291q4 12 6 29.5t2 36.5q0 53 -24.5 88t-89.5 35q-53 0 -103.5 -45t-81.5 -144z" />
<glyph unicode="&#x178;" horiz-adv-x="1081" d="M162 1331h340l43 -295q12 -78 22.5 -146.5t22.5 -148.5h8q41 80 77 151t79 148l159 291h353l-566 -864l-94 -467h-325l92 467zM373 1556q0 31 12.5 62t35 55.5t53 40t67.5 15.5q53 0 92 -35t39 -97q0 -31 -12 -61.5t-34.5 -55t-53.5 -40t-68 -15.5q-55 0 -93 35t-38 96z M783 1556q0 31 12 62t34.5 55.5t53.5 40t68 15.5q53 0 92 -35t39 -97q0 -31 -12.5 -61.5t-35 -55t-53 -40t-67.5 -15.5q-55 0 -93 35t-38 96z" />
<glyph unicode="&#x2c6;" horiz-adv-x="1105" d="M365 1176l250 311h258l127 -311h-209l-66 155h-8l-127 -155h-225z" />
<glyph unicode="&#x2dc;" horiz-adv-x="1105" d="M353 1180q41 145 112.5 213.5t147.5 68.5q47 0 78.5 -13t57.5 -29.5t49.5 -30t53.5 -13.5q23 0 40.5 17.5t37.5 64.5h168q-41 -145 -112.5 -213.5t-147.5 -68.5q-47 0 -79 13t-57.5 29.5t-49 30t-54.5 13.5q-23 0 -40 -17.5t-37 -64.5h-168z" />
<glyph unicode="&#x2000;" horiz-adv-x="919" />
<glyph unicode="&#x2001;" horiz-adv-x="1839" />
<glyph unicode="&#x2002;" horiz-adv-x="919" />
<glyph unicode="&#x2003;" horiz-adv-x="1839" />
<glyph unicode="&#x2004;" horiz-adv-x="613" />
<glyph unicode="&#x2005;" horiz-adv-x="459" />
<glyph unicode="&#x2006;" horiz-adv-x="306" />
<glyph unicode="&#x2007;" horiz-adv-x="306" />
<glyph unicode="&#x2008;" horiz-adv-x="229" />
<glyph unicode="&#x2009;" horiz-adv-x="367" />
<glyph unicode="&#x200a;" horiz-adv-x="102" />
<glyph unicode="&#x2010;" horiz-adv-x="671" d="M66 406l49 229h491l-49 -229h-491z" />
<glyph unicode="&#x2011;" horiz-adv-x="671" d="M66 406l49 229h491l-49 -229h-491z" />
<glyph unicode="&#x2012;" horiz-adv-x="671" d="M66 406l49 229h491l-49 -229h-491z" />
<glyph unicode="&#x2013;" horiz-adv-x="950" d="M70 414l41 209h770l-41 -209h-770z" />
<glyph unicode="&#x2014;" horiz-adv-x="1581" d="M70 414l41 209h1400l-41 -209h-1400z" />
<glyph unicode="&#x2018;" horiz-adv-x="634" d="M188 885q0 100 32 181t84 142.5t122 103.5t147 64l50 -139q-59 -20 -105.5 -52t-78 -67t-48 -67.5t-18.5 -55.5h12q72 0 118 -37.5t46 -105.5q0 -74 -51.5 -131t-141.5 -57q-78 0 -123 58t-45 163z" />
<glyph unicode="&#x2019;" horiz-adv-x="634" d="M217 852q59 20 105.5 52t78 67t48 67.5t18.5 55.5h-12q-72 0 -118 37.5t-46 105.5q0 74 51 131t141 57q78 0 123 -58t45 -163q0 -100 -31.5 -181t-84 -142.5t-123 -104.5t-146.5 -63z" />
<glyph unicode="&#x201a;" horiz-adv-x="634" d="M14 -190q59 20 105.5 52t78 67t48 67.5t18.5 55.5h-12q-72 0 -118 37.5t-46 105.5q0 74 51 131t141 57q78 0 123 -58t45 -163q0 -100 -31.5 -181t-84 -142.5t-123 -104.5t-146.5 -63z" />
<glyph unicode="&#x201c;" horiz-adv-x="1126" d="M188 885q0 100 32 181t84 142.5t122 103.5t147 64l50 -139q-59 -20 -105.5 -52t-78 -67t-48 -67.5t-18.5 -55.5h12q72 0 118 -37.5t46 -105.5q0 -74 -51.5 -131t-141.5 -57q-78 0 -123 58t-45 163zM680 885q0 100 32 181t84 142.5t122 103.5t147 64l50 -139 q-59 -20 -105.5 -52t-78 -67t-48 -67.5t-18.5 -55.5h12q72 0 118 -37.5t46 -105.5q0 -74 -51.5 -131t-141.5 -57q-78 0 -123 58t-45 163z" />
<glyph unicode="&#x201d;" horiz-adv-x="1126" d="M217 852q59 20 105.5 52t78 67t48 67.5t18.5 55.5h-12q-72 0 -118 37.5t-46 105.5q0 74 51 131t141 57q78 0 123 -58t45 -163q0 -100 -31.5 -181t-84 -142.5t-123 -104.5t-146.5 -63zM709 852q59 20 105.5 52t78 67t48 67.5t18.5 55.5h-12q-72 0 -118 37.5t-46 105.5 q0 74 51 131t141 57q78 0 123 -58t45 -163q0 -100 -31.5 -181t-84 -142.5t-123 -104.5t-146.5 -63z" />
<glyph unicode="&#x201e;" horiz-adv-x="921" d="M14 -190q59 20 105.5 52t78 67t48 67.5t18.5 55.5h-12q-72 0 -118 37.5t-46 105.5q0 74 51 131t141 57q78 0 123 -58t45 -163q0 -100 -31.5 -181t-84 -142.5t-123 -104.5t-146.5 -63zM504 -190q59 20 105.5 52t78 67t48 67.5t18.5 55.5h-12q-72 0 -118 37.5t-46 105.5 q0 74 51 131t141 57q78 0 123 -58t45 -163q0 -100 -31.5 -181t-84 -142.5t-123 -104.5t-146.5 -63z" />
<glyph unicode="&#x2022;" horiz-adv-x="704" d="M78 504q0 57 21.5 115.5t60.5 104.5t94 74.5t123 28.5q109 0 179.5 -71.5t70.5 -186.5q0 -59 -21.5 -116.5t-60.5 -103.5t-94 -74.5t-123 -28.5q-109 0 -179.5 71.5t-70.5 186.5z" />
<glyph unicode="&#x2026;" horiz-adv-x="2011" d="M131 147q0 41 16.5 82t46 74t70.5 53.5t92 20.5q74 0 119 -49t45 -123q0 -43 -16 -84t-46 -74t-71 -52.5t-92 -19.5q-74 0 -119 47.5t-45 124.5zM778 147q0 41 16.5 82t46 74t70.5 53.5t92 20.5q74 0 119 -49t45 -123q0 -43 -16 -84t-46 -74t-71 -52.5t-92 -19.5 q-74 0 -119 47.5t-45 124.5zM1425 147q0 41 16.5 82t46 74t70.5 53.5t92 20.5q74 0 119 -49t45 -123q0 -43 -16 -84t-46 -74t-71 -52.5t-92 -19.5q-74 0 -119 47.5t-45 124.5z" />
<glyph unicode="&#x202f;" horiz-adv-x="367" />
<glyph unicode="&#x2039;" horiz-adv-x="573" d="M82 410l41 229l311 279l98 -107l-266 -307l156 -311l-127 -82z" />
<glyph unicode="&#x203a;" horiz-adv-x="573" d="M57 217l267 307l-156 312l127 82l213 -300l-41 -229l-311 -278z" />
<glyph unicode="&#x205f;" horiz-adv-x="459" />
<glyph unicode="&#x20ac;" d="M29 446l32 152l99 8q4 27 7 52.5t7 50.5h-92l33 151l104 8q41 111 103.5 199t142.5 149.5t173 94t193 32.5q115 0 189 -55t127 -145l-234 -156q-23 47 -48 70.5t-66 23.5q-88 0 -150.5 -57t-103.5 -152h397l-33 -163h-409q-8 -45 -13 -99h324l-33 -164h-291 q10 -100 56.5 -154t128.5 -54q43 0 85 24.5t83 65.5l151 -193q-109 -92 -207 -126t-182 -34q-199 0 -316.5 121t-127.5 350h-129z" />
<glyph unicode="&#x2122;" horiz-adv-x="1368" d="M143 1196l37 188h537l-37 -188h-160l-90 -459h-209l90 459h-168zM672 737l123 647h233l41 -176l12 -139h9l57 139l110 176h238l-123 -647h-205l37 181l90 262h-8l-201 -349h-98l-65 349h-9l-8 -262l-37 -181h-196z" />
<glyph unicode="&#x25fc;" horiz-adv-x="1024" d="M0 0v1024h1024v-1024h-1024z" />
<glyph unicode="&#xfb01;" horiz-adv-x="1269" d="M70 0l155 770h-131l49 242l136 12l4 29q14 80 45.5 151.5t83 126.5t124 87t169.5 32q125 0 233 -57l-102 -230q-16 10 -43 19.5t-52 9.5q-27 0 -47 -4t-36.5 -17.5t-28 -39t-19.5 -66.5l-8 -41h168l-49 -254h-172l-152 -770h-327zM721 0l205 1024h328l-205 -1024h-328z M971 1307q0 37 15.5 70.5t42 58t62.5 40t77 15.5q33 0 63.5 -10.5t55 -28.5t39 -47t14.5 -66q0 -80 -56.5 -132t-140.5 -52q-33 0 -63.5 9.5t-55 27.5t-39 47t-14.5 68z" />
<glyph unicode="&#xfb02;" horiz-adv-x="1290" d="M70 0l155 770h-131l49 242l136 12l4 29q14 80 45.5 151.5t83 126.5t124 87t169.5 32q125 0 233 -57l-102 -230q-16 10 -43 19.5t-52 9.5q-27 0 -47 -4t-36.5 -17.5t-28 -39t-19.5 -66.5l-8 -41h168l-49 -254h-172l-152 -770h-327zM775 201q0 31 3 63.5t13 75.5l217 1085 h328l-221 -1097q-4 -16 -4 -23.5v-15.5q0 -29 12 -40t28 -11h17.5t19.5 4l-12 -242q-29 -10 -71 -17.5t-97 -7.5q-127 0 -180 60.5t-53 165.5z" />
</font>
</defs>
</svg>
