<?xml version="1.0" standalone="no"?>
<!DOCTYPE svg PUBLIC "-//W3C//DTD SVG 1.1//EN" "http://www.w3.org/Graphics/SVG/1.1/DTD/svg11.dtd" >
<svg xmlns="http://www.w3.org/2000/svg">
<metadata></metadata>
<defs>
<font id="gooddogregular" horiz-adv-x="359" >
<font-face units-per-em="1000" ascent="800" descent="-200" />
<missing-glyph horiz-adv-x="185" />
<glyph horiz-adv-x="1000" />
<glyph horiz-adv-x="1000" />
<glyph unicode="&#xd;" horiz-adv-x="1000" />
<glyph unicode=" "  horiz-adv-x="185" />
<glyph unicode="&#x09;" horiz-adv-x="185" />
<glyph unicode="&#xa0;" horiz-adv-x="185" />
<glyph unicode="!" horiz-adv-x="231" d="M17 80q0 30 29.5 44t56.5 -4q7 -5 20 -5q-2 -14 3 -38t2.5 -40.5t-20.5 -27.5q-37 -22 -59 2.5t-32 68.5zM71 264q29 219 73 348q7 21 29.5 26.5t40.5 -4.5t16 -27q-6 -77 -43 -222.5t-46 -210.5q0 -29 -52 -8q-13 5 -19.5 13t-7 19t0.5 20.5t4 23.5t4 22z" />
<glyph unicode="&#x22;" horiz-adv-x="293" d="M29 469q0 1 -2 65t2 65q2 21 23.5 32t33.5 -4q25 -34 28 -76.5t-6.5 -101t-9.5 -85.5q0 -7 -12.5 -10.5t-26.5 -0.5t-18 15q-12 32 -12 101zM211 465q0 84 13 142q4 18 31 29q30 13 33 -9q4 -28 4 -62.5t-2 -58t-7 -65.5t-7 -61q-3 -10 -25 -12t-32 12q-4 10 -6 22 t-2.5 19.5t0 23t0.5 20.5z" />
<glyph unicode="#" horiz-adv-x="491" d="M21 163q-8 19 -8 29.5t13.5 19.5t26.5 13.5t31 10.5t26 11q-8 16 -2 35t5 34t-18 15q-3 0 -12 -13t-18 -7q-35 12 -44 25q-9 28 5 49q10 11 45.5 27t43.5 32q8 11 9.5 30.5t-1 37t0.5 36.5q6 34 41 36.5t53 -21.5q15 -18 2.5 -61.5t2.5 -57.5q19 -14 51.5 -6.5t47.5 26.5 q20 20 28.5 77t25.5 76q10 14 23.5 20t30.5 -5q5 -4 16 -7.5t17.5 -7t6.5 -10.5q2 -17 -21.5 -63t-3.5 -65q3 -3 21 -14.5t23 -20.5q4 -7 1 -18.5t-10 -15.5q-10 -5 -32.5 -9.5t-32.5 -10.5q-18 -10 -15.5 -45.5t-8.5 -53.5q6 -3 10 -10.5t5 -8.5q29 -5 50 -21t4 -39 q-10 -13 -37 -14t-32 -10q-13 -20 -5.5 -74t0.5 -74q-15 -29 -64 20q-9 8 -14 23t-6 27.5t-2.5 34.5t-2.5 33q0 10 -12.5 10t-21.5 -5q-13 -6 -26 -3.5t-24.5 0.5t-14.5 -12q-6 -27 3.5 -81.5t1.5 -76.5q-7 -18 -34 -6.5t-35 31.5q-7 19 -14 60t-15 58q-7 15 -40.5 5 t-43.5 5zM208 351q-35 -66 5 -94q5 -5 22.5 1t27.5 4q24 -6 35.5 13.5t10.5 46t-2 48.5q-19 -5 -37.5 -3t-36.5 -0.5t-25 -15.5z" />
<glyph unicode="$" horiz-adv-x="305" d="M26 440q0 18 12 24q43 55 133 74q21 7 24.5 11.5t-0.5 13t3 29.5q6 12 19.5 14.5t16.5 -6.5q12 -14 6 -29.5t-2 -32.5q2 -6 12 -12.5t21.5 -11t21.5 -11t11 -13.5t-8 -18q-8 -8 -33.5 -3.5t-36.5 -0.5q-22 -14 -25.5 -47.5t9.5 -50.5q8 -12 28 -25t35.5 -27.5t18.5 -33.5 q11 -62 -11 -114q-9 -21 -46 -39.5t-48 -34.5q-15 -22 -8 -45.5t-16 -45.5q-6 -9 -20.5 -3t-14.5 15q-4 26 -1 34.5t2.5 18t-9.5 26.5q-6 12 -41 20t-49 19q-22 19 -9.5 37t33.5 18q11 2 24.5 -8.5t23 -18t14.5 -1.5q14 19 17.5 48.5t1 56t1.5 56.5q-46 18 -78 47.5 t-32 69.5zM101 413q2 -8 11 -15.5t16 -7.5q14 -2 19 11.5t2 30.5t-9 28q-4 3 -6 1.5t-6.5 -7t-7.5 -6.5q-26 -13 -19 -35zM187 174q13 -4 26 1t13 19q8 28 -4 60q-11 26 -28 14q-7 -8 -7 -62q0 -4 -2.5 -11t-2.5 -12t5 -9z" />
<glyph unicode="%" horiz-adv-x="620" d="M29 410q-25 30 -19 63.5t33 52.5q95 67 155 39q44 -21 60 -75.5t-12 -98.5q-34 -52 -126 -24q-3 1 -13.5 4t-13.5 4t-11.5 4t-12.5 4.5t-10.5 4.5t-11 6t-9.5 7t-9 9zM106 454q-4 -25 22.5 -34.5t45.5 5.5q9 7 11 13.5t0 16.5t-2 13q0 2 -2 4.5t-6 5.5t-6 5 q-21 4 -40.5 -2.5t-22.5 -26.5zM136 57q0 15 4 29.5t12 35.5t11 29q23 68 62 130t105.5 146.5t90.5 118.5q13 18 24.5 21.5t33.5 -7.5q8 -8 9 -24.5t-3 -24.5q-25 -53 -70 -120.5t-83.5 -119t-77.5 -121.5t-58 -135q-22 -3 -34 -2.5t-18 10t-8 34.5zM325 142q6 14 20 33.5 t17 26.5q5 5 23.5 15.5t26.5 20.5q18 19 68 19q47 -8 82.5 -46t32.5 -87q-14 -10 -34 -26.5t-35.5 -29.5t-36 -26.5t-38.5 -21t-40.5 -7.5t-44.5 10q-31 14 -43 49.5t2 69.5zM416 115q-6 -15 -0.5 -26.5t19.5 -5.5q6 4 19 11.5t20.5 12t18 13.5t11 15t-0.5 16 q-16 29 -45.5 12t-41.5 -48z" />
<glyph unicode="&#x26;" horiz-adv-x="277" d="M19 219q-10 26 18 54t27 47q-1 3 -5.5 19.5t-5.5 23.5t-3 20.5t0 24t6 20.5q14 25 45 49q12 6 46 7t40 15q11 25 9.5 54t12.5 54q11 18 40.5 12t27.5 -30q-3 -30 -9 -58.5t-9 -52t-1 -57.5q3 -44 -30 -60q-11 -10 -27.5 -8.5t-24.5 15.5q-4 4 -3.5 19.5t-0.5 25.5 q-6 13 -20.5 11.5t-20.5 -11.5q-19 -23 -4.5 -58.5t45.5 -46.5q8 -3 10 -15.5t-2 -17.5q-2 -4 -5 -8t-7 -6.5t-7 -4.5t-9 -3.5t-9 -2.5t-10 -2t-9.5 -1t-11.5 -1t-11 -1q-7 -7 -7 -15q3 -9 11.5 -16t16 -9.5t9.5 -0.5q45 22 81 17q28 -5 20 -32q-7 -23 -21 -51t-21.5 -52 t-6.5 -55q1 -15 -17.5 -27.5t-34.5 -6.5q-8 0 -15.5 8.5t-10.5 17.5q0 25 11 53t11 53q-2 12 -29 16t-34 10q-32 26 -45 64z" />
<glyph unicode="'" horiz-adv-x="121" d="M46 610q1 11 9 18.5t18.5 9.5t21 1t17.5 -7.5t7 -17.5q3 -30 1.5 -45.5t-7 -47.5t-6.5 -49q-1 -9 1.5 -26.5t3 -26.5t-4.5 -21q-7 -10 -23 -13t-22 5q-15 17 -23 37t-8 48t0.5 41.5t7 50.5t7.5 43z" />
<glyph unicode="(" horiz-adv-x="331" d="M16 373q0 6 2.5 14.5t6 20t5.5 18.5q58 116 232 207q26 19 48 -5q34 -34 15 -48q-22 -20 -83.5 -62.5t-90.5 -72.5q-26 -27 -35.5 -63.5t-8 -66t9.5 -73.5q1 -4 4 -21.5t4.5 -22.5t5 -20.5t6 -22.5t7 -20t9.5 -21t12 -18t15 -18q6 -4 18 -1t18.5 4.5t11.5 -8.5 q7 -15 2 -30t-16 -23q-53 -24 -68 -19q-4 1 -15 3t-17.5 4.5t-10.5 6.5q-116 176 -87 358z" />
<glyph unicode=")" horiz-adv-x="312" d="M17 9q-7 6 -6 18.5t6 21.5q19 20 53 47.5t58.5 47.5t46.5 51.5t29 65.5q15 76 -23 154.5t-105 140.5q-16 20 -7.5 42.5t37.5 36t54 0.5q79 -85 138 -256q27 -81 0 -148q-48 -116 -217 -222q-30 -18 -64 0z" />
<glyph unicode="*" horiz-adv-x="416" d="M15 392q16 24 64.5 37.5t64.5 26.5q-31 44 -100 76q-4 1 -5 4.5t0 10t1 7.5q0 17 17 29.5t33 2.5q21 -13 55.5 -39t45.5 -33q4 -4 5 4q1 16 2 18q2 7 8 40.5t16.5 48.5t33.5 15q14 0 25.5 -9t6.5 -23q-22 -62 -32 -119q10 -4 29 -2t28 3.5t27 6t27 6.5q26 9 42 -6.5 t-2 -36.5q-19 -22 -68 -27t-65 -13q18 -21 37 -41t49 -49t40 -39q0 -7 -7 -14q-24 -13 -51 0q-19 8 -36 21.5t-40.5 37l-31.5 31.5q-7 -18 -20 -59.5t-26 -70t-33 -50.5q-8 -11 -30 -10t-17 20q5 29 31.5 93t26.5 102q-55 -10 -108 -36q-18 -7 -36 0q-24 19 -7 36z" />
<glyph unicode="+" horiz-adv-x="323" d="M30 280q-19 6 -17 20t17 19q54 20 105 26q4 1 5 3.5t0.5 8t-0.5 6.5q0 13 -5.5 31t-10.5 31t-3 28.5t14 27.5q18 14 55 14q13 -2 22.5 -11t9.5 -17q3 -12 3 -47.5t11 -49.5q7 -9 35.5 -7t42.5 -4q17 -13 9 -32q-20 -19 -73 -25l-7 -3.5t-8.5 -5.5t-3.5 -6q0 -13 3.5 -36 t4.5 -36t-3 -35q-3 -11 -21.5 -12.5t-28.5 8.5q-21 14 -29.5 51.5t-16.5 48.5q-15 12 -28 11t-39.5 -5.5t-42.5 -1.5z" />
<glyph unicode="," horiz-adv-x="146" d="M29 81q-4 35 16.5 55.5t46.5 19t46 -11.5q21 -15 -2.5 -114t-54.5 -117q-16 -9 -26 0t-14.5 32.5t-6.5 46.5t-3 51t-2 38z" />
<glyph unicode="-" d="M23 265q-4 24 13.5 42.5t42.5 18.5q30 0 82.5 -4.5t83 -5.5t85.5 5q7 4 15.5 1t12.5 -10q-1 -10 1 -16t-4 -12.5t-8 -10t-10.5 -7.5t-12 -5.5t-12 -4.5t-10.5 -4q-127 -36 -261 0q-8 2 -12.5 5t-4.5 5z" />
<glyph unicode="." horiz-adv-x="159" d="M30 81q-3 27 8 45t29 24.5t38 4.5t33 -11q22 -14 21.5 -63t-30.5 -67q-38 -21 -66.5 3t-32.5 64z" />
<glyph unicode="/" horiz-adv-x="383" d="M1 42q11 51 33 106.5t42 93.5t55 99.5t51 92.5q10 19 26.5 59t28 64t34.5 48t52 31q29 8 49.5 -11t3.5 -50q-18 -31 -70.5 -122t-78.5 -138t-62.5 -123.5t-58.5 -142.5q-4 -18 -14 -27t-33 -19q-25 -11 -44 2.5t-14 36.5z" />
<glyph unicode="0" horiz-adv-x="435" d="M21 231q-11 95 59 174.5t166 95.5q39 7 79 -13t68 -56q41 -52 41 -116.5t-28.5 -119.5t-75.5 -102q-43 -43 -91.5 -56.5t-99.5 12.5q-103 61 -118 181zM137 276q-5 -39 13.5 -75t53.5 -51q37 -22 74 32q73 101 36 161q-26 43 -59 43q-43 0 -78 -34t-40 -76z" />
<glyph unicode="1" horiz-adv-x="164" d="M50 32q-22 56 -22 120t11 143.5t11 123.5q0 21 22.5 43.5t48.5 10.5q46 -21 38 -60q-30 -155 -21 -316q2 -8 16.5 -28.5t4.5 -36.5q-2 -2 -6.5 -7t-6.5 -7t-6.5 -6t-7.5 -5.5t-7.5 -3.5t-9 -3t-10.5 -1q-39 0 -55 33z" />
<glyph unicode="2" horiz-adv-x="419" d="M20 435q6 18 20.5 26.5t27.5 8.5t33.5 -2.5t26.5 -2.5q112 0 164 -30q3 -2 12 -7l13.5 -7.5t14 -8.5t13 -9.5t10.5 -11t7 -13t2.5 -14.5t-2.5 -17q-18 -55 -59 -100t-105 -93q-4 -4 -7 -7.5t-7 -9t-2 -9t10 -3.5q45 -7 74.5 -8.5t52 -5t74.5 -16.5q6 0 14.5 -7.5 t8.5 -15.5q4 -22 -9 -41t-32 -24q-55 -6 -93 -6t-57 2.5t-67.5 12t-88.5 15.5q-28 4 -32 34.5t9 47.5q26 47 99 113t94 92q4 3 0.5 9t-5 8t-6.5 7l-6 5q-12 6 -38.5 6.5t-38.5 5.5q-25 12 -52.5 -4.5t-54.5 -1.5q-30 23 -18 82z" />
<glyph unicode="3" horiz-adv-x="338" d="M34 76q-24 16 -14.5 42t34.5 33q24 8 76.5 -3.5t78.5 -1.5q10 0 19 10q3 3 1 5q-10 26 -44.5 45.5t-67 29t-52.5 31.5t-6 54q12 20 57 42t53 28q-18 10 -54 10t-51 10q-26 23 -10 54t50 31q6 -1 27 -2.5t29.5 -2.5t26.5 -3.5t28.5 -5.5t24.5 -8.5t25 -12.5 q22 -14 27.5 -31t-5.5 -35t-24 -32t-34.5 -33.5t-29.5 -28.5q5 -3 12.5 -13t12.5 -12q40 -8 70.5 -30t40.5 -55q20 -67 -85 -120q-51 -25 -109 -23t-107 28z" />
<glyph unicode="4" horiz-adv-x="368" d="M32 225q-26 57 -3 133t79 114q16 10 31.5 2t18.5 -22q8 -29 -16 -85t-14 -87q8 -26 42.5 -40.5t53.5 0.5q23 18 32.5 58t10.5 76t18 67t55 36q24 -17 27.5 -44.5t-6.5 -53t-19.5 -59t-6.5 -55.5q2 -10 2.5 -19.5t-1 -16.5t-5 -16t-6 -14.5t-8 -15t-7.5 -14.5 q-10 -26 -14 -40.5t-7 -42t6 -43.5q2 -7 -4 -13t-17 -12.5t-15 -10.5q-28 -21 -55 16q-12 13 -6.5 56t1.5 60q0 7 -5 8t-15.5 -1t-15.5 -2q-45 0 -82.5 23t-48.5 58z" />
<glyph unicode="5" horiz-adv-x="396" d="M15 264q8 8 22 20t20 18q11 13 32 44.5t38 49.5t38 28q15 8 44 11.5t41 7.5q24 6 37.5 5t37.5 -5.5t38 -4.5q13 0 22.5 -8.5t9.5 -19.5q4 -20 -11 -36t-31 -16q-157 29 -202 -61q20 -9 67.5 -18t68.5 -19q39 -10 52 -38q29 -35 5 -80q-39 -69 -106.5 -108.5t-142.5 -32.5 q-30 3 -38 31.5t5 53.5q11 15 16.5 21.5t17 13.5t22.5 2q5 0 10 -14t9 -14q72 -18 132 71q-27 29 -69 36t-94.5 7t-81.5 8q-8 4 -12 20t3 27z" />
<glyph unicode="6" horiz-adv-x="384" d="M21 135q-31 119 42 230t197 141q43 10 67 -12q17 -17 -2 -28q-3 -2 -8 -4q-227 -109 -216 -269q12 2 60 14t69.5 15t58.5 -3t68 -26q23 -18 21.5 -52.5t-21.5 -53.5q-51 -74 -124 -84q-75 -12 -134.5 26.5t-77.5 105.5zM157 99q9 -38 78 -20q17 4 23.5 6t14 7.5t9 14 t-0.5 23.5q-3 24 -54 21h-6q-31 -3 -50.5 -16t-13.5 -36z" />
<glyph unicode="7" horiz-adv-x="401" d="M9 414q5 14 17.5 30t23.5 16q74 0 205 41q81 25 138 -10q5 -5 7 -10t1.5 -11t-1.5 -10t-3.5 -11.5t-3.5 -9.5q-11 -24 -36 -75t-39 -82t-27.5 -76t-15.5 -85q0 -2 2.5 -9t3.5 -12t-1 -9q-17 -26 -45 -42t-42 1q-20 32 -21.5 68.5t12 73.5t30.5 71t37 75t29 71 q-48 0 -129 -24.5t-96 -27.5q-21 -4 -39 15.5t-7 41.5z" />
<glyph unicode="8" horiz-adv-x="433" d="M10 23q4 44 28 77.5t76.5 77.5t63.5 55q-12 16 -37 38t-42.5 38.5t-30 42t-7.5 52.5q99 74 284 51q4 30 20.5 50t42.5 17q17 0 23 -21.5t-2 -37.5q-26 -99 -134 -205q64 -64 63 -126q-1 -31 -19 -54.5t-49 -37t-58 -20.5t-62 -13q-102 -17 -160 16zM144 93q25 -18 58 -11 t51 31q14 18 13 33.5t-12.5 24.5t-23.5 3q-15 -5 -25 -10l-16 -8t-12 -10.5t-9 -11.5t-10.5 -18t-13.5 -23zM178 370q-10 -9 -4.5 -26t22.5 -31.5t31 -9.5q26 10 41 35t0 40q-12 14 -28 14.5t-26.5 -4t-35.5 -18.5z" />
<glyph unicode="9" horiz-adv-x="304" d="M21 300q-15 53 10 99.5t76 72.5q18 9 49.5 14.5t65 6t58 -13.5t24.5 -42q-8 -66 -42.5 -195.5t-43.5 -198.5q0 -9 -5.5 -16.5t-10.5 -11t-17 -9t-14 -6.5q-15 -3 -35.5 7.5t-17.5 25.5q5 32 45 177q11 42 7 42q-51 -30 -91 -21.5t-58 69.5zM103 347q-1 -21 16 -25.5 t36 8.5q15 9 40 42t11 40q-32 12 -65.5 -10t-37.5 -55z" />
<glyph unicode=":" horiz-adv-x="159" d="M29 81q-4 35 16.5 55.5t46.5 19t46 -11.5q22 -14 21 -63t-30 -67q-38 -21 -66.5 3t-33.5 64zM29 379q-4 35 16.5 55.5t46.5 18.5t46 -12q22 -13 20.5 -56.5t-31.5 -61.5q-42 -19 -67.5 -1t-30.5 57z" />
<glyph unicode=";" horiz-adv-x="157" d="M28 81q-4 35 16.5 55.5t46.5 19t46 -11.5q21 -15 -2.5 -114t-54.5 -117q-16 -9 -26 0t-14.5 32.5t-6.5 46.5t-3 51t-2 38zM28 379q-4 35 16.5 55.5t46.5 18.5t46 -12q22 -13 20.5 -56.5t-31.5 -61.5q-42 -19 -67.5 -1t-30.5 57z" />
<glyph unicode="&#x3c;" horiz-adv-x="457" d="M0 293q0 44 38 80q46 37 151 84t150 86q2 2 5.5 2t9 -1t8.5 -1q32 0 46 -21.5t-3 -39.5q-29 -32 -83.5 -54.5t-104.5 -46.5t-76 -64q42 -25 91.5 -48.5t111 -50t94.5 -42.5q19 -11 19 -29q3 -31 -28.5 -49t-61.5 -7q-7 5 -18 15.5t-15 12.5q-122 68 -282 137 q-4 2 -17.5 6.5t-23 11.5t-11.5 19z" />
<glyph unicode="=" horiz-adv-x="274" d="M28 420q16 31 49 36t82.5 -1.5t74.5 -3.5q28 5 38 -21q13 -39 -38 -53q-96 -35 -180 -5q-13 5 -23.5 21t-2.5 27zM33 236q-7 22 9.5 40.5t38.5 22.5q37 0 85 -37q11 -9 38.5 5.5t40.5 -0.5q4 -2 6.5 0t3.5 5.5t2.5 5.5t3.5 0q15 -16 10.5 -33t-21.5 -25 q-29 -30 -71.5 -41.5t-84 3t-61.5 54.5z" />
<glyph unicode="&#x3e;" horiz-adv-x="387" d="M5 497q-7 10 8 29t31 19q20 4 41 -1.5t48 -18t37 -15.5q124 -41 200 -113q16 -12 16 -27.5t-10.5 -27.5t-27.5 -23q-46 -29 -133 -99t-140 -101q-27 -15 -47.5 7t-0.5 45q12 20 56 44q30 15 78 53.5t66 50.5q3 2 11.5 6t13 6.5t11.5 7t7 7.5v8q-19 33 -55.5 52.5 t-72 25.5t-75 22t-62.5 43z" />
<glyph unicode="?" horiz-adv-x="330" d="M23 571q-17 8 -13 30t23 33q50 10 73 0q18 -7 64 -23t78.5 -31.5t61.5 -37.5q26 -26 19 -39q-10 -40 -44.5 -71t-77.5 -60.5t-62 -57.5q-13 -19 -4 -51t18 -55t-10 -49q-7 -7 -24.5 -7t-28.5 7q-41 28 -59 79t-4 96q9 27 35.5 47t54.5 30.5t57 32t42 50.5 q-31 17 -99 38.5t-100 38.5zM62 9q-21 15 -21.5 34t21.5 34q14 9 58 9q21 -3 29.5 -19t-0.5 -34q-10 -22 -39 -30t-48 6z" />
<glyph unicode="@" horiz-adv-x="502" d="M17 162q-12 52 0 96q63 220 170 327q67 67 175 52q44 -6 75.5 -32t45 -62.5t19 -78.5t-4.5 -79q-5 -23 -22.5 -37.5t-42 -26.5t-35.5 -23q-10 -8 -15.5 -44t-11.5 -48q-15 -35 -52.5 -60t-80 -25t-67.5 33q-24 33 -9 100q17 75 55.5 129t97.5 54q22 0 40 -17t41 -49 q4 -5 6 -8q8 -7 14.5 -1t11.5 18q24 68 -13 149q-22 47 -77 50t-89 -33q-124 -124 -148 -331q-6 -52 29 -91.5t89 -61.5q32 -13 61 4q3 -4 6.5 -5.5t7.5 -0.5t8.5 2.5t7.5 3t5.5 1.5t3.5 -1.5t0 -7.5q-2 -33 -29 -47t-59.5 -11.5t-63.5 14.5q-10 4 -20.5 9t-18 9.5 t-17.5 12.5t-15.5 12t-16 14t-14 13.5l-15.5 15.5l-14 14q-7 11 -18 48zM244 236q-4 -34 9 -43q10 -10 20 -4t15 12.5t8 13.5q40 71 9 126q-56 -48 -61 -105z" />
<glyph unicode="A" horiz-adv-x="402" d="M18 10q-6 28 -0.5 58t19 68.5t17.5 58.5q31 141 67 248q5 16 19.5 83.5t35.5 96.5q8 12 33.5 16t33.5 -11q19 -40 35 -88.5t24.5 -85t22.5 -96t22 -91.5q0 -7 13.5 -14t17.5 -13q10 -17 0 -27q-17 -37 5 -98t18 -87q-3 -21 -32.5 -26.5t-44.5 13.5q-14 19 -22.5 76 t-35.5 73q-28 16 -66 11.5t-65 -25.5q-12 -9 -20 -32.5t-11.5 -46t-13 -43.5t-25 -25.5t-47.5 7.5zM157 245q17 -12 53 -10t42 23q4 15 4 32.5t-1 29t-9 33.5t-10.5 28.5t-15 33t-13.5 28.5q-23 -28 -31 -90q-2 -13 -9 -32.5t-12.5 -32t-6.5 -26.5t9 -17z" />
<glyph unicode="B" horiz-adv-x="397" d="M22 571q-14 23 2 45.5t32 22.5q10 0 35.5 0.5t39.5 0.5t35 -2t37.5 -7t31.5 -13q9 -5 65 -25t76 -48q9 -18 4 -30q-13 -11 -38 -33t-46 -39t-44 -30q-7 0 -14 -9q-5 -6 2 -8q56 -11 98.5 -38t54.5 -68q21 -73 -68 -162q-58 -58 -109 -91.5t-108 -36.5q-16 -1 -29.5 10 t-5.5 28q4 8 19.5 23t15.5 20q2 19 2 39.5t-1 36.5t-4.5 40t-5.5 36.5t-6.5 40t-6.5 37.5q-1 7 -6 19.5t-8 21.5t-2.5 21.5t8.5 22.5q9 11 0 51q-5 21 -1 41t1.5 40.5t-17.5 29.5q-4 3 -19 4.5t-20 8.5zM163 511q-1 -8 2.5 -25t1.5 -26q31 -3 57 14.5t33 40.5q4 8 -4.5 13.5 t-27 11.5t-24.5 9q-17 9 -25.5 -3.5t-12.5 -34.5zM180 311q-5 -17 -4.5 -26t6 -33t6.5 -35q1 -8 3.5 -31t5.5 -38t9 -29q5 4 28 22.5t31 26.5t21.5 24.5t17 33t-0.5 34.5q-4 21 -29 39.5t-50.5 22.5t-43.5 -11z" />
<glyph unicode="C" horiz-adv-x="450" d="M12 257q12 83 56.5 143.5t122.5 78.5q61 14 145 -10q18 -6 31 -22.5t2 -35.5q-6 -11 -15 -16t-25 -8t-22 -5q-20 -6 -57 2t-52 3q-57 -20 -77 -77.5t-1 -118.5t77 -89.5t119 -8.5q9 3 24 12.5t26 16t25.5 10.5t22.5 -4q27 -22 33.5 -43t-16.5 -41q-97 -71 -250 -24 q-75 24 -111 53q-74 62 -58 184z" />
<glyph unicode="D" horiz-adv-x="380" d="M22 538q-2 2 -2 6t1 9t1 6q5 23 26 30.5t42 3.5q70 0 122 -34q74 -50 128 -123q48 -69 39 -141.5t-55 -133.5t-112 -93q-75 -39 -135 -17q-20 7 -34 26t-8 37q3 4 18 15.5t16 21.5q3 119 -22 349q0 5 -4.5 11.5t-11 14t-9.5 12.5zM139 485q0 -47 6.5 -199t12.5 -152 q26 -5 52 12t41 40q12 18 18.5 29.5t15.5 30t12.5 32.5t3.5 31.5t-6 33.5q-18 52 -60 94t-96 48z" />
<glyph unicode="E" d="M19 307q0 2 2.5 4.5t6 5t5.5 4.5q3 7 4.5 15.5t1.5 14.5t-0.5 16t-0.5 14q0 15 -6 45.5t-6 53.5t12 40q42 61 126 68.5t146 -41.5q14 -10 3 -28.5t-35 -22.5q-17 -2 -59.5 9t-65.5 1q-22 -10 -25.5 -37t2 -53.5t-4.5 -52.5q19 -11 48.5 -11.5t52.5 3t45.5 -6t33.5 -36.5 q-16 -28 -49 -33t-67.5 -6t-49.5 -17q-11 -12 -15 -33t-3.5 -35t4.5 -47t5 -41q33 -6 67.5 3t76 27.5t64.5 24.5q3 3 18 -9q7 -24 -2 -43t-30 -27q-18 -6 -52.5 -20t-55.5 -21.5t-51.5 -13.5t-57.5 -5q-7 1 -23.5 1.5t-25.5 4t-11 13.5q-12 38 -8.5 110.5t-5.5 110.5 q-1 5 -8.5 16t-9 17t3.5 18z" />
<glyph unicode="F" horiz-adv-x="348" d="M19 256q6 8 29 21.5t26 23.5q4 9 2 27.5t-4.5 27.5t-8 27.5t-7.5 27.5q-28 110 -23 183q0 8 6 17.5t12 9.5q68 24 143.5 18t139.5 -41q39 -20 -22 -59q-33 -15 -88.5 8t-81.5 19q-2 -33 -3 -52t5 -51.5t10.5 -51.5t12.5 -51t12 -50q12 -1 35.5 1.5t44 4t40 0.5t31 -11 t10.5 -30q-1 -21 -30.5 -26t-63 -7.5t-40.5 -17.5q-10 -15 -5.5 -39.5t12.5 -41.5t19.5 -42t15.5 -42q8 -23 -6.5 -40t-35.5 -18t-36 8q-28 28 -43 102.5t-39 102.5q-5 5 -10.5 3.5t-17 -3.5t-18.5 0q-15 4 -23.5 15.5t0.5 26.5z" />
<glyph unicode="G" horiz-adv-x="394" d="M28 132q-22 115 3 214t112 160q56 38 117 37t113 -37q15 -12 11 -26t-20 -22q-21 -14 -72 -4t-72 4q-20 -5 -36.5 -23.5t-24 -34.5t-16.5 -42q-20 -53 -26.5 -102.5t10 -99.5t64.5 -72q17 -8 36 -4t26 18q25 48 24 64q-2 15 -14 23q-29 15 -29 19q-16 25 3.5 42t49.5 25 q43 13 82 -10t19 -67q0 -2 -10 -6.5t-10 -7.5q0 -20 -9 -54t-10 -42q-2 -14 -21 -31.5t-22 -21.5q-11 -8 -33 -11.5t-29 -7.5q-68 -29 -135 7.5t-81 112.5z" />
<glyph unicode="H" horiz-adv-x="392" d="M24 306q1 7 6 25.5t7 28.5q1 22 -3 74t-1 88.5t20 66.5q10 17 37 20t52 -9q27 -23 24 -45q-3 -17 -11.5 -49.5t-13 -53.5t-3.5 -47.5t12 -46.5q11 -15 47 -21t44 11q15 41 13.5 117t3.5 122q4 23 25.5 33t43 6t27.5 -18q15 -56 14 -90t-7.5 -94t-4.5 -94q1 -7 16 -23.5 t17 -27.5q1 -9 -9.5 -19.5t-11.5 -13.5q-10 -50 7 -144t17 -127q-39 -8 -64 6.5t-36 47.5t-16.5 67.5t-11.5 77t-15 65.5q-7 20 -29 26t-42 1.5t-24 -12.5q-22 -23 -7.5 -108t1.5 -122q-38 -1 -62 14.5t-33.5 45t-12.5 57t-4 66t-4 56.5q-1 6 -5 21.5t-3 21.5z" />
<glyph unicode="I" horiz-adv-x="161" d="M29 173q0 26 -1 84.5t-1 92.5t3 84t10 93q6 40 39 51.5t70 -13.5q17 -17 11 -29q-25 -71 -29 -151t2.5 -181.5t4.5 -151.5q-1 -11 -23 -15t-42 6q-8 4 -14.5 9t-11 12t-8 12.5t-5.5 15t-3 15t-1.5 17.5t-0.5 16v17v16z" />
<glyph unicode="J" horiz-adv-x="383" d="M16 207q0 63 14 87q31 32 73 24q22 -4 27.5 -28t-8.5 -49q-8 -15 -10.5 -38t7 -46.5t32.5 -31.5q21 -9 46 -3t31 27q11 32 13.5 67t0 62.5t-12.5 67t-17.5 62t-23.5 66.5t-22 62q-7 20 4 39q7 13 32 16.5t31 12.5q6 -6 25 -10t19 -14q5 -40 19 -92t26.5 -94.5t21.5 -89 t6.5 -92.5t-20.5 -87q-46 -105 -232 -73q-28 5 -45.5 20t-25 40t-9.5 45t-2 50z" />
<glyph unicode="K" horiz-adv-x="349" d="M15 594q0 17 19.5 31t41.5 15q29 1 40 -17t7.5 -44t-3.5 -54t6 -47q9 -20 47 14q16 10 46.5 40.5t50.5 38.5q20 7 45.5 -11.5t18.5 -35.5q-23 -40 -95 -80.5t-90 -57.5q-6 -6 3.5 -23t27.5 -40t22 -30q10 -11 52 -50.5t64 -68.5t30 -61q3 -11 -13 -23t-36.5 -14t-38.5 10 q-24 20 -76 87.5t-55 71.5q-11 -55 27 -203q4 -13 3 -34t-7 -30q-10 -21 -29.5 -26.5t-40.5 5.5q-8 3 -15.5 12.5t-7.5 19.5q0 61 -25 253q-19 142 -19 352z" />
<glyph unicode="L" horiz-adv-x="430" d="M20 182q0 206 39 420q6 30 49 35t48 -28q9 -54 2.5 -123t-18 -124t-16 -125.5t9.5 -126.5q50 0 70 0.5t61 6.5t67 19q35 25 62 12q48 -48 34 -63q-31 -36 -80 -50t-94 -11.5t-102.5 -1.5t-97.5 -22q-22 14 -31.5 37.5t-9.5 43.5t3.5 53t3.5 48z" />
<glyph unicode="M" horiz-adv-x="602" d="M36 88q-19 20 -21.5 50t4.5 56t17.5 63t13.5 59q7 49 15 146.5t15 146.5q4 28 40.5 31t46.5 -17q24 -33 38.5 -73.5t27.5 -96t22 -83.5l5 -6q6 -6 9 -8.5t5 -0.5q14 20 28 53t23.5 62t24.5 59t31 50t42.5 29t60.5 1q32 -93 60 -281.5t57 -278.5q6 -17 -8.5 -31t-35.5 -18 q-41 -8 -49 0q-29 57 -41 135t-22 157.5t-34 135.5q-21 -34 -45 -104.5t-38 -99.5q-3 -5 -0.5 -17t0.5 -17q-12 -24 -35.5 -37t-47.5 -2q-15 4 -27 17t-12 27q-11 100 -44 112q-11 4 -12.5 -8.5t1 -29.5t-2.5 -30q-9 -13 -6 -63.5t1 -63.5q-4 -28 -47 -36t-60 12z" />
<glyph unicode="N" horiz-adv-x="339" d="M23 85q6 47 11.5 186t21.5 216q3 14 29 14t36 -10q31 -41 64 -137.5t64 -137.5q7 19 9 37.5t0.5 48.5t-1.5 37q0 32 -18 111.5t-11 122.5q3 21 35 24t39 -16q17 -45 26 -102.5t10 -96t1 -107.5v-22q0 -103 -41 -144q-13 -15 -37 -16.5t-37 12.5q-14 16 -28 38t-22.5 38 t-23 44.5t-20.5 39.5q-13 -35 -11 -98.5t-6 -98.5q-5 -16 -27 -20.5t-42.5 6t-20.5 31.5z" />
<glyph unicode="O" horiz-adv-x="404" d="M27 284q20 70 77.5 125t126 62t130.5 -67q57 -77 39 -169t-94 -143q-50 -34 -103 -35.5t-99 30.5q-47 35 -69.5 88t-7.5 109zM131 223q10 -45 35.5 -72t63.5 -10q47 22 65.5 71.5t5.5 103.5q-7 27 -39 38.5t-60 5.5q-24 -4 -50 -58t-21 -79z" />
<glyph unicode="P" horiz-adv-x="475" d="M20 540q-15 17 -9.5 41.5t20.5 30.5q115 46 238 17.5t205 -122.5q3 -28 -1 -53.5t-11.5 -45.5t-25 -40t-31.5 -33.5t-41 -29.5t-42.5 -25t-48 -22t-46.5 -18.5t-48 -17.5t-43 -15q-3 -26 7 -77.5t4 -77.5q-9 -26 -36 -42t-58 -8q-5 3 -22 23q-20 156 0 387q6 78 22 108 q2 5 5 9q-5 2 -18.5 5t-19.5 6zM136 545q-2 0 3 -4.5t12 -13t7 -15.5q0 -14 -8.5 -39t-8.5 -38q0 -12 -6 -41.5t-4.5 -47t16.5 -22.5q58 -20 128.5 25.5t87.5 112.5q-42 32 -71 50t-73 30.5t-83 2.5z" />
<glyph unicode="Q" horiz-adv-x="423" d="M19 341q-17 66 34 152q13 17 31 31.5t43.5 30.5t37.5 25q11 11 27 18.5t38 14t33 11.5q57 28 87 5q22 -15 24 -41.5t-28 -31.5q28 -54 45 -98t28 -98.5t-2.5 -104t-51.5 -89.5q25 -73 23 -104q-1 -18 -8 -33q-4 -15 -21.5 -24t-32.5 0q-22 16 -29.5 63.5t-24.5 58.5 q-16 9 -68.5 20.5t-77.5 33.5q-60 54 -83 87q-10 15 -24 73zM112 366q4 -58 58 -112q38 -41 58 -38q9 2 15 8q6 5 5 9.5t-5.5 14.5t-4.5 15q0 13 1 20t6.5 16t17.5 13q11 7 24.5 2t21 -10.5t18.5 -16.5l4 -4q18 65 -6.5 130.5t-76.5 98.5q-30 19 -64 -3t-54.5 -64.5 t-17.5 -78.5z" />
<glyph unicode="R" horiz-adv-x="410" d="M23 325q0 25 19 100.5t5 111.5q-1 3 -4 14.5t-3.5 17.5t-1 15t3 15t10.5 10q92 51 191 17.5t155 -123.5q47 -74 -96 -168q33 -176 96 -298q7 -14 -6.5 -25t-32.5 -12t-33 8q-37 31 -55 84t-33.5 110t-45.5 90q-10 12 -38 10.5t-35 -15.5q-14 -45 4.5 -130.5t19.5 -105.5 q1 -14 -22 -23.5t-45 -5.5q-18 6 -29 29q-12 31 -17.5 71t-7 60t-0.5 78.5t1 64.5zM134 383q43 -10 89 2t79 41q11 5 18.5 15t0.5 19q-36 75 -144 87q-17 2 -24 -13.5t-9.5 -43t-4.5 -35.5q-1 -2 -6 -15t-6.5 -19t-3 -16t1 -15t9.5 -7z" />
<glyph unicode="S" horiz-adv-x="441" d="M13 497q25 31 57.5 53t72 35t73 21t81.5 17t76 16q20 5 39 -5.5t26 -27.5q8 -18 -7.5 -33.5t-35.5 -20.5q-32 -12 -111 -23t-118 -32q-23 -13 -17 -27q19 -28 51 -57t63 -49t64.5 -46.5t53.5 -50t31.5 -58t-1.5 -72.5q-14 -51 -56.5 -84.5t-96.5 -45t-112.5 -6.5 t-105.5 27q-39 20 -26 61t53 59q16 3 28.5 -17t20.5 -22q6 -1 29.5 -3t36.5 -8q16 -7 34 -6.5t26.5 3t32.5 13.5t27 12q32 25 11 66q-38 49 -133.5 117t-134.5 118q-5 7 -14 16.5t-14 15.5t-9 14t-2.5 15t7.5 15z" />
<glyph unicode="T" horiz-adv-x="432" d="M26 504q-25 11 -23 38t28 40q54 27 101.5 40t87 14t89 1t106.5 2q2 0 4.5 -3.5t5.5 -8.5t4 -7q7 -21 -6 -38.5t-37 -25.5q-40 -8 -56 -8t-51 -1q-36 -176 -44 -496q0 -25 -58 -49q-16 -6 -27 5t-12 24q-5 90 12 257.5t17 239.5q0 7 -3.5 10t-10 2t-11.5 -3t-13 -5t-11 -4 q-6 -1 -40.5 -16.5t-51.5 -7.5z" />
<glyph unicode="U" horiz-adv-x="480" d="M48 510q9 28 39 42t60 0q21 -23 15 -47q-27 -62 -34 -133.5t15.5 -139t75.5 -99.5q32 -17 57 -10t43.5 34t29.5 58t15 63q9 57 8 88t-7 87.5t-6 87.5q-4 30 46 46q11 4 36 9l6 2q0 -8 10 -12t10 -8q12 -87 13.5 -151.5t-16 -141t-59.5 -137.5q-32 -46 -84 -78.5 t-107.5 -37t-97.5 38.5q-53 56 -76.5 132.5t-19.5 152t28 154.5z" />
<glyph unicode="V" horiz-adv-x="407" d="M13 471q3 13 21.5 28t37.5 17.5t29 -15.5q15 -33 41.5 -141t62.5 -159q32 71 61 213t47 195q5 15 29.5 25t46 3.5t17.5 -33.5q-21 -141 -88 -383q-23 -77 -40 -187q-4 -14 -22.5 -24t-41.5 -10q-35 0 -39 15q-9 31 -38 78t-36 69q-10 31 -37.5 95.5t-41 115t-9.5 98.5z " />
<glyph unicode="W" horiz-adv-x="609" d="M27 467q9 30 42 44t52 -12q16 -25 16 -60.5t-6.5 -65.5t1.5 -68q3 -12 6.5 -34.5t6.5 -35.5t10.5 -30.5t18.5 -30.5q27 30 54.5 101t49.5 98q26 31 53 31.5t49 -24t38.5 -54.5t27.5 -63q0 -5 4 -13.5t9 -14t8 -3.5q25 30 32 71t1 77.5t-7.5 80.5t5.5 80q8 16 32.5 26.5 t40.5 -0.5q20 -16 29 -42t9 -46t-3 -55t-3 -51q0 -94 -42 -204q-26 -49 -42 -62q-21 -17 -41 -18.5t-36.5 10t-29.5 28t-24 37.5q-38 75 -63 110q-14 -19 -31 -55t-32 -64.5t-35 -55.5t-49.5 -38t-66.5 -2q-62 84 -83 192t-1 216z" />
<glyph unicode="X" horiz-adv-x="497" d="M8 160q23 24 66.5 52.5t78.5 57t53 63.5q-32 38 -84 115t-83 114q-18 22 -4 45t39.5 29.5t42.5 -1.5q35 -25 63.5 -64t59 -92t49.5 -79q21 13 52.5 49.5t52.5 49.5q49 25 88 6q14 -14 6 -32q-17 -33 -72.5 -76.5t-73.5 -69.5q15 -26 49.5 -81.5t58.5 -97.5t43 -81 q4 -8 4.5 -14.5t-3 -12.5t-6.5 -10.5t-11 -10t-12 -8t-14 -7.5q-15 -8 -32 -1.5t-25 22.5q-36 93 -136 224q-23 -13 -56 -41t-57 -50t-58.5 -35t-68.5 -4q-11 3 -13 18.5t3 22.5z" />
<glyph unicode="Y" horiz-adv-x="361" d="M11 597q-3 23 28.5 37.5t47.5 -0.5q24 -21 38 -68.5t27.5 -98t33.5 -74.5q16 21 41.5 109.5t58.5 112.5q16 12 36 12t32 -11t5 -28q-82 -203 -114 -272q-14 -42 13 -77q9 -9 -4 -41q-5 -4 -25 -11t-25 -20q-39 -179 -48 -210q-4 -12 -21.5 -19.5t-42.5 1.5q-17 7 -20 27 t2 36q4 26 33.5 117.5t24.5 133.5q-7 53 -60.5 170t-60.5 174z" />
<glyph unicode="Z" horiz-adv-x="538" d="M14 39q0 30 34 52q10 9 40.5 34.5t42.5 36.5t39 35t40 38.5t34.5 38t33 42.5t25.5 42.5t22 48t13 49.5q2 13 -11 18.5t-36.5 8.5t-33.5 8q-39 16 -126.5 11t-116.5 17q-24 17 -6 46t46 35q33 8 67 9.5t71.5 -3.5t64.5 -10t71.5 -15.5t66.5 -14.5q75 -26 70 -70 q-7 -56 -37.5 -114.5t-60 -93.5t-86.5 -95t-77 -84q70 -8 152.5 1.5t151.5 -7.5q25 -8 29 -31t-11.5 -42.5t-40.5 -19.5q-83 0 -177.5 -2.5t-178.5 -2.5q-8 0 -31 -2.5t-36 -2.5t-27.5 9.5t-20.5 29.5z" />
<glyph unicode="[" horiz-adv-x="521" d="M4 77q22 24 22 40q36 117 62 271q6 35 -1.5 107.5t1.5 107.5q60 30 135 35.5t144 -9t134 -43.5q23 -13 19.5 -31t-24.5 -33.5t-40 -14.5q-36 1 -117 14.5t-126 13.5q-14 -156 -74 -384q0 -3 -0.5 -10.5t-0.5 -11.5t1 -9.5t4 -9t8 -4.5q115 -17 226 17q22 3 28 -22t0 -46 q-3 -7 -8.5 -12t-14 -9t-13 -5.5t-15.5 -4.5l-11 -3q-190 -51 -322 22q-2 0 -4 6t-5 14.5t-8 13.5z" />
<glyph unicode="\" horiz-adv-x="413" d="M18 535q-21 31 -17.5 59.5t36.5 38.5q8 0 18 2.5t16 3.5t12 0.5t9 -5t4 -13.5q13 -44 30 -85.5t44 -91t41 -74t52.5 -86.5t46.5 -75q4 -7 44.5 -66t52.5 -90q13 -34 -2 -47.5t-40.5 -6.5t-39.5 25q-42 50 -74.5 94t-67.5 104t-49.5 86.5t-58.5 114t-57 112.5z" />
<glyph unicode="]" horiz-adv-x="443" d="M11 594q3 23 24 33.5t43 11.5q36 2 115 -10t121 -6q26 3 50 3t48 -6t28.5 -22t-8.5 -43q-90 -149 -45 -399q2 -5 7.5 -20t7.5 -23t4 -20.5t-1.5 -23t-11.5 -19.5q-17 -17 -34 -17q-28 -3 -74.5 -13t-78 -16t-72 -4.5t-73.5 16.5q-31 17 -25 41t31 37q27 15 95.5 13 t95.5 16q12 7 12.5 23.5t-6 41.5t-6.5 36q-2 49 14.5 151.5t13.5 157.5q-42 -3 -122.5 1t-102.5 4q-17 0 -33.5 18t-16.5 38z" />
<glyph unicode="^" horiz-adv-x="311" d="M26 433q15 21 39.5 54.5t38 52t31.5 46.5t32 54h20q14 0 20 -3q10 -13 56.5 -119t47.5 -114q-4 0 -9.5 -8t-10.5 -6q-4 2 -17 3.5t-23.5 3.5t-11.5 5q-27 67 -61 113q-8 -16 -15.5 -28t-18 -24.5t-15 -17.5t-21.5 -22l-23 -23q-11 -8 -27 -7.5t-29 6.5q-21 9 -3 34z" />
<glyph unicode="_" horiz-adv-x="185" />
<glyph unicode="`" horiz-adv-x="165" d="M31 576q-16 25 8.5 46t51.5 18q35 -4 53 -72q2 -9 5.5 -21.5t6 -20t5 -17.5t3 -16t1 -12.5t-1 -10.5t-4 -8t-7 -6t-11.5 -3q-11 -1 -20.5 4.5t-14.5 11.5t-13 19z" />
<glyph unicode="a" horiz-adv-x="354" d="M35 91q-19 29 -15 71.5t24 68.5q23 31 54 49.5t59.5 24.5t53.5 6.5t41 -1.5l16 -1q8 10 8 35t-15 28q-15 7 -40.5 3t-36 -7t-35 -13.5t-37.5 -14.5q-26 -9 -38 28.5t-2 47.5q38 26 90 39t103.5 0.5t72.5 -56.5q14 -29 15.5 -64.5t-5 -63.5t-15 -67.5t-10.5 -67.5 q-8 -126 -29 -153q-15 -17 -36 -4q-8 5 -16.5 20.5t-15.5 15.5q-14 2 -42.5 6t-45 7.5t-38.5 10.5t-38 20t-27 32zM92 147q0 -20 36.5 -36t69.5 -17t42 6q3 14 9 35t9.5 34t3 31.5t-8.5 37.5q-16 -6 -48.5 -11.5t-54 -10t-39.5 -22t-19 -47.5z" />
<glyph unicode="b" horiz-adv-x="401" d="M13 370q3 5 11 13t10 13q2 22 -0.5 94.5t5.5 94.5q6 27 32.5 46t46.5 -4q19 -20 20.5 -48t-7 -54t-10 -57t11.5 -56q59 -3 109.5 -18t93 -49.5t59.5 -84.5q16 -45 -7.5 -94t-65.5 -79q-66 -47 -125.5 -71t-120.5 -13q-13 3 -26 32q-4 33 -6.5 128.5t-14.5 148.5 q-1 3 -7.5 16t-8.5 23t0 19zM123 328q0 -152 26 -225q59 4 109 37t48 83q-1 32 -31.5 59t-72.5 39t-79 7z" />
<glyph unicode="c" horiz-adv-x="378" d="M14 260q16 95 83 154q2 2 16.5 15t18.5 16.5t18 15t20 15.5t19.5 12.5t21.5 11t21 6.5t22.5 4t21.5 -2t23 -7q23 -10 13 -39q-9 -27 -28.5 -41.5t-49.5 -26.5t-47 -24q-74 -57 -78 -120q-4 -56 21 -93q7 -12 19 -20.5t21 -12t27 -9t25 -8.5q23 -9 46 4t46 31t40 19 q15 1 20.5 -8t2.5 -23t-7.5 -25.5t-9.5 -19.5q-59 -90 -220 -44q-69 20 -103.5 82t-22.5 137z" />
<glyph unicode="d" horiz-adv-x="370" d="M14 224q0 56 38 91t104 65.5t89 49.5q13 11 18 52t11 54q11 19 30.5 30t36.5 4q34 -17 29 -39q-75 -204 -24 -500q0 -7 -14 -15.5t-25 -8.5q-19 -2 -30 12.5t-19.5 31.5t-17.5 19q-9 0 -28.5 -1t-30.5 -1t-27 3.5t-29 12.5q-1 1 -18 12t-20.5 13.5t-17.5 13.5t-18.5 16.5 t-14 16.5t-12.5 20t-6.5 22t-3.5 26zM115 238q6 -38 41.5 -64.5t73.5 -12.5q-5 33 2.5 90.5t7.5 77.5q-48 0 -90 -24.5t-35 -66.5z" />
<glyph unicode="e" horiz-adv-x="339" d="M22 282q-2 75 47 121t122 36q60 -8 104.5 -58t43.5 -112q-9 -28 -82.5 -71.5t-83.5 -53.5q-5 -1 -12.5 -8t-3.5 -13q12 -22 30 -31t40.5 -5t41 11t43.5 20q26 -20 16.5 -53.5t-40.5 -38.5q-2 0 -22 -3.5t-25 -4t-22 -2t-26 0t-22 4t-25 7.5q-120 54 -124 254zM131 231 q90 4 108 63q16 35 -26 53.5t-75 1.5q-20 -11 -26.5 -39.5t0.5 -53t19 -25.5z" />
<glyph unicode="f" d="M13 186q4 7 24.5 19t19.5 27q-1 19 -13 81.5t-9 96.5q9 81 78 146q26 25 63 41t73.5 19t67.5 -15.5t42 -59.5q2 -14 -8.5 -24.5t-23.5 -8.5q-12 1 -40 8t-39.5 7.5t-41.5 -5.5q-41 -14 -63 -44.5t-24.5 -68t5.5 -75t25 -73.5q6 1 76.5 31.5t95.5 22.5q14 -1 19.5 -15 t-0.5 -28q-7 -18 -44.5 -33.5t-72.5 -28.5t-37 -26q-5 -24 27 -63.5t37 -55.5q9 -18 -19.5 -29t-48.5 -3q-25 16 -50 61.5t-47 58.5q-3 1 -23 0t-31 2q-10 -1 -15 11t-3 24z" />
<glyph unicode="g" horiz-adv-x="327" d="M34 265q-19 42 -10.5 86t44.5 74q34 29 73 46t83 20.5t83 -17.5q24 -12 20 -30q-19 -39 -28.5 -81.5t-10 -91t1.5 -83t8.5 -93t8.5 -85.5q5 -51 -3 -86.5t-42 -54.5q-59 -34 -131 -7.5t-94 91.5q-9 27 18.5 41.5t42.5 -3.5q5 -5 27.5 -32.5t41 -39t42.5 -8.5q7 2 19 27 q9 30 6 86.5t-7.5 86t-14.5 86.5q0 2 1 8q5 22 -2 21l-6 -3q-65 -39 -114 -19q-30 12 -57 61zM102 326q10 -69 38 -69q17 -1 28.5 10t24.5 39.5t16 34.5q9 15 10.5 38.5t-7.5 37.5q-6 12 -21.5 9.5t-30.5 -10t-28 -18.5q-36 -31 -30 -72z" />
<glyph unicode="h" horiz-adv-x="338" d="M24 75q0 109 12 221q3 23 -1.5 61t-3.5 70.5t14 56.5q6 16 27 22.5t43 -2.5q13 -8 13 -41q-1 -7 -4 -36.5t-4 -40t-2.5 -35t-0.5 -39.5t3.5 -35.5t7.5 -38.5q31 55 73.5 86.5t92.5 9.5q18 -76 25.5 -109.5t14.5 -94.5t2 -109q-1 -18 -29.5 -25.5t-41.5 5.5 q-23 28 -25.5 71t-2.5 90.5t-17 79.5q-62 -62 -109 -162q-6 -10 -23.5 -17t-30.5 -4q-2 1 -8.5 2.5t-11.5 2.5t-9 4t-4 7z" />
<glyph unicode="i" horiz-adv-x="185" d="M42 253q0 79 18 114q10 19 33 25.5t45 -3.5q16 -7 24 -20.5t-2 -27.5q-18 -25 -20 -70t-6 -57q-9 -23 -1.5 -70t1.5 -70q0 -3 -3 -8t-6 -5q-67 -19 -79 18q-8 26 -9 54.5t2 66t3 53.5zM67 479q-11 16 -4.5 40.5t18.5 32.5q23 14 50 12t40 -21q12 -18 0.5 -45.5 t-27.5 -36.5q-17 -10 -38.5 -5.5t-38.5 23.5z" />
<glyph unicode="j" horiz-adv-x="194" d="M-105 -76q-7 20 4.5 35t31.5 21q14 4 23 -3t16.5 -21.5t12.5 -19.5q16 -8 24 -8q28 19 44 53t20 58t8 69q4 42 -5.5 108.5t-14 108.5t11.5 108q6 19 40.5 18.5t43.5 -26.5q2 -12 -4 -36t-4 -36q1 -28 6 -83.5t7.5 -89.5t0 -83.5t-13 -84t-35 -72t-61.5 -64.5 q-36 -28 -88 -13.5t-68 61.5zM40 526q-25 49 5 76q21 19 50 19t44 -23q15 -21 12 -49.5t-23 -42.5q-24 -17 -49 -12t-39 32z" />
<glyph unicode="k" horiz-adv-x="378" d="M21 394q2 27 -3.5 74t-7 74t10.5 68q7 17 32 25.5t49 1.5q13 -13 13 -22q0 -41 -5.5 -139.5t-3.5 -153.5q2 -4 6.5 -5t10.5 0l6 1q7 5 28.5 22.5t32.5 24.5t29.5 15t36 5.5t35.5 -13.5q17 -12 10.5 -27t-23.5 -23q-7 -5 -46.5 -27t-57.5 -40q66 -50 198 -171 q18 -23 -13 -45q-13 -17 -35.5 -18t-32.5 13q-22 22 -47 43.5t-61 50.5t-50 41l-9 4q-7 0 -4 -13q-3 -20 4 -63t5 -63q-2 -18 -19.5 -27t-35.5 -7t-22 12q-23 54 -31.5 126.5t-7 119.5t7.5 136z" />
<glyph unicode="l" horiz-adv-x="198" d="M32 65q13 45 18 91.5t5.5 117t1.5 94.5q1 25 -4.5 61t-10.5 63.5t-3.5 59.5t13.5 56q9 19 32 28t43.5 -0.5t22.5 -37.5q1 -5 -2 -20.5t-3 -19.5q0 -23 1 -67t1 -80t-2 -67q-2 -36 2.5 -103.5t1 -119.5t-23.5 -96q-10 -22 -33.5 -25t-44.5 10q-11 7 -15.5 23.5t0.5 31.5z " />
<glyph unicode="m" horiz-adv-x="606" d="M19 296q-7 58 14.5 96.5t75.5 22.5q20 -6 25.5 -22.5t0.5 -36t-5.5 -40.5t8.5 -35q15 14 31 40.5t26.5 47.5t28 42t36.5 24.5t52 -5.5q15 -15 20 -19q4 -16 8 -55.5t12 -59.5q8 8 21.5 24.5t23 27.5t23.5 25t27 21.5t28 14t31.5 5.5t34.5 -8q11 -7 15 -19t4 -31t1 -25 q29 -213 -25 -353q-7 -25 -38 -30t-57 11q-3 0 -5 5.5t-2 13.5t2 15q46 125 20 298q0 14 -15 1q-7 -5 -10 -11q-50 -83 -94 -203q-13 -26 -48.5 -36.5t-55.5 16.5q-15 31 -4 101t-1 107q-17 -29 -48.5 -100.5t-55.5 -107.5q-16 -22 -48.5 -22t-41.5 22q-16 40 -14 115.5 t-1 122.5z" />
<glyph unicode="n" horiz-adv-x="360" d="M44 217q0 16 -3 53.5t-2 64t9 47.5q9 23 40.5 21.5t38.5 -26.5q4 -14 -2.5 -40t-6.5 -36q2 -2 5 -8q3 -4 4 -4q2 3 9.5 16t10 17.5t10 15.5t11.5 15t11.5 12.5t13.5 11.5t14.5 7.5t16.5 5t17.5 0t20.5 -3.5q16 -25 26.5 -52.5t15.5 -65.5t7 -55.5t4 -68t2 -58.5 q10 -44 -13 -51q-64 -17 -68 9q-6 38 -9 120t-12 125q-28 -31 -55 -102.5t-42 -96.5q-12 -20 -36.5 -21t-33.5 21q-6 17 -7 37.5t1 49t2 40.5z" />
<glyph unicode="o" horiz-adv-x="282" d="M31 331q9 33 35 69.5t29 43.5q20 38 60.5 34t71.5 -38q33 -38 49 -98q27 -101 -69 -202q-16 -17 -48.5 -19t-52.5 10q-50 30 -71 86t-4 114zM138 230q34 -8 50 15t8.5 59t-33.5 65q-11 12 -38 -19q-37 -41 -32 -79q4 -32 45 -41z" />
<glyph unicode="p" horiz-adv-x="344" d="M19 -41q-5 38 -6 77.5t2.5 80t7 73.5t9.5 79t9 75q1 6 -6.5 19.5t-2.5 21.5q13 11 14 43.5t18 43.5q21 15 42 16t36 -16q8 -8 9 -28t5 -22q36 -4 66 -11.5t61.5 -21.5t48 -40t12.5 -60q-4 -38 -21.5 -63.5t-46 -39t-55 -21t-63 -15.5t-56.5 -15q-12 -73 -9.5 -110.5 t23.5 -109.5q0 -3 4 -8.5t9.5 -13t8.5 -12.5q12 -25 -20 -31t-54 4q-5 2 -10 5.5t-8.5 6.5t-6.5 9t-5 9.5t-4.5 11.5t-3.5 12t-2.5 13t-1.5 12.5t-1.5 13.5t-1.5 12zM125 217q31 -14 74.5 9t49.5 70q6 35 -34 43q-18 8 -37.5 9t-30.5 -9q-20 -20 -29 -66.5t7 -55.5z" />
<glyph unicode="q" horiz-adv-x="384" d="M18 325q10 43 39 76t73 50q30 14 67 10.5t59 -28.5q15 23 46.5 22.5t39.5 -18.5q16 -36 8 -94.5t-23.5 -115t-18 -131t24.5 -143.5q10 -23 35 -22.5t33 15.5q1 2 4.5 10t5.5 12.5t6.5 13.5t8 12.5t9 10.5t10 7.5t12 3t13.5 -2.5q13 -6 20.5 -12.5t10.5 -12t1 -15 t-4.5 -15.5t-9.5 -20.5t-11 -22.5q-20 -48 -77 -64.5t-103 5.5q-30 13 -49.5 42.5t-22.5 61.5q0 13 2 46.5t1 56.5t-8 41q-7 11 -17 8.5t-28 -7.5t-27 -1q-11 7 -34.5 11.5t-32.5 11.5q-6 7 -22 24t-24.5 28.5t-12.5 23.5q-26 59 -4 122zM139 361q-42 -42 -37.5 -102 t51.5 -87q17 -11 37.5 -6.5t29.5 24.5q7 15 10.5 35.5t4 32t0 39t-0.5 32.5q0 21 -21 39.5t-47 14.5q-6 -2 -10 -4.5t-10 -9.5t-7 -8z" />
<glyph unicode="r" horiz-adv-x="323" d="M35 456q37 32 72.5 1t27.5 -81q19 3 38 18.5t31 30.5t32.5 24t44.5 2q10 -4 13 -5.5t11.5 -5.5t10.5 -7t5.5 -8t1.5 -11t-7 -13q-19 -27 -69.5 -68.5t-71.5 -72.5q-8 -11 -9.5 -36t-5.5 -34q-19 -29 10 -65q15 -19 12 -50t-22 -50q-15 -22 -42.5 -23t-42.5 18 q-17 11 -15 45q4 89 -15 245q-2 15 -10.5 38t-14 39.5t-3.5 35.5t18 33z" />
<glyph unicode="s" horiz-adv-x="345" d="M25 68q-10 20 7 39.5t40 21.5q13 1 25.5 -20t20.5 -25q35 -20 82 -1.5t47 59.5q0 10 -15.5 23.5t-30.5 20.5q-11 5 -49 20.5t-54.5 23.5t-39 27t-33.5 43q-18 37 15 78.5t85.5 62t84.5 6.5q9 -4 36.5 -14.5t40.5 -16.5t30 -19.5t25 -30.5q6 -11 -0.5 -28t-15.5 -23 q-21 -13 -57 7t-66.5 37t-73.5 -4q-19 -13 -1 -39t38 -33q104 -37 158 -87q20 -24 17.5 -56t-20.5 -61q-26 -44 -85 -69.5t-121 -12.5t-90 71z" />
<glyph unicode="t" horiz-adv-x="397" d="M7 258q-4 10 4.5 23t20.5 21q13 7 57.5 16.5t58.5 26.5q9 11 12 27.5t4.5 40.5t2.5 34q1 9 7 45.5t8 56.5q4 34 41 39t65 -15q13 -13 5 -34q-39 -85 -39 -204q8 1 28 3q89 12 108 -4q11 -11 5 -32q-3 -10 -10 -17.5t-19.5 -12t-22 -7.5t-27.5 -4t-26.5 -1.5t-28.5 0 t-24 0.5q-5 -34 8.5 -204t11.5 -197q-1 -15 -10.5 -24.5t-24.5 -9.5q-18 0 -27 6.5t-15 25.5q-9 25 -18.5 198t-25.5 202q-21 -16 -46 -25t-49.5 -4t-33.5 30z" />
<glyph unicode="u" horiz-adv-x="367" d="M26 358q0 5 0.5 25.5t1.5 29t6.5 21t16.5 19.5q26 12 55.5 3.5t29.5 -33.5q0 -22 -2 -62t-2 -72.5t4 -61.5q2 -6 4.5 -20t5 -24t6 -24.5t7.5 -22t10 -16t12 -7.5t15 4q65 44 80 131.5t-30 159.5q-9 14 -14 28t-4 28t13 19q48 20 85 -24t40 -96q6 -103 -26.5 -193 t-108.5 -123q-51 -23 -88 -9t-61 47.5t-37.5 83t-17.5 97.5t-1 92z" />
<glyph unicode="v" horiz-adv-x="430" d="M12 394q-9 26 11 42t48 15t38 -16q23 -28 48 -100.5t48 -102.5q18 30 34.5 70t25 66t25 80t22.5 73q13 32 50.5 31t66.5 -26q3 -6 -1 -19t-4 -16q-3 -4 -13 -14.5t-13 -16.5q-54 -197 -142 -365q-9 -17 -34.5 -25t-41.5 9q-8 7 -15.5 15.5t-15 18.5t-12.5 17.5t-12 20 t-10.5 19t-10 21.5t-8.5 19.5t-9.5 21.5t-8.5 20q-45 83 -66 142z" />
<glyph unicode="w" horiz-adv-x="609" d="M25 416q4 33 37 40.5t50 -15.5q20 -24 21.5 -63t-4.5 -73t3 -76q3 -10 7.5 -37t10.5 -45t17 -32q14 -18 34 11q11 16 32 63t42 68q20 19 35.5 20.5t36.5 -16.5q21 -20 48.5 -77t55.5 -75q12 -7 28 23q22 37 26 85.5t0 83.5t8 78q5 17 26.5 21.5t41.5 -8.5t23 -39 q12 -107 -5 -186.5t-86 -125.5q-63 -41 -125 -11q-22 10 -47.5 50t-31.5 41t-18.5 -19.5t-31 -47t-35.5 -35.5q-33 -19 -70.5 -19.5t-60.5 24.5q-40 53 -58.5 121.5t-16.5 133.5t7 137z" />
<glyph unicode="x" horiz-adv-x="471" d="M15 31q-10 27 3.5 54t36 46t43 45t21.5 50q1 30 -18.5 67t-40 75t-20.5 71q-5 13 11.5 22t36.5 9q38 0 61 -20.5t30.5 -47t20 -59.5t29.5 -50q17 9 40.5 29.5t42.5 37t40 29t41 9t37 -25.5q16 -26 11 -41t-27 -32t-46 -29.5t-46 -32.5t-26 -42q-9 -44 67 -103 q18 -18 48.5 -55t48.5 -55q29 -29 -13 -51q-34 -18 -63 -11q-2 1 -3 1q-28 10 -53.5 39t-41.5 57.5t-41 54.5t-53 32q-11 2 -22 -10.5t-23.5 -33t-21.5 -29.5q-19 -28 -58 -28t-52 28z" />
<glyph unicode="y" horiz-adv-x="346" d="M-47 -122q-35 70 5 94q18 11 39 -2.5t25 -36.5q21 16 33 27.5t19.5 27.5t9.5 24t7 34.5t8 42.5q6 31 -16 80.5t-24 67.5q-3 27 -10 79.5t-10 79.5q0 4 -2 18t-2 20.5t2 16t7 14.5q15 23 46 24t43 -24q14 -28 13 -80.5t2 -87.5q1 -4 3 -5.5t4.5 -0.5t4.5 2.5t4.5 4.5 t3.5 4q5 11 20.5 47t24 52.5t26 39t38.5 34.5q14 5 33 6t30.5 -12t0.5 -34q-12 -23 -40 -71.5t-43.5 -78t-31 -75t-18.5 -86.5q-4 -52 -36.5 -125.5t-69.5 -120.5q-28 -34 -79 -35t-70 35z" />
<glyph unicode="z" horiz-adv-x="473" d="M20 386q-8 31 13 53t47 18q35 -6 89.5 -10t85 -8.5t72 -23t78.5 -52.5q3 -9 1 -22t-7 -21q-24 -24 -68 -61.5t-77.5 -71.5t-57.5 -73q60 -14 119.5 -15t121.5 -14q23 -5 32 -19t-5 -35q-15 -27 -48.5 -33.5t-65.5 5.5q-54 18 -100.5 11.5t-100.5 5.5q-119 30 -98 71 t58.5 82t83.5 84t70 73q-17 20 -28.5 25t-30 2t-32.5 -1q-15 2 -56.5 -1t-56.5 4q-10 0 -23 7.5t-16 19.5z" />
<glyph unicode="{" horiz-adv-x="445" d="M7 369q3 4 20.5 15.5t17.5 27.5q20 0 33.5 5t9.5 17q-2 15 -25.5 55.5t-11.5 62.5q14 27 35 46t47 27.5t50.5 12.5t57.5 1t56 -6t56 -10q6 -1 32 1.5t33 -7.5q51 -49 11 -75q-29 -14 -65.5 -12.5t-66.5 11t-65.5 9t-62.5 -18.5q3 -20 18 -42t30.5 -40t27 -37.5t7.5 -41 t-29 -44.5q-3 -5 -8.5 -41t-18.5 -51q-4 -4 -20.5 -16.5t-24 -19.5t-18 -19t-13 -24t0.5 -24q7 -26 29 -38t49 -11t57 2t54 -1q14 0 -7 -31q-11 -17 -20 -23q-74 -49 -189 -17q-44 13 -81 71q-9 19 -10 38.5t4 35t14.5 33t20 32t22.5 33t19 33.5q1 3 -1 6.5t-8 6.5t-11.5 6 t-14.5 6.5t-14 6.5q-33 23 -27 49z" />
<glyph unicode="|" horiz-adv-x="183" d="M27 346q0 68 21 223q0 23 17 42.5t42 26.5q30 9 56.5 -14t17.5 -44q-42 -95 -42 -213q0 -36 6 -86t11.5 -86.5t4.5 -81t-12 -81.5q-3 -14 -26 -25t-47.5 -5t-27.5 35q-21 236 -21 309z" />
<glyph unicode="}" horiz-adv-x="314" d="M19 358q-9 16 1.5 32.5t27.5 25.5q28 19 87 40t72 27q-16 24 -50.5 34.5t-70 20t-52.5 31.5q-5 7 -5.5 14.5t1 11.5t6.5 14t7 13q3 6 7.5 10.5t10 5.5t9.5 2t12 -1.5t11 -3t12 -4t10 -4.5q4 -1 36 -13t42 -16.5t33.5 -16t40 -23.5t31.5 -27q22 -23 14 -53 q-8 -32 -37.5 -49t-70.5 -30t-60 -27q16 -12 51.5 -17t51.5 -16t3 -43q-4 -11 -15 -19.5t-27.5 -18t-24.5 -15.5q1 -1 14.5 -10.5t16.5 -11.5t15 -11.5t15.5 -13.5t12 -13.5t10.5 -15.5t6 -15.5t3 -18t-3.5 -19t-8.5 -20.5q-19 -34 -51 -59t-71 -33.5t-75 15.5q-10 20 0 38 q9 13 28.5 20.5t35.5 10.5t26 13t6 28q-4 20 -30 38t-48.5 37t-22.5 41q0 6 11.5 23t8.5 25q-5 13 -30.5 34.5t-32.5 32.5z" />
<glyph unicode="~" horiz-adv-x="385" d="M25 505q7 10 14.5 22.5t11 17t11 13.5t19.5 21q19 19 32 29.5t31.5 20t37.5 8t39 -13.5q16 -10 23 -41.5t14 -41.5q10 -14 17.5 -16.5t14.5 4.5t14 16.5t20 22t28 19.5q18 6 27.5 -7t2.5 -27q-40 -61 -65.5 -80.5t-71.5 -21.5q-20 -1 -36 12t-23 35q-7 21 -14 31.5 t-16 7.5q-22 -7 -36.5 -23t-20.5 -29t-23 -20.5t-47 -1.5q-9 3 -10 18t6 25z" />
<glyph unicode="&#xa1;" horiz-adv-x="231" d="M17 32q6 77 43 222.5t46 210.5q0 29 52 8q13 -5 19.5 -13t7 -19t-0.5 -20.5t-4 -23.5t-4 -22q-29 -219 -73 -348q-7 -21 -29.5 -26.5t-40.5 4.5t-16 27zM124 524q2 14 -3 38t-2.5 40.5t20.5 27.5q37 22 59 -2.5t32 -68.5q0 -30 -29.5 -44t-56.5 4q-8 5 -20 5z" />
<glyph unicode="&#xa5;" horiz-adv-x="361" d="M11 597q-3 23 28.5 37.5t47.5 -0.5q24 -21 38 -68.5t27.5 -98t33.5 -74.5q16 21 29.5 69t29.5 91t41 62q16 12 36 12t32 -11t5 -28q-71 -179 -109 -260q4 0 12 0.5t11 0.5q35 5 45 -19q3 -6 3.5 -11.5t-2 -10t-5.5 -8t-9.5 -6.5t-11 -5t-12.5 -4.5t-12.5 -3.5t-12.5 -3 q-5 -1 -8 -2q1 -4 10 -17q9 -9 -4 -41q-5 -4 -25 -11t-25 -20l-3 -12q10 -1 27.5 5.5t29 9t28.5 -6.5q7 -2 12 5t8 5q17 -15 12 -30t-25 -23q-43 -31 -107 -39q-12 -58 -30 -124q-4 -12 -21.5 -19.5t-42.5 1.5q-17 7 -20 27t2 36q5 32 23 86q-46 13 -69 47q-9 19 11 36 t47 21q20 0 40 -5q9 36 6 59q-39 2 -78 12q-16 4 -28.5 18.5t-3.5 24.5q24 32 88 34q-11 28 -36.5 82.5t-42 98t-20.5 81.5z" />
<glyph unicode="&#xa7;" horiz-adv-x="575" d="M27 320q30 38 123 34q48 100 150 125q63 14 145 -10q18 -6 31.5 -22.5t2.5 -35.5q-6 -11 -15 -16t-25.5 -8t-22.5 -5q-20 -6 -57 2t-52 3q-33 -12 -56 -39q35 -2 60 1q38 3 51 -20q9 -19 -7 -30.5t-44 -17.5q-60 -12 -90 -14q-3 -38 9 -76q0 -4 2 -8q11 0 31 6.5 t31.5 8.5t30.5 -7q8 -2 13.5 5t8.5 5q20 -15 14.5 -30t-28.5 -23q-23 -15 -58 -26q31 -26 71 -34t80 5q9 3 24 12.5t26 16t25.5 10.5t22.5 -4q27 -22 33.5 -43t-16.5 -41q-98 -71 -250 -24q-75 24 -111 53q-19 16 -32 35q-79 8 -114 55q-10 20 12.5 37t53.5 20q13 0 19 -1 q0 19 3 38q0 1 0.5 4.5t0.5 5.5q-30 3 -60 9q-18 5 -32 19.5t-4 24.5z" />
<glyph unicode="&#xa8;" horiz-adv-x="324" d="M27 580q0 24 18 41q29 26 65.5 16.5t48.5 -39.5q15 -34 -5 -70.5t-59 -25.5q-31 9 -36 14q-32 30 -32 64zM226 508q-18 12 -24.5 32t-0.5 38t20 33t36 17t47 -10q17 -10 19.5 -31.5t-6.5 -37.5q-11 -26 -39.5 -41.5t-51.5 0.5z" />
<glyph unicode="&#xad;" d="M23 265q-4 24 13.5 42.5t42.5 18.5q30 0 82.5 -4.5t83 -5.5t85.5 5q7 4 15.5 1t12.5 -10q-1 -10 1 -16t-4 -12.5t-8 -10t-10.5 -7.5t-12 -5.5t-12 -4.5t-10.5 -4q-127 -36 -261 0q-8 2 -12.5 5t-4.5 5z" />
<glyph unicode="&#xb4;" horiz-adv-x="158" d="M29 487q-6 14 -4 26.5t4 16.5t10 16t14 24q12 23 20 35.5t23 23.5t32 11q10 0 21.5 -12t7.5 -21q-15 -40 -27.5 -58t-46.5 -49q-8 -7 -18 -13t-21 -8t-15 8z" />
<glyph unicode="&#xbf;" horiz-adv-x="330" d="M10 132q10 40 44.5 71t77.5 60.5t62 57.5q13 19 4 51t-18 55t10 49q7 8 24.5 8t28.5 -8q41 -28 59 -79t4 -96q-9 -27 -35.5 -47t-54.5 -30.5t-57 -32t-42 -50.5q31 -17 99 -38.5t100 -38.5q17 -8 13 -30t-23 -33q-50 -10 -73 0q-18 7 -64 23t-78.5 31.5t-61.5 37.5 q-26 26 -19 39zM190 602q10 22 39 30t48 -6q21 -15 21.5 -34t-21.5 -34q-14 -9 -58 -9q-21 3 -29.5 19t0.5 34z" />
<glyph unicode="&#xc0;" horiz-adv-x="402" d="M18 10q-6 28 -0.5 58t19 68.5t17.5 58.5q31 141 67 248q5 16 19.5 83.5t35.5 96.5q8 12 33.5 16t33.5 -11q19 -40 35 -88.5t24.5 -85t22.5 -96t22 -91.5q0 -7 13.5 -14t17.5 -13q10 -17 0 -27q-17 -37 5 -98t18 -87q-3 -21 -32.5 -26.5t-44.5 13.5q-14 19 -22.5 76 t-35.5 73q-28 16 -66 11.5t-65 -25.5q-12 -9 -20 -32.5t-11.5 -46t-13 -43.5t-25 -25.5t-47.5 7.5zM149 774q-16 25 8.5 46t51.5 18q35 -4 53 -72q2 -9 5.5 -21.5t6 -20t5 -17.5t3 -16t1 -12.5t-1 -10.5t-4 -8t-7 -6t-11.5 -3q-11 -1 -20.5 4.5t-14.5 11.5t-13 19 q-11 16 -21 29.5t-18 24.5t-23 34zM157 245q17 -12 53 -10t42 23q4 15 4 32.5t-1 29t-9 33.5t-10.5 28.5t-15 33t-13.5 28.5q-23 -28 -31 -90q-2 -13 -9 -32.5t-12.5 -32t-6.5 -26.5t9 -17z" />
<glyph unicode="&#xc1;" horiz-adv-x="402" d="M18 10q-6 28 -0.5 58t19 68.5t17.5 58.5q31 141 67 248q5 16 19.5 83.5t35.5 96.5q8 12 33.5 16t33.5 -11q19 -40 35 -88.5t24.5 -85t22.5 -96t22 -91.5q0 -7 13.5 -14t17.5 -13q10 -17 0 -27q-17 -37 5 -98t18 -87q-3 -21 -32.5 -26.5t-44.5 13.5q-14 19 -22.5 76 t-35.5 73q-28 16 -66 11.5t-65 -25.5q-12 -9 -20 -32.5t-11.5 -46t-13 -43.5t-25 -25.5t-47.5 7.5zM157 245q17 -12 53 -10t42 23q4 15 4 32.5t-1 29t-9 33.5t-10.5 28.5t-15 33t-13.5 28.5q-23 -28 -31 -90q-2 -13 -9 -32.5t-12.5 -32t-6.5 -26.5t9 -17zM205 677 q-6 14 -4 26.5t4 16.5t10 16t14 24q12 23 20 35.5t23 23.5t32 11q10 0 21.5 -12t7.5 -21q-15 -40 -27.5 -58t-46.5 -49q-8 -7 -18 -13t-21 -8t-15 8z" />
<glyph unicode="&#xc2;" horiz-adv-x="402" d="M18 10q-6 28 -0.5 58t19 68.5t17.5 58.5q31 141 67 248q5 16 19.5 83.5t35.5 96.5q8 12 33.5 16t33.5 -11q19 -40 35 -88.5t24.5 -85t22.5 -96t22 -91.5q0 -7 13.5 -14t17.5 -13q10 -17 0 -27q-17 -37 5 -98t18 -87q-3 -21 -32.5 -26.5t-44.5 13.5q-14 19 -22.5 76 t-35.5 73q-28 16 -66 11.5t-65 -25.5q-12 -9 -20 -32.5t-11.5 -46t-13 -43.5t-25 -25.5t-47.5 7.5zM55 606q15 21 39.5 54.5t38 52t31.5 46.5t32 54h20q14 0 20 -3q10 -13 56.5 -119t47.5 -114q-4 0 -9.5 -8t-10.5 -6q-4 2 -17 3.5t-23.5 3.5t-11.5 5q-27 67 -61 113 q-8 -16 -15.5 -28t-18 -24.5t-15 -17.5t-21.5 -22l-23 -23q-11 -8 -27 -7.5t-29 6.5q-21 9 -3 34zM157 245q17 -12 53 -10t42 23q4 15 4 32.5t-1 29t-9 33.5t-10.5 28.5t-15 33t-13.5 28.5q-23 -28 -31 -90q-2 -13 -9 -32.5t-12.5 -32t-6.5 -26.5t9 -17z" />
<glyph unicode="&#xc3;" horiz-adv-x="402" d="M18 10q-6 28 -0.5 58t19 68.5t17.5 58.5q31 141 67 248q5 16 19.5 83.5t35.5 96.5q8 12 33.5 16t33.5 -11q19 -40 35 -88.5t24.5 -85t22.5 -96t22 -91.5q0 -7 13.5 -14t17.5 -13q10 -17 0 -27q-17 -37 5 -98t18 -87q-3 -21 -32.5 -26.5t-44.5 13.5q-14 19 -22.5 76 t-35.5 73q-28 16 -66 11.5t-65 -25.5q-12 -9 -20 -32.5t-11.5 -46t-13 -43.5t-25 -25.5t-47.5 7.5zM68 675q7 10 14.5 22.5t11 17t11 13.5t19.5 21q19 19 32 29.5t31.5 20t37.5 8t39 -13.5q16 -10 23 -41.5t14 -41.5q10 -14 17.5 -16.5t14.5 4.5t14 16.5t20 22t28 19.5 q18 6 27.5 -7t2.5 -27q-40 -61 -65.5 -80.5t-71.5 -21.5q-20 -1 -36 12t-23 35q-7 21 -14 31.5t-16 7.5q-22 -7 -36.5 -23t-20.5 -29t-23 -20.5t-47 -1.5q-9 3 -10 18t6 25zM157 245q17 -12 53 -10t42 23q4 15 4 32.5t-1 29t-9 33.5t-10.5 28.5t-15 33t-13.5 28.5 q-23 -28 -31 -90q-2 -13 -9 -32.5t-12.5 -32t-6.5 -26.5t9 -17z" />
<glyph unicode="&#xc4;" horiz-adv-x="402" d="M18 10q-6 28 -0.5 58t19 68.5t17.5 58.5q31 141 67 248q5 16 19.5 83.5t35.5 96.5q8 12 33.5 16t33.5 -11q19 -40 35 -88.5t24.5 -85t22.5 -96t22 -91.5q0 -7 13.5 -14t17.5 -13q10 -17 0 -27q-17 -37 5 -98t18 -87q-3 -21 -32.5 -26.5t-44.5 13.5q-14 19 -22.5 76 t-35.5 73q-28 16 -66 11.5t-65 -25.5q-12 -9 -20 -32.5t-11.5 -46t-13 -43.5t-25 -25.5t-47.5 7.5zM62 736q0 24 18 41q29 26 65.5 16.5t48.5 -39.5q15 -34 -5 -70.5t-59 -25.5q-31 9 -36 14q-32 30 -32 64zM157 245q17 -12 53 -10t42 23q4 15 4 32.5t-1 29t-9 33.5 t-10.5 28.5t-15 33t-13.5 28.5q-23 -28 -31 -90q-2 -13 -9 -32.5t-12.5 -32t-6.5 -26.5t9 -17zM261 664q-18 12 -24.5 32t-0.5 38t20 33t36 17t47 -10q17 -10 19.5 -31.5t-6.5 -37.5q-11 -26 -39.5 -41.5t-51.5 0.5z" />
<glyph unicode="&#xc5;" horiz-adv-x="402" d="M18 10q-6 28 -0.5 58t19 68.5t17.5 58.5q31 141 67 248q5 16 19.5 83.5t35.5 96.5q1 2 4 5q-26 19 -31 53q-4 30 18.5 55t53.5 31q26 5 47 -22q18 -29 11 -56.5t-31 -51.5q-4 -4 -7 -6q2 -2 2 -3q19 -40 35 -88.5t24.5 -85t22.5 -96t22 -91.5q0 -7 13.5 -14t17.5 -13 q10 -17 0 -27q-17 -37 5 -98t18 -87q-3 -21 -32.5 -26.5t-44.5 13.5q-14 19 -22.5 76t-35.5 73q-28 16 -66 11.5t-65 -25.5q-12 -9 -20 -32.5t-11.5 -46t-13 -43.5t-25 -25.5t-47.5 7.5zM157 245q17 -12 53 -10t42 23q4 15 4 32.5t-1 29t-9 33.5t-10.5 28.5t-15 33 t-13.5 28.5q-23 -28 -31 -90q-2 -13 -9 -32.5t-12.5 -32t-6.5 -26.5t9 -17zM196 696q-4 -20 14 -27q8 -5 16 7q17 21 8 35q-7 9 -13 9q-9 0 -16.5 -7.5t-8.5 -16.5z" />
<glyph unicode="&#xc7;" horiz-adv-x="450" d="M12 257q12 83 56.5 143.5t122.5 78.5q61 14 145 -10q18 -6 31 -22.5t2 -35.5q-6 -11 -15 -16t-25 -8t-22 -5q-20 -6 -57 2t-52 3q-57 -20 -77 -77.5t-1 -118.5t77 -89.5t119 -8.5q9 3 24 12.5t26 16t25.5 10.5t22.5 -4q27 -22 33.5 -43t-16.5 -41q-64 -47 -150 -42 q-3 -79 -23 -99q-18 -18 -57.5 -22.5t-66.5 10.5q-47 28 -14 61q10 10 39 2t39 1q5 4 5.5 13t-0.5 24t-1 22l-21 6q-75 24 -111 53q-74 62 -58 184z" />
<glyph unicode="&#xc8;" d="M19 307q0 2 2.5 4.5t6 5t5.5 4.5q3 7 4.5 15.5t1.5 14.5t-0.5 16t-0.5 14q0 15 -6 45.5t-6 53.5t12 40q42 61 126 68.5t146 -41.5q14 -10 3 -28.5t-35 -22.5q-17 -2 -59.5 9t-65.5 1q-22 -10 -25.5 -37t2 -53.5t-4.5 -52.5q19 -11 48.5 -11.5t52.5 3t45.5 -6t33.5 -36.5 q-16 -28 -49 -33t-67.5 -6t-49.5 -17q-11 -12 -15 -33t-3.5 -35t4.5 -47t5 -41q33 -6 67.5 3t76 27.5t64.5 24.5q3 3 18 -9q7 -24 -2 -43t-30 -27q-18 -6 -52.5 -20t-55.5 -21.5t-51.5 -13.5t-57.5 -5q-7 1 -23.5 1.5t-25.5 4t-11 13.5q-12 38 -8.5 110.5t-5.5 110.5 q-1 5 -8.5 16t-9 17t3.5 18zM74 726q-16 25 8.5 46t51.5 18q35 -4 53 -72q2 -9 5.5 -21.5t6 -20t5 -17.5t3 -16t1 -12.5t-1 -10.5t-4 -8t-7 -6t-11.5 -3q-11 -1 -20.5 4.5t-14.5 11.5t-13 19q-11 16 -21 29.5t-18 24.5t-23 34z" />
<glyph unicode="&#xc9;" d="M19 307q0 2 2.5 4.5t6 5t5.5 4.5q3 7 4.5 15.5t1.5 14.5t-0.5 16t-0.5 14q0 15 -6 45.5t-6 53.5t12 40q42 61 126 68.5t146 -41.5q14 -10 3 -28.5t-35 -22.5q-17 -2 -59.5 9t-65.5 1q-22 -10 -25.5 -37t2 -53.5t-4.5 -52.5q19 -11 48.5 -11.5t52.5 3t45.5 -6t33.5 -36.5 q-16 -28 -49 -33t-67.5 -6t-49.5 -17q-11 -12 -15 -33t-3.5 -35t4.5 -47t5 -41q33 -6 67.5 3t76 27.5t64.5 24.5q3 3 18 -9q7 -24 -2 -43t-30 -27q-18 -6 -52.5 -20t-55.5 -21.5t-51.5 -13.5t-57.5 -5q-7 1 -23.5 1.5t-25.5 4t-11 13.5q-12 38 -8.5 110.5t-5.5 110.5 q-1 5 -8.5 16t-9 17t3.5 18zM153 628q-6 14 -4 26.5t4 16.5t10 16t14 24q12 23 20 35.5t23 23.5t32 11q10 0 21.5 -12t7.5 -21q-15 -40 -27.5 -58t-46.5 -49q-8 -7 -18 -13t-21 -8t-15 8z" />
<glyph unicode="&#xca;" d="M14 586q15 21 39.5 54.5t38 52t31.5 46.5t32 54q0 1 1 1h3.5h4.5t5.5 -0.5t5.5 -0.5q14 0 20 -3q10 -13 56.5 -119t47.5 -114h-2q7 -5 13 -10q14 -10 3 -28.5t-35 -22.5q-17 -2 -59.5 9t-65.5 1q-22 -10 -25.5 -37t2 -53.5t-4.5 -52.5q19 -11 48.5 -11.5t52.5 3t45.5 -6 t33.5 -36.5q-16 -28 -49 -33t-67.5 -6t-49.5 -17q-11 -12 -15 -33t-3.5 -35t4.5 -47t5 -41q33 -6 67.5 3t76 27.5t64.5 24.5q3 3 18 -9q7 -24 -2 -43t-30 -27q-18 -6 -52.5 -20t-55.5 -21.5t-51.5 -13.5t-57.5 -5q-7 1 -23.5 1.5t-25.5 4t-11 13.5q-12 38 -8.5 110.5 t-5.5 110.5q-1 5 -8.5 16t-9 17t3.5 18q0 2 2.5 4.5t6 5t5.5 4.5q3 7 4.5 15.5t1.5 14.5t-0.5 16t-0.5 14q0 15 -6 45.5t-6 53.5t12 40q10 15 24 27q-21 -5 -45 5q-21 9 -3 34zM81 562q58 36 132 25q-21 46 -47 81q-5 -10 -10 -18t-9 -14.5t-10 -14t-9 -11.5t-10.5 -12 t-10 -10.5l-12.5 -12.5t-14 -13z" />
<glyph unicode="&#xcb;" d="M19 307q0 2 2.5 4.5t6 5t5.5 4.5q3 7 4.5 15.5t1.5 14.5t-0.5 16t-0.5 14q0 15 -6 45.5t-6 53.5t12 40q42 61 126 68.5t146 -41.5q14 -10 3 -28.5t-35 -22.5q-17 -2 -59.5 9t-65.5 1q-22 -10 -25.5 -37t2 -53.5t-4.5 -52.5q19 -11 48.5 -11.5t52.5 3t45.5 -6t33.5 -36.5 q-16 -28 -49 -33t-67.5 -6t-49.5 -17q-11 -12 -15 -33t-3.5 -35t4.5 -47t5 -41q33 -6 67.5 3t76 27.5t64.5 24.5q3 3 18 -9q7 -24 -2 -43t-30 -27q-18 -6 -52.5 -20t-55.5 -21.5t-51.5 -13.5t-57.5 -5q-7 1 -23.5 1.5t-25.5 4t-11 13.5q-12 38 -8.5 110.5t-5.5 110.5 q-1 5 -8.5 16t-9 17t3.5 18zM33 733q0 24 18 41q29 26 65.5 16.5t48.5 -39.5q15 -34 -5 -70.5t-59 -25.5q-31 9 -36 14q-32 30 -32 64zM232 661q-18 12 -24.5 32t-0.5 38t20 33t36 17t47 -10q17 -10 19.5 -31.5t-6.5 -37.5q-11 -26 -39.5 -41.5t-51.5 0.5z" />
<glyph unicode="&#xcc;" horiz-adv-x="161" d="M14 732q-16 25 8.5 46t51.5 18q35 -4 53 -72q2 -9 5.5 -21.5t6 -20t5 -17.5t3 -16t1 -12.5t-1 -10.5t-4 -8t-7 -6t-11.5 -3q-11 -1 -20.5 4.5t-14.5 11.5t-13 19zM29 173q0 26 -1 84.5t-1 92.5t3 84t10 93q6 40 39 51.5t70 -13.5q17 -17 11 -29q-25 -71 -29 -151 t2.5 -181.5t4.5 -151.5q-1 -11 -23 -15t-42 6q-8 4 -14.5 9t-11 12t-8 12.5t-5.5 15t-3 15t-1.5 17.5t-0.5 16v17v16z" />
<glyph unicode="&#xcd;" horiz-adv-x="161" d="M29 173q0 26 -1 84.5t-1 92.5t3 84t10 93q6 40 39 51.5t70 -13.5q17 -17 11 -29q-25 -71 -29 -151t2.5 -181.5t4.5 -151.5q-1 -11 -23 -15t-42 6q-8 4 -14.5 9t-11 12t-8 12.5t-5.5 15t-3 15t-1.5 17.5t-0.5 16v17v16zM95 637q-6 14 -4 26.5t4 16.5t10 16t14 24 q12 23 20 35.5t23 23.5t32 11q10 0 21.5 -12t7.5 -21q-15 -40 -27.5 -58t-46.5 -49q-8 -7 -18 -13t-21 -8t-15 8z" />
<glyph unicode="&#xce;" horiz-adv-x="161" d="M-52 586q15 21 39.5 54.5t38 52t31.5 46.5t32 54h20q14 0 20 -3q10 -13 56.5 -119t47.5 -114q-4 0 -9.5 -8t-10.5 -6q-4 2 -17 3.5t-23.5 3.5t-11.5 5q-27 67 -61 113q-8 -16 -15.5 -28t-18 -24.5t-15 -17.5t-21.5 -22l-23 -23q-11 -8 -27 -7.5t-29 6.5q-21 9 -3 34z M29 173q0 26 -1 84.5t-1 92.5t3 84t10 93q6 40 39 51.5t70 -13.5q17 -17 11 -29q-25 -71 -29 -151t2.5 -181.5t4.5 -151.5q-1 -11 -23 -15t-42 6q-8 4 -14.5 9t-11 12t-8 12.5t-5.5 15t-3 15t-1.5 17.5t-0.5 16v17v16z" />
<glyph unicode="&#xcf;" horiz-adv-x="161" d="M-59 730q0 24 18 41q29 26 65.5 16.5t48.5 -39.5q15 -34 -5 -70.5t-59 -25.5q-31 9 -36 14q-32 30 -32 64zM29 173q0 26 -1 84.5t-1 92.5t3 84t10 93q6 40 39 51.5t70 -13.5q17 -17 11 -29q-25 -71 -29 -151t2.5 -181.5t4.5 -151.5q-1 -11 -23 -15t-42 6q-8 4 -14.5 9 t-11 12t-8 12.5t-5.5 15t-3 15t-1.5 17.5t-0.5 16v17v16zM140 658q-18 12 -24.5 32t-0.5 38t20 33t36 17t47 -10q17 -10 19.5 -31.5t-6.5 -37.5q-11 -26 -39.5 -41.5t-51.5 0.5z" />
<glyph unicode="&#xd1;" horiz-adv-x="339" d="M-7 666q7 10 14.5 22.5t11 17t11 13.5t19.5 21q19 19 32 29.5t31.5 20t37.5 8t39 -13.5q16 -10 23 -41.5t14 -41.5q10 -14 17.5 -16.5t14.5 4.5t14 16.5t20 22t28 19.5q18 6 27.5 -7t2.5 -27q-40 -61 -65.5 -80.5t-71.5 -21.5q-20 -1 -36 12t-23 35q-7 21 -14 31.5 t-16 7.5q-22 -7 -36.5 -23t-20.5 -29t-23 -20.5t-47 -1.5q-9 3 -10 18t6 25zM23 85q6 47 11.5 186t21.5 216q3 14 29 14t36 -10q31 -41 64 -137.5t64 -137.5q7 19 9 37.5t0.5 48.5t-1.5 37q0 32 -18 111.5t-11 122.5q3 21 35 24t39 -16q17 -45 26 -102.5t10 -96t1 -107.5 v-22q0 -103 -41 -144q-13 -15 -37 -16.5t-37 12.5q-14 16 -28 38t-22.5 38t-23 44.5t-20.5 39.5q-13 -35 -11 -98.5t-6 -98.5q-5 -16 -27 -20.5t-42.5 6t-20.5 31.5z" />
<glyph unicode="&#xd2;" horiz-adv-x="404" d="M27 284q20 70 77.5 125t126 62t130.5 -67q57 -77 39 -169t-94 -143q-50 -34 -103 -35.5t-99 30.5q-47 35 -69.5 88t-7.5 109zM131 223q10 -45 35.5 -72t63.5 -10q47 22 65.5 71.5t5.5 103.5q-7 27 -39 38.5t-60 5.5q-24 -4 -50 -58t-21 -79zM138 637q-16 25 8.5 46 t51.5 18q35 -4 53 -72q2 -9 5.5 -21.5t6 -20t5 -17.5t3 -16t1 -12.5t-1 -10.5t-4 -8t-7 -6t-11.5 -3q-11 -1 -20.5 4.5t-14.5 11.5t-13 19z" />
<glyph unicode="&#xd3;" horiz-adv-x="404" d="M27 284q20 70 77.5 125t126 62t130.5 -67q57 -77 39 -169t-94 -143q-50 -34 -103 -35.5t-99 30.5q-47 35 -69.5 88t-7.5 109zM131 223q10 -45 35.5 -72t63.5 -10q47 22 65.5 71.5t5.5 103.5q-7 27 -39 38.5t-60 5.5q-24 -4 -50 -58t-21 -79zM214 545q-6 14 -4 26.5 t4 16.5t10 16t14 24q12 23 20 35.5t23 23.5t32 11q10 0 21.5 -12t7.5 -21q-15 -40 -27.5 -58t-46.5 -49q-8 -7 -18 -13t-21 -8t-15 8z" />
<glyph unicode="&#xd4;" horiz-adv-x="404" d="M27 284q17 57 61 107t99.5 70.5t112.5 -5.5v1q-27 67 -61 113q-8 -16 -15.5 -28t-18 -24.5t-15 -17.5t-21.5 -22l-23 -23q-11 -8 -27 -7.5t-29 6.5q-21 9 -3 34q15 21 39.5 54.5t38 52t31.5 46.5t32 54h20q14 0 20 -3q10 -13 56.5 -119t47.5 -114q-4 0 -9.5 -8t-10.5 -6 q-5 3 -22.5 5t-22.5 3q29 -17 54 -49q57 -77 39 -169t-94 -143q-50 -34 -103 -35.5t-99 30.5q-47 35 -69.5 88t-7.5 109zM131 223q10 -45 35.5 -72t63.5 -10q47 22 65.5 71.5t5.5 103.5q-7 27 -39 38.5t-60 5.5q-16 -3 -34 -30.5t-29 -59.5t-8 -47z" />
<glyph unicode="&#xd5;" horiz-adv-x="404" d="M27 284q20 70 77.5 125t126 62t130.5 -67q57 -77 39 -169t-94 -143q-50 -34 -103 -35.5t-99 30.5q-47 35 -69.5 88t-7.5 109zM39 577q7 10 14.5 22.5t11 17t11 13.5t19.5 21q19 19 32 29.5t31.5 20t37.5 8t39 -13.5q16 -10 23 -41.5t14 -41.5q10 -14 17.5 -16.5t14.5 4.5 t14 16.5t20 22t28 19.5q18 6 27.5 -7t2.5 -27q-40 -61 -65.5 -80.5t-71.5 -21.5q-20 -1 -36 12t-23 35q-7 21 -14 31.5t-16 7.5q-22 -7 -36.5 -23t-20.5 -29t-23 -20.5t-47 -1.5q-9 3 -10 18t6 25zM131 223q10 -45 35.5 -72t63.5 -10q47 22 65.5 71.5t5.5 103.5 q-7 27 -39 38.5t-60 5.5q-24 -4 -50 -58t-21 -79z" />
<glyph unicode="&#xd6;" horiz-adv-x="404" d="M27 284q20 70 77.5 125t126 62t130.5 -67q57 -77 39 -169t-94 -143q-50 -34 -103 -35.5t-99 30.5q-47 35 -69.5 88t-7.5 109zM64 603q0 24 18 41q29 26 65.5 16.5t48.5 -39.5q15 -34 -5 -70.5t-59 -25.5q-31 9 -36 14q-32 30 -32 64zM131 223q10 -45 35.5 -72t63.5 -10 q47 22 65.5 71.5t5.5 103.5q-7 27 -39 38.5t-60 5.5q-24 -4 -50 -58t-21 -79zM263 531q-18 12 -24.5 32t-0.5 38t20 33t36 17t47 -10q17 -10 19.5 -31.5t-6.5 -37.5q-11 -26 -39.5 -41.5t-51.5 0.5z" />
<glyph unicode="&#xd9;" horiz-adv-x="480" d="M48 510q9 28 39 42t60 0q21 -23 15 -47q-27 -62 -34 -133.5t15.5 -139t75.5 -99.5q32 -17 57 -10t43.5 34t29.5 58t15 63q9 57 8 88t-7 87.5t-6 87.5q-4 30 46 46q11 4 36 9l6 2q0 -8 10 -12t10 -8q12 -87 13.5 -151.5t-16 -141t-59.5 -137.5q-32 -46 -84 -78.5 t-107.5 -37t-97.5 38.5q-53 56 -76.5 132.5t-19.5 152t28 154.5zM164 729q-16 25 8.5 46t51.5 18q35 -4 53 -72q2 -9 5.5 -21.5t6 -20t5 -17.5t3 -16t1 -12.5t-1 -10.5t-4 -8t-7 -6t-11.5 -3q-11 -1 -20.5 4.5t-14.5 11.5t-13 19z" />
<glyph unicode="&#xda;" horiz-adv-x="480" d="M48 510q9 28 39 42t60 0q21 -23 15 -47q-27 -62 -34 -133.5t15.5 -139t75.5 -99.5q32 -17 57 -10t43.5 34t29.5 58t15 63q9 57 8 88t-7 87.5t-6 87.5q-4 30 46 46q11 4 36 9l6 2q0 -8 10 -12t10 -8q12 -87 13.5 -151.5t-16 -141t-59.5 -137.5q-32 -46 -84 -78.5 t-107.5 -37t-97.5 38.5q-53 56 -76.5 132.5t-19.5 152t28 154.5zM237 620q-6 14 -4 26.5t4 16.5t10 16t14 24q12 23 20 35.5t23 23.5t32 11q10 0 21.5 -12t7.5 -21q-15 -40 -27.5 -58t-46.5 -49q-8 -7 -18 -13t-21 -8t-15 8z" />
<glyph unicode="&#xdb;" horiz-adv-x="480" d="M48 510q10 34 47 46q-7 9 6 27q15 21 39.5 54.5t38 52t31.5 46.5t32 54h20q14 0 20 -3q8 -10 42.5 -86.5t53.5 -124.5q16 9 69 22q0 -8 10 -12t10 -8q12 -87 13.5 -151.5t-16 -141t-59.5 -137.5q-32 -46 -84 -78.5t-107.5 -37t-97.5 38.5q-53 56 -76.5 132.5t-19.5 152 t28 154.5zM153 545q14 -19 9 -40q-27 -62 -34 -133.5t15.5 -139t75.5 -99.5q32 -17 57 -10t43.5 34t29.5 58t15 63q7 30 8 66t-2.5 64.5t-7 67t-3.5 65.5v1q-5 1 -13 2t-14.5 2t-11.5 2.5t-6 3.5q-27 67 -61 113q-8 -16 -15.5 -28t-18 -24.5t-15 -17.5t-21.5 -22l-23 -23 q-3 -3 -7 -5z" />
<glyph unicode="&#xdc;" horiz-adv-x="480" d="M48 510q9 28 39 42t60 0q21 -23 15 -47q-27 -62 -34 -133.5t15.5 -139t75.5 -99.5q32 -17 57 -10t43.5 34t29.5 58t15 63q9 57 8 88t-7 87.5t-6 87.5q-4 30 46 46q11 4 36 9l6 2q0 -8 10 -12t10 -8q12 -87 13.5 -151.5t-16 -141t-59.5 -137.5q-32 -46 -84 -78.5 t-107.5 -37t-97.5 38.5q-53 56 -76.5 132.5t-19.5 152t28 154.5zM111 704q0 24 18 41q29 26 65.5 16.5t48.5 -39.5q15 -34 -5 -70.5t-59 -25.5q-31 9 -36 14q-32 30 -32 64zM310 632q-18 12 -24.5 32t-0.5 38t20 33t36 17t47 -10q17 -10 19.5 -31.5t-6.5 -37.5 q-11 -26 -39.5 -41.5t-51.5 0.5z" />
<glyph unicode="&#xe0;" horiz-adv-x="354" d="M35 91q-19 29 -15 71.5t24 68.5q23 31 54 49.5t59.5 24.5t53.5 6.5t41 -1.5l16 -1q8 10 8 35t-15 28q-15 7 -40.5 3t-36 -7t-35 -13.5t-37.5 -14.5q-26 -9 -38 28.5t-2 47.5q38 26 90 39t103.5 0.5t72.5 -56.5q14 -29 15.5 -64.5t-5 -63.5t-15 -67.5t-10.5 -67.5 q-8 -126 -29 -153q-15 -17 -36 -4q-8 5 -16.5 20.5t-15.5 15.5q-14 2 -42.5 6t-45 7.5t-38.5 10.5t-38 20t-27 32zM92 147q0 -20 36.5 -36t69.5 -17t42 6q3 14 9 35t9.5 34t3 31.5t-8.5 37.5q-16 -6 -48.5 -11.5t-54 -10t-39.5 -22t-19 -47.5zM114 621q-16 25 8.5 46 t51.5 18q35 -4 53 -72q2 -9 5.5 -21.5t6 -20t5 -17.5t3 -16t1 -12.5t-1 -10.5t-4 -8t-7 -6t-11.5 -3q-11 -1 -20.5 4.5t-14.5 11.5t-13 19z" />
<glyph unicode="&#xe1;" horiz-adv-x="354" d="M35 91q-19 29 -15 71.5t24 68.5q23 31 54 49.5t59.5 24.5t53.5 6.5t41 -1.5l16 -1q8 10 8 35t-15 28q-15 7 -40.5 3t-36 -7t-35 -13.5t-37.5 -14.5q-26 -9 -38 28.5t-2 47.5q38 26 90 39t103.5 0.5t72.5 -56.5q14 -29 15.5 -64.5t-5 -63.5t-15 -67.5t-10.5 -67.5 q-8 -126 -29 -153q-15 -17 -36 -4q-8 5 -16.5 20.5t-15.5 15.5q-14 2 -42.5 6t-45 7.5t-38.5 10.5t-38 20t-27 32zM92 147q0 -20 36.5 -36t69.5 -17t42 6q3 14 9 35t9.5 34t3 31.5t-8.5 37.5q-16 -6 -48.5 -11.5t-54 -10t-39.5 -22t-19 -47.5zM181 508q-6 14 -4 26.5t4 16.5 t10 16t14 24q12 23 20 35.5t23 23.5t32 11q10 0 21.5 -12t7.5 -21q-15 -40 -27.5 -58t-46.5 -49q-8 -7 -18 -13t-21 -8t-15 8z" />
<glyph unicode="&#xe2;" horiz-adv-x="354" d="M35 91q-19 29 -15 71.5t24 68.5q23 31 54 49.5t59.5 24.5t53.5 6.5t41 -1l16 -1.5q8 10 8 35t-15 28q-21 2 -33 3t-30 -3.5t-28 -8.5t-28 -11.5t-30 -11.5q-18 -6 -30 11.5t-12.5 37.5t2.5 27q10 7 23 14q-12 1 -21 5q-21 9 -3 34q15 21 39.5 54.5t38 52t31.5 46.5t32 54 h20q14 0 20 -3q10 -13 56.5 -119t47.5 -114q-4 0 -9.5 -8t-10.5 -6q-5 3 -21 4q14 -13 23 -31q14 -29 15.5 -64.5t-5 -63.5t-15 -67.5t-10.5 -67.5q-8 -126 -29 -153q-15 -17 -36 -4q-8 5 -16.5 20.5t-15.5 15.5q-14 2 -42.5 6t-45 7.5t-38.5 10.5t-38 20t-27 32zM92 147 q0 -15 22 -28.5t49 -18.5t50.5 -6.5t26.5 6.5q3 14 9 35t9.5 34t3 31.5t-8.5 37.5q-14 -5 -38.5 -9t-43.5 -8t-38 -11t-29.5 -23t-11.5 -40zM143 449q78 24 135 3q-24 58 -55 99q-12 -23 -26 -42t-22 -27t-32 -33z" />
<glyph unicode="&#xe3;" horiz-adv-x="354" d="M13 580q7 10 14.5 22.5t11 17t11 13.5t19.5 21q19 19 32 29.5t31.5 20t37.5 8t39 -13.5q16 -10 23 -41.5t14 -41.5q10 -14 17.5 -16.5t14.5 4.5t14 16.5t20 22t28 19.5q18 6 27.5 -7t2.5 -27q-40 -61 -65.5 -80.5t-71.5 -21.5q-20 -1 -36 12t-23 35q-7 21 -14 31.5 t-16 7.5q-22 -7 -36.5 -23t-20.5 -29t-23 -20.5t-47 -1.5q-9 3 -10 18t6 25zM35 91q-19 29 -15 71.5t24 68.5q23 31 54 49.5t59.5 24.5t53.5 6.5t41 -1.5l16 -1q8 10 8 35t-15 28q-15 7 -40.5 3t-36 -7t-35 -13.5t-37.5 -14.5q-26 -9 -38 28.5t-2 47.5q38 26 90 39 t103.5 0.5t72.5 -56.5q14 -29 15.5 -64.5t-5 -63.5t-15 -67.5t-10.5 -67.5q-8 -126 -29 -153q-15 -17 -36 -4q-8 5 -16.5 20.5t-15.5 15.5q-14 2 -42.5 6t-45 7.5t-38.5 10.5t-38 20t-27 32zM92 147q0 -20 36.5 -36t69.5 -17t42 6q3 14 9 35t9.5 34t3 31.5t-8.5 37.5 q-16 -6 -48.5 -11.5t-54 -10t-39.5 -22t-19 -47.5z" />
<glyph unicode="&#xe4;" horiz-adv-x="354" d="M30 586q0 24 18 41q29 26 65.5 16.5t48.5 -39.5q15 -34 -5 -70.5t-59 -25.5q-31 9 -36 14q-32 30 -32 64zM35 91q-19 29 -15 71.5t24 68.5q23 31 54 49.5t59.5 24.5t53.5 6.5t41 -1.5l16 -1q8 10 8 35t-15 28q-15 7 -40.5 3t-36 -7t-35 -13.5t-37.5 -14.5 q-26 -9 -38 28.5t-2 47.5q38 26 90 39t103.5 0.5t72.5 -56.5q14 -29 15.5 -64.5t-5 -63.5t-15 -67.5t-10.5 -67.5q-8 -126 -29 -153q-15 -17 -36 -4q-8 5 -16.5 20.5t-15.5 15.5q-14 2 -42.5 6t-45 7.5t-38.5 10.5t-38 20t-27 32zM92 147q0 -20 36.5 -36t69.5 -17t42 6 q3 14 9 35t9.5 34t3 31.5t-8.5 37.5q-16 -6 -48.5 -11.5t-54 -10t-39.5 -22t-19 -47.5zM229 514q-18 12 -24.5 32t-0.5 38t20 33t36 17t47 -10q17 -10 19.5 -31.5t-6.5 -37.5q-11 -26 -39.5 -41.5t-51.5 0.5z" />
<glyph unicode="&#xe5;" horiz-adv-x="354" d="M35 91q-19 29 -15 71.5t24 68.5q23 31 54 49.5t59.5 24.5t53.5 6.5t41 -1l16 -1.5q8 10 8 35t-15 28q-21 2 -33 3t-30 -3.5t-28 -8.5t-28 -11.5t-30 -11.5q-18 -6 -30 11.5t-12.5 37.5t2.5 27q51 35 119 43q-25 20 -28 52q-4 30 19 55.5t53 30.5q26 5 47 -22 q10 -13 12 -27.5t-2 -29t-12 -27.5t-19 -24q-5 -5 -9 -8q62 -10 86 -60q14 -29 15.5 -64.5t-5 -63.5t-15 -67.5t-10.5 -67.5q-8 -126 -29 -153q-15 -17 -36 -4q-8 5 -16.5 20.5t-15.5 15.5q-14 2 -42.5 6t-45 7.5t-38.5 10.5t-38 20t-27 32zM92 147q0 -15 22 -28.5t49 -18.5 t50.5 -6.5t26.5 6.5q3 14 9 35t9.5 34t3 31.5t-8.5 37.5q-14 -5 -38.5 -9t-43.5 -8t-38 -11t-29.5 -23t-11.5 -40zM224 499q11 -6 20 13t3 29q-4 9 -12 9q-13 0 -20.5 -10.5t-5 -23t14.5 -17.5z" />
<glyph unicode="&#xe7;" horiz-adv-x="378" d="M14 260q16 95 83 154q2 2 16.5 15t18.5 16.5t18 15t20 15.5t19.5 12.5t21.5 11t21 6.5t22.5 4t21.5 -2t23 -7q23 -10 13 -39q-9 -27 -28.5 -41.5t-49.5 -26.5t-47 -24q-74 -57 -78 -120q-4 -56 21 -93q7 -12 19 -20.5t21 -12t27 -9t25 -8.5q23 -9 46 4t46 31t40 19 q15 1 20.5 -8t2.5 -23t-7.5 -25.5t-9.5 -19.5q-32 -48 -88 -58l6 -6q6 -6 -0.5 -55.5t-19.5 -62.5q-18 -18 -57.5 -22.5t-66.5 10.5q-47 28 -14 61q10 10 39 2t39 1q8 1 5.5 32.5t-0.5 39.5q-28 4 -63 14q-69 20 -103.5 82t-22.5 137z" />
<glyph unicode="&#xe8;" horiz-adv-x="339" d="M22 282q-2 75 47 121t122 36q60 -8 104.5 -58t43.5 -112q-9 -28 -82.5 -71.5t-83.5 -53.5q-5 -1 -12.5 -8t-3.5 -13q12 -22 30 -31t40.5 -5t41 11t43.5 20q26 -20 16.5 -53.5t-40.5 -38.5q-2 0 -22 -3.5t-25 -4t-22 -2t-26 0t-22 4t-25 7.5q-120 54 -124 254zM63 605 q-16 25 8.5 46t51.5 18q35 -4 53 -72q2 -9 5.5 -21.5t6 -20t5 -17.5t3 -16t1 -12.5t-1 -10.5t-4 -8t-7 -6t-11.5 -3q-11 -1 -20.5 4.5t-14.5 11.5t-13 19zM131 231q90 4 108 63q16 35 -26 53.5t-75 1.5q-20 -11 -26.5 -39.5t0.5 -53t19 -25.5z" />
<glyph unicode="&#xe9;" horiz-adv-x="339" d="M22 282q-2 75 47 121t122 36q60 -8 104.5 -58t43.5 -112q-9 -28 -82.5 -71.5t-83.5 -53.5q-5 -1 -12.5 -8t-3.5 -13q12 -22 30 -31t40.5 -5t41 11t43.5 20q26 -20 16.5 -53.5t-40.5 -38.5q-2 0 -22 -3.5t-25 -4t-22 -2t-26 0t-22 4t-25 7.5q-120 54 -124 254zM131 231 q90 4 108 63q16 35 -26 53.5t-75 1.5q-20 -11 -26.5 -39.5t0.5 -53t19 -25.5zM159 490q-6 14 -4 26.5t4 16.5t10 16t14 24q12 23 20 35.5t23 23.5t32 11q10 0 21.5 -12t7.5 -21q-15 -40 -27.5 -58t-46.5 -49q-8 -7 -18 -13t-21 -8t-15 8z" />
<glyph unicode="&#xea;" horiz-adv-x="339" d="M14 456q15 21 39.5 54.5t38 52t31.5 46.5t32 54q0 1 1 1h3.5h4.5t5.5 -0.5t5.5 -0.5q14 0 20 -3q10 -13 56.5 -119t47.5 -114q-4 0 -9.5 -8t-10.5 -6q-5 3 -30 5q40 -23 65.5 -63.5t24.5 -85.5q-7 -21 -39.5 -44t-72.5 -45.5t-54 -35.5q-5 -1 -12.5 -8t-3.5 -13 q12 -22 30 -31t40.5 -5t41 11t43.5 20q13 -9 17 -24.5t0 -29.5t-15 -25t-26 -13q-2 0 -22 -3.5t-25 -4t-22 -2t-26 0t-22 4t-25 7.5q-120 54 -124 254q-2 75 47 121t122 36q17 -2 34 -9q-26 64 -59 108q-8 -16 -15.5 -28t-18 -24.5t-15 -17.5t-21.5 -22l-23 -23 q-11 -8 -27 -7.5t-29 6.5q-21 9 -3 34zM131 231q90 4 108 63q10 23 -7.5 41t-44.5 20t-49 -6q-20 -11 -26.5 -39.5t0.5 -53t19 -25.5z" />
<glyph unicode="&#xeb;" horiz-adv-x="339" d="M22 282q-2 75 47 121t122 36q60 -8 104.5 -58t43.5 -112q-9 -28 -82.5 -71.5t-83.5 -53.5q-5 -1 -12.5 -8t-3.5 -13q12 -22 30 -31t40.5 -5t41 11t43.5 20q26 -20 16.5 -53.5t-40.5 -38.5q-2 0 -22 -3.5t-25 -4t-22 -2t-26 0t-22 4t-25 7.5q-120 54 -124 254zM27 580 q0 24 18 41q29 26 65.5 16.5t48.5 -39.5q15 -34 -5 -70.5t-59 -25.5q-31 9 -36 14q-32 30 -32 64zM131 231q90 4 108 63q16 35 -26 53.5t-75 1.5q-20 -11 -26.5 -39.5t0.5 -53t19 -25.5zM226 508q-18 12 -24.5 32t-0.5 38t20 33t36 17t47 -10q17 -10 19.5 -31.5t-6.5 -37.5 q-11 -26 -39.5 -41.5t-51.5 0.5z" />
<glyph unicode="&#xec;" horiz-adv-x="185" d="M8 556q-16 25 8.5 46t51.5 18q35 -4 53 -72q2 -9 5.5 -21.5t6 -20t5 -17.5t3 -16t1 -12.5t-1 -10.5t-4 -8t-7 -6t-11.5 -3q-11 -1 -20.5 4.5t-14.5 11.5t-13 19zM42 253q0 79 18 114q10 19 33 25.5t45 -3.5q16 -7 24 -20.5t-2 -27.5q-18 -25 -20 -70t-6 -57 q-9 -23 -1.5 -70t1.5 -70q0 -3 -3 -8t-6 -5q-67 -19 -79 18q-8 26 -9 54.5t2 66t3 53.5z" />
<glyph unicode="&#xed;" horiz-adv-x="185" d="M42 253q0 79 18 114q10 19 33 25.5t45 -3.5q16 -7 24 -20.5t-2 -27.5q-18 -25 -20 -70t-6 -57q-9 -23 -1.5 -70t1.5 -70q0 -3 -3 -8t-6 -5q-67 -19 -79 18q-8 26 -9 54.5t2 66t3 53.5zM84 473q-6 14 -4 26.5t4 16.5t10 16t14 24q12 23 20 35.5t23 23.5t32 11 q10 0 21.5 -12t7.5 -21q-15 -40 -27.5 -58t-46.5 -49q-8 -7 -18 -13t-21 -8t-15 8z" />
<glyph unicode="&#xee;" horiz-adv-x="185" d="M-46 439q15 21 39.5 54.5t38 52t31.5 46.5t32 54h20q14 0 20 -3q10 -13 56.5 -119t47.5 -114q-4 0 -9.5 -8t-10.5 -6q-4 2 -17 3.5t-23.5 3.5t-11.5 5q-27 67 -61 113q-8 -16 -15.5 -28t-18 -24.5t-15 -17.5t-21.5 -22l-23 -23q-11 -8 -27 -7.5t-29 6.5q-21 9 -3 34z M42 253q0 79 18 114q10 19 33 25.5t45 -3.5q16 -7 24 -20.5t-2 -27.5q-18 -25 -20 -70t-6 -57q-9 -23 -1.5 -70t1.5 -70q0 -3 -3 -8t-6 -5q-67 -19 -79 18q-8 26 -9 54.5t2 66t3 53.5z" />
<glyph unicode="&#xef;" horiz-adv-x="185" d="M-34 551q0 24 18 41q29 26 65.5 16.5t48.5 -39.5q15 -34 -5 -70.5t-59 -25.5q-31 9 -36 14q-32 30 -32 64zM42 253q0 79 18 114q10 19 33 25.5t45 -3.5q16 -7 24 -20.5t-2 -27.5q-18 -25 -20 -70t-6 -57q-9 -23 -1.5 -70t1.5 -70q0 -3 -3 -8t-6 -5q-67 -19 -79 18 q-8 26 -9 54.5t2 66t3 53.5zM165 479q-18 12 -24.5 32t-0.5 38t20 33t36 17t47 -10q17 -10 19.5 -31.5t-6.5 -37.5q-11 -26 -39.5 -41.5t-51.5 0.5z" />
<glyph unicode="&#xf1;" horiz-adv-x="360" d="M25 505q7 10 14.5 22.5t11 17t11 13.5t19.5 21q19 19 32 29.5t31.5 20t37.5 8t39 -13.5q16 -10 23 -41.5t14 -41.5q10 -14 17.5 -16.5t14.5 4.5t14 16.5t20 22t28 19.5q18 6 27.5 -7t2.5 -27q-40 -61 -65.5 -80.5t-71.5 -21.5q-20 -1 -36 12t-23 35q-7 21 -14 31.5 t-16 7.5q-22 -7 -36.5 -23t-20.5 -29t-23 -20.5t-47 -1.5q-9 3 -10 18t6 25zM44 217q0 16 -3 53.5t-2 64t9 47.5q9 23 40.5 21.5t38.5 -26.5q4 -14 -2.5 -40t-6.5 -36q2 -2 5 -8q3 -4 4 -4q2 3 9.5 16t10 17.5t10 15.5t11.5 15t11.5 12.5t13.5 11.5t14.5 7.5t16.5 5t17.5 0 t20.5 -3.5q16 -25 26.5 -52.5t15.5 -65.5t7 -55.5t4 -68t2 -58.5q10 -44 -13 -51q-64 -17 -68 9q-6 38 -9 120t-12 125q-28 -31 -55 -102.5t-42 -96.5q-12 -20 -36.5 -21t-33.5 21q-6 17 -7 37.5t1 49t2 40.5z" />
<glyph unicode="&#xf2;" horiz-adv-x="282" d="M31 331q9 33 35 69.5t29 43.5q20 38 60.5 34t71.5 -38q33 -38 49 -98q27 -101 -69 -202q-16 -17 -48.5 -19t-52.5 10q-50 30 -71 86t-4 114zM34 674q-16 25 8.5 46t51.5 18q35 -4 53 -72q2 -9 5.5 -21.5t6 -20t5 -17.5t3 -16t1 -12.5t-1 -10.5t-4 -8t-7 -6t-11.5 -3 q-11 -1 -20.5 4.5t-14.5 11.5t-13 19q-11 16 -21 29.5t-18 24.5t-23 34zM138 230q34 -8 50 15t8.5 59t-33.5 65q-11 12 -38 -19q-37 -41 -32 -79q4 -32 45 -41z" />
<glyph unicode="&#xf3;" horiz-adv-x="282" d="M31 331q9 33 35 69.5t29 43.5q20 38 60.5 34t71.5 -38q33 -38 49 -98q27 -101 -69 -202q-16 -17 -48.5 -19t-52.5 10q-50 30 -71 86t-4 114zM138 230q34 -8 50 15t8.5 59t-33.5 65q-11 12 -38 -19q-37 -41 -32 -79q4 -32 45 -41zM148 535q-6 14 -4 26.5t4 16.5t10 16 t14 24q12 23 20 35.5t23 23.5t32 11q10 0 21.5 -12t7.5 -21q-15 -40 -27.5 -58t-46.5 -49q-8 -7 -18 -13t-21 -8t-15 8z" />
<glyph unicode="&#xf4;" horiz-adv-x="282" d="M-10 495q15 21 39.5 54.5t38 52t31.5 46.5t32 54h20q14 0 20 -3q10 -13 56.5 -119t47.5 -114q-4 0 -9.5 -8t-10.5 -6q-4 2 -17 3.5t-23.5 3.5t-11.5 5q-27 67 -61 113q-8 -16 -15.5 -28t-18 -24.5t-15 -17.5t-21.5 -22l-23 -23q-11 -8 -27 -7.5t-29 6.5q-21 9 -3 34z M31 331q9 33 35 69.5t29 43.5q20 38 60.5 34t71.5 -38q33 -38 49 -98q27 -101 -69 -202q-16 -17 -48.5 -19t-52.5 10q-50 30 -71 86t-4 114zM138 230q34 -8 50 15t8.5 59t-33.5 65q-11 12 -38 -19q-37 -41 -32 -79q4 -32 45 -41z" />
<glyph unicode="&#xf5;" horiz-adv-x="282" d="M-11 576q7 10 14.5 22.5t11 17t11 13.5t19.5 21q19 19 32 29.5t31.5 20t37.5 8t39 -13.5q16 -10 23 -41.5t14 -41.5q10 -14 17.5 -16.5t14.5 4.5t14 16.5t20 22t28 19.5q18 6 27.5 -7t2.5 -27q-40 -61 -65.5 -80.5t-71.5 -21.5q-20 -1 -36 12t-23 35q-7 21 -14 31.5 t-16 7.5q-22 -7 -36.5 -23t-20.5 -29t-23 -20.5t-47 -1.5q-9 3 -10 18t6 25zM31 331q9 33 35 69.5t29 43.5q20 38 60.5 34t71.5 -38q33 -38 49 -98q27 -101 -69 -202q-16 -17 -48.5 -19t-52.5 10q-50 30 -71 86t-4 114zM138 230q34 -8 50 15t8.5 59t-33.5 65q-11 12 -38 -19 q-37 -41 -32 -79q4 -32 45 -41z" />
<glyph unicode="&#xf6;" horiz-adv-x="282" d="M6 613q0 24 18 41q29 26 65.5 16.5t48.5 -39.5q15 -34 -5 -70.5t-59 -25.5q-31 9 -36 14q-32 30 -32 64zM31 331q9 33 35 69.5t29 43.5q20 38 60.5 34t71.5 -38q33 -38 49 -98q27 -101 -69 -202q-16 -17 -48.5 -19t-52.5 10q-50 30 -71 86t-4 114zM138 230q34 -8 50 15 t8.5 59t-33.5 65q-11 12 -38 -19q-37 -41 -32 -79q4 -32 45 -41zM205 541q-18 12 -24.5 32t-0.5 38t20 33t36 17t47 -10q17 -10 19.5 -31.5t-6.5 -37.5q-11 -26 -39.5 -41.5t-51.5 0.5z" />
<glyph unicode="&#xf9;" horiz-adv-x="367" d="M26 358q0 5 0.5 25.5t1.5 29t6.5 21t16.5 19.5q26 12 55.5 3.5t29.5 -33.5q0 -22 -2 -62t-2 -72.5t4 -61.5q2 -6 4.5 -20t5 -24t6 -24.5t7.5 -22t10 -16t12 -7.5t15 4q65 44 80 131.5t-30 159.5q-9 14 -14 28t-4 28t13 19q48 20 85 -24t40 -96q6 -103 -26.5 -193 t-108.5 -123q-51 -23 -88 -9t-61 47.5t-37.5 83t-17.5 97.5t-1 92zM66 651q-16 25 8.5 46t51.5 18q35 -4 53 -72q2 -9 5.5 -21.5t6 -20t5 -17.5t3 -16t1 -12.5t-1 -10.5t-4 -8t-7 -6t-11.5 -3q-11 -1 -20.5 4.5t-14.5 11.5t-13 19q-11 16 -21 29.5t-18 24.5t-23 34z" />
<glyph unicode="&#xfa;" horiz-adv-x="367" d="M26 358q0 5 0.5 25.5t1.5 29t6.5 21t16.5 19.5q26 12 55.5 3.5t29.5 -33.5q0 -22 -2 -62t-2 -72.5t4 -61.5q2 -6 4.5 -20t5 -24t6 -24.5t7.5 -22t10 -16t12 -7.5t15 4q65 44 80 131.5t-30 159.5q-9 14 -14 28t-4 28t13 19q48 20 85 -24t40 -96q6 -103 -26.5 -193 t-108.5 -123q-51 -23 -88 -9t-61 47.5t-37.5 83t-17.5 97.5t-1 92zM156 545q-6 14 -4 26.5t4 16.5t10 16t14 24q12 23 20 35.5t23 23.5t32 11q10 0 21.5 -12t7.5 -21q-15 -40 -27.5 -58t-46.5 -49q-8 -7 -18 -13t-21 -8t-15 8z" />
<glyph unicode="&#xfb;" horiz-adv-x="367" d="M26 358q0 5 0.5 25.5t1.5 29t6.5 21t16.5 19.5q26 12 55.5 3.5t29.5 -33.5q0 -19 -1.5 -48t-2.5 -50.5t0 -48.5t4 -49q1 -6 3 -15.5t4 -18t4.5 -18.5t5 -18.5t5.5 -17t7 -14.5t8.5 -9.5t10.5 -3t12 4.5q65 44 80 131.5t-30 159.5q-9 14 -14 28t-4 28t13 19q4 2 9 3 q-10 2 -11 5q-27 67 -61 113q-8 -16 -15.5 -28t-18 -24.5t-15 -17.5t-21.5 -22l-23 -23q-11 -8 -27 -7.5t-29 6.5q-21 9 -3 34q15 21 39.5 54.5t38 52t31.5 46.5t32 54q0 1 1 1h3.5h4.5t5.5 -0.5t5.5 -0.5q14 0 20 -3q10 -13 56.5 -119t47.5 -114q-2 0 -4.5 -2t-4.5 -5 t-4 -5q29 -14 47.5 -49t20.5 -69q6 -103 -26.5 -193t-108.5 -123q-51 -23 -88 -9t-61 47.5t-37.5 83t-17.5 97.5t-1 92z" />
<glyph unicode="&#xfc;" horiz-adv-x="367" d="M26 358q0 5 0.5 25.5t1.5 29t6.5 21t16.5 19.5q26 12 55.5 3.5t29.5 -33.5q0 -22 -2 -62t-2 -72.5t4 -61.5q2 -6 4.5 -20t5 -24t6 -24.5t7.5 -22t10 -16t12 -7.5t15 4q65 44 80 131.5t-30 159.5q-9 14 -14 28t-4 28t13 19q48 20 85 -24t40 -96q6 -103 -26.5 -193 t-108.5 -123q-51 -23 -88 -9t-61 47.5t-37.5 83t-17.5 97.5t-1 92zM30 606q0 24 18 41q29 26 65.5 16.5t48.5 -39.5q15 -34 -5 -70.5t-59 -25.5q-31 9 -36 14q-32 30 -32 64zM229 534q-18 12 -24.5 32t-0.5 38t20 33t36 17t47 -10q17 -10 19.5 -31.5t-6.5 -37.5 q-11 -26 -39.5 -41.5t-51.5 0.5z" />
<glyph unicode="&#x2000;" horiz-adv-x="419" />
<glyph unicode="&#x2001;" horiz-adv-x="838" />
<glyph unicode="&#x2002;" horiz-adv-x="419" />
<glyph unicode="&#x2003;" horiz-adv-x="838" />
<glyph unicode="&#x2004;" horiz-adv-x="279" />
<glyph unicode="&#x2005;" horiz-adv-x="209" />
<glyph unicode="&#x2006;" horiz-adv-x="139" />
<glyph unicode="&#x2007;" horiz-adv-x="139" />
<glyph unicode="&#x2008;" horiz-adv-x="104" />
<glyph unicode="&#x2009;" horiz-adv-x="167" />
<glyph unicode="&#x200a;" horiz-adv-x="46" />
<glyph unicode="&#x2010;" d="M23 265q-4 24 13.5 42.5t42.5 18.5q30 0 82.5 -4.5t83 -5.5t85.5 5q7 4 15.5 1t12.5 -10q-1 -10 1 -16t-4 -12.5t-8 -10t-10.5 -7.5t-12 -5.5t-12 -4.5t-10.5 -4q-127 -36 -261 0q-8 2 -12.5 5t-4.5 5z" />
<glyph unicode="&#x2011;" d="M23 265q-4 24 13.5 42.5t42.5 18.5q30 0 82.5 -4.5t83 -5.5t85.5 5q7 4 15.5 1t12.5 -10q-1 -10 1 -16t-4 -12.5t-8 -10t-10.5 -7.5t-12 -5.5t-12 -4.5t-10.5 -4q-127 -36 -261 0q-8 2 -12.5 5t-4.5 5z" />
<glyph unicode="&#x2012;" d="M23 265q-4 24 13.5 42.5t42.5 18.5q30 0 82.5 -4.5t83 -5.5t85.5 5q7 4 15.5 1t12.5 -10q-1 -10 1 -16t-4 -12.5t-8 -10t-10.5 -7.5t-12 -5.5t-12 -4.5t-10.5 -4q-127 -36 -261 0q-8 2 -12.5 5t-4.5 5z" />
<glyph unicode="&#x2013;" horiz-adv-x="521" d="M23 265q-6 24 20 42.5t63 18.5q45 0 122.5 -4.5t123 -5.5t126.5 5q11 4 23.5 1t18.5 -10q-2 -10 1 -16t-6 -12.5t-11.5 -10t-15.5 -7.5t-18 -5.5t-17.5 -4.5t-15.5 -4q-189 -36 -387 0q-12 2 -18.5 5t-6.5 5z" />
<glyph unicode="&#x2014;" horiz-adv-x="1022" d="M24 265q-12 24 40 42.5t126 18.5q89 0 245 -4.5t246 -5.5t254 5q20 4 45.5 1t37.5 -10q-3 -10 2.5 -16t-12 -12.5t-23.5 -10t-31 -7.5t-35.5 -5.5t-36 -4.5t-30.5 -4q-377 -36 -774 0q-24 2 -37.5 5t-13.5 5z" />
<glyph unicode="&#x2018;" horiz-adv-x="214" d="M26 576q-16 25 8.5 46t50.5 18q14 -2 22 -14t15.5 -32t14.5 -30q6 -9 24 -58t44 -61q26 -13 -16 -35q-20 -10 -36 -13q-11 -2 -20.5 4t-14.5 12.5t-13 19.5q-17 23 -41 71.5t-38 71.5z" />
<glyph unicode="&#x2019;" horiz-adv-x="178" d="M25 441q-6 21 0.5 41t25 49.5t23.5 38.5q17 34 33 52t42 18q9 0 20.5 -12t8.5 -21q-36 -94 -100 -153q-8 -7 -18 -13t-21 -8t-14 8z" />
<glyph unicode="&#x201c;" horiz-adv-x="382" d="M22 530q-18 18 2 44.5t41 14.5q19 -11 35 -25.5t36.5 -39.5t27.5 -33q3 -4 16 -18.5t17.5 -20.5t12.5 -17.5t12 -20.5t5 -18q2 -21 -25.5 -28t-41.5 13q-73 66 -138 149zM187 629q15 11 29.5 11t25.5 -5.5t24.5 -20t21 -26t20 -31t17.5 -27.5q12 -17 29.5 -47.5 t25.5 -42.5q6 -11 -7.5 -22t-30.5 -12t-29 10q-20 20 -53 73.5t-57 76.5q-39 46 -16 63z" />
<glyph unicode="&#x201d;" horiz-adv-x="373" d="M16 485q-13 41 30 76q9 8 25 23t26 24t25 18t30 12q20 7 34 -7t0 -31q-16 -22 -60 -53t-63 -54q-8 -11 -24 -15t-23 7zM182 395q-8 7 -10 15.5t2.5 17.5t9.5 16t14.5 18.5t13.5 17.5q9 13 40 66t54 75q9 13 28 14.5t36 -10.5q3 -3 3 -10.5t-3 -10.5q-57 -122 -145 -192 q-29 -29 -43 -17z" />
<glyph unicode="&#x2022;" horiz-adv-x="286" d="M34 261q-52 105 12 159q43 41 104 40.5t92 -47.5q31 -44 25 -104t-49 -88q-50 -35 -102.5 -26t-81.5 66z" />
<glyph unicode="&#x202f;" horiz-adv-x="167" />
<glyph unicode="&#x205f;" horiz-adv-x="209" />
<glyph unicode="&#x20ac;" horiz-adv-x="575" d="M27 320q30 38 123 34q48 100 150 125q63 14 145 -10q18 -6 31.5 -22.5t2.5 -35.5q-6 -11 -15 -16t-25.5 -8t-22.5 -5q-20 -6 -57 2t-52 3q-33 -12 -56 -39q35 -2 60 1q38 3 51 -20q9 -19 -7 -30.5t-44 -17.5q-60 -12 -90 -14q-3 -38 9 -76q0 -4 2 -8q11 0 31 6.5 t31.5 8.5t30.5 -7q8 -2 13.5 5t8.5 5q20 -15 14.5 -30t-28.5 -23q-23 -15 -58 -26q31 -26 71 -34t80 5q9 3 24 12.5t26 16t25.5 10.5t22.5 -4q27 -22 33.5 -43t-16.5 -41q-98 -71 -250 -24q-75 24 -111 53q-19 16 -32 35q-79 8 -114 55q-10 20 12.5 37t53.5 20q13 0 19 -1 q0 19 3 38q0 1 0.5 4.5t0.5 5.5q-30 3 -60 9q-18 5 -32 19.5t-4 24.5z" />
<glyph unicode="&#xe000;" horiz-adv-x="470" d="M0 0v470h470v-470h-470z" />
</font>
</defs>
</svg>
