<?xml version="1.0" standalone="no"?>
<!DOCTYPE svg PUBLIC "-//W3C//DTD SVG 1.1//EN" "http://www.w3.org/Graphics/SVG/1.1/DTD/svg11.dtd" >
<svg xmlns="http://www.w3.org/2000/svg" xmlns:xlink="http://www.w3.org/1999/xlink" version="1.1">
<metadata></metadata>
<defs>
<font id="source_sans_proXLtIt" horiz-adv-x="933" >
<font-face units-per-em="2048" ascent="1536" descent="-512" />
<missing-glyph horiz-adv-x="385" />
<glyph horiz-adv-x="0" />
<glyph horiz-adv-x="682" />
<glyph horiz-adv-x="0" />
<glyph horiz-adv-x="0" />
<glyph unicode="&#xd;" horiz-adv-x="385" />
<glyph unicode=" "  horiz-adv-x="385" />
<glyph unicode="&#x09;" horiz-adv-x="385" />
<glyph unicode="&#xa0;" horiz-adv-x="385" />
<glyph unicode="!" horiz-adv-x="495" d="M86 37q0 35 25.5 64.5t60.5 29.5q29 0 41 -18.5t12 -46.5q0 -35 -23.5 -63t-58.5 -28q-29 0 -43 18.5t-14 43.5zM188 352l172 893l25 131h57l-24 -131l-180 -893h-50z" />
<glyph unicode="&#x22;" horiz-adv-x="663" d="M274 979l50 266l24 131h58l-25 -131l-62 -266h-45zM524 979l50 266l24 131h58l-25 -131l-62 -266h-45z" />
<glyph unicode="#" horiz-adv-x="937" d="M57 446l17 58h168l110 364h-172l17 58h176l127 405h57l-127 -405h299l127 405h57l-127 -405h168l-16 -58h-168l-111 -364h172l-16 -58h-176l-139 -446h-58l140 446h-299l-140 -446h-57l139 446h-168zM299 504h303l111 364h-303z" />
<glyph unicode="$" d="M51 160l43 41q23 -33 54.5 -64t69.5 -55.5t83 -38.5t96 -14q68 0 126.5 22.5t101.5 63.5t67.5 97t24.5 124q0 88 -34 150.5t-84 110.5t-109.5 89t-109.5 86t-84 100.5t-34 135.5q0 70 25.5 130t72 103t108.5 68.5t136 25.5l41 201h57l-43 -207q74 -14 137.5 -61 t100.5 -105l-45 -37q-43 66 -106.5 111t-143.5 45q-59 0 -111.5 -19.5t-90.5 -53t-59.5 -83t-21.5 -106.5q0 -74 34 -126t84 -96t109.5 -85t110 -91.5t84 -116t33.5 -157.5q0 -78 -26.5 -144.5t-75.5 -117.5t-119 -81t-154 -30l-39 -200h-57l41 205q-98 16 -173 69t-120 111 z" />
<glyph unicode="%" horiz-adv-x="1556" d="M139 827q0 86 22.5 182.5t66.5 178.5t110.5 135t156.5 53q57 0 100.5 -23.5t71 -64.5t40.5 -95t13 -116q0 -86 -22.5 -182t-66.5 -178t-111.5 -135.5t-155.5 -53.5q-59 0 -101 24t-70 64.5t-41 95t-13 115.5zM196 840q0 -55 9.5 -102.5t30 -83t53 -56t79.5 -20.5 q74 0 129.5 49t92 122.5t55 158.5t18.5 157q0 55 -9 102.5t-29.5 83t-53.5 56t-80 20.5q-74 0 -129 -49t-92 -123t-55.5 -159t-18.5 -156zM266 -25l1008 1401h61l-1008 -1401h-61zM889 274q0 86 22.5 182.5t66.5 178.5t110.5 135t156.5 53q57 0 100.5 -23.5t71 -64.5 t40.5 -95t13 -116q0 -86 -22.5 -182t-66.5 -178t-111.5 -135.5t-155.5 -53.5q-59 0 -101 24t-70 64.5t-41 95t-13 115.5zM946 287q0 -55 9.5 -102.5t30 -83t53 -56t79.5 -20.5q74 0 129.5 49t92 122.5t55 158.5t18.5 157q0 55 -9 102.5t-29.5 83t-53.5 56t-80 20.5 q-74 0 -129 -49t-92 -123t-55.5 -159t-18.5 -156z" />
<glyph unicode="&#x26;" horiz-adv-x="1110" d="M33 274q0 84 30.5 152t81 124t116 104t134.5 94q-35 127 -35 239q0 88 27 160t70 123t99 78.5t116 27.5q92 0 134 -54t42 -126q0 -80 -34 -144.5t-89 -119.5t-125 -104.5t-141 -96.5q41 -139 112.5 -270t159.5 -232q96 98 168 215t137 254h58q-68 -143 -149 -272 t-179 -233q55 -59 107.5 -102.5t105.5 -65.5l-29 -50q-53 23 -110.5 66t-116.5 109q-86 -80 -183.5 -127.5t-205.5 -47.5q-66 0 -120 20.5t-95 59.5t-63.5 94.5t-22.5 124.5zM94 287q0 -59 19.5 -106.5t53.5 -81t80 -52t101 -18.5q90 0 176 45t164 114q-86 102 -160.5 235.5 t-117.5 274.5q-61 -43 -119 -87t-102 -93t-69.5 -106t-25.5 -125zM418 995q0 -102 28 -213q66 43 128.5 86t110.5 90.5t77 102.5t29 121q0 53 -29 97t-94 44q-55 0 -100.5 -24.5t-79 -68.5t-52 -104.5t-18.5 -130.5z" />
<glyph unicode="'" horiz-adv-x="413" d="M274 979l50 266l24 131h58l-25 -131l-62 -266h-45z" />
<glyph unicode="(" horiz-adv-x="532" d="M147 274q0 180 33 340t94.5 308.5t149.5 290t199 282.5l36 -29q-219 -266 -336.5 -563t-117.5 -641q0 -78 6 -158.5t18.5 -159.5t31 -153t42.5 -135l-41 -12q-53 133 -84 296.5t-31 333.5z" />
<glyph unicode=")" horiz-adv-x="536" d="M-111 -328q219 266 337 563t118 642q0 76 -6 157.5t-18.5 160.5t-31 152.5t-42.5 135.5l41 12q53 -133 83.5 -297t30.5 -334q0 -180 -32.5 -339.5t-94 -308t-149.5 -290t-199 -282.5z" />
<glyph unicode="*" horiz-adv-x="765" d="M295 1282l16 41l189 -66l41 201l45 -4l-17 -201l193 29l8 -45l-197 -53l78 -185l-41 -24l-94 172l-151 -148l-33 29l131 164z" />
<glyph unicode="+" d="M98 651v54h369v413h57v-413h369v-54h-369v-426h-57v426h-369z" />
<glyph unicode="," horiz-adv-x="413" d="M-70 -250q78 37 132.5 97.5t64.5 136.5h-12q-29 0 -45.5 16t-16.5 45q0 31 22.5 58.5t59.5 27.5q33 0 49.5 -24.5t16.5 -61.5q0 -57 -19.5 -109.5t-53.5 -97.5t-81 -81t-100 -56z" />
<glyph unicode="-" horiz-adv-x="577" d="M74 483l12 58h422l-12 -58h-422z" />
<glyph unicode="." horiz-adv-x="413" d="M45 37q0 35 25.5 64.5t60.5 29.5q29 0 41 -18.5t12 -46.5q0 -35 -23.5 -63t-58.5 -28q-29 0 -43 18.5t-14 43.5z" />
<glyph unicode="/" horiz-adv-x="716" d="M-152 -328l992 1782h57l-991 -1782h-58z" />
<glyph unicode="0" d="M94 401q0 104 17.5 214t49.5 214.5t78 195.5t102 160.5t122.5 109.5t142.5 40t130.5 -37.5t89 -99t51 -138.5t16.5 -155q0 -104 -17.5 -213.5t-49 -213t-78 -194.5t-102.5 -160t-123.5 -109t-141.5 -40q-78 0 -132 37t-88 96.5t-50.5 136.5t-16.5 156zM152 414 q0 -74 12 -143.5t39.5 -123t71.5 -86t106 -32.5q98 0 181 84t144.5 213t95.5 280.5t34 286.5q0 76 -13.5 145.5t-42 124t-73 87t-105.5 32.5q-66 0 -124 -40t-108.5 -106.5t-91 -154.5t-68.5 -184.5t-43 -195.5t-15 -187z" />
<glyph unicode="1" d="M66 0l12 53h295l229 1139h-229l8 41q74 10 140.5 29.5t113.5 48.5h49l-254 -1258h287l-8 -53h-643z" />
<glyph unicode="2" d="M-16 0l4 41q225 195 383.5 334t259 249.5t146.5 204t46 195.5q0 51 -15 98t-47 83t-81 56.5t-115 20.5q-74 0 -153.5 -37t-157.5 -115l-37 46q86 74 170 116.5t182 42.5q76 0 134.5 -23.5t98.5 -63.5t59.5 -94t19.5 -118q0 -115 -46.5 -216t-143.5 -211.5t-247.5 -244 t-357.5 -311.5h664l-9 -53h-757z" />
<glyph unicode="3" d="M-8 193l45 32q23 -35 53.5 -69.5t70.5 -62t90 -46t114 -18.5q84 0 155.5 26.5t123.5 72.5t81 109.5t29 135.5q0 59 -24.5 111.5t-77 91t-132.5 61t-192 22.5l12 54q137 0 230.5 31.5t151.5 79.5t83.5 104.5t25.5 107.5q0 109 -58 177.5t-187 68.5q-35 0 -75 -9t-80 -24.5 t-77 -39t-63 -50.5l-37 45q72 59 159 95t177 36q154 0 226.5 -78.5t72.5 -207.5q0 -127 -86 -227.5t-238 -137.5v-8q109 -31 177.5 -105.5t68.5 -185.5q0 -90 -34 -166t-94 -130t-143 -84t-184 -30q-72 0 -129 21.5t-102 53.5t-79 70t-54 73z" />
<glyph unicode="4" d="M16 397l4 33l766 881h41l-172 -860h189l-13 -54h-186l-80 -397h-57l80 397h-572zM111 451h487l102 512q10 47 25.5 109.5t32.5 127.5h-8q-43 -55 -85 -104t-79 -92z" />
<glyph unicode="5" d="M-4 188l45 33q20 -33 46 -66.5t62.5 -61t88 -46t122.5 -18.5q78 0 150 31.5t127 89t88 137.5t33 176q0 154 -78 228.5t-205 74.5q-74 0 -127 -19.5t-115 -54.5l-36 29l163 590h545l-12 -54h-492l-135 -491q41 23 92.5 38t116.5 15q147 0 243.5 -86t96.5 -258 q0 -115 -38 -207t-102.5 -156.5t-148.5 -100.5t-178 -36q-72 0 -129 20.5t-100 51.5t-73 69t-50 72z" />
<glyph unicode="6" d="M106 401q0 199 44.5 370t122 297t183 196.5t228.5 70.5q92 0 152.5 -42t101.5 -113l-49 -33q-37 68 -87 101.5t-122 33.5q-92 0 -174 -52t-148.5 -142.5t-113.5 -214t-68 -267.5q78 86 168 127t168 41q76 0 134.5 -25.5t98 -70.5t61 -107.5t21.5 -136.5q0 -96 -30.5 -180 t-84 -145.5t-125 -97.5t-153.5 -36q-78 0 -138 32t-102 89.5t-65 135t-23 169.5zM164 414q0 -84 18.5 -154t54 -122t86 -80.5t115.5 -28.5q63 0 124 31.5t107 84t73.5 122t27.5 147.5q0 139 -66.5 221t-195.5 82q-27 0 -67 -8.5t-85 -31t-94 -60t-94 -95.5q-2 -27 -3 -53.5 t-1 -54.5z" />
<glyph unicode="7" d="M233 1257l13 54h762l-9 -41q-156 -150 -263 -296.5t-181 -300t-123 -320.5t-88 -353h-65q43 195 96 363.5t126.5 320.5t176 293t244.5 280h-689z" />
<glyph unicode="8" d="M70 315q0 80 27.5 144.5t72.5 116t103.5 90.5t119.5 67v8q-59 55 -89 112.5t-30 141.5q0 80 29 143.5t77 106.5t110.5 66.5t132.5 23.5q59 0 113.5 -19.5t95 -56t65.5 -93t25 -130.5q0 -70 -20.5 -126t-56.5 -102t-84 -85t-106 -72v-8q25 -16 57.5 -44t61.5 -64.5 t49.5 -82.5t20.5 -100q0 -88 -33 -157.5t-89 -118.5t-131 -75t-157 -26q-72 0 -137.5 21.5t-115.5 64.5t-80.5 106.5t-30.5 147.5zM127 319q0 -72 25.5 -126t68.5 -90.5t98.5 -55t114.5 -18.5q66 0 129.5 20.5t112.5 60.5t79.5 98t30.5 132q0 70 -30.5 123t-79.5 95 t-112.5 77t-129.5 70q-68 -35 -124 -74t-97 -85t-63.5 -101.5t-22.5 -125.5zM332 999q0 -63 19.5 -110t55 -85t86 -68.5t113.5 -59.5q49 27 95.5 63.5t83 80.5t58 97.5t21.5 114.5t-20.5 108.5t-54 78t-78.5 47t-93 16.5q-55 0 -107 -19.5t-92 -56.5t-63.5 -89t-23.5 -118z " />
<glyph unicode="9" d="M49 131l49 33q37 -68 87.5 -101.5t121.5 -33.5q92 0 174 52t148.5 142t114 214t67.5 268q-78 -86 -168 -127t-168 -41q-76 0 -134 25.5t-98 70.5t-61.5 107.5t-21.5 136.5q0 96 30.5 180t84 145.5t125 97t153.5 35.5q76 0 137.5 -31.5t103.5 -89t64.5 -135.5t22.5 -170 q0 -201 -44 -370.5t-122 -295.5t-183.5 -197t-228.5 -71q-92 0 -152.5 42t-101.5 114zM217 897q0 -139 66.5 -221t195.5 -82q27 0 67 8t85 30.5t94 59.5t94 96q2 27 3 53.5t1 55.5q0 82 -18.5 152.5t-54 123t-87 81t-114.5 28.5q-66 0 -125 -31.5t-105.5 -84t-74 -123 t-27.5 -146.5z" />
<glyph unicode=":" horiz-adv-x="413" d="M45 37q0 35 25.5 64.5t60.5 29.5q29 0 41 -18.5t12 -46.5q0 -35 -23.5 -63t-58.5 -28q-29 0 -43 18.5t-14 43.5zM188 852q0 35 25.5 64.5t60.5 29.5q29 0 41 -18.5t12 -46.5q0 -35 -23.5 -63t-58.5 -28q-29 0 -43 18.5t-14 43.5z" />
<glyph unicode=";" horiz-adv-x="413" d="M-70 -250q78 37 132.5 97.5t64.5 136.5h-12q-29 0 -45.5 16t-16.5 45q0 31 22.5 58.5t59.5 27.5q33 0 49.5 -24.5t16.5 -61.5q0 -57 -19.5 -109.5t-53.5 -97.5t-81 -81t-100 -56zM188 852q0 35 25.5 64.5t60.5 29.5q29 0 41 -18.5t12 -46.5q0 -35 -23.5 -63t-58.5 -28 q-29 0 -43 18.5t-14 43.5z" />
<glyph unicode="&#x3c;" d="M94 647v58l799 327v-57l-471 -193l-250 -102v-8l250 -103l471 -192v-58z" />
<glyph unicode="=" d="M98 448v54h795v-54h-795zM98 852v54h795v-54h-795z" />
<glyph unicode="&#x3e;" d="M98 319v58l471 192l250 103v8l-250 102l-471 193v57l799 -327v-58z" />
<glyph unicode="?" horiz-adv-x="778" d="M201 37q0 35 25.5 64.5t60.5 29.5q29 0 41 -18.5t12 -46.5q0 -35 -23.5 -63t-58.5 -28q-29 0 -43 18.5t-14 43.5zM225 1257q49 55 130 97.5t173 42.5q123 0 193 -70t70 -192q0 -86 -32 -153t-80 -125t-103.5 -112.5t-104.5 -113t-84 -125t-39 -150.5l-53 4q4 90 37 161 t82 130.5t105 112.5t103.5 107.5t79 115t31.5 135.5q0 104 -55 162.5t-154 58.5q-74 0 -143.5 -35.5t-118.5 -90.5z" />
<glyph unicode="@" horiz-adv-x="1581" d="M94 336q0 205 73 378t192.5 299t272 197.5t314.5 71.5q133 0 237.5 -43t175.5 -120t107.5 -184.5t36.5 -238.5q0 -139 -32.5 -248.5t-87 -184.5t-123 -113.5t-138.5 -38.5q-74 0 -116.5 44t-55.5 111h-4q-53 -59 -109.5 -99t-127.5 -40q-41 0 -81 16.5t-71 49t-50.5 82 t-19.5 114.5q0 86 31 170t83 151.5t123 108.5t153 41q49 0 88 -28.5t67 -77.5h4l25 90h49l-98 -434q-25 -104 0.5 -175t117.5 -71q57 0 113.5 34.5t102 102.5t73 164t27.5 219t-33 223.5t-96.5 172t-157.5 110.5t-217 39q-150 0 -292 -67.5t-252.5 -185.5t-178 -279.5 t-67.5 -348.5q0 -137 38.5 -245.5t108.5 -184.5t167 -116t214 -40q90 0 162.5 18.5t140.5 59.5l25 -45q-80 -47 -164 -66.5t-168 -19.5q-127 0 -234.5 44t-184.5 125t-120 196.5t-43 261.5zM545 401q0 -115 50 -168t118 -53q115 0 225 148l82 364q-37 68 -74 91.5t-74 23.5 q-72 0 -132 -38t-103 -97.5t-67.5 -131t-24.5 -139.5z" />
<glyph unicode="A" horiz-adv-x="983" d="M-94 0l749 1352h62l172 -1352h-62l-59 487h-526l-267 -487h-69zM270 541h492l-33 270q-12 115 -26.5 231.5t-26.5 239.5h-8q-61 -127 -123 -238.5t-127 -232.5z" />
<glyph unicode="B" horiz-adv-x="1159" d="M82 0l270 1352h320q188 0 288.5 -78t100.5 -213q0 -78 -30 -137.5t-76 -102.5t-100 -67.5t-101 -32.5v-8q49 -10 95 -33t83 -58.5t58.5 -86t21.5 -113.5q0 -109 -39 -187.5t-109.5 -131t-171 -78t-221.5 -25.5h-389zM152 53h282q115 0 210 19.5t162.5 62.5t105.5 112.5 t38 168.5q0 119 -99 197.5t-282 78.5h-286zM291 745h241q233 0 350 88.5t117 223.5q0 115 -86 178t-274 63h-238z" />
<glyph unicode="C" horiz-adv-x="1097" d="M119 504q0 147 46 302t133 281.5t213 207.5t288 81q115 0 189.5 -57t121.5 -131l-49 -33q-41 72 -105.5 120t-160.5 48q-147 0 -262 -77t-193 -195.5t-119 -261t-41 -273.5q0 -102 22.5 -191t71 -155t123 -103.5t176.5 -37.5q98 0 176 34.5t156 100.5l37 -41 q-86 -72 -174 -110t-199 -38q-115 0 -198.5 41t-140 112t-84 167t-27.5 209z" />
<glyph unicode="D" horiz-adv-x="1171" d="M82 0l270 1352h213q139 0 243.5 -38t173.5 -107.5t102.5 -166t33.5 -213.5q0 -172 -46 -322.5t-136 -263t-225.5 -177t-313.5 -64.5h-315zM152 53h249q158 0 281 62.5t206 169t126 246t43 292.5q0 104 -31 191.5t-92.5 151t-154.5 98t-218 34.5h-160z" />
<glyph unicode="E" horiz-adv-x="991" d="M82 0l270 1352h701l-13 -54h-639l-110 -553h540l-12 -53h-536l-131 -639h659l-12 -53h-717z" />
<glyph unicode="F" horiz-adv-x="917" d="M82 0l270 1352h701l-13 -54h-639l-114 -577h540l-12 -53h-536l-136 -668h-61z" />
<glyph unicode="G" horiz-adv-x="1167" d="M119 504q0 150 45 305.5t134 281.5t220 205.5t301 79.5q115 0 189.5 -57t121.5 -131l-49 -33q-41 72 -105.5 120t-160.5 48q-154 0 -272.5 -77t-198.5 -195.5t-122 -261t-42 -273.5q0 -100 22.5 -188t72 -155t128 -105.5t191.5 -38.5q98 0 172 31.5t123 78.5l90 455h-324 l13 53h385l-111 -536q-72 -61 -158 -98.5t-194 -37.5q-121 0 -209 39t-146.5 110t-87 168t-28.5 212z" />
<glyph unicode="H" horiz-adv-x="1224" d="M82 0l270 1352h62l-123 -607h729l123 607h61l-270 -1352h-62l140 692h-729l-140 -692h-61z" />
<glyph unicode="I" horiz-adv-x="446" d="M82 0l270 1352h62l-271 -1352h-61z" />
<glyph unicode="J" horiz-adv-x="876" d="M4 184l53 25q53 -180 246 -180q121 0 195.5 89t103.5 230l201 1004h61l-200 -1008q-31 -170 -125.5 -269.5t-239.5 -99.5q-123 0 -193.5 59.5t-101.5 149.5z" />
<glyph unicode="K" horiz-adv-x="1069" d="M82 0l270 1352h62l-152 -758h4l811 758h78l-516 -492l311 -860h-65l-295 819l-344 -319l-103 -500h-61z" />
<glyph unicode="L" horiz-adv-x="884" d="M82 0l270 1352h62l-258 -1299h614l-12 -53h-676z" />
<glyph unicode="M" horiz-adv-x="1384" d="M82 0l270 1352h103l135 -815l53 -308h8l160 308l451 815h102l-270 -1352h-62l189 942q18 84 38.5 178t38.5 174h-8l-160 -290l-462 -848h-70l-147 848l-50 290h-8q-16 -84 -30.5 -176t-30.5 -176l-189 -942h-61z" />
<glyph unicode="N" horiz-adv-x="1228" d="M82 0l270 1352h70l377 -996l98 -270h8q16 96 31.5 192.5t34.5 192.5l176 881h61l-270 -1352h-66l-372 991l-103 283h-8q-16 -98 -33.5 -193.5t-36.5 -187.5l-176 -893h-61z" />
<glyph unicode="O" horiz-adv-x="1253" d="M127 537q0 90 18.5 187t55.5 190.5t91 177.5t124.5 147.5t156.5 100t189 36.5q111 0 192.5 -42t135 -115.5t80 -177t26.5 -226.5q0 -90 -18.5 -187.5t-55.5 -190.5t-91 -177t-124.5 -147.5t-158 -100.5t-187.5 -37q-111 0 -192.5 42t-135 116t-80 177.5t-26.5 226.5z M188 545q0 -115 21.5 -209t68 -163t117 -106.5t170.5 -37.5q137 0 243.5 76.5t179.5 192.5t110 252t37 257q0 113 -21.5 208t-68 163.5t-117 106.5t-170.5 38q-92 0 -170 -36t-141.5 -95t-111.5 -138t-81 -165t-49.5 -175t-16.5 -169z" />
<glyph unicode="P" horiz-adv-x="1073" d="M82 0l270 1352h344q186 0 290 -74t104 -234q0 -111 -39 -193.5t-113 -138t-178.5 -83t-235.5 -27.5h-262l-119 -602h-61zM274 655h238q256 0 386 96.5t130 288.5q0 139 -93 198.5t-276 59.5h-258z" />
<glyph unicode="Q" horiz-adv-x="1253" d="M127 537q0 90 18.5 187t55.5 190.5t91 177.5t124.5 147.5t156.5 100t189 36.5q111 0 192.5 -42t135 -115.5t80 -177t26.5 -226.5q0 -90 -18.5 -187.5t-55.5 -190.5t-91 -177t-124.5 -147.5t-156.5 -100.5t-187 -37q29 -115 121 -170t221 -55q45 0 94 12l9 -57 q-29 -6 -52.5 -9t-54.5 -3q-143 0 -253.5 68.5t-145.5 218.5q-96 10 -166 56t-117 118.5t-69.5 170t-22.5 212.5zM188 545q0 -115 21.5 -209t68 -163t117 -106.5t170.5 -37.5q137 0 243.5 76.5t179.5 192.5t110 252t37 257q0 113 -21.5 208t-68 163.5t-117 106.5t-170.5 38 q-92 0 -170 -36t-141.5 -95t-111.5 -138t-81 -165t-49.5 -175t-16.5 -169z" />
<glyph unicode="R" horiz-adv-x="1069" d="M82 0l270 1352h328q182 0 285.5 -69t103.5 -222q0 -90 -32.5 -165t-92 -129t-141.5 -88t-178 -42l264 -637h-70l-260 635h-289l-127 -635h-61zM283 688h249q229 0 352.5 97.5t123.5 271.5q0 133 -91.5 187t-273.5 54h-242z" />
<glyph unicode="S" horiz-adv-x="999" d="M37 201l49 32q66 -98 159 -151t226 -53q76 0 142.5 23.5t115.5 66.5t78 104.5t29 136.5q0 92 -48.5 156t-128.5 111l-180 106q-41 25 -80 55.5t-68.5 67.5t-47 82t-17.5 98q0 68 28 129.5t77 108.5t118.5 74.5t153.5 27.5q123 0 215 -53t146 -127l-46 -37 q-53 68 -135 116t-192 48q-70 0 -125 -24.5t-95 -64.5t-61.5 -89t-21.5 -101q0 -98 54 -157.5t126 -100.5l176 -102q96 -55 154.5 -130t58.5 -185q0 -90 -34 -162t-92 -124t-137 -80t-171 -28q-145 0 -252 58.5t-174 167.5z" />
<glyph unicode="T" horiz-adv-x="1007" d="M205 1294l12 58h905l-12 -58h-422l-258 -1294h-61l258 1294h-422z" />
<glyph unicode="U" horiz-adv-x="1216" d="M168 369q0 41 3 79.5t13 88.5l164 815h62l-160 -799q-12 -49 -16.5 -90t-4.5 -78q0 -170 82 -263t246 -93q66 0 129.5 24.5t117.5 79.5t96 142t67 212l172 865h61l-176 -881q-29 -139 -77 -233.5t-111.5 -152.5t-137 -84t-149.5 -26q-180 0 -280.5 102.5t-100.5 291.5z " />
<glyph unicode="V" horiz-adv-x="921" d="M172 1352h57l74 -820q12 -111 23.5 -225t21.5 -229h8q55 111 114.5 228.5t119.5 225.5l430 820h61l-712 -1352h-70z" />
<glyph unicode="W" horiz-adv-x="1486" d="M221 1352h62v-820q-3 -74 -3 -148q0 -37 1 -73.5t1 -72.5q0 -74 -3 -148h8q53 111 104 221.5t101 220.5l385 820h69l29 -820q6 -111 9 -221t7 -221h8q47 111 93.5 221.5t95.5 220.5l344 820h65l-581 -1352h-78l-33 967q0 84 -2 159.5t-2 159.5h-8q-31 -84 -66.5 -159.5 t-72.5 -159.5l-451 -967h-78z" />
<glyph unicode="X" horiz-adv-x="913" d="M-74 0l533 705l-234 647h62l151 -430q16 -47 29.5 -86t32.5 -86h4q37 43 72.5 90t70.5 94l311 418h66l-500 -660l254 -692h-61l-160 446q-18 49 -36.5 100.5t-37.5 104.5h-4q-43 -53 -85 -110.5t-79 -106.5l-323 -434h-66z" />
<glyph unicode="Y" horiz-adv-x="864" d="M176 1352h62l120 -441q20 -74 39 -144.5t41 -145.5h6q51 72 100.5 145.5t100.5 144.5l309 441h66l-559 -793l-113 -559h-61l112 559z" />
<glyph unicode="Z" horiz-adv-x="1028" d="M4 0l8 37l983 1261h-684l13 54h757l-8 -37l-979 -1262h758l-12 -53h-836z" />
<glyph unicode="[" horiz-adv-x="536" d="M37 -311l352 1761h295l-4 -45h-254l-332 -1671h250l-12 -45h-295z" />
<glyph unicode="\" horiz-adv-x="716" d="M184 1454h49l304 -1782h-50z" />
<glyph unicode="]" horiz-adv-x="536" d="M-131 -311l8 45h250l340 1671h-254l8 45h299l-352 -1761h-299z" />
<glyph unicode="^" horiz-adv-x="937" d="M188 594l295 778h49l295 -778h-53l-164 434l-98 270h-4l-98 -270l-164 -434h-58z" />
<glyph unicode="_" horiz-adv-x="991" d="M-53 -229l12 57h938l-12 -57h-938z" />
<glyph unicode="`" horiz-adv-x="1032" d="M573 1442h70l123 -275h-49z" />
<glyph unicode="a" horiz-adv-x="1073" d="M94 328q0 141 45 264t120 215t170 144.5t198 52.5q90 0 153.5 -45.5t104.5 -118.5h8l37 139h49l-197 -979h-49l25 160h-8q-78 -80 -171.5 -132.5t-197.5 -52.5q-129 0 -208 89.5t-79 263.5zM152 340q0 -158 62 -234.5t171 -76.5q102 0 199.5 58t189.5 163l107 512 q-59 102 -122 145t-136 43q-92 0 -177.5 -53t-151 -139t-104 -195.5t-38.5 -222.5z" />
<glyph unicode="b" horiz-adv-x="1069" d="M90 0l295 1479h57l-90 -443l-41 -200h4q80 66 174.5 117t198.5 51q129 0 208 -89.5t79 -263.5q0 -141 -45 -264t-120 -215t-171 -144.5t-197 -52.5q-90 0 -153.5 45.5t-104.5 118.5h-8l-37 -139h-49zM188 217q59 -102 122 -145t136 -43q92 0 177.5 52t151 138 t104.5 195.5t39 224.5q0 156 -62.5 233.5t-171.5 77.5q-43 0 -92 -14t-99.5 -40t-99.5 -60.5t-94 -73.5z" />
<glyph unicode="c" horiz-adv-x="876" d="M90 360q0 143 45 262t119 204t167 131.5t189 46.5q84 0 140.5 -32t105.5 -87l-41 -41q-47 55 -92 80.5t-117 25.5q-86 0 -169 -46t-147.5 -126t-103.5 -184.5t-39 -220.5q0 -170 71 -257t216 -87q78 0 144.5 31.5t121.5 74.5l33 -45q-53 -41 -127 -78t-176 -37 q-158 0 -249 99.5t-91 285.5z" />
<glyph unicode="d" horiz-adv-x="1077" d="M94 328q0 141 45 264t120 215t170 144.5t198 52.5q90 0 153.5 -45.5t104.5 -118.5h8l41 196l90 443h57l-299 -1479h-49l25 160h-8q-78 -80 -171.5 -132.5t-197.5 -52.5q-129 0 -208 89.5t-79 263.5zM152 340q0 -158 62 -234.5t171 -76.5q102 0 199.5 58t189.5 163 l107 512q-59 102 -122 145t-136 43q-92 0 -177.5 -53t-151 -139t-104 -195.5t-38.5 -222.5z" />
<glyph unicode="e" horiz-adv-x="958" d="M90 377q0 139 44 255t114.5 198.5t161 128t184.5 45.5q78 0 133 -26t90 -72t51.5 -108.5t16.5 -138.5q0 -49 -7.5 -91t-17.5 -72h-700q-13 -72 -13 -131q1 -43 7 -80q16 -88 59 -145.5t107.5 -84t142.5 -26.5q68 0 133.5 28.5t120.5 69.5l28 -45q-59 -43 -132.5 -75 t-153.5 -32q-170 0 -269.5 101.5t-99.5 300.5zM172 549h643q6 31 9 59.5t3 63.5q0 51 -12 101t-39.5 90t-74 63.5t-111.5 23.5q-70 0 -136.5 -29.5t-122 -83t-97 -127t-62.5 -161.5z" />
<glyph unicode="f" horiz-adv-x="503" d="M98 0l185 926h-127l8 45l131 8l49 246q31 145 99.5 211.5t154.5 66.5q49 0 82 -13t61 -32l-28 -45q-25 16 -51.5 26.5t-67.5 10.5q-39 0 -69.5 -18.5t-55.5 -49t-42 -71.5t-26 -86l-49 -246h221l-12 -53h-221l-184 -926h-58z" />
<glyph unicode="g" horiz-adv-x="1060" d="M12 -344l37 45q55 -53 129 -90t166 -37q150 0 236 100.5t120 264.5l50 229h-9q-78 -74 -169 -125t-195 -51q-127 0 -205 89t-78 259q0 137 45 258t119 211t167 142.5t189 52.5q88 0 152.5 -45.5t105.5 -118.5h9l37 139h49l-217 -1077q-37 -176 -140.5 -278.5 t-269.5 -102.5q-109 0 -187.5 41t-140.5 94zM152 352q0 -154 60 -230.5t169 -76.5q86 0 188.5 56.5t192.5 152.5l106 508q-59 102 -121.5 145t-136.5 43q-88 0 -170 -52t-146.5 -137t-103 -192.5t-38.5 -216.5z" />
<glyph unicode="h" horiz-adv-x="1019" d="M90 0l295 1479h57l-114 -570l-25 -94h8q98 84 184.5 136.5t176.5 52.5q127 0 180 -67t53 -171q0 -37 -3 -62.5t-13 -68.5l-127 -635h-57l126 627q10 47 13.5 73.5t3.5 57.5q0 96 -43 144t-141 48q-68 0 -160 -51t-209 -166l-148 -733h-57z" />
<glyph unicode="i" horiz-adv-x="438" d="M90 0l197 979h57l-197 -979h-57zM311 1286q0 37 22.5 59.5t51.5 22.5q25 0 41 -16.5t16 -44.5q0 -35 -22 -56.5t-51 -21.5q-25 0 -41.5 16.5t-16.5 40.5z" />
<glyph unicode="j" horiz-adv-x="438" d="M-242 -446l25 49q18 -12 37.5 -20.5t60.5 -8.5q61 0 101.5 58.5t62.5 154.5l242 1192h57l-238 -1180q-29 -133 -83 -205.5t-146 -72.5q-43 0 -69.5 10t-49.5 23zM311 1286q0 37 22.5 59.5t51.5 22.5q25 0 41 -16.5t16 -44.5q0 -35 -22 -56.5t-51 -21.5q-25 0 -41.5 16.5 t-16.5 40.5z" />
<glyph unicode="k" horiz-adv-x="892" d="M90 0l295 1479h57l-221 -1119h4l611 619h73l-381 -393l238 -586h-61l-222 545l-282 -287l-54 -258h-57z" />
<glyph unicode="l" horiz-adv-x="462" d="M102 49q0 10 2 23.5t7 29.5l274 1377h57l-274 -1381q-4 -16 -4 -25.5v-15.5q0 -29 29 -28q6 0 11 1t21 7l8 -49q-16 -6 -27 -9.5t-30 -3.5q-31 0 -52.5 18.5t-21.5 55.5z" />
<glyph unicode="m" horiz-adv-x="1589" d="M90 0l197 979h49l-25 -160h8q84 80 170 132.5t158 52.5q61 0 103.5 -17.5t69 -46.5t38.5 -66.5t14 -78.5q104 102 196.5 155.5t164.5 53.5q123 0 176 -67t53 -171q0 -37 -3 -62.5t-13 -68.5l-127 -635h-57l127 627q10 47 13 73.5t3 57.5q0 96 -42 144t-138 48 q-49 0 -142.5 -51t-201.5 -166l-148 -733h-57l127 627q10 47 13 73.5t3 57.5q0 96 -42 144t-138 48q-49 0 -142.5 -51t-201.5 -166l-148 -733h-57z" />
<glyph unicode="n" horiz-adv-x="1032" d="M90 0l197 979h49l-25 -160h8q92 80 177.5 132.5t175.5 52.5q127 0 180 -67t53 -171q0 -37 -3 -62.5t-13 -68.5l-127 -635h-57l126 627q10 47 13.5 73.5t3.5 57.5q0 96 -43 144t-141 48q-68 0 -160 -51t-209 -166l-148 -733h-57z" />
<glyph unicode="o" horiz-adv-x="1024" d="M94 360q0 137 43 255t114 204t163 135.5t192 49.5q147 0 235.5 -99.5t88.5 -286.5q0 -137 -43 -254.5t-114 -203.5t-163 -135.5t-192 -49.5q-147 0 -235.5 99.5t-88.5 285.5zM152 373q0 -170 70.5 -257t199.5 -87q82 0 163 46t145.5 126t103 184t38.5 221 q0 170 -70.5 257t-199.5 87q-84 0 -164 -46t-144.5 -126t-103 -184.5t-38.5 -220.5z" />
<glyph unicode="p" horiz-adv-x="1064" d="M0 -455l287 1434h49l-25 -143h8q80 66 172.5 117t196.5 51q129 0 208 -90.5t79 -262.5q0 -141 -45 -264t-120 -215t-171 -144.5t-197 -52.5q-90 0 -156.5 46.5t-109.5 117.5h-4l-45 -225l-70 -369h-57zM188 209q59 -98 122 -139t136 -41q92 0 177.5 52t151 138 t104.5 195.5t39 224.5q0 156 -62.5 233.5t-171.5 77.5q-43 0 -92 -14t-99.5 -40t-99.5 -61.5t-94 -76.5z" />
<glyph unicode="q" horiz-adv-x="1073" d="M94 328q0 141 45 264t120 215t170 144.5t198 52.5q90 0 153.5 -45.5t104.5 -118.5h8l37 139h49l-287 -1434h-57l74 369l49 250h-4q-78 -80 -173.5 -134.5t-199.5 -54.5q-129 0 -208 89.5t-79 263.5zM152 340q0 -158 62 -234.5t171 -76.5q86 0 191.5 58t197.5 163l107 512 q-59 102 -122 145t-136 43q-92 0 -177.5 -53t-151 -139t-104 -195.5t-38.5 -222.5z" />
<glyph unicode="r" horiz-adv-x="630" d="M90 0l197 979h49l-33 -184h8q61 86 136 147.5t171 61.5q18 0 40 -3.5t47 -13.5l-25 -57q-12 6 -28.5 11t-45.5 5q-80 0 -170 -75.5t-157 -211.5l-132 -659h-57z" />
<glyph unicode="s" horiz-adv-x="786" d="M0 156l45 32q41 -66 114.5 -112.5t172.5 -46.5q53 0 101 17t85 48t58.5 71t21.5 85q0 31 -7 57.5t-27.5 52t-57.5 53t-96 58.5q-70 37 -117 68.5t-76 62.5t-41 62.5t-12 68.5q0 61 24.5 111.5t65.5 85.5t95 54.5t114 19.5q80 0 146.5 -31t115.5 -84l-41 -41 q-41 43 -94 72.5t-131 29.5q-49 0 -92 -16t-76 -44t-51.5 -66t-18.5 -79q0 -74 55.5 -119.5t129.5 -84.5q84 -47 134 -84t75.5 -71t32.5 -63.5t7 -60.5q0 -66 -25.5 -119t-69.5 -90t-105.5 -57.5t-130.5 -20.5q-53 0 -103.5 16.5t-92.5 42t-75 57.5t-53 65z" />
<glyph unicode="t" horiz-adv-x="593" d="M143 926l9 45l159 8l66 283h49l-57 -283h270l-12 -53h-271l-139 -676q-4 -18 -6 -36.5t-2 -41.5q0 -72 29.5 -107.5t113.5 -35.5q37 0 68 12t55 25l21 -46q-29 -16 -67 -30.5t-81 -14.5q-111 0 -153.5 55.5t-42.5 129.5q0 29 2 49t6 45l139 672h-156z" />
<glyph unicode="u" horiz-adv-x="1052" d="M143 213q0 37 3.5 62.5t13.5 68.5l127 635h57l-127 -627q-10 -47 -13 -73.5t-3 -57.5q0 -96 43 -144t141 -48q68 0 160 51t209 166l147 733h57l-196 -979h-49l24 164h-8q-92 -80 -177 -134.5t-175 -54.5q-127 0 -180.5 67t-53.5 171z" />
<glyph unicode="v" horiz-adv-x="835" d="M119 979h57l103 -639q12 -72 22 -145.5t23 -141.5h8q37 72 75.5 143.5t79.5 143.5l349 639h61l-541 -979h-77z" />
<glyph unicode="w" horiz-adv-x="1380" d="M139 979h58l57 -664q6 -68 12 -132t13 -130h8q31 66 59.5 130.5t59.5 131.5l307 664h82l49 -664q4 -68 8 -132t8 -130h8q31 66 59.5 130.5t63.5 131.5l316 664h57l-467 -979h-86l-45 639q-6 72 -8 147.5t-8 143.5h-9q-31 -68 -63.5 -143.5t-67.5 -147.5l-295 -639h-86z " />
<glyph unicode="x" horiz-adv-x="778" d="M-98 0l463 516l-197 463h61l107 -258q18 -47 32.5 -84t32.5 -80h9q37 41 73.5 81t73.5 83l229 258h66l-418 -475l213 -504h-61l-111 279q-18 47 -38.5 94t-43.5 94h-8q-37 -47 -77 -91t-87 -93l-250 -283h-69z" />
<glyph unicode="y" horiz-adv-x="835" d="M-172 -434l25 49q33 -16 69 -16q92 0 171 78.5t145 211.5l45 91l-164 999h57l103 -639q12 -72 23 -147.5t22 -143.5h8q37 72 75.5 144.5t79.5 146.5l349 639h61l-614 -1114q-29 -57 -65 -113.5t-81 -102.5t-99 -75t-120 -29q-16 0 -38.5 4.5t-51.5 16.5z" />
<glyph unicode="z" horiz-adv-x="786" d="M-20 0l4 37l761 889h-520l13 53h593l-4 -37l-761 -889h598l-13 -53h-671z" />
<glyph unicode="{" horiz-adv-x="532" d="M74 545l12 49q53 0 89 14.5t58.5 39t35 54t18.5 60.5q18 98 34.5 209.5t38.5 216.5q14 76 36 127t51.5 80.5t70.5 42t96 12.5h66l-8 -45h-66q-96 0 -137 -57.5t-63 -167.5q-18 -92 -33 -195.5t-33 -202.5q-18 -86 -50 -140t-97 -73v-8q43 -18 56 -49t13 -61 q0 -55 -18.5 -136.5t-40 -166.5t-39 -164.5t-17.5 -130.5q0 -59 27 -89t105 -30h61l-12 -45h-62q-86 0 -127 33.5t-41 117.5q0 53 18.5 134t41 166t41 164t18.5 130q0 20 -5 40t-20.5 35t-44 25.5t-73.5 10.5z" />
<glyph unicode="|" horiz-adv-x="434" d="M205 -512v2048h53v-2048h-53z" />
<glyph unicode="}" horiz-adv-x="536" d="M-131 -311l8 45h66q96 0 137 55t63 166q18 92 32.5 195.5t33.5 201.5q18 90 50 144.5t97 72.5v9q-47 18 -58 48.5t-11 61.5q0 53 17.5 133t39 165t39.5 164t18 132q0 61 -26.5 92t-104.5 31h-61l12 45h62q86 0 127 -36t41 -116q0 -53 -18.5 -135t-41 -168t-41 -164.5 t-18.5 -130.5q0 -18 5 -37.5t20.5 -35t43 -24.5t74.5 -9l-12 -49q-53 0 -89 -14.5t-58.5 -39t-35 -54t-18.5 -60.5q-18 -98 -34.5 -212t-39.5 -218q-16 -78 -36.5 -127t-51 -79t-71.5 -41t-95 -11h-65z" />
<glyph unicode="~" d="M102 639q41 80 95.5 120t109.5 40t102.5 -30t90.5 -64.5t83 -64.5t81 -30q47 0 84.5 30t74.5 101l45 -24q-41 -80 -95 -120t-109 -40t-102.5 29.5t-90.5 64.5t-83 64.5t-81 29.5q-47 0 -85 -29.5t-75 -101.5z" />
<glyph unicode="&#xa1;" horiz-adv-x="495" d="M49 -397l25 131l180 893h49l-172 -893l-25 -131h-57zM266 913q0 35 23.5 63t58.5 28q29 0 43.5 -18.5t14.5 -43.5q0 -35 -26 -64.5t-61 -29.5q-29 0 -41 18.5t-12 46.5z" />
<glyph unicode="&#xa2;" d="M168 590q0 125 42 226.5t108.5 172t149.5 110.5t165 44l43 221h57l-45 -223q78 -10 132 -46t93 -83l-41 -41q-43 53 -86 81.5t-108 34.5l-164 -825q84 4 151.5 36t120.5 71l29 -50q-29 -18 -60.5 -37.5t-69.5 -35t-82 -26.5t-99 -11l-45 -229h-58l48 233 q-131 16 -206 112.5t-75 264.5zM229 602q0 -143 56.5 -232t173.5 -106l162 826q-68 -6 -137.5 -43t-126 -100.5t-92.5 -150.5t-36 -194z" />
<glyph unicode="&#xa3;" d="M16 0l9 33q158 84 230.5 221t72.5 295v27.5t-2 29.5h-195l12 45l181 8q-4 61 -10.5 126t-6.5 120q0 203 101.5 316.5t267.5 113.5q49 0 89 -14t71.5 -39t56.5 -54.5t41 -60.5l-49 -32q-35 61 -88.5 104t-124.5 43q-68 0 -124 -26.5t-97 -76t-63.5 -116t-22.5 -145.5 q0 -57 6 -124t10 -135h336l-12 -53h-320v-45q0 -164 -55.5 -283.5t-165.5 -216.5v-8h569l-8 -53h-709z" />
<glyph unicode="&#xa4;" d="M29 311l153 135q-12 33 -19 71t-7 85q0 94 33.5 178t93.5 148l-99 133l41 33l97 -129q53 45 114.5 70.5t128.5 25.5q131 0 205 -96l152 133l32 -41l-157 -139q31 -66 30 -160q0 -90 -30.5 -170t-83.5 -142l114 -151l-41 -33l-110 146q-53 -51 -120 -80t-138 -29 q-139 0 -209 100l-148 -129zM213 614q0 -129 53 -195.5t156 -66.5q63 0 125.5 31t112 83t80 124t30.5 155q0 129 -53.5 196t-155.5 67q-63 0 -125.5 -31t-112 -83t-80 -125t-30.5 -155z" />
<glyph unicode="&#xa5;" d="M74 348l12 49h332l28 160h-331l12 49h307l-201 705h58l115 -418q18 -68 36.5 -137.5t36.5 -149.5h8q53 80 98.5 149.5t94.5 137.5l270 418h62l-471 -705h307l-12 -49h-332l-29 -160h332l-12 -49h-332l-70 -348h-57l70 348h-332z" />
<glyph unicode="&#xa6;" horiz-adv-x="434" d="M205 451h53v-963h-53v963zM205 561v975h53v-975h-53z" />
<glyph unicode="&#xa7;" horiz-adv-x="929" d="M53 49l41 45q55 -61 124 -96t142 -35q45 0 87 16.5t74 44t50.5 66.5t18.5 86q0 66 -34 111t-86 78.5t-111.5 64.5t-111.5 68t-86 86t-34 125q0 117 64.5 190.5t166.5 114.5q-35 51 -34 116q0 61 20.5 109.5t57 82.5t85 52.5t103.5 18.5q86 0 155.5 -42t122.5 -98l-45 -41 q-47 55 -106.5 91t-130.5 36q-39 0 -76 -13t-65.5 -38.5t-46 -62.5t-17.5 -82q0 -61 34 -103.5t84 -78t109.5 -68.5t109.5 -73t84 -93t34 -129q0 -121 -57.5 -183.5t-164.5 -105.5q33 -53 33 -121q0 -57 -22.5 -107t-61.5 -88t-92 -60.5t-115 -22.5q-86 0 -161.5 37 t-141.5 102zM184 721q0 -78 44 -127t106.5 -87t131.5 -74t116 -85q49 18 86 38t61.5 47.5t36.5 64.5t12 88q0 80 -43 132t-103.5 94t-127 79t-113.5 84q-96 -37 -151.5 -97.5t-55.5 -156.5z" />
<glyph unicode="&#xa8;" horiz-adv-x="1032" d="M487 1286q0 35 20.5 56.5t45.5 21.5q53 0 53 -57q0 -31 -20.5 -52.5t-45.5 -21.5q-53 0 -53 53zM786 1286q0 35 20.5 56.5t45.5 21.5q53 0 53 -57q0 -31 -20.5 -52.5t-45.5 -21.5q-53 0 -53 53z" />
<glyph unicode="&#xa9;" horiz-adv-x="1351" d="M82 541q0 143 51 284.5t145.5 255t228.5 184t300 70.5q119 0 216 -41t167 -115.5t107.5 -179t37.5 -229.5q0 -143 -51 -284.5t-145.5 -255t-228.5 -184.5t-300 -71q-119 0 -216 41t-166.5 116t-107.5 178.5t-38 230.5zM135 549q0 -121 34 -217t96.5 -165t151.5 -105.5 t197 -36.5q152 0 276 67.5t211 174t134 237.5t47 258q0 119 -34 216t-96 165.5t-151 105.5t-198 37q-152 0 -276 -67.5t-211 -174t-134 -237.5t-47 -258zM377 557q0 113 38 204t96 153.5t130 96t141 33.5q74 0 116 -27.5t77 -74.5l-41 -37q-31 41 -65.5 63.5t-90.5 22.5 q-59 0 -119.5 -31.5t-110.5 -87t-82 -133t-32 -170.5q0 -133 62.5 -197.5t167.5 -64.5q72 0 129 31t112 68l29 -46q-61 -43 -122.5 -74.5t-152.5 -31.5q-123 0 -202.5 74.5t-79.5 228.5z" />
<glyph unicode="&#xaa;" horiz-adv-x="708" d="M131 774q0 92 31 173t81 140.5t114.5 94.5t134.5 35q49 0 92 -24t71 -79h9l24 86h41l-127 -647h-45l21 106h-9q-53 -55 -113.5 -88.5t-131.5 -33.5q-86 0 -139.5 60t-53.5 177zM184 782q0 -102 41.5 -149t102.5 -47t129.5 43t128.5 108l61 312q-37 68 -77 93t-83 25 q-57 0 -111 -32.5t-97 -87t-69 -124t-26 -141.5z" />
<glyph unicode="&#xab;" horiz-adv-x="761" d="M82 492l12 65l324 320l33 -33l-304 -328l185 -340l-41 -24zM361 492l12 65l324 320l33 -33l-304 -328l185 -340l-41 -24z" />
<glyph unicode="&#xac;" d="M98 651v54h795v-480h-57v426h-738z" />
<glyph unicode="&#xad;" horiz-adv-x="577" d="M74 483l12 58h422l-12 -58h-422z" />
<glyph unicode="&#xae;" horiz-adv-x="770" d="M135 1012q0 84 31 161.5t83 138t123.5 97.5t155.5 37q63 0 121 -24.5t101 -67.5t68.5 -104.5t25.5 -135.5q0 -86 -31 -164t-84 -138t-124.5 -96t-153.5 -36q-66 0 -123.5 23.5t-100.5 66.5t-67.5 104.5t-24.5 137.5zM188 1020q0 -127 70 -209t197 -82q68 0 128 29.5 t106 82t74 120t28 145.5q0 63 -18.5 116.5t-53.5 92.5t-84.5 60.5t-110.5 21.5q-70 0 -130 -31t-106 -83t-73 -119.5t-27 -143.5zM332 856l86 422h110q59 0 91 -29.5t32 -89.5q0 -49 -29.5 -84t-72.5 -51l61 -168h-57l-53 156h-82l-33 -156h-53zM430 1061h53q53 0 84 23.5 t31 70.5q0 35 -18.5 54.5t-59.5 19.5h-61z" />
<glyph unicode="&#xaf;" horiz-adv-x="1032" d="M467 1245l8 53h434l-8 -53h-434z" />
<glyph unicode="&#xb0;" horiz-adv-x="581" d="M217 1135q0 53 18.5 101t49 85t73.5 58.5t93 21.5q80 0 134 -55.5t54 -145.5q0 -53 -18.5 -101t-49 -85t-73.5 -58.5t-92 -21.5q-80 0 -134.5 55t-54.5 146zM270 1143q0 -68 37 -114t103 -46q39 0 71.5 18.5t56 48t36 66.5t12.5 76q0 68 -37 114t-103 46 q-41 0 -72.5 -18.5t-55 -48.5t-36 -66.5t-12.5 -75.5z" />
<glyph unicode="&#xb1;" d="M98 0v53h795v-53h-795zM98 651v54h369v413h57v-413h369v-54h-369v-426h-57v426h-369z" />
<glyph unicode="&#xb2;" horiz-adv-x="704" d="M196 901l8 49q141 102 238.5 180t158 142.5t88 123t27.5 123.5q0 74 -38.5 115t-120.5 41q-53 0 -103.5 -32.5t-93.5 -82.5l-37 37q47 49 106.5 88t131.5 39q98 0 155.5 -54t57.5 -146q0 -72 -29 -135.5t-88 -131t-150.5 -142.5t-216.5 -165h410l-8 -49h-496z" />
<glyph unicode="&#xb3;" horiz-adv-x="704" d="M188 1040l45 29q31 -59 80 -101t133 -42q41 0 79 12t66.5 35.5t46 57.5t17.5 79q0 72 -63.5 126t-190.5 54l12 49q78 0 133.5 17.5t90 45t51 61.5t16.5 69q0 66 -41 104.5t-114 38.5q-100 0 -197 -80l-29 43q104 86 230 86q92 0 150.5 -50t58.5 -142q0 -74 -56.5 -137.5 t-148.5 -87.5q80 -23 117.5 -77.5t37.5 -107.5q0 -59 -22.5 -104t-59 -77t-86 -48.5t-102.5 -16.5q-92 0 -157.5 51.5t-96.5 112.5z" />
<glyph unicode="&#xb4;" horiz-adv-x="1032" d="M561 1167l237 275h78l-258 -275h-57z" />
<glyph unicode="&#xb5;" horiz-adv-x="1044" d="M0 -410l279 1389h57l-127 -627q-10 -47 -13 -73.5t-3 -57.5q0 -96 43 -144t141 -48q68 0 160 51t208 166l148 733h57l-196 -979h-49l24 164h-8q-92 -80 -177 -134.5t-175 -54.5q-74 0 -131.5 33t-81.5 111l-37 -205l-62 -324h-57z" />
<glyph unicode="&#xb6;" horiz-adv-x="974" d="M156 856q0 123 45 216t118.5 154.5t169 93.5t195.5 32h107l-173 -844h-4q-94 0 -177 22.5t-145.5 65.5t-99 108.5t-36.5 151.5zM590 -164l303 1516h57l-303 -1516h-57z" />
<glyph unicode="&#xb7;" horiz-adv-x="413" d="M168 660q0 35 25.5 64.5t60.5 29.5q29 0 41 -18.5t12 -46.5q0 -35 -23.5 -63t-58.5 -28q-29 0 -43 18.5t-14 43.5z" />
<glyph unicode="&#xb8;" horiz-adv-x="1032" d="M221 -385q86 18 143.5 51t57.5 88q0 41 -29 59.5t-90 34.5l110 156h58l-90 -127q37 -12 65.5 -37.5t28.5 -72.5q0 -43 -20.5 -76t-54.5 -56.5t-79 -38t-92 -22.5z" />
<glyph unicode="&#xb9;" horiz-adv-x="696" d="M381 1585l8 41q78 12 124 27.5t89 46.5h45l-160 -799h-53l135 684h-188z" />
<glyph unicode="&#xba;" horiz-adv-x="696" d="M131 791q0 96 31 174.5t81 134t112.5 86.5t127.5 31q104 0 163 -67t59 -187q0 -96 -31 -175t-81 -134.5t-114 -86t-127 -30.5q-104 0 -162.5 66.5t-58.5 187.5zM184 799q0 -102 44 -157.5t128 -55.5q57 0 110.5 29.5t94.5 81t65.5 118t24.5 139.5q0 102 -44 157.5 t-128 55.5q-57 0 -110.5 -29.5t-94.5 -80.5t-65.5 -118t-24.5 -140z" />
<glyph unicode="&#xbb;" horiz-adv-x="761" d="M41 184l303 328l-184 340l41 25l209 -340l-13 -66l-323 -319zM320 184l303 328l-184 340l41 25l209 -340l-13 -66l-323 -319z" />
<glyph unicode="&#xbc;" horiz-adv-x="1482" d="M246 -25l1008 1401h61l-1008 -1401h-61zM267 1237l8 41q78 12 124 27.5t89 46.5h45l-160 -799h-53l135 684h-188zM815 246l8 37l467 516h37l-100 -504h116l-12 -49h-115l-49 -246h-53l49 246h-348zM897 295h276l39 201l50 200h-9l-147 -168z" />
<glyph unicode="&#xbd;" horiz-adv-x="1515" d="M184 -25l1008 1401h61l-1008 -1401h-61zM258 1237l8 41q78 12 124 27.5t89 46.5h45l-160 -799h-53l135 684h-188zM823 0l8 49q141 102 238.5 180t158 142.5t88 123t27.5 123.5q0 74 -38.5 115t-120.5 41q-53 0 -103.5 -32.5t-93.5 -82.5l-37 37q47 49 106.5 88t131.5 39 q98 0 155.5 -54t57.5 -146q0 -72 -29 -135.5t-88 -131t-150.5 -142.5t-216.5 -165h410l-8 -49h-496z" />
<glyph unicode="&#xbe;" horiz-adv-x="1523" d="M106 692l45 29q31 -59 80 -101t133 -42q41 0 79 12t66.5 35.5t46 57.5t17.5 79q0 72 -63.5 126t-190.5 54l12 49q78 0 133.5 17.5t90 45t51 61.5t16.5 69q0 66 -41 104.5t-114 38.5q-100 0 -197 -80l-29 43q104 86 230 86q92 0 150.5 -50t58.5 -142q0 -74 -56.5 -137.5 t-148.5 -87.5q80 -23 117.5 -77.5t37.5 -107.5q0 -59 -22.5 -104t-59 -77t-86 -48.5t-102.5 -16.5q-92 0 -157.5 51.5t-96.5 112.5zM332 -25l1008 1401h61l-1008 -1401h-61zM860 246l8 37l467 516h37l-100 -504h116l-12 -49h-115l-49 -246h-53l49 246h-348zM942 295h276 l39 201l50 200h-9l-147 -168z" />
<glyph unicode="&#xbf;" horiz-adv-x="778" d="M-12 -152q0 84 31.5 152t79.5 126t103.5 112.5t104.5 113t84 125t39 150.5l53 -4q-2 -90 -35.5 -161t-83 -130.5t-105.5 -112.5t-103 -107.5t-79 -116t-32 -134.5q0 -104 55.5 -162.5t153.5 -58.5q74 0 143.5 35.5t118.5 91.5l37 -41q-49 -55 -130 -97.5t-173 -42.5 q-123 0 -192.5 70t-69.5 192zM438 918q0 35 23.5 62.5t58.5 27.5q29 0 43.5 -18.5t14.5 -43.5q0 -35 -26 -64.5t-60 -29.5q-29 0 -41.5 18.5t-12.5 47.5z" />
<glyph unicode="&#xc0;" horiz-adv-x="983" d="M-94 0l749 1352h62l172 -1352h-62l-59 487h-526l-267 -487h-69zM270 541h492l-33 270q-12 115 -26.5 231.5t-26.5 239.5h-8q-61 -127 -123 -238.5t-127 -232.5zM516 1663h70l159 -209h-53z" />
<glyph unicode="&#xc1;" horiz-adv-x="983" d="M-94 0l749 1352h62l172 -1352h-62l-59 487h-526l-267 -487h-69zM270 541h492l-33 270q-12 115 -26.5 231.5t-26.5 239.5h-8q-61 -127 -123 -238.5t-127 -232.5zM619 1454l225 209h78l-246 -209h-57z" />
<glyph unicode="&#xc2;" horiz-adv-x="983" d="M-94 0l749 1352h62l172 -1352h-62l-59 487h-526l-267 -487h-69zM270 541h492l-33 270q-12 115 -26.5 231.5t-26.5 239.5h-8q-61 -127 -123 -238.5t-127 -232.5zM467 1454l229 209h49l148 -209h-53l-119 156h-8l-185 -156h-61z" />
<glyph unicode="&#xc3;" horiz-adv-x="983" d="M-94 0l749 1352h62l172 -1352h-62l-59 487h-526l-267 -487h-69zM270 541h492l-33 270q-12 115 -26.5 231.5t-26.5 239.5h-8q-61 -127 -123 -238.5t-127 -232.5zM436 1470q6 29 20.5 60t36 55.5t49 40.5t60.5 16t57.5 -19t46 -44t43 -44t52.5 -19q39 0 66.5 34.5 t43.5 87.5h45q-6 -29 -20 -59.5t-35.5 -55t-49.5 -41t-60 -16.5q-35 0 -58.5 19.5t-45 44t-43 44t-52.5 19.5q-39 0 -66.5 -34.5t-44.5 -88.5h-45z" />
<glyph unicode="&#xc4;" horiz-adv-x="983" d="M-94 0l749 1352h62l172 -1352h-62l-59 487h-526l-267 -487h-69zM270 541h492l-33 270q-12 115 -26.5 231.5t-26.5 239.5h-8q-61 -127 -123 -238.5t-127 -232.5zM492 1540q0 35 20 56.5t45 21.5q53 0 53 -57q0 -31 -20 -52.5t-45 -21.5q-53 0 -53 53zM791 1540 q0 35 20.5 56.5t44.5 21.5q53 0 53 -57q0 -31 -20 -52.5t-45 -21.5q-53 0 -53 53z" />
<glyph unicode="&#xc5;" horiz-adv-x="983" d="M-94 0l749 1352h62l172 -1352h-62l-59 487h-526l-267 -487h-69zM270 541h492l-33 270q-12 115 -26.5 231.5t-26.5 239.5h-8q-61 -127 -123 -238.5t-127 -232.5zM545 1581q0 78 52 131t124 53q61 0 102 -36.5t41 -114.5t-52 -131t-124 -53q-61 0 -102 36.5t-41 114.5z M594 1585q0 -53 25.5 -81.5t72.5 -28.5q49 0 86 37.5t37 97.5q0 53 -25.5 81.5t-72.5 28.5q-49 0 -86 -37.5t-37 -97.5z" />
<glyph unicode="&#xc6;" horiz-adv-x="1585" d="M-66 0l1004 1352h709l-13 -54h-610l-111 -553h512l-12 -53h-508l-131 -639h631l-12 -53h-688l92 463h-449l-340 -463h-74zM387 516h420l156 778h-9l-356 -491z" />
<glyph unicode="&#xc7;" horiz-adv-x="1097" d="M119 504q0 147 46 302t133 281.5t213 207.5t288 81q115 0 189.5 -57t121.5 -131l-49 -33q-41 72 -105.5 120t-160.5 48q-147 0 -262 -77t-193 -195.5t-119 -261t-41 -273.5q0 -102 22.5 -191t71 -155t123 -103.5t176.5 -37.5q98 0 176 34.5t156 100.5l37 -41 q-86 -72 -174 -110t-199 -38q-115 0 -198.5 41t-140 112t-84 167t-27.5 209zM344 -385q86 18 143.5 51t57.5 88q0 41 -29 59.5t-90 34.5l110 156h58l-90 -127q37 -12 65.5 -37.5t28.5 -72.5q0 -43 -20.5 -76t-54.5 -56.5t-79 -38t-92 -22.5z" />
<glyph unicode="&#xc8;" horiz-adv-x="991" d="M82 0l270 1352h701l-13 -54h-639l-110 -553h540l-12 -53h-536l-131 -639h659l-12 -53h-717zM553 1663h70l159 -209h-53z" />
<glyph unicode="&#xc9;" horiz-adv-x="991" d="M82 0l270 1352h701l-13 -54h-639l-110 -553h540l-12 -53h-536l-131 -639h659l-12 -53h-717zM656 1454l225 209h78l-246 -209h-57z" />
<glyph unicode="&#xca;" horiz-adv-x="991" d="M82 0l270 1352h701l-13 -54h-639l-110 -553h540l-12 -53h-536l-131 -639h659l-12 -53h-717zM504 1454l229 209h49l148 -209h-53l-119 156h-8l-185 -156h-61z" />
<glyph unicode="&#xcb;" horiz-adv-x="991" d="M82 0l270 1352h701l-13 -54h-639l-110 -553h540l-12 -53h-536l-131 -639h659l-12 -53h-717zM529 1540q0 35 20 56.5t45 21.5q53 0 53 -57q0 -31 -20 -52.5t-45 -21.5q-53 0 -53 53zM828 1540q0 35 20.5 56.5t44.5 21.5q53 0 53 -57q0 -31 -20 -52.5t-45 -21.5 q-53 0 -53 53z" />
<glyph unicode="&#xcc;" horiz-adv-x="446" d="M82 0l270 1352h62l-271 -1352h-61zM225 1663h70l159 -209h-53z" />
<glyph unicode="&#xcd;" horiz-adv-x="446" d="M82 0l270 1352h62l-271 -1352h-61zM328 1454l225 209h78l-246 -209h-57z" />
<glyph unicode="&#xce;" horiz-adv-x="446" d="M82 0l270 1352h62l-271 -1352h-61zM176 1454l229 209h49l148 -209h-53l-119 156h-8l-185 -156h-61z" />
<glyph unicode="&#xcf;" horiz-adv-x="446" d="M82 0l270 1352h62l-271 -1352h-61zM201 1540q0 35 20 56.5t45 21.5q53 0 53 -57q0 -31 -20 -52.5t-45 -21.5q-53 0 -53 53zM500 1540q0 35 20.5 56.5t44.5 21.5q53 0 53 -57q0 -31 -20 -52.5t-45 -21.5q-53 0 -53 53z" />
<glyph unicode="&#xd0;" horiz-adv-x="1208" d="M111 692l12 49l145 4l121 607h213q139 0 243.5 -38t173 -107.5t102.5 -166t34 -213.5q0 -172 -46 -322.5t-136 -263t-225.5 -177t-313.5 -64.5h-315l139 692h-147zM188 53h250q158 0 281 62.5t206 169t126 246t43 292.5q0 104 -31 191.5t-92.5 151t-154.5 98t-218 34.5 h-160l-110 -553h348l-12 -53h-347z" />
<glyph unicode="&#xd1;" horiz-adv-x="1228" d="M82 0l270 1352h70l377 -996l98 -270h8q16 96 31.5 192.5t34.5 192.5l176 881h61l-270 -1352h-66l-372 991l-103 283h-8q-16 -98 -33.5 -193.5t-36.5 -187.5l-176 -893h-61zM542 1470q6 29 20.5 60t36 55.5t49 40.5t60.5 16t57.5 -19t46 -44t43 -44t52.5 -19 q39 0 66.5 34.5t43.5 87.5h45q-6 -29 -20 -59.5t-35.5 -55t-49.5 -41t-60 -16.5q-35 0 -58.5 19.5t-45 44t-43 44t-52.5 19.5q-39 0 -66.5 -34.5t-44.5 -88.5h-45z" />
<glyph unicode="&#xd2;" horiz-adv-x="1253" d="M127 537q0 90 18.5 187t55.5 190.5t91 177.5t124.5 147.5t156.5 100t189 36.5q111 0 192.5 -42t135 -115.5t80 -177t26.5 -226.5q0 -90 -18.5 -187.5t-55.5 -190.5t-91 -177t-124.5 -147.5t-158 -100.5t-187.5 -37q-111 0 -192.5 42t-135 116t-80 177.5t-26.5 226.5z M188 545q0 -115 21.5 -209t68 -163t117 -106.5t170.5 -37.5q137 0 243.5 76.5t179.5 192.5t110 252t37 257q0 113 -21.5 208t-68 163.5t-117 106.5t-170.5 38q-92 0 -170 -36t-141.5 -95t-111.5 -138t-81 -165t-49.5 -175t-16.5 -169zM643 1663h70l159 -209h-53z" />
<glyph unicode="&#xd3;" horiz-adv-x="1253" d="M127 537q0 90 18.5 187t55.5 190.5t91 177.5t124.5 147.5t156.5 100t189 36.5q111 0 192.5 -42t135 -115.5t80 -177t26.5 -226.5q0 -90 -18.5 -187.5t-55.5 -190.5t-91 -177t-124.5 -147.5t-158 -100.5t-187.5 -37q-111 0 -192.5 42t-135 116t-80 177.5t-26.5 226.5z M188 545q0 -115 21.5 -209t68 -163t117 -106.5t170.5 -37.5q137 0 243.5 76.5t179.5 192.5t110 252t37 257q0 113 -21.5 208t-68 163.5t-117 106.5t-170.5 38q-92 0 -170 -36t-141.5 -95t-111.5 -138t-81 -165t-49.5 -175t-16.5 -169zM746 1454l225 209h78l-246 -209h-57z " />
<glyph unicode="&#xd4;" horiz-adv-x="1253" d="M127 537q0 90 18.5 187t55.5 190.5t91 177.5t124.5 147.5t156.5 100t189 36.5q111 0 192.5 -42t135 -115.5t80 -177t26.5 -226.5q0 -90 -18.5 -187.5t-55.5 -190.5t-91 -177t-124.5 -147.5t-158 -100.5t-187.5 -37q-111 0 -192.5 42t-135 116t-80 177.5t-26.5 226.5z M188 545q0 -115 21.5 -209t68 -163t117 -106.5t170.5 -37.5q137 0 243.5 76.5t179.5 192.5t110 252t37 257q0 113 -21.5 208t-68 163.5t-117 106.5t-170.5 38q-92 0 -170 -36t-141.5 -95t-111.5 -138t-81 -165t-49.5 -175t-16.5 -169zM594 1454l229 209h49l148 -209h-53 l-119 156h-8l-185 -156h-61z" />
<glyph unicode="&#xd5;" horiz-adv-x="1253" d="M127 537q0 90 18.5 187t55.5 190.5t91 177.5t124.5 147.5t156.5 100t189 36.5q111 0 192.5 -42t135 -115.5t80 -177t26.5 -226.5q0 -90 -18.5 -187.5t-55.5 -190.5t-91 -177t-124.5 -147.5t-158 -100.5t-187.5 -37q-111 0 -192.5 42t-135 116t-80 177.5t-26.5 226.5z M188 545q0 -115 21.5 -209t68 -163t117 -106.5t170.5 -37.5q137 0 243.5 76.5t179.5 192.5t110 252t37 257q0 113 -21.5 208t-68 163.5t-117 106.5t-170.5 38q-92 0 -170 -36t-141.5 -95t-111.5 -138t-81 -165t-49.5 -175t-16.5 -169zM563 1470q6 29 20.5 60t36 55.5 t49 40.5t60.5 16t57.5 -19t46 -44t43 -44t52.5 -19q39 0 66.5 34.5t43.5 87.5h45q-6 -29 -20 -59.5t-35.5 -55t-49.5 -41t-60 -16.5q-35 0 -58.5 19.5t-45 44t-43 44t-52.5 19.5q-39 0 -66.5 -34.5t-44.5 -88.5h-45z" />
<glyph unicode="&#xd6;" horiz-adv-x="1253" d="M127 537q0 90 18.5 187t55.5 190.5t91 177.5t124.5 147.5t156.5 100t189 36.5q111 0 192.5 -42t135 -115.5t80 -177t26.5 -226.5q0 -90 -18.5 -187.5t-55.5 -190.5t-91 -177t-124.5 -147.5t-158 -100.5t-187.5 -37q-111 0 -192.5 42t-135 116t-80 177.5t-26.5 226.5z M188 545q0 -115 21.5 -209t68 -163t117 -106.5t170.5 -37.5q137 0 243.5 76.5t179.5 192.5t110 252t37 257q0 113 -21.5 208t-68 163.5t-117 106.5t-170.5 38q-92 0 -170 -36t-141.5 -95t-111.5 -138t-81 -165t-49.5 -175t-16.5 -169zM619 1540q0 35 20 56.5t45 21.5 q53 0 53 -57q0 -31 -20 -52.5t-45 -21.5q-53 0 -53 53zM918 1540q0 35 20.5 56.5t44.5 21.5q53 0 53 -57q0 -31 -20 -52.5t-45 -21.5q-53 0 -53 53z" />
<glyph unicode="&#xd7;" d="M135 340l324 340l-324 336l37 37l324 -336l323 336l37 -37l-324 -336l324 -340l-37 -37l-323 340l-324 -340z" />
<glyph unicode="&#xd8;" horiz-adv-x="1253" d="M4 -8l191 207q-68 137 -68 338q0 90 18.5 187t55.5 190.5t91 177.5t124.5 147.5t156.5 100t189 36.5q119 0 205 -47t139 -133l176 193l33 -37l-185 -203q35 -70 50.5 -153t15.5 -181q0 -90 -18.5 -187.5t-55.5 -190.5t-91 -177t-124.5 -147.5t-157.5 -100.5t-188 -37 q-117 0 -201 45.5t-137 126.5l-174 -192zM188 545q0 -174 50 -297l825 901q-45 82 -120 128t-185 46q-92 0 -170 -36t-141.5 -95t-111.5 -138t-81 -165t-49.5 -175t-16.5 -169zM264 193q47 -78 120 -121t181 -43q137 0 243.5 76.5t179.5 192.5t110 252t37 257 q0 86 -11.5 159.5t-36.5 133.5z" />
<glyph unicode="&#xd9;" horiz-adv-x="1216" d="M168 369q0 41 3 79.5t13 88.5l164 815h62l-160 -799q-12 -49 -16.5 -90t-4.5 -78q0 -170 82 -263t246 -93q66 0 129.5 24.5t117.5 79.5t96 142t67 212l172 865h61l-176 -881q-29 -139 -77 -233.5t-111.5 -152.5t-137 -84t-149.5 -26q-180 0 -280.5 102.5t-100.5 291.5z M618 1663h70l159 -209h-53z" />
<glyph unicode="&#xda;" horiz-adv-x="1216" d="M168 369q0 41 3 79.5t13 88.5l164 815h62l-160 -799q-12 -49 -16.5 -90t-4.5 -78q0 -170 82 -263t246 -93q66 0 129.5 24.5t117.5 79.5t96 142t67 212l172 865h61l-176 -881q-29 -139 -77 -233.5t-111.5 -152.5t-137 -84t-149.5 -26q-180 0 -280.5 102.5t-100.5 291.5z M721 1454l225 209h78l-246 -209h-57z" />
<glyph unicode="&#xdb;" horiz-adv-x="1216" d="M168 369q0 41 3 79.5t13 88.5l164 815h62l-160 -799q-12 -49 -16.5 -90t-4.5 -78q0 -170 82 -263t246 -93q66 0 129.5 24.5t117.5 79.5t96 142t67 212l172 865h61l-176 -881q-29 -139 -77 -233.5t-111.5 -152.5t-137 -84t-149.5 -26q-180 0 -280.5 102.5t-100.5 291.5z M569 1454l229 209h49l148 -209h-53l-119 156h-8l-185 -156h-61z" />
<glyph unicode="&#xdc;" horiz-adv-x="1216" d="M168 369q0 41 3 79.5t13 88.5l164 815h62l-160 -799q-12 -49 -16.5 -90t-4.5 -78q0 -170 82 -263t246 -93q66 0 129.5 24.5t117.5 79.5t96 142t67 212l172 865h61l-176 -881q-29 -139 -77 -233.5t-111.5 -152.5t-137 -84t-149.5 -26q-180 0 -280.5 102.5t-100.5 291.5z M594 1540q0 35 20 56.5t45 21.5q53 0 53 -57q0 -31 -20 -52.5t-45 -21.5q-53 0 -53 53zM893 1540q0 35 20.5 56.5t44.5 21.5q53 0 53 -57q0 -31 -20 -52.5t-45 -21.5q-53 0 -53 53z" />
<glyph unicode="&#xdd;" horiz-adv-x="864" d="M176 1352h62l120 -441q20 -74 39 -144.5t41 -145.5h6q51 72 100.5 145.5t100.5 144.5l309 441h66l-559 -793l-113 -559h-61l112 559zM529 1454l225 209h78l-246 -209h-57z" />
<glyph unicode="&#xde;" horiz-adv-x="1097" d="M82 0l270 1352h62l-49 -254h278q186 0 289.5 -74t103.5 -233q0 -111 -39 -194t-112.5 -138.5t-178 -83t-235.5 -27.5h-258l-70 -348h-61zM225 401h234q256 0 386 96.5t130 288.5q0 139 -93.5 198.5t-275.5 59.5h-254z" />
<glyph unicode="&#xdf;" horiz-adv-x="1048" d="M90 0l221 1106q16 80 50 151.5t82.5 127t109.5 87t135 31.5q104 0 164.5 -62.5t60.5 -178.5q0 -102 -47 -170t-104 -121t-104.5 -105.5t-47.5 -124.5q0 -49 24.5 -84.5t61.5 -66.5t80 -61.5t80 -66.5t61.5 -83t24.5 -113q0 -59 -22.5 -112.5t-63.5 -93.5t-97.5 -62.5 t-123.5 -22.5q-72 0 -143.5 29t-131.5 82l37 41q55 -47 112.5 -72.5t129.5 -25.5q49 0 93 16t78 47t54.5 72t20.5 90q0 59 -24.5 104t-61.5 80t-80 66t-80 63.5t-61.5 70.5t-24.5 91q0 59 22.5 104.5t56.5 84t72.5 74.5t72.5 75t56.5 86t22.5 109q0 80 -40 134t-132 54 q-59 0 -111.5 -28.5t-93.5 -78t-70.5 -116t-43.5 -142.5l-218 -1085h-57z" />
<glyph unicode="&#xe0;" horiz-adv-x="1073" d="M94 328q0 141 45 264t120 215t170 144.5t198 52.5q90 0 153.5 -45.5t104.5 -118.5h8l37 139h49l-197 -979h-49l25 160h-8q-78 -80 -171.5 -132.5t-197.5 -52.5q-129 0 -208 89.5t-79 263.5zM152 340q0 -158 62 -234.5t171 -76.5q102 0 199.5 58t189.5 163l107 512 q-59 102 -122 145t-136 43q-92 0 -177.5 -53t-151 -139t-104 -195.5t-38.5 -222.5zM565 1442h70l123 -275h-49z" />
<glyph unicode="&#xe1;" horiz-adv-x="1073" d="M94 328q0 141 45 264t120 215t170 144.5t198 52.5q90 0 153.5 -45.5t104.5 -118.5h8l37 139h49l-197 -979h-49l25 160h-8q-78 -80 -171.5 -132.5t-197.5 -52.5q-129 0 -208 89.5t-79 263.5zM152 340q0 -158 62 -234.5t171 -76.5q102 0 199.5 58t189.5 163l107 512 q-59 102 -122 145t-136 43q-92 0 -177.5 -53t-151 -139t-104 -195.5t-38.5 -222.5zM553 1167l237 275h78l-258 -275h-57z" />
<glyph unicode="&#xe2;" horiz-adv-x="1073" d="M94 328q0 141 45 264t120 215t170 144.5t198 52.5q90 0 153.5 -45.5t104.5 -118.5h8l37 139h49l-197 -979h-49l25 160h-8q-78 -80 -171.5 -132.5t-197.5 -52.5q-129 0 -208 89.5t-79 263.5zM152 340q0 -158 62 -234.5t171 -76.5q102 0 199.5 58t189.5 163l107 512 q-59 102 -122 145t-136 43q-92 0 -177.5 -53t-151 -139t-104 -195.5t-38.5 -222.5zM446 1167l250 275h37l139 -275h-49l-114 205h-9l-196 -205h-58z" />
<glyph unicode="&#xe3;" horiz-adv-x="1073" d="M94 328q0 141 45 264t120 215t170 144.5t198 52.5q90 0 153.5 -45.5t104.5 -118.5h8l37 139h49l-197 -979h-49l25 160h-8q-78 -80 -171.5 -132.5t-197.5 -52.5q-129 0 -208 89.5t-79 263.5zM152 340q0 -158 62 -234.5t171 -76.5q102 0 199.5 58t189.5 163l107 512 q-59 102 -122 145t-136 43q-92 0 -177.5 -53t-151 -139t-104 -195.5t-38.5 -222.5zM426 1192q8 31 22.5 60.5t33 54t43 39t52.5 14.5q43 0 69 -19.5t47.5 -42t42 -42t54.5 -19.5q29 0 54.5 35t44.5 84h45q-18 -61 -56 -114.5t-96 -53.5q-43 0 -68.5 19.5t-47 42t-43 42 t-54.5 19.5q-29 0 -54.5 -35t-43.5 -84h-45z" />
<glyph unicode="&#xe4;" horiz-adv-x="1073" d="M94 328q0 141 45 264t120 215t170 144.5t198 52.5q90 0 153.5 -45.5t104.5 -118.5h8l37 139h49l-197 -979h-49l25 160h-8q-78 -80 -171.5 -132.5t-197.5 -52.5q-129 0 -208 89.5t-79 263.5zM152 340q0 -158 62 -234.5t171 -76.5q102 0 199.5 58t189.5 163l107 512 q-59 102 -122 145t-136 43q-92 0 -177.5 -53t-151 -139t-104 -195.5t-38.5 -222.5zM479 1286q0 35 20.5 56.5t45.5 21.5q53 0 53 -57q0 -31 -20.5 -52.5t-45.5 -21.5q-53 0 -53 53zM778 1286q0 35 20.5 56.5t45.5 21.5q53 0 53 -57q0 -31 -20.5 -52.5t-45.5 -21.5 q-53 0 -53 53z" />
<glyph unicode="&#xe5;" horiz-adv-x="1073" d="M94 328q0 141 45 264t120 215t170 144.5t198 52.5q90 0 153.5 -45.5t104.5 -118.5h8l37 139h49l-197 -979h-49l25 160h-8q-78 -80 -171.5 -132.5t-197.5 -52.5q-129 0 -208 89.5t-79 263.5zM152 340q0 -158 62 -234.5t171 -76.5q102 0 199.5 58t189.5 163l107 512 q-59 102 -122 145t-136 43q-92 0 -177.5 -53t-151 -139t-104 -195.5t-38.5 -222.5zM520 1249q0 39 14.5 74t39 61.5t56 42t66.5 15.5q61 0 102.5 -39t41.5 -117q0 -39 -14.5 -73.5t-39 -61.5t-56.5 -42t-67 -15q-61 0 -102 38.5t-41 116.5zM569 1253q0 -53 25.5 -83.5 t73.5 -30.5q49 0 85.5 42t36.5 101q0 53 -25.5 84t-72.5 31q-49 0 -86 -42t-37 -102z" />
<glyph unicode="&#xe6;" horiz-adv-x="1568" d="M82 209q0 100 48 173t136 119t213 70.5t279 30.5q10 41 13 68.5t3 58.5q0 104 -45 162.5t-156 58.5q-72 0 -147.5 -27.5t-146.5 -70.5l-25 49q68 41 154 72t170 31q111 0 179 -59.5t74 -182.5q72 111 170.5 176.5t202.5 65.5q78 0 133.5 -26t90 -72t51 -108.5 t16.5 -138.5q0 -49 -7 -91t-18 -72h-671q-20 -102 -9 -187.5t47.5 -148t95 -97t136.5 -34.5q72 0 137.5 28.5t120.5 69.5l29 -45q-59 -43 -133 -75t-158 -32q-109 0 -193 62.5t-114 159.5q-104 -104 -214 -163t-220 -59q-47 0 -91.5 14.5t-78 44t-53 73t-19.5 102.5z M139 221q0 -96 56.5 -144t140.5 -48q80 0 187.5 53t217.5 168q-6 43 -8 80t-1 71.5t5.5 70.5t12.5 77q-137 -4 -250 -24.5t-193 -60.5t-124 -100.5t-44 -142.5zM811 549h614q6 31 9.5 59.5t3.5 63.5q0 51 -12.5 101t-40 90t-73.5 63.5t-112 23.5q-59 0 -120.5 -29.5 t-114 -83t-93.5 -127t-61 -161.5z" />
<glyph unicode="&#xe7;" horiz-adv-x="876" d="M90 360q0 143 45 262t119 204t167 131.5t189 46.5q84 0 140.5 -32t105.5 -87l-41 -41q-47 55 -92 80.5t-117 25.5q-86 0 -169 -46t-147.5 -126t-103.5 -184.5t-39 -220.5q0 -170 71 -257t216 -87q78 0 144.5 31.5t121.5 74.5l33 -45q-53 -41 -127 -78t-176 -37 q-158 0 -249 99.5t-91 285.5zM201 -385q86 18 143.5 51t57.5 88q0 41 -29 59.5t-90 34.5l110 156h58l-90 -127q37 -12 65.5 -37.5t28.5 -72.5q0 -43 -20.5 -76t-54.5 -56.5t-79 -38t-92 -22.5z" />
<glyph unicode="&#xe8;" horiz-adv-x="958" d="M90 377q0 139 44 255t114.5 198.5t161 128t184.5 45.5q78 0 133 -26t90 -72t51.5 -108.5t16.5 -138.5q0 -49 -7.5 -91t-17.5 -72h-700q-23 -123 -6.5 -211t59.5 -145.5t107.5 -84t142.5 -26.5q68 0 133.5 28.5t120.5 69.5l28 -45q-59 -43 -132.5 -75t-153.5 -32 q-170 0 -269.5 101.5t-99.5 300.5zM172 549h643q6 31 9 59.5t3 63.5q0 51 -12 101t-39.5 90t-74 63.5t-111.5 23.5q-70 0 -136.5 -29.5t-122 -83t-97 -127t-62.5 -161.5zM524 1442h70l123 -275h-49z" />
<glyph unicode="&#xe9;" horiz-adv-x="958" d="M90 377q0 139 44 255t114.5 198.5t161 128t184.5 45.5q78 0 133 -26t90 -72t51.5 -108.5t16.5 -138.5q0 -49 -7.5 -91t-17.5 -72h-700q-23 -123 -6.5 -211t59.5 -145.5t107.5 -84t142.5 -26.5q68 0 133.5 28.5t120.5 69.5l28 -45q-59 -43 -132.5 -75t-153.5 -32 q-170 0 -269.5 101.5t-99.5 300.5zM172 549h643q6 31 9 59.5t3 63.5q0 51 -12 101t-39.5 90t-74 63.5t-111.5 23.5q-70 0 -136.5 -29.5t-122 -83t-97 -127t-62.5 -161.5zM512 1167l237 275h78l-258 -275h-57z" />
<glyph unicode="&#xea;" horiz-adv-x="958" d="M90 377q0 139 44 255t114.5 198.5t161 128t184.5 45.5q78 0 133 -26t90 -72t51.5 -108.5t16.5 -138.5q0 -49 -7.5 -91t-17.5 -72h-700q-23 -123 -6.5 -211t59.5 -145.5t107.5 -84t142.5 -26.5q68 0 133.5 28.5t120.5 69.5l28 -45q-59 -43 -132.5 -75t-153.5 -32 q-170 0 -269.5 101.5t-99.5 300.5zM172 549h643q6 31 9 59.5t3 63.5q0 51 -12 101t-39.5 90t-74 63.5t-111.5 23.5q-70 0 -136.5 -29.5t-122 -83t-97 -127t-62.5 -161.5zM405 1167l250 275h37l139 -275h-49l-114 205h-9l-196 -205h-58z" />
<glyph unicode="&#xeb;" horiz-adv-x="958" d="M90 377q0 139 44 255t114.5 198.5t161 128t184.5 45.5q78 0 133 -26t90 -72t51.5 -108.5t16.5 -138.5q0 -49 -7.5 -91t-17.5 -72h-700q-23 -123 -6.5 -211t59.5 -145.5t107.5 -84t142.5 -26.5q68 0 133.5 28.5t120.5 69.5l28 -45q-59 -43 -132.5 -75t-153.5 -32 q-170 0 -269.5 101.5t-99.5 300.5zM172 549h643q6 31 9 59.5t3 63.5q0 51 -12 101t-39.5 90t-74 63.5t-111.5 23.5q-70 0 -136.5 -29.5t-122 -83t-97 -127t-62.5 -161.5zM438 1286q0 35 20.5 56.5t45.5 21.5q53 0 53 -57q0 -31 -20.5 -52.5t-45.5 -21.5q-53 0 -53 53z M737 1286q0 35 20.5 56.5t45.5 21.5q53 0 53 -57q0 -31 -20.5 -52.5t-45.5 -21.5q-53 0 -53 53z" />
<glyph unicode="&#xec;" horiz-adv-x="438" d="M90 0l197 979h57l-197 -979h-57zM262 1442h70l123 -275h-49z" />
<glyph unicode="&#xed;" horiz-adv-x="438" d="M90 0l197 979h57l-197 -979h-57zM250 1167l237 275h78l-258 -275h-57z" />
<glyph unicode="&#xee;" horiz-adv-x="438" d="M90 0l197 979h57l-197 -979h-57zM143 1167l250 275h37l139 -275h-49l-114 205h-9l-196 -205h-58z" />
<glyph unicode="&#xef;" horiz-adv-x="438" d="M90 0l197 979h57l-197 -979h-57zM176 1286q0 35 20.5 56.5t45.5 21.5q53 0 53 -57q0 -31 -20.5 -52.5t-45.5 -21.5q-53 0 -53 53zM475 1286q0 35 20.5 56.5t45.5 21.5q53 0 53 -57q0 -31 -20.5 -52.5t-45.5 -21.5q-53 0 -53 53z" />
<glyph unicode="&#xf0;" horiz-adv-x="1052" d="M102 336q0 109 34 211t96.5 181t151.5 126t198 47q82 0 152.5 -46t125.5 -120q-6 152 -45 266.5t-104 206.5l-305 -131l-17 45l293 125q-47 55 -101.5 102.5t-117.5 88.5l33 41q137 -88 237 -209l299 127l17 -45l-287 -123q72 -102 114 -232.5t42 -300.5 q0 -152 -35 -282.5t-99.5 -228t-154.5 -154t-199 -56.5q-72 0 -132 29t-103 78t-68 114.5t-25 139.5zM160 344q0 -63 18.5 -120.5t55 -100.5t88.5 -68.5t120 -25.5q90 0 165 51t130.5 137t87 197.5t35.5 234.5q-25 37 -53.5 73t-63 63.5t-75.5 45t-90 17.5q-94 0 -171 -43 t-132.5 -113.5t-85 -162t-29.5 -185.5z" />
<glyph unicode="&#xf1;" horiz-adv-x="1032" d="M90 0l197 979h49l-25 -160h8q92 80 177.5 132.5t175.5 52.5q127 0 180 -67t53 -171q0 -37 -3 -62.5t-13 -68.5l-127 -635h-57l126 627q10 47 13.5 73.5t3.5 57.5q0 96 -43 144t-141 48q-68 0 -160 -51t-209 -166l-148 -733h-57zM438 1192q8 31 22.5 60.5t33 54t43 39 t52.5 14.5q43 0 69 -19.5t47.5 -42t42 -42t54.5 -19.5q29 0 54.5 35t44.5 84h45q-18 -61 -56 -114.5t-96 -53.5q-43 0 -68.5 19.5t-47 42t-43 42t-54.5 19.5q-29 0 -54.5 -35t-43.5 -84h-45z" />
<glyph unicode="&#xf2;" horiz-adv-x="1024" d="M94 360q0 137 43 255t114 204t163 135.5t192 49.5q147 0 235.5 -99.5t88.5 -286.5q0 -137 -43 -254.5t-114 -203.5t-163 -135.5t-192 -49.5q-147 0 -235.5 99.5t-88.5 285.5zM152 373q0 -170 70.5 -257t199.5 -87q82 0 163 46t145.5 126t103 184t38.5 221 q0 170 -70.5 257t-199.5 87q-84 0 -164 -46t-144.5 -126t-103 -184.5t-38.5 -220.5zM573 1442h70l123 -275h-49z" />
<glyph unicode="&#xf3;" horiz-adv-x="1024" d="M94 360q0 137 43 255t114 204t163 135.5t192 49.5q147 0 235.5 -99.5t88.5 -286.5q0 -137 -43 -254.5t-114 -203.5t-163 -135.5t-192 -49.5q-147 0 -235.5 99.5t-88.5 285.5zM152 373q0 -170 70.5 -257t199.5 -87q82 0 163 46t145.5 126t103 184t38.5 221 q0 170 -70.5 257t-199.5 87q-84 0 -164 -46t-144.5 -126t-103 -184.5t-38.5 -220.5zM561 1167l237 275h78l-258 -275h-57z" />
<glyph unicode="&#xf4;" horiz-adv-x="1024" d="M94 360q0 137 43 255t114 204t163 135.5t192 49.5q147 0 235.5 -99.5t88.5 -286.5q0 -137 -43 -254.5t-114 -203.5t-163 -135.5t-192 -49.5q-147 0 -235.5 99.5t-88.5 285.5zM152 373q0 -170 70.5 -257t199.5 -87q82 0 163 46t145.5 126t103 184t38.5 221 q0 170 -70.5 257t-199.5 87q-84 0 -164 -46t-144.5 -126t-103 -184.5t-38.5 -220.5zM454 1167l250 275h37l139 -275h-49l-114 205h-9l-196 -205h-58z" />
<glyph unicode="&#xf5;" horiz-adv-x="1024" d="M94 360q0 137 43 255t114 204t163 135.5t192 49.5q147 0 235.5 -99.5t88.5 -286.5q0 -137 -43 -254.5t-114 -203.5t-163 -135.5t-192 -49.5q-147 0 -235.5 99.5t-88.5 285.5zM152 373q0 -170 70.5 -257t199.5 -87q82 0 163 46t145.5 126t103 184t38.5 221 q0 170 -70.5 257t-199.5 87q-84 0 -164 -46t-144.5 -126t-103 -184.5t-38.5 -220.5zM434 1192q8 31 22.5 60.5t33 54t43 39t52.5 14.5q43 0 69 -19.5t47.5 -42t42 -42t54.5 -19.5q29 0 54.5 35t44.5 84h45q-18 -61 -56 -114.5t-96 -53.5q-43 0 -68.5 19.5t-47 42t-43 42 t-54.5 19.5q-29 0 -54.5 -35t-43.5 -84h-45z" />
<glyph unicode="&#xf6;" horiz-adv-x="1024" d="M94 360q0 137 43 255t114 204t163 135.5t192 49.5q147 0 235.5 -99.5t88.5 -286.5q0 -137 -43 -254.5t-114 -203.5t-163 -135.5t-192 -49.5q-147 0 -235.5 99.5t-88.5 285.5zM152 373q0 -170 70.5 -257t199.5 -87q82 0 163 46t145.5 126t103 184t38.5 221 q0 170 -70.5 257t-199.5 87q-84 0 -164 -46t-144.5 -126t-103 -184.5t-38.5 -220.5zM487 1286q0 35 20.5 56.5t45.5 21.5q53 0 53 -57q0 -31 -20.5 -52.5t-45.5 -21.5q-53 0 -53 53zM786 1286q0 35 20.5 56.5t45.5 21.5q53 0 53 -57q0 -31 -20.5 -52.5t-45.5 -21.5 q-53 0 -53 53z" />
<glyph unicode="&#xf7;" d="M98 651v54h795v-54h-795zM434 303q0 29 16.5 47.5t45.5 18.5t45 -18.5t16 -47.5t-16 -49.5t-45 -20.5t-45.5 20.5t-16.5 49.5zM434 1049q0 29 16.5 47t45.5 18t45 -18.5t16 -46.5q0 -29 -16 -49.5t-45 -20.5t-45.5 20.5t-16.5 49.5z" />
<glyph unicode="&#xf8;" horiz-adv-x="1024" d="M0 -8l141 145q-47 90 -47 223q0 137 43 255t114 204t163 135.5t192 49.5q168 0 256 -125l137 141l37 -37l-147 -152q41 -92 41 -213q0 -137 -43 -254.5t-114 -203.5t-163 -135.5t-192 -49.5q-162 0 -248 117l-133 -137zM152 373q0 -117 32 -191l637 654q-72 115 -219 114 q-84 0 -164 -46t-144.5 -126t-103 -184.5t-38.5 -220.5zM211 133q68 -104 211 -104q82 0 163 46t145.5 126t103 184t38.5 221q0 104 -28 180z" />
<glyph unicode="&#xf9;" horiz-adv-x="1052" d="M143 213q0 37 3.5 62.5t13.5 68.5l127 635h57l-127 -627q-10 -47 -13 -73.5t-3 -57.5q0 -96 43 -144t141 -48q68 0 160 51t209 166l147 733h57l-196 -979h-49l24 164h-8q-92 -80 -177 -134.5t-175 -54.5q-127 0 -180.5 67t-53.5 171zM553 1442h70l123 -275h-49z" />
<glyph unicode="&#xfa;" horiz-adv-x="1052" d="M143 213q0 37 3.5 62.5t13.5 68.5l127 635h57l-127 -627q-10 -47 -13 -73.5t-3 -57.5q0 -96 43 -144t141 -48q68 0 160 51t209 166l147 733h57l-196 -979h-49l24 164h-8q-92 -80 -177 -134.5t-175 -54.5q-127 0 -180.5 67t-53.5 171zM541 1167l237 275h78l-258 -275h-57z " />
<glyph unicode="&#xfb;" horiz-adv-x="1052" d="M143 213q0 37 3.5 62.5t13.5 68.5l127 635h57l-127 -627q-10 -47 -13 -73.5t-3 -57.5q0 -96 43 -144t141 -48q68 0 160 51t209 166l147 733h57l-196 -979h-49l24 164h-8q-92 -80 -177 -134.5t-175 -54.5q-127 0 -180.5 67t-53.5 171zM434 1167l250 275h37l139 -275h-49 l-114 205h-9l-196 -205h-58z" />
<glyph unicode="&#xfc;" horiz-adv-x="1052" d="M143 213q0 37 3.5 62.5t13.5 68.5l127 635h57l-127 -627q-10 -47 -13 -73.5t-3 -57.5q0 -96 43 -144t141 -48q68 0 160 51t209 166l147 733h57l-196 -979h-49l24 164h-8q-92 -80 -177 -134.5t-175 -54.5q-127 0 -180.5 67t-53.5 171zM467 1286q0 35 20.5 56.5t45.5 21.5 q53 0 53 -57q0 -31 -20.5 -52.5t-45.5 -21.5q-53 0 -53 53zM766 1286q0 35 20.5 56.5t45.5 21.5q53 0 53 -57q0 -31 -20.5 -52.5t-45.5 -21.5q-53 0 -53 53z" />
<glyph unicode="&#xfd;" horiz-adv-x="835" d="M-172 -434l25 49q33 -16 69 -16q92 0 171 78.5t145 211.5l45 91l-164 999h57l103 -639q12 -72 23 -147.5t22 -143.5h8q37 72 75.5 144.5t79.5 146.5l349 639h61l-614 -1114q-29 -57 -65 -113.5t-81 -102.5t-99 -75t-120 -29q-16 0 -38.5 4.5t-51.5 16.5zM418 1167 l237 275h78l-258 -275h-57z" />
<glyph unicode="&#xfe;" horiz-adv-x="1064" d="M0 -455l385 1934h57l-90 -443l-41 -200h4q80 66 174.5 117t198.5 51q129 0 208 -90.5t79 -262.5q0 -141 -45 -264t-120 -215t-171.5 -144.5t-196.5 -52.5q-90 0 -155.5 46.5t-110.5 117.5h-4l-45 -225l-70 -369h-57zM188 209q59 -98 122 -139t136 -41q92 0 177.5 52 t151 138t104.5 195.5t39 224.5q0 156 -62.5 233.5t-171.5 77.5q-43 0 -92 -14t-99.5 -40t-99.5 -60.5t-94 -73.5z" />
<glyph unicode="&#xff;" horiz-adv-x="835" d="M-172 -434l25 49q33 -16 69 -16q92 0 171 78.5t145 211.5l45 91l-164 999h57l103 -639q12 -72 23 -147.5t22 -143.5h8q37 72 75.5 144.5t79.5 146.5l349 639h61l-614 -1114q-29 -57 -65 -113.5t-81 -102.5t-99 -75t-120 -29q-16 0 -38.5 4.5t-51.5 16.5zM344 1286 q0 35 20.5 56.5t45.5 21.5q53 0 53 -57q0 -31 -20.5 -52.5t-45.5 -21.5q-53 0 -53 53zM643 1286q0 35 20.5 56.5t45.5 21.5q53 0 53 -57q0 -31 -20.5 -52.5t-45.5 -21.5q-53 0 -53 53z" />
<glyph unicode="&#x152;" horiz-adv-x="1642" d="M127 524q0 172 46 322.5t136 263.5t225.5 177.5t313.5 64.5h856l-12 -54h-590l-111 -553h492l-13 -53h-487l-131 -639h610l-12 -53h-770q-139 0 -243.5 38t-173 107.5t-102.5 165.5t-34 213zM188 528q0 -104 30 -191t91.5 -150.5t154.5 -98.5t220 -35h111l249 1245h-200 q-158 0 -281 -62t-206 -168.5t-126 -246t-43 -293.5z" />
<glyph unicode="&#x153;" horiz-adv-x="1687" d="M94 360q0 137 43 255t114 204t163 135.5t192 49.5q133 0 217 -80t103 -228q66 145 174 226.5t223 81.5q78 0 133 -26t90 -72t51.5 -108.5t16.5 -138.5q0 -49 -7.5 -91t-17.5 -72h-663q-18 -123 -4 -211t52 -145.5t95 -84t123 -26.5q68 0 133.5 28.5t120.5 69.5l29 -45 q-59 -43 -133 -75t-154 -32q-135 0 -222 84t-106 244q-35 -76 -82 -136.5t-105.5 -103.5t-122.5 -65.5t-132 -22.5q-147 0 -235.5 99.5t-88.5 285.5zM152 373q0 -170 70.5 -257t199.5 -87q82 0 163 46t145.5 126t103 184t38.5 221q0 170 -70.5 257t-199.5 87q-84 0 -164 -46 t-144.5 -126t-103 -184.5t-38.5 -220.5zM938 549h606q6 31 9 59.5t3 63.5q0 51 -12 101t-39.5 90t-74 63.5t-111.5 23.5q-63 0 -123.5 -29.5t-112 -83t-89.5 -127t-56 -161.5z" />
<glyph unicode="&#x178;" horiz-adv-x="864" d="M176 1352h62l120 -441q20 -74 39 -144.5t41 -145.5h6q51 72 100.5 145.5t100.5 144.5l309 441h66l-559 -793l-113 -559h-61l112 559zM402 1540q0 35 20 56.5t45 21.5q53 0 53 -57q0 -31 -20 -52.5t-45 -21.5q-53 0 -53 53zM701 1540q0 35 20.5 56.5t44.5 21.5 q53 0 53 -57q0 -31 -20 -52.5t-45 -21.5q-53 0 -53 53z" />
<glyph unicode="&#x2c6;" horiz-adv-x="1032" d="M454 1167l250 275h37l139 -275h-49l-114 205h-9l-196 -205h-58z" />
<glyph unicode="&#x2dc;" horiz-adv-x="1032" d="M434 1192q8 31 22.5 60.5t33 54t43 39t52.5 14.5q43 0 69 -19.5t47.5 -42t42 -42t54.5 -19.5q29 0 54.5 35t44.5 84h45q-18 -61 -56 -114.5t-96 -53.5q-43 0 -68.5 19.5t-47 42t-43 42t-54.5 19.5q-29 0 -54.5 -35t-43.5 -84h-45z" />
<glyph unicode="&#x2000;" horiz-adv-x="882" />
<glyph unicode="&#x2001;" horiz-adv-x="1765" />
<glyph unicode="&#x2002;" horiz-adv-x="882" />
<glyph unicode="&#x2003;" horiz-adv-x="1765" />
<glyph unicode="&#x2004;" horiz-adv-x="588" />
<glyph unicode="&#x2005;" horiz-adv-x="441" />
<glyph unicode="&#x2006;" horiz-adv-x="294" />
<glyph unicode="&#x2007;" horiz-adv-x="294" />
<glyph unicode="&#x2008;" horiz-adv-x="220" />
<glyph unicode="&#x2009;" horiz-adv-x="353" />
<glyph unicode="&#x200a;" horiz-adv-x="98" />
<glyph unicode="&#x2010;" horiz-adv-x="577" d="M74 483l12 58h422l-12 -58h-422z" />
<glyph unicode="&#x2011;" horiz-adv-x="577" d="M74 483l12 58h422l-12 -58h-422z" />
<glyph unicode="&#x2012;" horiz-adv-x="577" d="M74 483l12 58h422l-12 -58h-422z" />
<glyph unicode="&#x2013;" horiz-adv-x="946" d="M74 487l12 54h786l-16 -54h-782z" />
<glyph unicode="&#x2014;" horiz-adv-x="1572" d="M74 487l12 54h1413l-12 -54h-1413z" />
<glyph unicode="&#x2018;" horiz-adv-x="413" d="M246 1110q0 109 56 191.5t149 136.5l24 -41q-78 -49 -120 -112.5t-44 -129.5h8q29 0 47.5 -15.5t18.5 -45.5q0 -31 -18.5 -52.5t-47.5 -21.5q-31 0 -52 23.5t-21 66.5z" />
<glyph unicode="&#x2019;" horiz-adv-x="413" d="M233 1061q78 49 120 112.5t44 129.5h-8q-29 0 -47 15t-18 46t18 52.5t47 21.5q31 0 52.5 -23.5t21.5 -66.5q0 -109 -56.5 -192t-148.5 -136z" />
<glyph unicode="&#x201a;" horiz-adv-x="413" d="M-35 -244q78 49 120 112.5t44 129.5h-8q-29 0 -47 15t-18 46t18 52.5t47 21.5q31 0 52.5 -23.5t21.5 -66.5q0 -109 -56.5 -192t-148.5 -136z" />
<glyph unicode="&#x201c;" horiz-adv-x="663" d="M246 1110q0 109 56 191.5t149 136.5l24 -41q-78 -49 -120 -112.5t-44 -129.5h8q29 0 47.5 -15.5t18.5 -45.5q0 -31 -18.5 -52.5t-47.5 -21.5q-31 0 -52 23.5t-21 66.5zM496 1110q0 109 56 191.5t149 136.5l24 -41q-78 -49 -120 -112.5t-44 -129.5h8q29 0 47.5 -15.5 t18.5 -45.5q0 -31 -18.5 -52.5t-47.5 -21.5q-31 0 -52 23.5t-21 66.5z" />
<glyph unicode="&#x201d;" horiz-adv-x="663" d="M233 1061q78 49 120 112.5t44 129.5h-8q-29 0 -47 15t-18 46t18 52.5t47 21.5q31 0 52.5 -23.5t21.5 -66.5q0 -109 -56.5 -192t-148.5 -136zM483 1061q78 49 120 112.5t44 129.5h-8q-29 0 -47 15t-18 46t18 52.5t47 21.5q31 0 52.5 -23.5t21.5 -66.5q0 -109 -56.5 -192 t-148.5 -136z" />
<glyph unicode="&#x201e;" horiz-adv-x="393" d="M-35 -244q78 49 120 112.5t44 129.5h-8q-29 0 -47 15t-18 46t18 52.5t47 21.5q31 0 52.5 -23.5t21.5 -66.5q0 -109 -56.5 -192t-148.5 -136zM215 -244q78 49 120 112.5t44 129.5h-8q-29 0 -47 15t-18 46t18 52.5t47 21.5q31 0 52.5 -23.5t21.5 -66.5q0 -109 -56.5 -192 t-148.5 -136z" />
<glyph unicode="&#x2022;" horiz-adv-x="544" d="M86 516q0 45 15.5 88t43 77t67.5 55.5t91 21.5q72 0 120 -52.5t48 -136.5q0 -47 -15.5 -90t-43 -76.5t-66.5 -54t-88 -20.5q-74 0 -123 52t-49 136z" />
<glyph unicode="&#x2026;" horiz-adv-x="1937" d="M192 37q0 35 25.5 64.5t60.5 29.5q29 0 41 -18.5t12 -46.5q0 -35 -23.5 -63t-58.5 -28q-29 0 -43 18.5t-14 43.5zM881 37q0 35 25.5 64.5t60.5 29.5q29 0 41 -18.5t12 -46.5q0 -35 -23.5 -63t-58.5 -28q-29 0 -43 18.5t-14 43.5zM1569 37q0 35 25.5 64.5t60.5 29.5 q29 0 41 -18.5t12 -46.5q0 -35 -23.5 -63t-58.5 -28q-29 0 -43 18.5t-14 43.5z" />
<glyph unicode="&#x202f;" horiz-adv-x="353" />
<glyph unicode="&#x2039;" horiz-adv-x="483" d="M82 492l12 65l324 320l33 -33l-304 -328l185 -340l-41 -24z" />
<glyph unicode="&#x203a;" horiz-adv-x="483" d="M41 184l303 328l-184 340l41 25l209 -340l-13 -66l-323 -319z" />
<glyph unicode="&#x205f;" horiz-adv-x="441" />
<glyph unicode="&#x20ac;" d="M49 518l12 41l117 8q6 88 25 170h-113l12 41l113 8q31 121 85 221.5t123 173t148.5 113.5t165.5 41q55 0 98.5 -16t77 -44t59 -62.5t44.5 -73.5l-49 -29q-37 74 -89.5 123t-144.5 49q-74 0 -143.5 -37t-130 -102.5t-108.5 -156.5t-79 -200h580l-12 -49h-580 q-8 -41 -14 -83t-10 -87h493l-12 -49h-484q-8 -238 76 -363.5t223 -125.5q90 0 160 40t127 95l37 -41q-59 -59 -137 -103.5t-191 -44.5q-84 0 -150.5 36t-112.5 104.5t-69.5 170t-19.5 232.5h-127z" />
<glyph unicode="&#x2122;" horiz-adv-x="1183" d="M164 1331l12 53h496l-13 -53h-217l-114 -573h-58l115 573h-221zM647 758l127 626h86l49 -270l29 -180h8l98 180l164 270h86l-127 -626h-57l70 348l49 209h-8l-267 -459h-53l-86 459h-8l-33 -209l-69 -348h-58z" />
<glyph unicode="&#x25fc;" horiz-adv-x="983" d="M0 0v983h983v-983h-983z" />
<glyph unicode="&#xfb01;" horiz-adv-x="942" d="M98 0l185 926h-127l8 45l131 8l49 246q31 145 99.5 211.5t154.5 66.5q49 0 82 -13t61 -32l-28 -45q-25 16 -51.5 26.5t-67.5 10.5q-39 0 -69.5 -18.5t-55.5 -49t-42 -71.5t-26 -86l-49 -246h221l-12 -53h-221l-184 -926h-58zM594 0l197 979h57l-197 -979h-57zM815 1286 q0 37 22.5 59.5t51.5 22.5q25 0 41 -16.5t16 -44.5q0 -35 -22 -56.5t-51 -21.5q-25 0 -41.5 16.5t-16.5 40.5z" />
<glyph unicode="&#xfb02;" horiz-adv-x="966" d="M98 0l185 926h-127l8 45l131 8l49 246q31 145 99.5 211.5t154.5 66.5q49 0 82 -13t61 -32l-28 -45q-25 16 -51.5 26.5t-67.5 10.5q-39 0 -69.5 -18.5t-55.5 -49t-42 -71.5t-26 -86l-49 -246h221l-12 -53h-221l-184 -926h-58zM606 49q0 10 2 23.5t7 29.5l274 1377h57 l-274 -1381q-4 -16 -4 -25.5v-15.5q0 -29 29 -28q6 0 11 1t21 7l8 -49q-16 -6 -27 -9.5t-30 -3.5q-31 0 -52.5 18.5t-21.5 55.5z" />
</font>
</defs>
</svg>
