<?xml version="1.0" standalone="no"?>
<!DOCTYPE svg PUBLIC "-//W3C//DTD SVG 1.1//EN" "http://www.w3.org/Graphics/SVG/1.1/DTD/svg11.dtd" >
<svg xmlns="http://www.w3.org/2000/svg" xmlns:xlink="http://www.w3.org/1999/xlink" version="1.1">
<metadata>
Created by FontForge 20170731 at Wed Feb 26 09:24:02 2020
 By Aleksey,,,
Copyright 2019 The Work Sans Project Authors (https://github.com/weiweihuanghuang/Work-Sans)
</metadata>
<defs>
<font id="WorkSans-MediumItalic" horiz-adv-x="604" >
  <font-face 
    font-family="Work Sans Medium"
    font-weight="500"
    font-style="italic"
    font-stretch="normal"
    units-per-em="1000"
    panose-1="0 0 0 0 0 0 0 0 0 0"
    ascent="800"
    descent="-200"
    x-height="500"
    cap-height="660"
    bbox="-273 -297 1334 1097"
    underline-thickness="50"
    underline-position="-175"
    slope="-13"
    unicode-range="U+000D-FB02"
  />
<missing-glyph horiz-adv-x="500" 
d="M50 -210h400v940h-400v-940zM100 -160v840h300v-840h-300z" />
    <glyph glyph-name="fi" unicode="fi" horiz-adv-x="662" 
d="M62 0l134 580q13 55 38.5 88t63.5 48.5t87 15.5q31 0 57 -6.5t40 -17.5l-30 -78q-9 6 -25 11t-36 5q-41 0 -63 -18.5t-32 -65.5l-16 -71l-4 -27l-107 -464h-107zM60 416l20 84h352l-20 -84h-352zM615 584q-30 0 -48 16t-16 44q1 35 22 54t53 19q31 0 48.5 -15.5
t16.5 -42.5q-2 -37 -23 -56t-53 -19zM640 500l-116 -500h-107l116 500h107z" />
    <glyph glyph-name="fl" unicode="fl" horiz-adv-x="707" 
d="M62 0l134 580q13 55 38.5 88t63.5 48.5t87 15.5q31 0 57 -6.5t40 -17.5l-30 -78q-9 6 -25 11t-36 5q-41 0 -63 -18.5t-32 -65.5l-16 -71l-4 -27l-107 -464h-107zM60 416l20 84h352l-20 -84h-352zM568 -8q-75 0 -105 44t-13 116l133 573h107l-133 -574q-10 -39 5 -56.5
t52 -17.5q14 0 24.5 1t18.5 3l-23 -78q-16 -6 -30.5 -8.5t-35.5 -2.5z" />
    <glyph glyph-name="f_f" unicode="ff" horiz-adv-x="726" 
d="M62 0l134 580q13 55 38.5 88t63.5 48.5t87 15.5q31 0 57 -6.5t40 -17.5l-30 -78q-9 6 -25 11t-36 5q-41 0 -63 -18.5t-32 -65.5l-16 -71l-4 -27l-107 -464h-107zM60 416l20 84h352l-20 -84h-352zM394 0l134 580q13 55 38.5 88t63.5 48.5t87 15.5q31 0 57 -6.5t40 -17.5
l-30 -78q-9 6 -25 11t-36 5q-41 0 -63 -18.5t-32 -65.5l-16 -71l-4 -27l-107 -464h-107zM392 416l20 84h352l-20 -84h-352z" />
    <glyph glyph-name="f_f_i" unicode="ffi" horiz-adv-x="994" 
d="M62 0l134 580q13 55 38.5 88t63.5 48.5t87 15.5q31 0 57 -6.5t40 -17.5l-30 -78q-9 6 -25 11t-36 5q-41 0 -63 -18.5t-32 -65.5l-16 -71l-4 -27l-107 -464h-107zM60 416l20 84h352l-20 -84h-352zM394 0l134 580q13 55 38.5 88t63.5 48.5t87 15.5q31 0 57 -6.5t40 -17.5
l-30 -78q-9 6 -25 11t-36 5q-41 0 -63 -18.5t-32 -65.5l-16 -71l-4 -27l-107 -464h-107zM392 416l20 84h352l-20 -84h-352zM947 584q-30 0 -48 16t-16 44q1 35 22 54t53 19q31 0 48.5 -15.5t16.5 -42.5q-2 -37 -23 -56t-53 -19zM972 500l-116 -500h-107l116 500h107z" />
    <glyph glyph-name="f_f_l" unicode="ffl" horiz-adv-x="1039" 
d="M62 0l134 580q13 55 38.5 88t63.5 48.5t87 15.5q31 0 57 -6.5t40 -17.5l-30 -78q-9 6 -25 11t-36 5q-41 0 -63 -18.5t-32 -65.5l-16 -71l-4 -27l-107 -464h-107zM60 416l20 84h352l-20 -84h-352zM394 0l134 580q13 55 38.5 88t63.5 48.5t87 15.5q31 0 57 -6.5t40 -17.5
l-30 -78q-9 6 -25 11t-36 5q-41 0 -63 -18.5t-32 -65.5l-16 -71l-4 -27l-107 -464h-107zM392 416l20 84h352l-20 -84h-352zM901 -8q-75 0 -105 44t-13 116l133 573h107l-133 -574q-10 -39 5 -56.5t52 -17.5q14 0 24.5 1t18.5 3l-23 -78q-16 -6 -30.5 -8.5t-35.5 -2.5z" />
    <glyph glyph-name=".notdef" horiz-adv-x="500" 
d="M50 -210h400v940h-400v-940zM100 -160v840h300v-840h-300z" />
    <glyph glyph-name=".null" horiz-adv-x="0" 
 />
    <glyph glyph-name="nonmarkingreturn" horiz-adv-x="333" 
 />
    <glyph glyph-name="NULL" horiz-adv-x="0" 
 />
    <glyph glyph-name="NULL" horiz-adv-x="0" 
 />
    <glyph glyph-name="CR" unicode="&#xd;" horiz-adv-x="321" 
 />
    <glyph glyph-name="space" unicode=" " horiz-adv-x="321" 
 />
    <glyph glyph-name="exclam" unicode="!" horiz-adv-x="278" 
d="M86 210l27 186l61 264h113l-61 -264l-58 -186h-82zM91 -9q-30 0 -49 16t-19 44q0 37 22 59t56 22q30 0 48.5 -16.5t18.5 -44.5q0 -37 -21.5 -58.5t-55.5 -21.5z" />
    <glyph glyph-name="quotedbl" unicode="&#x22;" horiz-adv-x="414" 
d="M460 686l-87 -256h-80l59 256h108zM283 686l-87 -256h-80l59 256h108z" />
    <glyph glyph-name="numbersign" unicode="#" horiz-adv-x="654" 
d="M307 0l220 660h86l-220 -660h-86zM28 177v73h567v-73h-567zM70 0l220 660h85l-220 -660h-85zM96 410v73h566v-73h-566z" />
    <glyph glyph-name="dollar" unicode="$" horiz-adv-x="624" 
d="M323 0q-71 0 -130 20.5t-102.5 61t-68.5 99.5l82 52q19 -52 53.5 -85t79 -48.5t93.5 -15.5q43 0 73 14.5t45 38.5t15 50q0 31 -21 50t-64 31l-108 31q-47 13 -81.5 36.5t-53.5 56.5t-19 72q0 58 30 102t85 69t128 25q61 0 111.5 -16.5t88.5 -50.5t60 -85l-81 -50
q-16 48 -44.5 74t-64.5 35.5t-76 9.5q-66 0 -102 -30t-36 -68q0 -19 10.5 -36.5t29.5 -31t45 -21.5l122 -35q68 -20 104 -58t36 -94q0 -63 -32.5 -108.5t-87 -70t-119.5 -24.5zM197 -96l198 852h80l-198 -852h-80z" />
    <glyph glyph-name="percent" unicode="%" horiz-adv-x="922" 
d="M127 0l602 660h103l-602 -660h-103zM242 302q-47 0 -81 19.5t-52.5 54.5t-18.5 80q0 58 24 106.5t66 78t98 29.5q48 0 81.5 -19.5t52 -54.5t18.5 -80q0 -56 -24 -105t-66 -79t-98 -30zM247 381q31 0 52 20t32.5 50.5t11.5 62.5q0 35 -18 56.5t-52 21.5q-31 0 -52 -20
t-32.5 -50.5t-11.5 -62.5q0 -35 18 -56.5t52 -21.5zM681 -10q-47 0 -81 19.5t-52.5 54.5t-18.5 80q0 58 24 106t66 78t98 30q48 0 81.5 -19.5t52 -54.5t18.5 -80q0 -57 -24 -105.5t-66 -78.5t-98 -30zM686 68q31 0 52 20t32.5 51t11.5 62q0 36 -18 57t-52 21
q-30 0 -51.5 -19.5t-33 -50t-11.5 -62.5q0 -36 18 -57.5t52 -21.5z" />
    <glyph glyph-name="ampersand" unicode="&#x26;" horiz-adv-x="617" 
d="M231 -9q-67 0 -114.5 23t-72.5 64t-25 96q0 62 27 104t76 69t114 43l40 17q40 11 72.5 26.5t52 39t19.5 57.5q0 32 -16.5 47.5t-43.5 15.5q-35 0 -58.5 -26t-23.5 -73q0 -22 5.5 -49t16 -58t26 -65t34.5 -72q27 -52 62 -94.5t74.5 -67.5t80.5 -24l-17 -75h-6
q-55 0 -103 27t-88.5 74t-74.5 107q-31 57 -53.5 108.5t-34.5 98t-12 86.5q0 55 23 95.5t63.5 63t92.5 22.5q67 0 104 -35t37 -89q0 -59 -28.5 -98.5t-78.5 -65.5t-116 -45l-7 -6q-49 -13 -85.5 -31.5t-56.5 -46.5t-20 -72q0 -53 35.5 -82t91.5 -29q48 0 81 17.5t65 45.5
l17 10q33 32 58 75t35 99l81 -5q-13 -65 -47.5 -125.5t-81.5 -100.5l-20 -16q-28 -23 -58.5 -41t-65 -28.5t-76.5 -10.5z" />
    <glyph glyph-name="quotesingle" unicode="'" horiz-adv-x="237" 
d="M283 686l-87 -256h-80l59 256h108z" />
    <glyph glyph-name="parenleft" unicode="(" horiz-adv-x="357" 
d="M176 -190q-55 77 -84.5 175t-29.5 199q0 86 22.5 168.5t64.5 156t103.5 134t139.5 104.5l41 -59q-89 -58 -149.5 -139.5t-91 -178t-30.5 -200.5q0 -86 21 -168t58 -146z" />
    <glyph glyph-name="parenright" unicode=")" horiz-adv-x="357" 
d="M194 747q55 -77 84.5 -175t29.5 -199q0 -86 -22.5 -168.5t-64.5 -156t-103.5 -134t-139.5 -104.5l-41 59q89 58 149.5 139.5t91 178t30.5 200.5q0 86 -21 168t-58 146z" />
    <glyph glyph-name="asterisk" unicode="*" horiz-adv-x="570" 
d="M398 265l-49 110l-20 64l-47 -59l-95 -93l-56 57l96 93l60 45l-63 21l-109 52l39 72l109 -52l57 -38l6 72l26 121h86l-31 -130l-26 -69l70 24l127 25l5 -80l-125 -25l-73 -5l36 -58l50 -109z" />
    <glyph glyph-name="plus" unicode="+" 
d="M423 572l-117 -506h-93l117 506h93zM574 364l-21 -89h-491l21 89h491z" />
    <glyph glyph-name="comma" unicode="," horiz-adv-x="261" 
d="M98 135q36 0 56 -24t20 -62q0 -42 -21.5 -84t-61.5 -73.5t-96 -43.5l-29 53q39 7 66.5 21t45 34.5t25.5 42.5l-2 2q-5 -4 -10.5 -5.5t-16.5 -1.5q-26 0 -41 19t-15 43q0 36 23 57.5t57 21.5z" />
    <glyph glyph-name="hyphen" unicode="-" horiz-adv-x="515" 
d="M442 313l-22 -99h-341l23 99h340z" />
    <glyph glyph-name="period" unicode="." horiz-adv-x="269" 
d="M86 -9q-30 0 -49 16.5t-19 45.5q0 38 22.5 60t56.5 22q30 0 49 -16.5t19 -45.5q0 -38 -22 -60t-57 -22z" />
    <glyph glyph-name="slash" unicode="/" horiz-adv-x="432" 
d="M521 725l-466 -795h-108l466 795h108z" />
    <glyph glyph-name="zero" unicode="0" horiz-adv-x="633" 
d="M299 -9q-72 0 -123.5 32t-78.5 89t-27 134q0 34 4 68t11 67q14 60 38.5 112.5t61 92.5t85.5 62t110 22q69 0 118 -31.5t75.5 -88.5t26.5 -133q0 -34 -4 -67.5t-11 -66.5q-14 -60 -38.5 -113t-60 -93t-82 -63t-105.5 -23zM305 82q45 0 79 28t57.5 77t36.5 108
q9 33 12.5 64.5t3.5 60.5q0 84 -32.5 122t-88.5 38q-47 0 -83 -28.5t-60.5 -77t-39.5 -109.5q-7 -32 -11 -63.5t-4 -60.5q0 -57 17 -92.5t47 -51t66 -15.5z" />
    <glyph glyph-name="one" unicode="1" horiz-adv-x="395" 
d="M129 0l101 438q8 31 15 55.5t15 49.5q-20 -19 -52.5 -36.5t-68 -30.5t-67.5 -19l7 98q35 8 77.5 25.5t81 39t60.5 40.5h90l-153 -660h-106z" />
    <glyph glyph-name="two" unicode="2" horiz-adv-x="569" 
d="M19 0l20 87q78 52 148.5 100.5t125.5 95.5t86.5 95t31.5 101q0 48 -30 72.5t-75 24.5q-63 0 -101 -39t-53 -102l-86 53q15 53 48 94t83 64.5t116 23.5q65 0 111.5 -22.5t71.5 -62t25 -89.5q0 -54 -22.5 -101.5t-60.5 -89.5t-86 -79.5t-98.5 -71.5t-97.5 -64v-2q14 2 40 3
t42 1h243l-22 -92h-460z" />
    <glyph glyph-name="three" unicode="3" horiz-adv-x="570" 
d="M274 -10q-99 0 -160.5 51.5t-77.5 135.5l108 27q6 -57 40 -89.5t93 -32.5q40 0 67 16.5t41 43t14 57.5q0 54 -33.5 73t-80.5 19h-13.5t-14.5 -1l21 89q10 -2 20 -3t20 -1q39 0 66 13t42 37.5t15 59.5q0 33 -15.5 53.5t-40 30t-52.5 9.5q-55 0 -84 -26t-44 -68l-92 46
q27 68 87 104.5t143 36.5q59 0 105 -20.5t72 -57.5t26 -90q0 -49 -20 -87.5t-54 -61t-78 -25.5l-1 -2q35 -5 60 -21t39 -42t14 -63q0 -67 -33 -114t-86 -72t-113 -25z" />
    <glyph glyph-name="four" unicode="4" horiz-adv-x="584" 
d="M279 0l38 165h-301l19 83q17 23 35 45.5t37 44.5l284 322h142l-96 -412h122l-19 -83h-122l-38 -165h-101zM127 248h209l75 322l-206 -237q-20 -22 -39 -42.5t-39 -42.5z" />
    <glyph glyph-name="five" unicode="5" horiz-adv-x="571" 
d="M270 -10q-62 0 -110 23t-78.5 62t-39.5 84l107 32q4 -28 17 -53t40 -41t72 -16t74 21t43 55t14 72q0 40 -16.5 65t-44 37t-60.5 12q-35 0 -60.5 -9.5t-49.5 -29.5l-82 24l109 332h363l-22 -92h-274l-61 -184q22 20 53 30t68 10q51 0 92.5 -21t65.5 -61.5t24 -99.5
q0 -74 -30 -131t-84.5 -89t-129.5 -32z" />
    <glyph glyph-name="six" unicode="6" horiz-adv-x="593" 
d="M312 -10q-79 0 -132.5 32t-80.5 90t-27 136q0 80 19 155t58 135.5t99 96t141 35.5q77 0 134 -37t73 -116l-100 -35q-6 45 -38.5 70t-76.5 25q-48 0 -84.5 -24t-61 -63t-39 -86.5t-20.5 -96.5q18 51 68 78t108 27q88 0 139.5 -50t51.5 -133q0 -68 -28.5 -122.5t-80 -85.5
t-122.5 -31zM313 80q41 0 68.5 18.5t41.5 49.5t14 68q0 48 -31.5 79.5t-91.5 31.5q-41 0 -70 -18.5t-43.5 -48t-14.5 -63.5q0 -28 9.5 -49.5t27 -37t40.5 -23t50 -7.5z" />
    <glyph glyph-name="seven" unicode="7" horiz-adv-x="556" 
d="M123 660h486l-21 -90q-83 -73 -147 -159.5t-107 -188.5t-67 -222h-112q20 110 67 216.5t121 203t174 176.5l5 -29h-421z" />
    <glyph glyph-name="eight" unicode="8" horiz-adv-x="613" 
d="M301 -10q-52 0 -98.5 12.5t-82.5 36.5t-56.5 59t-20.5 80q0 54 23.5 91.5t64.5 60.5t97 32l-4 -13q-26 11 -44.5 30.5t-29 45t-10.5 52.5q0 59 29 102.5t79 67t114 23.5q62 0 113 -20t81.5 -57.5t30.5 -91.5q0 -67 -42 -114.5t-112 -62.5v14q33 -15 57 -36t37.5 -48.5
t13.5 -61.5q0 -62 -32 -107.5t-86 -70t-122 -24.5zM303 80q40 0 69 13.5t45 38.5t16 59q0 35 -21 59.5t-54 37.5t-71 13q-40 0 -70.5 -15t-48 -40t-17.5 -58q0 -35 21.5 -59t55.5 -36.5t75 -12.5zM361 382q35 0 62 14t42 38t15 54q0 42 -31 68.5t-85 26.5q-36 0 -63 -14.5
t-42 -39t-15 -54.5q0 -26 14.5 -47t41 -33.5t61.5 -12.5z" />
    <glyph glyph-name="nine" unicode="9" horiz-adv-x="608" 
d="M260 -10q-61 0 -106.5 22t-74 62t-38.5 93l106 31q4 -29 17.5 -56t39 -43.5t64.5 -16.5q48 0 83.5 21.5t60 59t38.5 85.5t19 100q-11 -32 -36 -55t-57.5 -34.5t-67.5 -11.5q-62 0 -108 25t-70.5 68.5t-24.5 98.5q0 65 30 117.5t84 83t124 30.5q78 0 129.5 -31.5t76 -89
t24.5 -136.5t-18.5 -154t-57 -136t-98 -97t-139.5 -36zM333 332q42 0 70.5 18t43 48t14.5 64q0 37 -15 63.5t-42.5 39.5t-63.5 13q-41 0 -70 -16t-44.5 -45t-15.5 -66q0 -31 14 -59t42 -44t67 -16z" />
    <glyph glyph-name="colon" unicode=":" horiz-adv-x="297" 
d="M100 -9q-30 0 -49 16.5t-19 45.5q0 38 22.5 60t56.5 22q30 0 49 -16.5t19 -45.5q0 -38 -22 -60t-57 -22zM186 366q-30 0 -49 16.5t-19 45.5q0 38 22.5 60t56.5 22q30 0 49 -16.5t19 -45.5q0 -38 -22 -60t-57 -22z" />
    <glyph glyph-name="semicolon" unicode=";" horiz-adv-x="297" 
d="M109 135q36 0 56 -24t20 -62q0 -42 -21.5 -84t-61.5 -73.5t-96 -43.5l-29 53q39 7 66.5 21t45 34.5t25.5 42.5l-2 2q-5 -4 -10.5 -5.5t-16.5 -1.5q-26 0 -41 19t-15 43q0 36 23 57.5t57 21.5zM197 510q30 0 49 -16.5t19 -45.5q0 -38 -22.5 -60t-56.5 -22q-30 0 -49 16.5
t-19 45.5q0 38 22 60t57 22z" />
    <glyph glyph-name="less" unicode="&#x3c;" 
d="M624 576l-26 -108l-435 -171l356 -178l-23 -98l-429 223l25 109z" />
    <glyph glyph-name="equal" unicode="=" 
d="M587 454l-20 -88h-476l20 88h476zM540 249l-20 -88h-476l20 88h476z" />
    <glyph glyph-name="greater" unicode="&#x3e;" 
d="M3 21l26 108l435 171l-356 178l23 98l429 -223l-25 -109z" />
    <glyph glyph-name="question" unicode="?" horiz-adv-x="555" 
d="M201 210l35 148q64 0 111.5 12t74 40t26.5 77q0 45 -32.5 66.5t-81.5 21.5q-59 0 -97 -29t-55 -78l-92 51q17 43 51.5 77t84.5 53t115 19q63 0 112.5 -20.5t77.5 -59t28 -91.5q0 -64 -29.5 -107.5t-82.5 -68t-122 -29.5l-21 -82h-103zM217 -9q-30 0 -49 16t-19 44
q0 37 22 59t56 22q30 0 49 -16.5t19 -44.5q0 -37 -22 -58.5t-56 -21.5z" />
    <glyph glyph-name="at" unicode="@" horiz-adv-x="945" 
d="M466 -193q-117 0 -209 47t-144.5 135t-52.5 209q0 102 33 187t93.5 147t142.5 96t181 34q90 0 160.5 -26.5t120 -75t75.5 -115.5t26 -147q0 -72 -18 -127.5t-48 -95t-68 -60t-78 -20.5q-36 0 -61 13t-37 37t-9 55q-22 -44 -65.5 -70t-91.5 -26q-49 0 -87 24.5t-59.5 68.5
t-21.5 102q0 55 16.5 103t46.5 85t71.5 58t90.5 21q36 0 65.5 -12.5t50 -36.5t28.5 -58l23 98h94l-73 -314q-2 -11 -3.5 -20.5t-1.5 -18.5q0 -27 12.5 -35.5t31.5 -8.5q25 0 48 15.5t41 46t28.5 74.5t10.5 100q0 72 -22.5 127.5t-65 94.5t-102 59.5t-133.5 20.5
q-82 0 -150 -28.5t-117.5 -81.5t-77.5 -126.5t-28 -163.5q0 -79 27 -140t73.5 -103t107.5 -63t128 -21q66 0 111.5 13t77.5 31l23 -57q-26 -13 -55.5 -25t-67 -19t-91.5 -7zM453 80q38 0 69 26.5t49 70.5t18 96q0 36 -12.5 62t-35.5 40.5t-54 14.5q-33 0 -59.5 -15
t-45.5 -41.5t-29.5 -60.5t-10.5 -72q0 -39 13 -66t37.5 -41t60.5 -14z" />
    <glyph glyph-name="A" unicode="A" horiz-adv-x="651" 
d="M-41 0l396 660h132l89 -660h-104l-58 457l-12 103v0l-57 -100l-269 -460h-117zM133 179l20 87h351l-20 -87h-351z" />
    <glyph glyph-name="B" unicode="B" horiz-adv-x="656" 
d="M37 0l153 660h257q86 0 133.5 -40.5t47.5 -109.5q0 -49 -18.5 -86.5t-50.5 -62t-74 -33.5v-1q49 -7 79.5 -42t30.5 -84q0 -66 -32 -111t-88.5 -67.5t-131.5 -22.5h-306zM164 89h170q73 0 111.5 30t38.5 84q0 27 -12 45t-35.5 27t-58.5 9h-169zM229 374h154q43 0 73 15
t46 41.5t16 61.5q0 43 -28.5 60.5t-72.5 17.5h-142z" />
    <glyph glyph-name="C" unicode="C" horiz-adv-x="678" 
d="M361 -10q-79 0 -144 32.5t-103 96t-38 155.5q0 77 22 147.5t66 126.5t108.5 89t148.5 33q66 0 117.5 -21.5t86.5 -64.5t51 -108l-109 -31q-13 70 -51 101t-102 31q-56 0 -98.5 -26.5t-71 -69t-43 -95t-14.5 -105.5q0 -62 23.5 -106t64.5 -68t93 -24q61 0 96.5 27t59.5 73
l100 -44q-41 -68 -104 -108.5t-159 -40.5z" />
    <glyph glyph-name="D" unicode="D" horiz-adv-x="707" 
d="M37 0l153 660h204q87 0 148.5 -34.5t94 -95.5t32.5 -140q0 -84 -26 -155t-75 -124t-117.5 -82t-152.5 -29h-261zM166 91h139q59 0 106 24t79 65t49 93t17 108q0 54 -19 96.5t-57.5 67t-98.5 24.5h-104z" />
    <glyph glyph-name="E" unicode="E" horiz-adv-x="625" 
d="M37 0l153 660h471l-22 -92h-363l-44 -190h285l-20 -90h-285l-45 -196h377l-22 -92h-485z" />
    <glyph glyph-name="F" unicode="F" horiz-adv-x="589" 
d="M626 568h-350l-44 -192h289l-21 -92h-289l-66 -284h-108l153 660h458z" />
    <glyph glyph-name="G" unicode="G" horiz-adv-x="709" 
d="M337 -8q-71 0 -130.5 33.5t-95 97.5t-35.5 153q0 77 23 148t67.5 126.5t109.5 87.5t150 32q64 0 117.5 -19t91.5 -59.5t54 -107.5l-105 -29q-15 65 -57 94t-105 29q-57 0 -100.5 -24.5t-73.5 -66t-45.5 -94t-15.5 -107.5q0 -63 21.5 -108.5t61 -69.5t94.5 -24
q51 0 88 17.5t60.5 48t34.5 71.5l7 28h-192l20 86h282l-83 -335h-78l29 139l11 -13q-19 -43 -47.5 -73t-68 -45.5t-90.5 -15.5z" />
    <glyph glyph-name="H" unicode="H" horiz-adv-x="724" 
d="M724 660l-153 -660h-108l153 660h108zM298 660l-153 -660h-108l153 660h108zM605 380l-21 -92h-425l21 92h425z" />
    <glyph glyph-name="I" unicode="I" horiz-adv-x="298" 
d="M298 660l-153 -660h-108l153 660h108z" />
    <glyph glyph-name="J" unicode="J" horiz-adv-x="567" 
d="M228 -8q-58 0 -101.5 20t-68.5 56t-29 83.5t16 101.5l104 5q-18 -53 -14.5 -92.5t29.5 -61.5t73 -22q59 0 88 36t48 120l97 422h109l-103 -445q-15 -64 -44 -115t-77.5 -79.5t-126.5 -28.5z" />
    <glyph glyph-name="K" unicode="K" horiz-adv-x="651" 
d="M37 0l153 660h108l-74 -316l359 316h137l-310 -276l161 -384h-114l-130 314l-137 -119l-45 -195h-108z" />
    <glyph glyph-name="L" unicode="L" horiz-adv-x="591" 
d="M166 92h360l-22 -92h-467l153 660h108z" />
    <glyph glyph-name="M" unicode="M" horiz-adv-x="857" 
d="M37 0l153 660h146l44 -383l12 -156h1l81 155l219 384h164l-153 -660h-98l88 382l46 180h-2l-326 -562h-87l-67 560h-1l-33 -178l-88 -382h-99z" />
    <glyph glyph-name="N" unicode="N" horiz-adv-x="724" 
d="M37 0l153 660h122l151 -417l39 -125h1l23 116l99 426h99l-153 -660h-121l-154 416l-38 124h-1l-22 -114l-99 -426h-99z" />
    <glyph glyph-name="O" unicode="O" horiz-adv-x="739" 
d="M358 -10q-77 0 -141 33.5t-102 99t-38 157.5q0 79 23 149t66 124t107.5 85.5t147.5 31.5q77 0 139.5 -34t100 -98.5t37.5 -157.5q0 -78 -22 -148.5t-65.5 -124.5t-107 -85.5t-145.5 -31.5zM366 84q55 0 96.5 25.5t69.5 68t42 95.5t14 107q0 62 -22 106t-61.5 67t-92.5 23
q-55 0 -97 -25.5t-70.5 -68t-42.5 -95t-14 -107.5q0 -62 22 -106t62 -67t94 -23z" />
    <glyph glyph-name="P" unicode="P" horiz-adv-x="626" 
d="M37 0l153 660h209q105 0 164.5 -51t59.5 -135q0 -67 -33 -119.5t-93 -82t-141 -29.5h-202l20 91h194q49 0 81 18t48 48.5t16 66.5q0 46 -30.5 74t-93.5 28h-112l-132 -569h-108z" />
    <glyph glyph-name="Q" unicode="Q" horiz-adv-x="739" 
d="M473 -197q-40 0 -74.5 10.5t-61.5 31t-42 50t-15 67.5q0 13 2.5 27t6.5 30l87 14q-6 -14 -8 -27t-2 -26q0 -42 31.5 -63t84.5 -21q33 0 59 7.5t50 20.5l4 -92q-26 -15 -59 -22t-63 -7zM358 -10q-77 0 -141 33.5t-102 99t-38 157.5q0 79 23 149t66 124t107.5 85.5
t147.5 31.5q77 0 139.5 -34t100 -98.5t37.5 -157.5q0 -78 -22 -148.5t-65.5 -124.5t-107 -85.5t-145.5 -31.5zM366 84q55 0 96.5 25.5t69.5 68t42 95.5t14 107q0 62 -22 106t-61.5 67t-92.5 23q-55 0 -97 -25.5t-70.5 -68t-42.5 -95t-14 -107.5q0 -62 22 -106t62 -67t94 -23
z" />
    <glyph glyph-name="R" unicode="R" horiz-adv-x="649" 
d="M37 0l153 660h236q93 0 147.5 -48t54.5 -134q0 -60 -28 -106t-74 -73.5t-101 -34.5l-46 -8h-191l20 89h165q49 0 81.5 17.5t48.5 47.5t16 66q0 46 -31.5 69.5t-84.5 23.5h-127l-132 -569h-107zM461 0l-112 282l103 15l122 -297h-113z" />
    <glyph glyph-name="S" unicode="S" horiz-adv-x="639" 
d="M335 -9q-72 0 -132.5 21.5t-104.5 62.5t-70 102l87 58q19 -54 53 -87.5t78.5 -49t93.5 -15.5q44 0 73 14.5t43.5 37.5t14.5 49q0 33 -21.5 51.5t-62.5 30.5l-104 30q-50 15 -85.5 39.5t-55 58t-19.5 75.5q0 58 31 104t86.5 72t130.5 26q99 0 165.5 -39t100.5 -117
l-88 -56q-15 48 -43.5 73.5t-64 35.5t-74.5 10q-44 0 -73.5 -12.5t-44 -34.5t-14.5 -48q0 -30 24 -54t65 -36l112 -34q74 -22 110.5 -61.5t36.5 -98.5q0 -64 -33.5 -110.5t-89.5 -72t-125 -25.5z" />
    <glyph glyph-name="T" unicode="T" horiz-adv-x="609" 
d="M675 660l-22 -92h-220l-131 -568h-108l131 568h-223l22 92h551z" />
    <glyph glyph-name="U" unicode="U" horiz-adv-x="696" 
d="M326 -10q-90 0 -151 35.5t-84 102.5t-1 160l87 372h108l-90 -392q-14 -61 0.5 -102.5t50.5 -62t88 -20.5q73 0 114.5 45t58.5 123l95 409h107l-98 -427q-27 -112 -97.5 -177.5t-187.5 -65.5z" />
    <glyph glyph-name="V" unicode="V" horiz-adv-x="639" 
d="M717 660l-394 -660h-125l-85 660h106l49 -438l11 -130l64 129l259 439h115z" />
    <glyph glyph-name="W" unicode="W" horiz-adv-x="954" 
d="M158 0l-37 660h104l19 -558l260 558h116l15 -562l271 562h117l-343 -660h-128l-14 396l2 154h-1l-67 -154l-189 -396h-125z" />
    <glyph glyph-name="X" unicode="X" horiz-adv-x="610" 
d="M-39 0l306 346l-132 314h118l93 -237l202 237h123l-285 -325l143 -335h-115l-103 256l-220 -256h-130z" />
    <glyph glyph-name="Y" unicode="Y" horiz-adv-x="589" 
d="M183 0l59 254l-133 406h110l66 -215l27 -101l74 106l162 210h122l-322 -414l-58 -246h-107z" />
    <glyph glyph-name="Z" unicode="Z" horiz-adv-x="601" 
d="M-7 0l21 90l474 479h-368l22 91h496l-21 -89l-475 -480h390l-22 -91h-517z" />
    <glyph glyph-name="bracketleft" unicode="[" horiz-adv-x="358" 
d="M419 640h-147l-168 -723h148l-21 -85h-243l207 893h243z" />
    <glyph glyph-name="backslash" unicode="\" horiz-adv-x="468" 
d="M131 725h94l148 -795h-95z" />
    <glyph glyph-name="bracketright" unicode="]" horiz-adv-x="358" 
d="M-48 -83h147l168 723h-148l21 85h243l-207 -893h-243z" />
    <glyph glyph-name="asciicircum" unicode="^" horiz-adv-x="576" 
d="M50 355l300 373h97l126 -373h-96l-94 293l-226 -293h-107z" />
    <glyph glyph-name="underscore" unicode="_" horiz-adv-x="539" 
d="M461 -88l-21 -93h-539l21 93h539z" />
    <glyph glyph-name="grave" unicode="`" horiz-adv-x="500" 
d="M377 746l41 -168h-78l-66 168h103z" />
    <glyph glyph-name="a" unicode="a" horiz-adv-x="617" 
d="M237 -8q-55 0 -98 26.5t-67 74.5t-24 113q0 61 18.5 116t52 97.5t80 66.5t101.5 24q41 0 74.5 -14t56.5 -41t31 -66l26 111h107l-116 -500h-95l17 93q-25 -46 -68.5 -73.5t-95.5 -27.5zM274 77q32 0 60.5 17t50 47t34 69.5t12.5 82.5q0 40 -14.5 69.5t-40 45.5t-60.5 16
q-37 0 -66.5 -17t-51 -46.5t-33.5 -68t-12 -80.5q0 -43 14 -73t41 -46t66 -16z" />
    <glyph glyph-name="b" unicode="b" horiz-adv-x="617" 
d="M387 508q52 0 93.5 -25t65 -73t23.5 -117q0 -62 -19 -116.5t-52.5 -96.5t-79 -66t-99.5 -24q-43 0 -78 15t-57 42.5t-30 62.5l-27 -110h-105l168 725h107l-71 -305q24 39 66.5 63.5t94.5 24.5zM304 76q33 0 62 16.5t51 45.5t34 68t12 83q0 45 -15 74.5t-41.5 44.5
t-60.5 15q-36 0 -65.5 -17t-51 -46.5t-32.5 -69.5t-11 -85q0 -58 30 -93.5t88 -35.5z" />
    <glyph glyph-name="c" unicode="c" horiz-adv-x="545" 
d="M280 -9q-72 0 -123.5 30t-79 81.5t-27.5 114.5q0 85 33.5 150.5t94 103.5t142.5 38q60 0 105.5 -20.5t73 -57.5t33.5 -84l-107 -22q-2 42 -28.5 71t-80.5 29q-35 0 -64 -16.5t-50.5 -45t-33 -67t-11.5 -82.5q0 -40 15 -71.5t43.5 -49.5t70.5 -18q35 0 66 19.5t44 56.5
l100 -35q-27 -60 -84 -92.5t-132 -32.5z" />
    <glyph glyph-name="d" unicode="d" horiz-adv-x="617" 
d="M237 -8q-55 0 -98 26.5t-67 74.5t-24 113q0 61 18.5 116t52 97.5t80 66.5t101.5 24q41 0 74.5 -14t56.5 -41t31 -66l77 336h107l-167 -725h-95l17 93q-25 -46 -68.5 -73.5t-95.5 -27.5zM273 77q33 0 62 17t50 47t33.5 69.5t12.5 82.5q0 40 -14.5 69.5t-40 45.5t-60.5 16
q-37 0 -66.5 -17t-51 -46.5t-33.5 -68t-12 -80.5q0 -43 14 -73t41 -46t65 -16z" />
    <glyph glyph-name="e" unicode="e" horiz-adv-x="575" 
d="M278 -9q-71 0 -122 29.5t-79 80.5t-28 115q0 80 32 146.5t93 106.5t147 40q64 0 110 -26t70 -72.5t24 -108.5q0 -20 -2.5 -41t-9.5 -42h-403v82h345l-39 -28q4 12 5 23.5t1 21.5q0 33 -12.5 57t-36.5 37t-57 13q-45 0 -76.5 -18.5t-50.5 -50t-27 -69.5t-8 -75
q0 -42 16.5 -72.5t46 -47.5t69.5 -17q47 0 76.5 20t47.5 51l86 -46q-20 -34 -52.5 -58.5t-74 -37.5t-91.5 -13z" />
    <glyph glyph-name="f" unicode="f" horiz-adv-x="394" 
d="M62 0l134 580q13 55 38.5 88t63.5 48.5t87 15.5q31 0 57 -6.5t40 -17.5l-30 -78q-9 6 -25 11t-36 5q-41 0 -63 -18.5t-32 -65.5l-16 -71l-4 -27l-107 -464h-107zM60 416l20 84h352l-20 -84h-352z" />
    <glyph glyph-name="g" unicode="g" horiz-adv-x="614" 
d="M212 -215q-43 0 -82 11.5t-68.5 33t-48 52.5t-23.5 70l107 26q8 -52 35.5 -81.5t89.5 -29.5q34 0 64 13t53 43.5t35 86.5l28 127l12 8q-15 -61 -62 -97t-111 -36q-56 0 -100 27t-69.5 75t-25.5 108q0 62 18.5 114t52 91.5t79.5 61t101 21.5q47 0 84 -18.5t59.5 -54
t23.5 -86.5l-16 -13l37 162h107l-115 -492q-18 -81 -55.5 -129.5t-90.5 -71t-119 -22.5zM278 97q43 0 76.5 26.5t53.5 71.5t20 100q0 40 -14 68.5t-40.5 44.5t-61.5 16q-48 0 -83.5 -25.5t-55.5 -69.5t-20 -100q0 -58 32.5 -95t92.5 -37z" />
    <glyph glyph-name="h" unicode="h" horiz-adv-x="603" 
d="M22 0l168 725h107l-76 -329l-16 -12q13 40 41 68t65.5 43t81.5 15q54 0 93 -24.5t55.5 -69.5t2.5 -109l-72 -307h-107l70 300q13 57 -11 89.5t-76 32.5q-40 0 -71.5 -18t-52.5 -52.5t-34 -86.5l-61 -265h-107z" />
    <glyph glyph-name="i" unicode="i" horiz-adv-x="267" 
d="M220 584q-30 0 -48 16t-16 44q1 35 22 54t53 19q31 0 48.5 -15.5t16.5 -42.5q-2 -37 -23 -56t-53 -19zM245 500l-116 -500h-107l116 500h107z" />
    <glyph glyph-name="j" unicode="j" horiz-adv-x="267" 
d="M220 584q-30 0 -48 16t-16 44q1 35 22 54t53 19q31 0 48.5 -15.5t16.5 -42.5q-2 -37 -23 -56t-53 -19zM-46 -215q-33 0 -64.5 8.5t-50.5 26.5l31 84q14 -11 31.5 -18.5t35.5 -7.5q29 0 46 16t27 61l128 545h107l-131 -566q-18 -78 -61.5 -113.5t-98.5 -35.5z" />
    <glyph glyph-name="k" unicode="k" horiz-adv-x="565" 
d="M593 500l-269 -227l-18 -10l-190 -161l15 120l325 278h137zM297 725l-168 -725h-107l168 725h107zM347 332l145 -332h-111l-115 273z" />
    <glyph glyph-name="l" unicode="l" horiz-adv-x="311" 
d="M172 -8q-75 0 -105 44t-13 116l133 573h107l-133 -574q-10 -39 5 -56.5t52 -17.5q14 0 24.5 1t18.5 3l-23 -78q-16 -6 -30.5 -8.5t-35.5 -2.5z" />
    <glyph glyph-name="m" unicode="m" horiz-adv-x="934" 
d="M22 0l116 500h94l-21 -126l-10 7q21 64 73 96.5t116 32.5q53 0 91 -24.5t53.5 -70.5t-0.5 -111l-71 -304h-107l70 298q14 58 -8.5 91t-71.5 33q-40 0 -71 -18t-51.5 -52.5t-33.5 -86.5l-61 -265h-107zM691 0l69 298q13 58 -9 91t-70 33q-41 0 -71.5 -18t-51.5 -52.5
t-33 -86.5l-10 97q27 74 83.5 111t125.5 37q53 0 91 -24.5t53.5 -70.5t0.5 -111l-71 -304h-107z" />
    <glyph glyph-name="n" unicode="n" horiz-adv-x="603" 
d="M22 0l116 500h94l-21 -126l-10 7q21 64 74 96.5t117 32.5q56 0 95 -24.5t55 -70t1 -110.5l-71 -305h-107l70 300q13 57 -11 89.5t-76 32.5q-40 0 -71.5 -18t-52.5 -52.5t-34 -86.5l-61 -265h-107z" />
    <glyph glyph-name="o" unicode="o" horiz-adv-x="596" 
d="M282 -9q-74 0 -125.5 30t-79.5 81.5t-28 113.5q0 85 33.5 151t93 104t140.5 38q74 0 125.5 -30t78.5 -81t27 -114q0 -83 -32.5 -149.5t-92.5 -105t-140 -38.5zM284 75q33 0 61.5 16t50 45t33 67.5t11.5 82.5q0 40 -13.5 71t-42 49.5t-71.5 18.5q-33 0 -62 -16t-50 -44.5
t-33 -67t-12 -83.5q0 -38 14 -70t42.5 -50.5t71.5 -18.5z" />
    <glyph glyph-name="p" unicode="p" horiz-adv-x="617" 
d="M-26 -210l164 710h95l-25 -137l-12 -7q12 48 39.5 82t68 52t86.5 18q51 0 91.5 -25t64 -72.5t23.5 -114.5q0 -63 -19 -118.5t-53 -97.5t-79.5 -66t-99.5 -24q-47 0 -84.5 18t-59.5 53.5t-25 84.5l17 16l-85 -372h-107zM304 76q33 0 62 16.5t51 46.5t34 68.5t12 82.5
q0 43 -14.5 72.5t-41 45t-61.5 15.5q-36 0 -65 -17t-50.5 -46.5t-33 -69.5t-11.5 -85q0 -58 30 -93.5t88 -35.5z" />
    <glyph glyph-name="q" unicode="q" horiz-adv-x="617" 
d="M325 -210l78 337l7 -1q-20 -62 -67 -98t-106 -36q-54 0 -97 26t-67.5 74t-24.5 114q0 62 19 117.5t52.5 97.5t80 65.5t100.5 23.5q48 0 84 -18.5t57.5 -51.5t23.5 -79l-13 -14l36 153h107l-164 -710h-106zM273 77q34 0 62.5 17t50 47t33.5 69.5t12 82.5q0 40 -14.5 69.5
t-40 45.5t-60.5 16q-37 0 -66.5 -17t-51 -46.5t-33.5 -68t-12 -80.5q0 -43 14.5 -73t41 -46t64.5 -16z" />
    <glyph glyph-name="r" unicode="r" horiz-adv-x="399" 
d="M22 0l116 500h90l-16 -135l-11 10q16 42 43.5 72t63.5 46.5t75 16.5q16 0 28.5 -2t21.5 -7l-29 -96q-10 5 -22.5 7.5t-31.5 2.5q-36 0 -68 -16.5t-56 -50.5t-37 -89l-60 -259h-107z" />
    <glyph glyph-name="s" unicode="s" horiz-adv-x="515" 
d="M253 -11q-57 0 -104.5 17t-82.5 49t-55 75l81 49q21 -51 61.5 -78.5t97.5 -27.5q46 0 71 18t25 48q0 22 -14 35.5t-43 21.5l-80 24q-66 18 -97.5 53.5t-31.5 82.5q0 45 24 79.5t69 54.5t106 20q73 0 129 -30t82 -87l-77 -52q-11 26 -31 45t-46.5 30t-58.5 11
q-49 0 -73 -16.5t-24 -44.5q0 -25 19 -38t45 -21l97 -29q52 -15 81 -47.5t29 -76.5q0 -51 -25 -88t-70 -57t-104 -20z" />
    <glyph glyph-name="t" unicode="t" horiz-adv-x="412" 
d="M241 -8q-52 0 -88.5 19.5t-51.5 57.5t-3 92l103 448l115 32l-113 -481q-10 -44 12 -63.5t57 -19.5q24 0 41.5 6t31.5 16l8 -79q-26 -16 -53.5 -22t-58.5 -6zM58 416l19 84h355l-19 -84h-355z" />
    <glyph glyph-name="u" unicode="u" horiz-adv-x="602" 
d="M215 -8q-54 0 -94.5 24t-58 69t-2.5 109l71 306h107l-69 -297q-14 -60 11.5 -91.5t76.5 -31.5q40 0 70.5 17.5t51.5 52t32 85.5l62 265h107l-116 -500h-95l21 126l10 -8q-20 -63 -70.5 -94.5t-114.5 -31.5z" />
    <glyph glyph-name="v" unicode="v" horiz-adv-x="510" 
d="M446 500h119l-307 -500h-117l-80 500h106l55 -446l-24 4z" />
    <glyph glyph-name="w" unicode="w" horiz-adv-x="826" 
d="M117 0l-46 500h104l27 -388l200 388h106l42 -393l200 393h114l-271 -500h-117l-45 370l-195 -370h-119z" />
    <glyph glyph-name="x" unicode="x" horiz-adv-x="539" 
d="M-38 0l262 279l30 7l184 214h128l-250 -270l-33 -12l-189 -218h-132zM343 0l-101 225l-25 12l-131 263h119l95 -218l21 -4l140 -278h-118z" />
    <glyph glyph-name="y" unicode="y" horiz-adv-x="520" 
d="M22 -215q-40 0 -70 9t-49 25l37 83q34 -31 79 -31q30 0 53.5 16t45.5 50l39 63l-88 500h107l36 -281l16 -124l66 118l163 287h118l-361 -581q-29 -48 -59.5 -77.5t-63.5 -43t-69 -13.5z" />
    <glyph glyph-name="z" unicode="z" horiz-adv-x="513" 
d="M-5 0l18 77l303 292l56 49l-86 -2h-199l20 84h407l-18 -80l-281 -270l-75 -67l103 1h195l-20 -84h-423z" />
    <glyph glyph-name="braceleft" unicode="{" horiz-adv-x="357" 
d="M214 -190q-88 0 -126 37.5t-23 103.5l42 181q13 56 -7 80.5t-66 24.5h-7l19 82h18q42 0 68.5 18.5t37.5 66.5l49 216q14 61 57 94t121 33h35l-17 -76h-8q-48 0 -69.5 -17t-30.5 -55l-48 -209q-10 -47 -41.5 -78.5t-78.5 -39.5q42 -11 59 -42.5t6 -80.5l-45 -193
q-8 -36 9.5 -54t59.5 -19h5l-17 -73h-2z" />
    <glyph glyph-name="bar" unicode="|" horiz-adv-x="263" 
d="M288 725l-207 -893h-93l207 893h93z" />
    <glyph glyph-name="braceright" unicode="}" horiz-adv-x="357" 
d="M-62 -190l17 73h7q50 0 71 19t30 56l48 208q11 48 42 80t78 39q-42 11 -59 42.5t-6 80.5l44 190q9 37 -8.5 55t-59.5 18h-6l18 76h11q54 0 88.5 -17t48.5 -47.5t3 -73.5l-42 -184q-13 -57 7 -81.5t66 -24.5h7l-19 -82h-18q-42 0 -68.5 -17.5t-37.5 -67.5l-49 -215
q-14 -61 -56 -94t-121 -33h-36z" />
    <glyph glyph-name="asciitilde" unicode="~" horiz-adv-x="556" 
d="M546 396q-14 -58 -40.5 -93.5t-60.5 -52t-69 -16.5q-34 0 -55.5 10.5t-39 25t-35 25t-41.5 10.5t-43 -17.5t-30 -52.5h-92q14 57 40.5 93t61 53t71.5 17q32 0 53.5 -11t38.5 -25.5t35 -25t41 -10.5q24 0 43.5 17.5t29.5 52.5h92z" />
    <glyph glyph-name="uni00A0" unicode="&#xa0;" horiz-adv-x="321" 
 />
    <glyph glyph-name="exclamdown" unicode="&#xa1;" horiz-adv-x="274" 
d="M183 290l-27 -186l-61 -264h-113l61 264l58 186h82zM178 509q30 0 49 -16t19 -44q0 -37 -22 -59t-56 -22q-30 0 -48.5 16.5t-18.5 44.5q0 37 21.5 58.5t55.5 21.5z" />
    <glyph glyph-name="cent" unicode="&#xa2;" horiz-adv-x="568" 
d="M283 -9q-71 0 -122 30t-78.5 81t-27.5 114q0 87 33.5 152.5t93.5 103t140 37.5q62 0 107 -21t72.5 -58t35.5 -83l-99 -21q-3 44 -33 75t-85 31q-49 0 -87 -28.5t-59.5 -76.5t-21.5 -110q0 -41 16 -75t47 -54t75 -20q38 0 71 21.5t47 61.5l93 -33q-26 -61 -84 -94
t-134 -33zM178 -100l161 700h79l-162 -700h-78z" />
    <glyph glyph-name="sterling" unicode="&#xa3;" horiz-adv-x="607" 
d="M82 276l16 68h378l-16 -68h-378zM413 -10q-43 0 -76.5 11.5t-60 29t-49 35t-45.5 29t-50 11.5q-18 0 -28 -8t-10 -21q0 -14 9 -22t27 -8q26 0 46.5 22t32.5 59t12 78q0 33 -6 63.5t-13 60t-13 59.5t-6 62q0 65 30 114.5t81 77.5t111 28q55 0 98 -21.5t69.5 -60.5
t29.5 -93l-94 -24q-4 46 -29.5 78.5t-75.5 32.5q-39 0 -67 -19t-43 -49.5t-15 -67.5q0 -38 6 -71.5t11.5 -68.5t5.5 -79q0 -45 -13 -87.5t-36.5 -76.5t-56.5 -54t-73 -20q-43 0 -71.5 24t-28.5 59q0 39 31.5 66t83.5 27q33 0 60.5 -9.5t52 -24t48.5 -29t50 -24t57 -9.5
q37 0 56.5 22.5t29.5 74.5l77 -22q-9 -52 -30.5 -86.5t-53.5 -51.5t-71 -17z" />
    <glyph glyph-name="currency" unicode="&#xa4;" horiz-adv-x="663" 
d="M350 538q62 0 109.5 -26.5t74.5 -74t27 -108.5t-27 -108.5t-74.5 -74.5t-109.5 -27t-109.5 27t-75 74.5t-27.5 108.5t27.5 108.5t75 74t109.5 26.5zM350 452q-51 0 -84 -34.5t-33 -88.5t33 -89t84 -35q50 0 83 35t33 89t-33 88.5t-83 34.5zM145 598l122 -125l-60 -60
l-127 120zM206 247l59 -61l-120 -127l-65 65zM493 243l126 -119l-65 -65l-122 124zM554 598l65 -65l-124 -122l-60 61z" />
    <glyph glyph-name="yen" unicode="&#xa5;" horiz-adv-x="617" 
d="M201 0l26 111h-172l13 56h172l17 73h-172l14 59h105l52 -4l-134 365h104l78 -232l26 -97h2l60 99l166 230h123l-292 -365l46 4h106l-14 -59h-172l-17 -73h173l-13 -56h-173l-26 -111h-98z" />
    <glyph glyph-name="brokenbar" unicode="&#xa6;" horiz-adv-x="263" 
d="M288 725l-85 -368h-94l86 368h93zM166 200l-85 -368h-93l85 368h93z" />
    <glyph glyph-name="section" unicode="&#xa7;" horiz-adv-x="600" 
d="M261 -110q-55 0 -104 15t-86.5 45.5t-57.5 74.5l82 49q19 -45 63 -75.5t116 -30.5q57 0 87 22.5t30 59.5q0 28 -17.5 44.5t-65.5 29.5l-117 34q-80 22 -116.5 56t-36.5 94q0 39 19.5 67.5t53.5 45t78 18.5l35 -42q-52 -3 -75.5 -24.5t-23.5 -49.5q0 -29 21 -49.5
t74 -35.5l126 -34q70 -20 105 -50t35 -82q0 -50 -24.5 -91.5t-74 -66t-126.5 -24.5zM413 121l-23 48q30 0 52 8t34.5 25t12.5 40q0 27 -17.5 44t-65.5 30l-132 39q-43 12 -71 30.5t-41.5 46t-13.5 64.5q0 48 25 87.5t73.5 63t118.5 23.5q44 0 88.5 -12t84 -39.5t67.5 -74.5
l-80 -49q-29 50 -70 71.5t-98 21.5q-37 0 -61.5 -11t-37 -28.5t-12.5 -40.5q0 -32 17.5 -49.5t68.5 -31.5l114 -33q64 -17 97 -49.5t33 -83.5q0 -37 -18 -68.5t-54.5 -51t-90.5 -20.5z" />
    <glyph glyph-name="dieresis" unicode="&#xa8;" horiz-adv-x="500" 
d="M434 574q-26 0 -42.5 14.5t-16.5 38.5q0 35 20.5 54t51.5 19q26 0 42.5 -14.5t16.5 -38.5q0 -36 -20.5 -54.5t-51.5 -18.5zM232 574q-26 0 -42.5 14.5t-16.5 38.5q0 35 20.5 54t51.5 19q26 0 42 -14.5t16 -38.5q0 -36 -20 -54.5t-51 -18.5z" />
    <glyph glyph-name="copyright" unicode="&#xa9;" horiz-adv-x="798" 
d="M418 -10q-102 0 -179 44.5t-120.5 121.5t-43.5 174q0 98 43.5 174.5t120.5 121t179 44.5q101 0 178.5 -44t120.5 -121t43 -175q0 -97 -43 -174t-120.5 -121.5t-178.5 -44.5zM418 61q79 0 139 35t93.5 96.5t33.5 137.5t-33.5 137.5t-93.5 96.5t-139 35t-139.5 -35
t-94 -96.5t-33.5 -137.5t33.5 -137.5t94 -96.5t139.5 -35zM424 142q-86 0 -135 50t-49 136q0 87 49 137t135 50q62 0 102.5 -27t58.5 -73l-70 -34q-12 29 -34 43t-56 14q-47 0 -74.5 -28.5t-27.5 -81.5q0 -52 27.5 -81t74.5 -29q36 0 60 14.5t36 46.5l67 -29
q-21 -53 -61 -80.5t-103 -27.5z" />
    <glyph glyph-name="ordfeminine" unicode="&#xaa;" horiz-adv-x="377" 
d="M184 321q-50 0 -83 37.5t-33 100.5q0 43 12.5 80.5t35 65.5t54 44t69.5 16q26 0 47.5 -12t34.5 -37t11 -63l-16 -25l32 131h83l-78 -330h-74l35 161l-2 -53q-16 -58 -51.5 -87t-76.5 -29zM22 186l14 64h304l-15 -64h-303zM217 386q30 0 50 20.5t30 52.5t10 64
q0 33 -16.5 54.5t-44.5 21.5q-32 0 -52.5 -20.5t-30.5 -51.5t-10 -64t16.5 -55t47.5 -22z" />
    <glyph glyph-name="guillemotleft" unicode="&#xab;" horiz-adv-x="516" 
d="M325 461l-198 -226l4 69l95 -235h-98l-80 196l171 196h106zM520 461l-198 -226l4 69l95 -235h-98l-80 196l171 196h106z" />
    <glyph glyph-name="logicalnot" unicode="&#xac;" 
d="M560 317l-45 -196h-97l45 196h97zM571 364l-20 -89h-486l20 89h486z" />
    <glyph glyph-name="uni00AD" unicode="&#xad;" horiz-adv-x="515" 
d="M442 313l-22 -99h-341l23 99h340z" />
    <glyph glyph-name="registered" unicode="&#xae;" horiz-adv-x="800" 
d="M419 670q104 0 181 -42t119 -118.5t42 -179.5t-42 -179.5t-119 -118.5t-181 -42t-181.5 42t-119.5 118.5t-42 179.5t42 179.5t119.5 118.5t181.5 42zM363 514v-368h-77v368h77zM473 317l117 -171h-90l-92 148zM419 599q-81 0 -141 -33t-93 -93.5t-33 -142.5t33 -142.5
t93 -93.5t141 -33t140.5 33t92.5 93.5t33 142.5t-33 142.5t-92.5 93.5t-140.5 33zM445 514q40 0 71 -15t48.5 -41t17.5 -63q0 -55 -39 -86.5t-102 -31.5h-109v56h105q32 0 49.5 14.5t17.5 45.5t-17.5 45.5t-49.5 14.5h-105v61h113z" />
    <glyph glyph-name="macron" unicode="&#xaf;" horiz-adv-x="500" 
d="M509 666l-17 -78h-328l18 78h327z" />
    <glyph glyph-name="degree" unicode="&#xb0;" horiz-adv-x="454" 
d="M285 327q-53 0 -93.5 22t-63.5 60.5t-23 89.5q0 50 23 89t63.5 60.5t93.5 21.5t93 -21.5t63 -60.5t23 -89q0 -51 -23 -89.5t-63 -60.5t-93 -22zM285 406q41 0 67 26.5t26 66.5q0 41 -26 67t-67 26t-67.5 -26t-26.5 -67q0 -40 26.5 -66.5t67.5 -26.5z" />
    <glyph glyph-name="plusminus" unicode="&#xb1;" 
d="M438 644l-111 -481h-89l111 481h89zM593 447l-20 -88h-492l21 88h491zM510 87l-20 -87h-491l20 87h491z" />
    <glyph glyph-name="uni00B2" unicode="&#xb2;" horiz-adv-x="373" 
d="M69 333l15 63q45 28 88 53.5t77.5 51.5t55 52.5t20.5 56.5q0 31 -16 43.5t-41 12.5q-34 0 -55 -22t-28 -61l-77 34q14 54 55 86t109 32q66 0 102.5 -32.5t36.5 -78.5q0 -40 -20.5 -72.5t-52.5 -59.5t-70 -49t-73 -42v-1q12 1 30 1.5t30 0.5h130l-15 -69h-301z" />
    <glyph glyph-name="uni00B3" unicode="&#xb3;" horiz-adv-x="355" 
d="M220 327q-66 0 -108 31.5t-52 84.5l85 18q4 -30 22 -48.5t53 -18.5q31 0 48.5 18t17.5 43q0 24 -16.5 36t-48.5 12h-9t-9 -1l14 60q5 -1 11.5 -1.5t13.5 -0.5q33 0 50.5 15.5t17.5 41.5t-17 37.5t-41 11.5q-28 0 -46.5 -13t-26.5 -39l-75 31q16 42 55.5 66t98.5 24
t98 -27t39 -76q0 -42 -25 -71t-68 -32l-1 -1q31 -4 51.5 -22.5t20.5 -53.5q0 -40 -21.5 -68t-56 -42.5t-75.5 -14.5z" />
    <glyph glyph-name="acute" unicode="&#xb4;" horiz-adv-x="600" 
d="M396 746h116l-144 -168h-90z" />
    <glyph glyph-name="uni00B5" unicode="&#xb5;" horiz-adv-x="608" 
d="M-26 -210l164 710h107l-69 -297q-14 -59 11 -91t76 -32q41 0 71.5 17.5t51.5 52t32 85.5l62 265h107l-116 -500h-95l13 79q-25 -43 -67.5 -65t-92.5 -22q-32 0 -64 11.5t-53 38.5l31 16l-62 -268h-107z" />
    <glyph glyph-name="paragraph" unicode="&#xb6;" horiz-adv-x="685" 
d="M214 -100l66 286q-42 2 -79 17t-65 42t-43.5 65t-15.5 84q0 86 37 145t103.5 90t157.5 31h321l-176 -760h-90l156 674h-123l-156 -674h-93zM299 273l70 301h-31q-48 0 -86.5 -19.5t-61 -57t-22.5 -95.5q0 -55 35 -92t96 -37z" />
    <glyph glyph-name="periodcentered" unicode="&#xb7;" horiz-adv-x="237" 
d="M137 283q-30 0 -49 16.5t-19 45.5q0 38 22.5 60t56.5 22q30 0 49 -16.5t19 -45.5q0 -38 -22 -60t-57 -22z" />
    <glyph glyph-name="cedilla" unicode="&#xb8;" horiz-adv-x="500" 
d="M137 6l46 23q47 -17 72.5 -46t25.5 -71q0 -41 -18.5 -69.5t-49 -43.5t-66.5 -15q-35 0 -63 13.5t-42 30.5l35 57q14 -15 32.5 -22t37.5 -7q28 0 45.5 18t17.5 45q0 29 -18.5 49.5t-54.5 37.5z" />
    <glyph glyph-name="uni00B9" unicode="&#xb9;" horiz-adv-x="263" 
d="M143 333l57 242q3 12 7 26.5t7.5 25.5t3.5 12q-22 -17 -56 -30.5t-62 -17.5l8 75q22 4 49 14t52 23.5t41 25.5h71l-92 -396h-86z" />
    <glyph glyph-name="ordmasculine" unicode="&#xba;" horiz-adv-x="375" 
d="M227 321q-68 0 -108.5 39.5t-40.5 103.5q0 55 22 100.5t63 73t97 27.5q68 0 108.5 -39.5t40.5 -103.5q0 -52 -21.5 -98t-62.5 -74.5t-98 -28.5zM21 186l15 64h303l-15 -64h-303zM231 385q31 0 51.5 21t31 53.5t10.5 64.5q0 34 -17 55t-50 21q-31 0 -52 -21t-31.5 -52.5
t-10.5 -65.5q0 -33 17 -54.5t51 -21.5z" />
    <glyph glyph-name="guillemotright" unicode="&#xbb;" horiz-adv-x="517" 
d="M4 69l195 224l-1 -68l-95 236h96l82 -196l-171 -196h-106zM199 69l195 224l-1 -68l-95 236h96l82 -196l-171 -196h-106z" />
    <glyph glyph-name="onequarter" unicode="&#xbc;" horiz-adv-x="817" 
d="M128 268l57 242q3 12 7 26.5t7.5 25.5t3.5 12q-22 -17 -56 -30.5t-62 -17.5l8 75q22 4 49 14t52 23.5t41 25.5h71l-92 -396h-86zM56 0l619 660h99l-620 -660h-98zM601 -4l22 95h-179l14 59q9 12 16 20t14.5 17t19.5 23l156 183h102l-57 -243h75l-13 -59h-75l-22 -95h-73z
M534 150h101l42 173l-118 -145q-8 -8 -14 -15t-11 -13z" />
    <glyph glyph-name="onehalf" unicode="&#xbd;" horiz-adv-x="903" 
d="M128 268l57 242q3 12 7 26.5t7.5 25.5t3.5 12q-22 -17 -56 -30.5t-62 -17.5l8 75q22 4 49 14t52 23.5t41 25.5h71l-92 -396h-86zM56 0l619 660h99l-620 -660h-98zM521 -4l15 63q45 28 88 53.5t77.5 51.5t55 52.5t20.5 56.5q0 31 -16 43.5t-41 12.5q-34 0 -55 -22t-28 -61
l-77 34q14 54 55 86t109 32q66 0 102.5 -32.5t36.5 -78.5q0 -40 -20.5 -72.5t-52.5 -59.5t-70 -49t-73 -42v-1q12 1 30 1.5t30 0.5h130l-15 -69h-301z" />
    <glyph glyph-name="threequarters" unicode="&#xbe;" horiz-adv-x="909" 
d="M205 262q-66 0 -108 31.5t-52 84.5l85 18q4 -30 22 -48.5t53 -18.5q31 0 48.5 18t17.5 43q0 24 -16.5 36t-48.5 12h-9t-9 -1l14 60q5 -1 11.5 -1.5t13.5 -0.5q33 0 50.5 15.5t17.5 41.5t-17 37.5t-41 11.5q-28 0 -46.5 -13t-26.5 -39l-75 31q16 42 55.5 66t98.5 24
t98 -27t39 -76q0 -42 -25 -71t-68 -32l-1 -1q31 -4 51.5 -22.5t20.5 -53.5q0 -40 -21.5 -68t-56 -42.5t-75.5 -14.5zM148 0l619 660h99l-620 -660h-98zM694 -4l22 95h-179l14 59q9 12 16 20t14.5 17t19.5 23l156 183h102l-57 -243h75l-13 -59h-75l-22 -95h-73zM627 150h101
l42 173l-118 -145q-8 -8 -14 -15t-11 -13z" />
    <glyph glyph-name="questiondown" unicode="&#xbf;" horiz-adv-x="548" 
d="M355 290l-35 -148q-64 0 -111.5 -12t-74 -40t-26.5 -77q0 -45 32.5 -66.5t81.5 -21.5q59 0 97 29t55 78l92 -51q-17 -43 -51.5 -77t-84.5 -53t-115 -19q-63 0 -112.5 20.5t-77.5 59t-28 91.5q0 64 29.5 107.5t82.5 68t122 29.5l21 82h103zM339 509q30 0 49 -16t19 -44
q0 -37 -22 -59t-56 -22q-30 0 -49 16.5t-19 44.5q0 37 22 58.5t56 21.5z" />
    <glyph glyph-name="Agrave" unicode="&#xc0;" horiz-adv-x="651" 
d="M-41 0l396 660h132l89 -660h-104l-58 457l-12 103v0l-57 -100l-269 -460h-117zM133 179l20 87h351l-20 -87h-351zM447 897l38 -160h-74l-65 160h101z" />
    <glyph glyph-name="Aacute" unicode="&#xc1;" horiz-adv-x="651" 
d="M-41 0l396 660h132l89 -660h-104l-58 457l-12 103v0l-57 -100l-269 -460h-117zM133 179l20 87h351l-20 -87h-351zM471 897h113l-123 -160h-86z" />
    <glyph glyph-name="Acircumflex" unicode="&#xc2;" horiz-adv-x="651" 
d="M-41 0l396 660h132l89 -660h-104l-58 457l-12 103v0l-57 -100l-269 -460h-117zM133 179l20 87h351l-20 -87h-351zM523 897l70 -160h-82l-53 102l-98 -102h-93l145 160h111z" />
    <glyph glyph-name="Atilde" unicode="&#xc3;" horiz-adv-x="651" 
d="M-41 0l396 660h132l89 -660h-104l-58 457l-12 103v0l-57 -100l-269 -460h-117zM133 179l20 87h351l-20 -87h-351zM634 877q-11 -69 -47 -105t-82 -36q-26 0 -44 10t-31.5 23t-25.5 23t-27 10q-17 0 -30.5 -18t-20.5 -49h-73q12 70 47.5 106t81.5 36q25 0 43 -10t31.5 -23
t26 -23t27.5 -10q17 0 30.5 18t21.5 48h72z" />
    <glyph glyph-name="Adieresis" unicode="&#xc4;" horiz-adv-x="651" 
d="M-41 0l396 660h132l89 -660h-104l-58 457l-12 103v0l-57 -100l-269 -460h-117zM133 179l20 87h351l-20 -87h-351zM538 734q-26 0 -42.5 14.5t-16.5 38.5q0 35 20.5 54t51.5 19q26 0 42.5 -14.5t16.5 -38.5q0 -36 -20.5 -54.5t-51.5 -18.5zM336 734q-26 0 -42.5 14.5
t-16.5 38.5q0 35 20.5 54t51.5 19q26 0 42 -14.5t16 -38.5q0 -36 -20 -54.5t-51 -18.5z" />
    <glyph glyph-name="Aring" unicode="&#xc5;" horiz-adv-x="651" 
d="M-41 0l396 660h132l89 -660h-104l-58 457l-12 103v0l-57 -100l-269 -460h-117zM133 179l20 87h351l-20 -87h-351zM434 846q54 0 88 -31.5t34 -78.5q0 -57 -38 -94t-95 -37q-54 0 -88 31.5t-34 77.5q0 57 37.5 94.5t95.5 37.5zM432 789q-28 0 -47.5 -18.5t-19.5 -50.5
q0 -25 17.5 -41.5t43.5 -16.5q27 0 46 18.5t19 50.5q0 25 -16 41.5t-43 16.5z" />
    <glyph glyph-name="AE" unicode="&#xc6;" horiz-adv-x="929" 
d="M-55 0l495 660h525l-21 -90h-331l-45 -192h252l-20 -89h-252l-47 -199h347l-21 -90h-450l48 208h-205l-153 -208h-122zM280 294h165l64 277h-21z" />
    <glyph glyph-name="Ccedilla" unicode="&#xc7;" horiz-adv-x="678" 
d="M361 -10q-79 0 -144 32.5t-103 96t-38 155.5q0 77 22 147.5t66 126.5t108.5 89t148.5 33q66 0 117.5 -21.5t86.5 -64.5t51 -108l-109 -31q-13 70 -51 101t-102 31q-56 0 -98.5 -26.5t-71 -69t-43 -95t-14.5 -105.5q0 -62 23.5 -106t64.5 -68t93 -24q61 0 96.5 27t59.5 73
l100 -44q-41 -68 -104 -108.5t-159 -40.5zM289 6l46 23q47 -17 72.5 -46t25.5 -71q0 -41 -18.5 -69.5t-49 -43.5t-66.5 -15q-35 0 -63 13.5t-42 30.5l35 57q14 -15 32.5 -22t37.5 -7q28 0 45.5 18t17.5 45q0 29 -18.5 49.5t-54.5 37.5z" />
    <glyph glyph-name="Egrave" unicode="&#xc8;" horiz-adv-x="625" 
d="M37 0l153 660h471l-22 -92h-363l-44 -190h285l-20 -90h-285l-45 -196h377l-22 -92h-485zM443 897l38 -160h-74l-65 160h101z" />
    <glyph glyph-name="Eacute" unicode="&#xc9;" horiz-adv-x="625" 
d="M37 0l153 660h471l-22 -92h-363l-44 -190h285l-20 -90h-285l-45 -196h377l-22 -92h-485zM475 897h113l-123 -160h-86z" />
    <glyph glyph-name="Ecircumflex" unicode="&#xca;" horiz-adv-x="625" 
d="M37 0l153 660h471l-22 -92h-363l-44 -190h285l-20 -90h-285l-45 -196h377l-22 -92h-485zM529 897l70 -160h-82l-53 102l-98 -102h-93l145 160h111z" />
    <glyph glyph-name="Edieresis" unicode="&#xcb;" horiz-adv-x="625" 
d="M37 0l153 660h471l-22 -92h-363l-44 -190h285l-20 -90h-285l-45 -196h377l-22 -92h-485zM544 734q-26 0 -42.5 14.5t-16.5 38.5q0 35 20.5 54t51.5 19q26 0 42.5 -14.5t16.5 -38.5q0 -36 -20.5 -54.5t-51.5 -18.5zM342 734q-26 0 -42.5 14.5t-16.5 38.5q0 35 20.5 54
t51.5 19q26 0 42 -14.5t16 -38.5q0 -36 -20 -54.5t-51 -18.5z" />
    <glyph glyph-name="Igrave" unicode="&#xcc;" horiz-adv-x="298" 
d="M298 660l-153 -660h-108l153 660h108zM261 897l38 -160h-74l-65 160h101z" />
    <glyph glyph-name="Iacute" unicode="&#xcd;" horiz-adv-x="298" 
d="M298 660l-153 -660h-108l153 660h108zM311 897h113l-123 -160h-86z" />
    <glyph glyph-name="Icircumflex" unicode="&#xce;" horiz-adv-x="298" 
d="M298 660l-153 -660h-108l153 660h108zM353 897l70 -160h-82l-53 102l-98 -102h-93l145 160h111z" />
    <glyph glyph-name="Idieresis" unicode="&#xcf;" horiz-adv-x="298" 
d="M360 734q-26 0 -42.5 14.5t-16.5 38.5q0 35 20.5 54t51.5 19q26 0 42 -14.5t16 -38.5q0 -36 -20 -54.5t-51 -18.5zM174 734q-26 0 -42.5 14.5t-16.5 38.5q0 35 20.5 54t51.5 19q26 0 42 -14.5t16 -38.5q0 -36 -20 -54.5t-51 -18.5zM298 660l-153 -660h-108l153 660h108z
" />
    <glyph glyph-name="Eth" unicode="&#xd0;" horiz-adv-x="727" 
d="M23 288l20 89h378l-20 -89h-378zM58 0l153 660h203q88 0 149 -34.5t93.5 -95.5t32.5 -140q0 -84 -26 -155t-74.5 -124t-117 -82t-152.5 -29h-261zM186 91h140q59 0 105.5 24t79 65t49.5 93t17 108q0 54 -19 96.5t-58 67t-98 24.5h-105z" />
    <glyph glyph-name="Ntilde" unicode="&#xd1;" horiz-adv-x="724" 
d="M37 0l153 660h122l151 -417l39 -125h1l23 116l99 426h99l-153 -660h-121l-154 416l-38 124h-1l-22 -114l-99 -426h-99zM671 877q-11 -69 -47 -105t-82 -36q-26 0 -44 10t-31.5 23t-25.5 23t-27 10q-17 0 -30.5 -18t-20.5 -49h-73q12 70 47.5 106t81.5 36q25 0 43 -10
t31.5 -23t26 -23t27.5 -10q17 0 30.5 18t21.5 48h72z" />
    <glyph glyph-name="Ograve" unicode="&#xd2;" horiz-adv-x="739" 
d="M358 -10q-77 0 -141 33.5t-102 99t-38 157.5q0 79 23 149t66 124t107.5 85.5t147.5 31.5q77 0 139.5 -34t100 -98.5t37.5 -157.5q0 -78 -22 -148.5t-65.5 -124.5t-107 -85.5t-145.5 -31.5zM366 84q55 0 96.5 25.5t69.5 68t42 95.5t14 107q0 62 -22 106t-61.5 67t-92.5 23
q-55 0 -97 -25.5t-70.5 -68t-42.5 -95t-14 -107.5q0 -62 22 -106t62 -67t94 -23zM460 897l38 -160h-74l-65 160h101z" />
    <glyph glyph-name="Oacute" unicode="&#xd3;" horiz-adv-x="739" 
d="M358 -10q-77 0 -141 33.5t-102 99t-38 157.5q0 79 23 149t66 124t107.5 85.5t147.5 31.5q77 0 139.5 -34t100 -98.5t37.5 -157.5q0 -78 -22 -148.5t-65.5 -124.5t-107 -85.5t-145.5 -31.5zM366 84q55 0 96.5 25.5t69.5 68t42 95.5t14 107q0 62 -22 106t-61.5 67t-92.5 23
q-55 0 -97 -25.5t-70.5 -68t-42.5 -95t-14 -107.5q0 -62 22 -106t62 -67t94 -23zM494 897h113l-123 -160h-86z" />
    <glyph glyph-name="Ocircumflex" unicode="&#xd4;" horiz-adv-x="739" 
d="M358 -10q-77 0 -141 33.5t-102 99t-38 157.5q0 79 23 149t66 124t107.5 85.5t147.5 31.5q77 0 139.5 -34t100 -98.5t37.5 -157.5q0 -78 -22 -148.5t-65.5 -124.5t-107 -85.5t-145.5 -31.5zM366 84q55 0 96.5 25.5t69.5 68t42 95.5t14 107q0 62 -22 106t-61.5 67t-92.5 23
q-55 0 -97 -25.5t-70.5 -68t-42.5 -95t-14 -107.5q0 -62 22 -106t62 -67t94 -23zM546 897l70 -160h-82l-53 102l-98 -102h-93l145 160h111z" />
    <glyph glyph-name="Otilde" unicode="&#xd5;" horiz-adv-x="739" 
d="M358 -10q-77 0 -141 33.5t-102 99t-38 157.5q0 79 23 149t66 124t107.5 85.5t147.5 31.5q77 0 139.5 -34t100 -98.5t37.5 -157.5q0 -78 -22 -148.5t-65.5 -124.5t-107 -85.5t-145.5 -31.5zM366 84q55 0 96.5 25.5t69.5 68t42 95.5t14 107q0 62 -22 106t-61.5 67t-92.5 23
q-55 0 -97 -25.5t-70.5 -68t-42.5 -95t-14 -107.5q0 -62 22 -106t62 -67t94 -23zM657 877q-11 -69 -47 -105t-82 -36q-26 0 -44 10t-31.5 23t-25.5 23t-27 10q-17 0 -30.5 -18t-20.5 -49h-73q12 70 47.5 106t81.5 36q25 0 43 -10t31.5 -23t26 -23t27.5 -10q17 0 30.5 18
t21.5 48h72z" />
    <glyph glyph-name="Odieresis" unicode="&#xd6;" horiz-adv-x="739" 
d="M358 -10q-77 0 -141 33.5t-102 99t-38 157.5q0 79 23 149t66 124t107.5 85.5t147.5 31.5q77 0 139.5 -34t100 -98.5t37.5 -157.5q0 -78 -22 -148.5t-65.5 -124.5t-107 -85.5t-145.5 -31.5zM366 84q55 0 96.5 25.5t69.5 68t42 95.5t14 107q0 62 -22 106t-61.5 67t-92.5 23
q-55 0 -97 -25.5t-70.5 -68t-42.5 -95t-14 -107.5q0 -62 22 -106t62 -67t94 -23zM561 734q-26 0 -42.5 14.5t-16.5 38.5q0 35 20.5 54t51.5 19q26 0 42.5 -14.5t16.5 -38.5q0 -36 -20.5 -54.5t-51.5 -18.5zM359 734q-26 0 -42.5 14.5t-16.5 38.5q0 35 20.5 54t51.5 19
q26 0 42 -14.5t16 -38.5q0 -36 -20 -54.5t-51 -18.5z" />
    <glyph glyph-name="multiply" unicode="&#xd7;" 
d="M95 91l-55 73l475 385l55 -73zM423 91l-307 401l71 57l307 -401z" />
    <glyph glyph-name="Oslash" unicode="&#xd8;" horiz-adv-x="739" 
d="M224 104l-40 44l367 412l37 -48zM39 -14l133 150l41 -44l-96 -106h-78zM594 517l-33 52l96 106h79zM358 -10q-77 0 -141 33.5t-102 99t-38 157.5q0 79 23 149t66 124t107.5 85.5t147.5 31.5q77 0 139.5 -34t100 -98.5t37.5 -157.5q0 -78 -22 -148.5t-65.5 -124.5
t-107 -85.5t-145.5 -31.5zM366 84q55 0 96.5 25.5t69.5 68t42 95.5t14 107q0 62 -22 106t-61.5 67t-92.5 23q-55 0 -97 -25.5t-70.5 -68t-42.5 -95t-14 -107.5q0 -62 22 -106t62 -67t94 -23z" />
    <glyph glyph-name="Ugrave" unicode="&#xd9;" horiz-adv-x="696" 
d="M326 -10q-90 0 -151 35.5t-84 102.5t-1 160l87 372h108l-90 -392q-14 -61 0.5 -102.5t50.5 -62t88 -20.5q73 0 114.5 45t58.5 123l95 409h107l-98 -427q-27 -112 -97.5 -177.5t-187.5 -65.5zM457 881l38 -160h-74l-65 160h101z" />
    <glyph glyph-name="Uacute" unicode="&#xda;" horiz-adv-x="696" 
d="M326 -10q-90 0 -151 35.5t-84 102.5t-1 160l87 372h108l-90 -392q-14 -61 0.5 -102.5t50.5 -62t88 -20.5q73 0 114.5 45t58.5 123l95 409h107l-98 -427q-27 -112 -97.5 -177.5t-187.5 -65.5zM491 881h113l-123 -160h-86z" />
    <glyph glyph-name="Ucircumflex" unicode="&#xdb;" horiz-adv-x="696" 
d="M326 -10q-90 0 -151 35.5t-84 102.5t-1 160l87 372h108l-90 -392q-14 -61 0.5 -102.5t50.5 -62t88 -20.5q73 0 114.5 45t58.5 123l95 409h107l-98 -427q-27 -112 -97.5 -177.5t-187.5 -65.5zM543 881l70 -160h-82l-53 102l-98 -102h-93l145 160h111z" />
    <glyph glyph-name="Udieresis" unicode="&#xdc;" horiz-adv-x="696" 
d="M326 -10q-90 0 -151 35.5t-84 102.5t-1 160l87 372h108l-90 -392q-14 -61 0.5 -102.5t50.5 -62t88 -20.5q73 0 114.5 45t58.5 123l95 409h107l-98 -427q-27 -112 -97.5 -177.5t-187.5 -65.5zM558 718q-26 0 -42.5 14.5t-16.5 38.5q0 35 20.5 54t51.5 19q26 0 42.5 -14.5
t16.5 -38.5q0 -36 -20.5 -54.5t-51.5 -18.5zM356 718q-26 0 -42.5 14.5t-16.5 38.5q0 35 20.5 54t51.5 19q26 0 42 -14.5t16 -38.5q0 -36 -20 -54.5t-51 -18.5z" />
    <glyph glyph-name="Yacute" unicode="&#xdd;" horiz-adv-x="589" 
d="M183 0l59 254l-133 406h110l66 -215l27 -101l74 106l162 210h122l-322 -414l-58 -246h-107zM429 881h113l-123 -160h-86z" />
    <glyph glyph-name="Thorn" unicode="&#xde;" horiz-adv-x="630" 
d="M134 127l20 91h196q50 0 82.5 19.5t48 51.5t15.5 68q0 44 -32 70t-93 26h-165l23 91h152q105 0 164 -50.5t59 -134.5q0 -67 -32 -120t-90.5 -82.5t-135.5 -29.5h-212zM37 0l153 660h108l-153 -660h-108z" />
    <glyph glyph-name="germandbls" unicode="&#xdf;" horiz-adv-x="608" 
d="M333 -10q-41 0 -75.5 9t-55.5 23l31 84q16 -12 41 -20t55 -8q41 0 68.5 20t41.5 52t14 67q0 53 -34 85.5t-99 32.5h-13.5t-12.5 -1l22 85q10 -1 18.5 -1.5t16.5 -0.5q48 0 80 17t48 46.5t16 66.5q0 31 -13.5 51.5t-37 31t-54.5 10.5q-57 0 -93 -34.5t-56 -119.5
l-112 -486h-107l119 516q26 110 92.5 162t165.5 52q64 0 108 -21t68 -58t24 -87q0 -52 -23.5 -95t-63 -68.5t-89.5 -26.5v-2q33 -3 63 -22.5t48.5 -52t18.5 -79.5q0 -69 -28.5 -120.5t-78 -79.5t-113.5 -28z" />
    <glyph glyph-name="agrave" unicode="&#xe0;" horiz-adv-x="617" 
d="M237 -8q-55 0 -98 26.5t-67 74.5t-24 113q0 61 18.5 116t52 97.5t80 66.5t101.5 24q41 0 74.5 -14t56.5 -41t31 -66l26 111h107l-116 -500h-95l17 93q-25 -46 -68.5 -73.5t-95.5 -27.5zM274 77q32 0 60.5 17t50 47t34 69.5t12.5 82.5q0 40 -14.5 69.5t-40 45.5t-60.5 16
q-37 0 -66.5 -17t-51 -46.5t-33.5 -68t-12 -80.5q0 -43 14 -73t41 -46t66 -16zM355 746l41 -168h-78l-66 168h103z" />
    <glyph glyph-name="aacute" unicode="&#xe1;" horiz-adv-x="617" 
d="M237 -8q-55 0 -98 26.5t-67 74.5t-24 113q0 61 18.5 116t52 97.5t80 66.5t101.5 24q41 0 74.5 -14t56.5 -41t31 -66l26 111h107l-116 -500h-95l17 93q-25 -46 -68.5 -73.5t-95.5 -27.5zM274 77q32 0 60.5 17t50 47t34 69.5t12.5 82.5q0 40 -14.5 69.5t-40 45.5t-60.5 16
q-37 0 -66.5 -17t-51 -46.5t-33.5 -68t-12 -80.5q0 -43 14 -73t41 -46t66 -16zM408 746h116l-144 -168h-90z" />
    <glyph glyph-name="acircumflex" unicode="&#xe2;" horiz-adv-x="617" 
d="M237 -8q-55 0 -98 26.5t-67 74.5t-24 113q0 61 18.5 116t52 97.5t80 66.5t101.5 24q41 0 74.5 -14t56.5 -41t31 -66l26 111h107l-116 -500h-95l17 93q-25 -46 -68.5 -73.5t-95.5 -27.5zM274 77q32 0 60.5 17t50 47t34 69.5t12.5 82.5q0 40 -14.5 69.5t-40 45.5t-60.5 16
q-37 0 -66.5 -17t-51 -46.5t-33.5 -68t-12 -80.5q0 -43 14 -73t41 -46t66 -16zM178 571l151 169h112l74 -169h-83l-57 106l-104 -106h-93z" />
    <glyph glyph-name="atilde" unicode="&#xe3;" horiz-adv-x="617" 
d="M237 -8q-55 0 -98 26.5t-67 74.5t-24 113q0 61 18.5 116t52 97.5t80 66.5t101.5 24q41 0 74.5 -14t56.5 -41t31 -66l26 111h107l-116 -500h-95l17 93q-25 -46 -68.5 -73.5t-95.5 -27.5zM274 77q32 0 60.5 17t50 47t34 69.5t12.5 82.5q0 40 -14.5 69.5t-40 45.5t-60.5 16
q-37 0 -66.5 -17t-51 -46.5t-33.5 -68t-12 -80.5q0 -43 14 -73t41 -46t66 -16zM554 717q-11 -69 -47 -105t-82 -36q-26 0 -44 10t-31.5 23t-25.5 23t-27 10q-17 0 -30.5 -18t-20.5 -49h-73q12 70 47.5 106t81.5 36q25 0 43 -10t31.5 -23t26 -23t27.5 -10q17 0 30.5 18
t21.5 48h72z" />
    <glyph glyph-name="adieresis" unicode="&#xe4;" horiz-adv-x="617" 
d="M237 -8q-55 0 -98 26.5t-67 74.5t-24 113q0 61 18.5 116t52 97.5t80 66.5t101.5 24q41 0 74.5 -14t56.5 -41t31 -66l26 111h107l-116 -500h-95l17 93q-25 -46 -68.5 -73.5t-95.5 -27.5zM274 77q32 0 60.5 17t50 47t34 69.5t12.5 82.5q0 40 -14.5 69.5t-40 45.5t-60.5 16
q-37 0 -66.5 -17t-51 -46.5t-33.5 -68t-12 -80.5q0 -43 14 -73t41 -46t66 -16zM458 574q-26 0 -42.5 14.5t-16.5 38.5q0 35 20.5 54t51.5 19q26 0 42.5 -14.5t16.5 -38.5q0 -36 -20.5 -54.5t-51.5 -18.5zM256 574q-26 0 -42.5 14.5t-16.5 38.5q0 35 20.5 54t51.5 19
q26 0 42 -14.5t16 -38.5q0 -36 -20 -54.5t-51 -18.5z" />
    <glyph glyph-name="aring" unicode="&#xe5;" horiz-adv-x="617" 
d="M237 -8q-55 0 -98 26.5t-67 74.5t-24 113q0 61 18.5 116t52 97.5t80 66.5t101.5 24q41 0 74.5 -14t56.5 -41t31 -66l26 111h107l-116 -500h-95l17 93q-25 -46 -68.5 -73.5t-95.5 -27.5zM274 77q32 0 60.5 17t50 47t34 69.5t12.5 82.5q0 40 -14.5 69.5t-40 45.5t-60.5 16
q-37 0 -66.5 -17t-51 -46.5t-33.5 -68t-12 -80.5q0 -43 14 -73t41 -46t66 -16zM376 810q54 0 88 -31.5t34 -78.5q0 -57 -38 -94t-95 -37q-54 0 -88 31.5t-34 77.5q0 57 37.5 94.5t95.5 37.5zM374 753q-28 0 -47.5 -18.5t-19.5 -50.5q0 -25 17.5 -41.5t43.5 -16.5
q27 0 46 18.5t19 50.5q0 25 -16 41.5t-43 16.5z" />
    <glyph glyph-name="ae" unicode="&#xe6;" horiz-adv-x="883" 
d="M200 -10q-83 0 -124.5 40t-41.5 99q0 46 23.5 76t64 47.5t91.5 23.5l189 25l-6 -72l-144 -20q-52 -7 -83 -21t-31 -52q0 -30 20 -47t60 -17q57 0 91 30t46 85l27 119q2 9 3 17t1 15q0 39 -26.5 63.5t-72.5 24.5q-50 0 -82 -21t-53 -67l-83 40q28 62 84.5 96.5t140.5 34.5
q46 0 81 -15.5t56.5 -40t23.5 -54.5l-18 6q21 32 51.5 55t70 36t87.5 13q58 0 100 -25.5t65 -70t23 -101.5q0 -22 -3 -45t-10 -48h-366l9 82h266q1 4 1 8.5v8.5q0 33 -12.5 57t-34 37t-49.5 13q-46 0 -78 -19.5t-51 -51t-27.5 -70t-8.5 -76.5q0 -40 16 -70.5t44.5 -46.5
t66.5 -16q44 0 73.5 19.5t48.5 51.5l86 -46q-21 -34 -53 -58.5t-72.5 -37.5t-87.5 -13q-57 0 -102 22t-70.5 58.5t-26.5 79.5l22 6q-5 -42 -33 -80.5t-74 -62.5t-108 -24z" />
    <glyph glyph-name="ccedilla" unicode="&#xe7;" horiz-adv-x="545" 
d="M280 -9q-72 0 -123.5 30t-79 81.5t-27.5 114.5q0 85 33.5 150.5t94 103.5t142.5 38q60 0 105.5 -20.5t73 -57.5t33.5 -84l-107 -22q-2 42 -28.5 71t-80.5 29q-35 0 -64 -16.5t-50.5 -45t-33 -67t-11.5 -82.5q0 -40 15 -71.5t43.5 -49.5t70.5 -18q35 0 66 19.5t44 56.5
l100 -35q-27 -60 -84 -92.5t-132 -32.5zM195 7l46 23q47 -17 72.5 -46t25.5 -71q0 -41 -18.5 -69.5t-49 -43.5t-66.5 -15q-35 0 -63 13.5t-42 30.5l35 57q14 -15 32.5 -22t37.5 -7q28 0 45.5 18t17.5 45q0 29 -18.5 49.5t-54.5 37.5z" />
    <glyph glyph-name="egrave" unicode="&#xe8;" horiz-adv-x="575" 
d="M278 -9q-71 0 -122 29.5t-79 80.5t-28 115q0 80 32 146.5t93 106.5t147 40q64 0 110 -26t70 -72.5t24 -108.5q0 -20 -2.5 -41t-9.5 -42h-403v82h345l-39 -28q4 12 5 23.5t1 21.5q0 33 -12.5 57t-36.5 37t-57 13q-45 0 -76.5 -18.5t-50.5 -50t-27 -69.5t-8 -75
q0 -42 16.5 -72.5t46 -47.5t69.5 -17q47 0 76.5 20t47.5 51l86 -46q-20 -34 -52.5 -58.5t-74 -37.5t-91.5 -13zM344 746l41 -168h-78l-66 168h103z" />
    <glyph glyph-name="eacute" unicode="&#xe9;" horiz-adv-x="575" 
d="M278 -9q-71 0 -122 29.5t-79 80.5t-28 115q0 80 32 146.5t93 106.5t147 40q64 0 110 -26t70 -72.5t24 -108.5q0 -20 -2.5 -41t-9.5 -42h-403v82h345l-39 -28q4 12 5 23.5t1 21.5q0 33 -12.5 57t-36.5 37t-57 13q-45 0 -76.5 -18.5t-50.5 -50t-27 -69.5t-8 -75
q0 -42 16.5 -72.5t46 -47.5t69.5 -17q47 0 76.5 20t47.5 51l86 -46q-20 -34 -52.5 -58.5t-74 -37.5t-91.5 -13zM397 746h116l-144 -168h-90z" />
    <glyph glyph-name="ecircumflex" unicode="&#xea;" horiz-adv-x="575" 
d="M278 -9q-71 0 -122 29.5t-79 80.5t-28 115q0 80 32 146.5t93 106.5t147 40q64 0 110 -26t70 -72.5t24 -108.5q0 -20 -2.5 -41t-9.5 -42h-403v82h345l-39 -28q4 12 5 23.5t1 21.5q0 33 -12.5 57t-36.5 37t-57 13q-45 0 -76.5 -18.5t-50.5 -50t-27 -69.5t-8 -75
q0 -42 16.5 -72.5t46 -47.5t69.5 -17q47 0 76.5 20t47.5 51l86 -46q-20 -34 -52.5 -58.5t-74 -37.5t-91.5 -13zM167 571l151 169h112l74 -169h-83l-57 106l-104 -106h-93z" />
    <glyph glyph-name="edieresis" unicode="&#xeb;" horiz-adv-x="575" 
d="M278 -9q-71 0 -122 29.5t-79 80.5t-28 115q0 80 32 146.5t93 106.5t147 40q64 0 110 -26t70 -72.5t24 -108.5q0 -20 -2.5 -41t-9.5 -42h-403v82h345l-39 -28q4 12 5 23.5t1 21.5q0 33 -12.5 57t-36.5 37t-57 13q-45 0 -76.5 -18.5t-50.5 -50t-27 -69.5t-8 -75
q0 -42 16.5 -72.5t46 -47.5t69.5 -17q47 0 76.5 20t47.5 51l86 -46q-20 -34 -52.5 -58.5t-74 -37.5t-91.5 -13zM447 574q-26 0 -42.5 14.5t-16.5 38.5q0 35 20.5 54t51.5 19q26 0 42.5 -14.5t16.5 -38.5q0 -36 -20.5 -54.5t-51.5 -18.5zM245 574q-26 0 -42.5 14.5
t-16.5 38.5q0 35 20.5 54t51.5 19q26 0 42 -14.5t16 -38.5q0 -36 -20 -54.5t-51 -18.5z" />
    <glyph glyph-name="igrave" unicode="&#xec;" horiz-adv-x="267" 
d="M245 500l-116 -500h-107l116 500h107zM212 746l41 -168h-78l-66 168h103z" />
    <glyph glyph-name="iacute" unicode="&#xed;" horiz-adv-x="267" 
d="M245 500l-116 -500h-107l116 500h107zM265 746h116l-144 -168h-90z" />
    <glyph glyph-name="icircumflex" unicode="&#xee;" horiz-adv-x="267" 
d="M245 500l-116 -500h-107l116 500h107zM35 571l151 169h112l74 -169h-83l-57 106l-104 -106h-93z" />
    <glyph glyph-name="idieresis" unicode="&#xef;" horiz-adv-x="267" 
d="M307 574q-26 0 -42 14.5t-16 38.5q0 35 20 54t52 19q26 0 42 -14.5t16 -38.5q0 -36 -20.5 -54.5t-51.5 -18.5zM121 574q-26 0 -42 14.5t-16 38.5q0 35 20 54t52 19q26 0 42 -14.5t16 -38.5q0 -36 -20.5 -54.5t-51.5 -18.5zM245 500l-116 -500h-107l116 500h107z" />
    <glyph glyph-name="eth" unicode="&#xf0;" horiz-adv-x="598" 
d="M269 -10q-69 0 -118.5 29.5t-76.5 81t-27 115.5q0 78 33 140t89.5 98t127.5 36q52 0 90 -17.5t59.5 -49t22.5 -74.5l-15 -5q1 12 1.5 22.5t0.5 21.5q0 69 -20.5 130t-64.5 113.5t-114 96.5h111q46 -22 80 -60t57 -85.5t34.5 -101t11.5 -106.5q0 -79 -18 -149t-53 -122.5
t-88 -83t-123 -30.5zM282 75q36 0 64.5 17.5t48 46.5t30 64.5t10.5 73.5q0 44 -17 72.5t-46 43t-66 14.5q-35 0 -63.5 -17.5t-48.5 -45.5t-30.5 -63t-10.5 -70q0 -40 16 -70.5t45.5 -48t67.5 -17.5zM252 538l-12 57l182 38l34 -48zM469 587l-31 48l162 39l15 -56z" />
    <glyph glyph-name="ntilde" unicode="&#xf1;" horiz-adv-x="603" 
d="M22 0l116 500h94l-21 -126l-10 7q21 64 74 96.5t117 32.5q56 0 95 -24.5t55 -70t1 -110.5l-71 -305h-107l70 300q13 57 -11 89.5t-76 32.5q-40 0 -71.5 -18t-52.5 -52.5t-34 -86.5l-61 -265h-107zM581 717q-11 -69 -47 -105t-82 -36q-26 0 -44 10t-31.5 23t-25.5 23
t-27 10q-17 0 -30.5 -18t-20.5 -49h-73q12 70 47.5 106t81.5 36q25 0 43 -10t31.5 -23t26 -23t27.5 -10q17 0 30.5 18t21.5 48h72z" />
    <glyph glyph-name="ograve" unicode="&#xf2;" horiz-adv-x="596" 
d="M282 -9q-74 0 -125.5 30t-79.5 81.5t-28 113.5q0 85 33.5 151t93 104t140.5 38q74 0 125.5 -30t78.5 -81t27 -114q0 -83 -32.5 -149.5t-92.5 -105t-140 -38.5zM284 75q33 0 61.5 16t50 45t33 67.5t11.5 82.5q0 40 -13.5 71t-42 49.5t-71.5 18.5q-33 0 -62 -16t-50 -44.5
t-33 -67t-12 -83.5q0 -38 14 -70t42.5 -50.5t71.5 -18.5zM350 746l41 -168h-78l-66 168h103z" />
    <glyph glyph-name="oacute" unicode="&#xf3;" horiz-adv-x="596" 
d="M282 -9q-74 0 -125.5 30t-79.5 81.5t-28 113.5q0 85 33.5 151t93 104t140.5 38q74 0 125.5 -30t78.5 -81t27 -114q0 -83 -32.5 -149.5t-92.5 -105t-140 -38.5zM284 75q33 0 61.5 16t50 45t33 67.5t11.5 82.5q0 40 -13.5 71t-42 49.5t-71.5 18.5q-33 0 -62 -16t-50 -44.5
t-33 -67t-12 -83.5q0 -38 14 -70t42.5 -50.5t71.5 -18.5zM403 746h116l-144 -168h-90z" />
    <glyph glyph-name="ocircumflex" unicode="&#xf4;" horiz-adv-x="596" 
d="M282 -9q-74 0 -125.5 30t-79.5 81.5t-28 113.5q0 85 33.5 151t93 104t140.5 38q74 0 125.5 -30t78.5 -81t27 -114q0 -83 -32.5 -149.5t-92.5 -105t-140 -38.5zM284 75q33 0 61.5 16t50 45t33 67.5t11.5 82.5q0 40 -13.5 71t-42 49.5t-71.5 18.5q-33 0 -62 -16t-50 -44.5
t-33 -67t-12 -83.5q0 -38 14 -70t42.5 -50.5t71.5 -18.5zM173 571l151 169h112l74 -169h-83l-57 106l-104 -106h-93z" />
    <glyph glyph-name="otilde" unicode="&#xf5;" horiz-adv-x="596" 
d="M282 -9q-74 0 -125.5 30t-79.5 81.5t-28 113.5q0 85 33.5 151t93 104t140.5 38q74 0 125.5 -30t78.5 -81t27 -114q0 -83 -32.5 -149.5t-92.5 -105t-140 -38.5zM284 75q33 0 61.5 16t50 45t33 67.5t11.5 82.5q0 40 -13.5 71t-42 49.5t-71.5 18.5q-33 0 -62 -16t-50 -44.5
t-33 -67t-12 -83.5q0 -38 14 -70t42.5 -50.5t71.5 -18.5zM549 717q-11 -69 -47 -105t-82 -36q-26 0 -44 10t-31.5 23t-25.5 23t-27 10q-17 0 -30.5 -18t-20.5 -49h-73q12 70 47.5 106t81.5 36q25 0 43 -10t31.5 -23t26 -23t27.5 -10q17 0 30.5 18t21.5 48h72z" />
    <glyph glyph-name="odieresis" unicode="&#xf6;" horiz-adv-x="596" 
d="M282 -9q-74 0 -125.5 30t-79.5 81.5t-28 113.5q0 85 33.5 151t93 104t140.5 38q74 0 125.5 -30t78.5 -81t27 -114q0 -83 -32.5 -149.5t-92.5 -105t-140 -38.5zM284 75q33 0 61.5 16t50 45t33 67.5t11.5 82.5q0 40 -13.5 71t-42 49.5t-71.5 18.5q-33 0 -62 -16t-50 -44.5
t-33 -67t-12 -83.5q0 -38 14 -70t42.5 -50.5t71.5 -18.5zM453 574q-26 0 -42.5 14.5t-16.5 38.5q0 35 20.5 54t51.5 19q26 0 42.5 -14.5t16.5 -38.5q0 -36 -20.5 -54.5t-51.5 -18.5zM251 574q-26 0 -42.5 14.5t-16.5 38.5q0 35 20.5 54t51.5 19q26 0 42 -14.5t16 -38.5
q0 -36 -20 -54.5t-51 -18.5z" />
    <glyph glyph-name="divide" unicode="&#xf7;" horiz-adv-x="610" 
d="M577 364l-21 -89h-491l20 89h492zM269 47q-28 0 -46 16.5t-18 43.5q0 37 21 58.5t53 21.5q28 0 46 -16.5t18 -43.5q0 -37 -20.5 -58.5t-53.5 -21.5zM362 450q-28 0 -46 16t-18 44q0 36 21 57.5t53 21.5q28 0 46 -16t18 -43q0 -37 -21 -58.5t-53 -21.5z" />
    <glyph glyph-name="oslash" unicode="&#xf8;" horiz-adv-x="596" 
d="M282 -9q-74 0 -125.5 30t-79.5 81.5t-28 113.5q0 85 33.5 151t93 104t140.5 38q74 0 125.5 -30t78.5 -81t27 -114q0 -83 -32.5 -149.5t-92.5 -105t-140 -38.5zM284 75q33 0 61.5 16t50 45t33 67.5t11.5 82.5q0 40 -13.5 71t-42 49.5t-71.5 18.5q-33 0 -62 -16t-50 -44.5
t-33 -67t-12 -83.5q0 -38 14 -70t42.5 -50.5t71.5 -18.5zM6 -25l509 551h72l-508 -551h-73z" />
    <glyph glyph-name="ugrave" unicode="&#xf9;" horiz-adv-x="602" 
d="M215 -8q-54 0 -94.5 24t-58 69t-2.5 109l71 306h107l-69 -297q-14 -60 11.5 -91.5t76.5 -31.5q40 0 70.5 17.5t51.5 52t32 85.5l62 265h107l-116 -500h-95l21 126l10 -8q-20 -63 -70.5 -94.5t-114.5 -31.5zM367 738l41 -168h-78l-66 168h103z" />
    <glyph glyph-name="uacute" unicode="&#xfa;" horiz-adv-x="602" 
d="M215 -8q-54 0 -94.5 24t-58 69t-2.5 109l71 306h107l-69 -297q-14 -60 11.5 -91.5t76.5 -31.5q40 0 70.5 17.5t51.5 52t32 85.5l62 265h107l-116 -500h-95l21 126l10 -8q-20 -63 -70.5 -94.5t-114.5 -31.5zM420 738h116l-144 -168h-90z" />
    <glyph glyph-name="ucircumflex" unicode="&#xfb;" horiz-adv-x="602" 
d="M215 -8q-54 0 -94.5 24t-58 69t-2.5 109l71 306h107l-69 -297q-14 -60 11.5 -91.5t76.5 -31.5q40 0 70.5 17.5t51.5 52t32 85.5l62 265h107l-116 -500h-95l21 126l10 -8q-20 -63 -70.5 -94.5t-114.5 -31.5zM190 563l151 169h112l74 -169h-83l-57 106l-104 -106h-93z" />
    <glyph glyph-name="udieresis" unicode="&#xfc;" horiz-adv-x="602" 
d="M215 -8q-54 0 -94.5 24t-58 69t-2.5 109l71 306h107l-69 -297q-14 -60 11.5 -91.5t76.5 -31.5q40 0 70.5 17.5t51.5 52t32 85.5l62 265h107l-116 -500h-95l21 126l10 -8q-20 -63 -70.5 -94.5t-114.5 -31.5zM470 566q-26 0 -42.5 14.5t-16.5 38.5q0 35 20.5 54t51.5 19
q26 0 42.5 -14.5t16.5 -38.5q0 -36 -20.5 -54.5t-51.5 -18.5zM268 566q-26 0 -42.5 14.5t-16.5 38.5q0 35 20.5 54t51.5 19q26 0 42 -14.5t16 -38.5q0 -36 -20 -54.5t-51 -18.5z" />
    <glyph glyph-name="yacute" unicode="&#xfd;" horiz-adv-x="520" 
d="M22 -215q-40 0 -70 9t-49 25l37 83q34 -31 79 -31q30 0 53.5 16t45.5 50l39 63l-88 500h107l36 -281l16 -124l66 118l163 287h118l-361 -581q-29 -48 -59.5 -77.5t-63.5 -43t-69 -13.5zM390 738h116l-144 -168h-90z" />
    <glyph glyph-name="thorn" unicode="&#xfe;" horiz-adv-x="617" 
d="M-26 -210l216 935h107l-81 -348l-16 -21q17 71 68.5 111.5t123.5 40.5q49 0 89 -25t64 -72.5t24 -114.5q0 -63 -19 -118.5t-53 -97.5t-79.5 -66t-99.5 -24q-47 0 -84.5 18t-59.5 53.5t-25 84.5l17 16l-85 -372h-107zM304 76q33 0 62 16.5t51 46.5t34 68.5t12 82.5
q0 43 -14.5 72.5t-41 45t-61.5 15.5q-36 0 -65 -17t-50.5 -46.5t-33 -69.5t-11.5 -85q0 -58 30 -93.5t88 -35.5z" />
    <glyph glyph-name="ydieresis" unicode="&#xff;" horiz-adv-x="520" 
d="M22 -215q-40 0 -70 9t-49 25l37 83q34 -31 79 -31q30 0 53.5 16t45.5 50l39 63l-88 500h107l36 -281l16 -124l66 118l163 287h118l-361 -581q-29 -48 -59.5 -77.5t-63.5 -43t-69 -13.5zM440 566q-26 0 -42.5 14.5t-16.5 38.5q0 35 20.5 54t51.5 19q26 0 42.5 -14.5
t16.5 -38.5q0 -36 -20.5 -54.5t-51.5 -18.5zM238 566q-26 0 -42.5 14.5t-16.5 38.5q0 35 20.5 54t51.5 19q26 0 42 -14.5t16 -38.5q0 -36 -20 -54.5t-51 -18.5z" />
    <glyph glyph-name="Amacron" unicode="&#x100;" horiz-adv-x="651" 
d="M-41 0l396 660h132l89 -660h-104l-58 457l-12 103v0l-57 -100l-269 -460h-117zM133 179l20 87h351l-20 -87h-351zM613 826l-17 -78h-328l18 78h327z" />
    <glyph glyph-name="amacron" unicode="&#x101;" horiz-adv-x="617" 
d="M237 -8q-55 0 -98 26.5t-67 74.5t-24 113q0 61 18.5 116t52 97.5t80 66.5t101.5 24q41 0 74.5 -14t56.5 -41t31 -66l26 111h107l-116 -500h-95l17 93q-25 -46 -68.5 -73.5t-95.5 -27.5zM274 77q32 0 60.5 17t50 47t34 69.5t12.5 82.5q0 40 -14.5 69.5t-40 45.5t-60.5 16
q-37 0 -66.5 -17t-51 -46.5t-33.5 -68t-12 -80.5q0 -43 14 -73t41 -46t66 -16zM533 666l-17 -78h-328l18 78h327z" />
    <glyph glyph-name="Abreve" unicode="&#x102;" horiz-adv-x="651" 
d="M-41 0l396 660h132l89 -660h-104l-58 457l-12 103v0l-57 -100l-269 -460h-117zM133 179l20 87h351l-20 -87h-351zM611 883q-11 -69 -59 -111t-119 -42q-62 0 -98.5 34t-36.5 85q0 8 1 16.5t3 17.5h74q-1 -5 -1.5 -10t-0.5 -9q0 -30 18.5 -46.5t49.5 -16.5q35 0 59.5 20.5
t31.5 61.5h78z" />
    <glyph glyph-name="abreve" unicode="&#x103;" horiz-adv-x="617" 
d="M237 -8q-55 0 -98 26.5t-67 74.5t-24 113q0 61 18.5 116t52 97.5t80 66.5t101.5 24q41 0 74.5 -14t56.5 -41t31 -66l26 111h107l-116 -500h-95l17 93q-25 -46 -68.5 -73.5t-95.5 -27.5zM274 77q32 0 60.5 17t50 47t34 69.5t12.5 82.5q0 40 -14.5 69.5t-40 45.5t-60.5 16
q-37 0 -66.5 -17t-51 -46.5t-33.5 -68t-12 -80.5q0 -43 14 -73t41 -46t66 -16zM534 723q-11 -69 -59 -111t-119 -42q-62 0 -98.5 34t-36.5 85q0 8 1 16.5t3 17.5h74q-1 -5 -1.5 -10t-0.5 -9q0 -30 18.5 -46.5t49.5 -16.5q35 0 59.5 20.5t31.5 61.5h78z" />
    <glyph glyph-name="Aogonek" unicode="&#x104;" horiz-adv-x="651" 
d="M479 -218q-31 0 -58.5 11t-44 33.5t-16.5 57.5q0 34 18 61t56.5 48.5t97.5 38.5l44 -32q-35 -10 -66.5 -24t-50.5 -33t-19 -46t18.5 -37.5t40.5 -10.5q11 0 20 2t18 5l-6 -65q-12 -5 -25 -7t-27 -2zM-41 0l396 660h132l89 -660h-104l-58 457l-12 103v0l-57 -100
l-269 -460h-117zM133 179l20 87h351l-20 -87h-351z" />
    <glyph glyph-name="aogonek" unicode="&#x105;" horiz-adv-x="617" 
d="M385 -218q-31 0 -57 9.5t-42 30t-16 53.5q0 31 18 59t55 52.5t92 45.5l44 -32q-66 -33 -97.5 -57.5t-31.5 -53.5q0 -24 17 -32t38 -8q12 0 20.5 2t17.5 5l-6 -65q-11 -5 -24.5 -7t-27.5 -2zM237 -8q-55 0 -98 26.5t-67 74.5t-24 113q0 61 18.5 116t52 97.5t80 66.5
t101.5 24q41 0 74.5 -14t56.5 -41t31 -66l26 111h107l-116 -500h-95l17 93q-25 -46 -68.5 -73.5t-95.5 -27.5zM274 77q32 0 60.5 17t50 47t34 69.5t12.5 82.5q0 40 -14.5 69.5t-40 45.5t-60.5 16q-37 0 -66.5 -17t-51 -46.5t-33.5 -68t-12 -80.5q0 -43 14 -73t41 -46t66 -16
z" />
    <glyph glyph-name="Cacute" unicode="&#x106;" horiz-adv-x="678" 
d="M361 -10q-79 0 -144 32.5t-103 96t-38 155.5q0 77 22 147.5t66 126.5t108.5 89t148.5 33q66 0 117.5 -21.5t86.5 -64.5t51 -108l-109 -31q-13 70 -51 101t-102 31q-56 0 -98.5 -26.5t-71 -69t-43 -95t-14.5 -105.5q0 -62 23.5 -106t64.5 -68t93 -24q61 0 96.5 27t59.5 73
l100 -44q-41 -68 -104 -108.5t-159 -40.5zM493 897h113l-123 -160h-86z" />
    <glyph glyph-name="cacute" unicode="&#x107;" horiz-adv-x="545" 
d="M280 -9q-72 0 -123.5 30t-79 81.5t-27.5 114.5q0 85 33.5 150.5t94 103.5t142.5 38q60 0 105.5 -20.5t73 -57.5t33.5 -84l-107 -22q-2 42 -28.5 71t-80.5 29q-35 0 -64 -16.5t-50.5 -45t-33 -67t-11.5 -82.5q0 -40 15 -71.5t43.5 -49.5t70.5 -18q35 0 66 19.5t44 56.5
l100 -35q-27 -60 -84 -92.5t-132 -32.5zM404 746h116l-144 -168h-90z" />
    <glyph glyph-name="Ccircumflex" unicode="&#x108;" horiz-adv-x="678" 
d="M361 -10q-79 0 -144 32.5t-103 96t-38 155.5q0 77 22 147.5t66 126.5t108.5 89t148.5 33q66 0 117.5 -21.5t86.5 -64.5t51 -108l-109 -31q-13 70 -51 101t-102 31q-56 0 -98.5 -26.5t-71 -69t-43 -95t-14.5 -105.5q0 -62 23.5 -106t64.5 -68t93 -24q61 0 96.5 27t59.5 73
l100 -44q-41 -68 -104 -108.5t-159 -40.5zM545 897l70 -160h-82l-53 102l-98 -102h-93l145 160h111z" />
    <glyph glyph-name="ccircumflex" unicode="&#x109;" horiz-adv-x="545" 
d="M280 -9q-72 0 -123.5 30t-79 81.5t-27.5 114.5q0 85 33.5 150.5t94 103.5t142.5 38q60 0 105.5 -20.5t73 -57.5t33.5 -84l-107 -22q-2 42 -28.5 71t-80.5 29q-35 0 -64 -16.5t-50.5 -45t-33 -67t-11.5 -82.5q0 -40 15 -71.5t43.5 -49.5t70.5 -18q35 0 66 19.5t44 56.5
l100 -35q-27 -60 -84 -92.5t-132 -32.5zM174 571l151 169h112l74 -169h-83l-57 106l-104 -106h-93z" />
    <glyph glyph-name="Cdotaccent" unicode="&#x10a;" horiz-adv-x="678" 
d="M361 -10q-79 0 -144 32.5t-103 96t-38 155.5q0 77 22 147.5t66 126.5t108.5 89t148.5 33q66 0 117.5 -21.5t86.5 -64.5t51 -108l-109 -31q-13 70 -51 101t-102 31q-56 0 -98.5 -26.5t-71 -69t-43 -95t-14.5 -105.5q0 -62 23.5 -106t64.5 -68t93 -24q61 0 96.5 27t59.5 73
l100 -44q-41 -68 -104 -108.5t-159 -40.5zM464 746q-28 0 -45.5 14.5t-17.5 41.5q0 36 21 56t53 20q29 0 46.5 -15t17.5 -41q0 -37 -21.5 -56.5t-53.5 -19.5z" />
    <glyph glyph-name="cdotaccent" unicode="&#x10b;" horiz-adv-x="545" 
d="M280 -9q-72 0 -123.5 30t-79 81.5t-27.5 114.5q0 85 33.5 150.5t94 103.5t142.5 38q60 0 105.5 -20.5t73 -57.5t33.5 -84l-107 -22q-2 42 -28.5 71t-80.5 29q-35 0 -64 -16.5t-50.5 -45t-33 -67t-11.5 -82.5q0 -40 15 -71.5t43.5 -49.5t70.5 -18q35 0 66 19.5t44 56.5
l100 -35q-27 -60 -84 -92.5t-132 -32.5zM358 586q-28 0 -45.5 14.5t-17.5 41.5q0 36 21 56t53 20q29 0 46.5 -15t17.5 -41q0 -37 -21.5 -56.5t-53.5 -19.5z" />
    <glyph glyph-name="Ccaron" unicode="&#x10c;" horiz-adv-x="678" 
d="M361 -10q-79 0 -144 32.5t-103 96t-38 155.5q0 77 22 147.5t66 126.5t108.5 89t148.5 33q66 0 117.5 -21.5t86.5 -64.5t51 -108l-109 -31q-13 70 -51 101t-102 31q-56 0 -98.5 -26.5t-71 -69t-43 -95t-14.5 -105.5q0 -62 23.5 -106t64.5 -68t93 -24q61 0 96.5 27t59.5 73
l100 -44q-41 -68 -104 -108.5t-159 -40.5zM396 737l-70 160h81l54 -101l97 101h94l-145 -160h-111z" />
    <glyph glyph-name="ccaron" unicode="&#x10d;" horiz-adv-x="545" 
d="M280 -9q-72 0 -123.5 30t-79 81.5t-27.5 114.5q0 85 33.5 150.5t94 103.5t142.5 38q60 0 105.5 -20.5t73 -57.5t33.5 -84l-107 -22q-2 42 -28.5 71t-80.5 29q-35 0 -64 -16.5t-50.5 -45t-33 -67t-11.5 -82.5q0 -40 15 -71.5t43.5 -49.5t70.5 -18q35 0 66 19.5t44 56.5
l100 -35q-27 -60 -84 -92.5t-132 -32.5zM285 578l-74 168h83l57 -106l104 106h94l-152 -168h-112z" />
    <glyph glyph-name="Dcaron" unicode="&#x10e;" horiz-adv-x="707" 
d="M37 0l153 660h204q87 0 148.5 -34.5t94 -95.5t32.5 -140q0 -84 -26 -155t-75 -124t-117.5 -82t-152.5 -29h-261zM166 91h139q59 0 106 24t79 65t49 93t17 108q0 54 -19 96.5t-57.5 67t-98.5 24.5h-104zM376 737l-70 160h81l54 -101l97 101h94l-145 -160h-111z" />
    <glyph glyph-name="dcaron" unicode="&#x10f;" horiz-adv-x="648" 
d="M808 725l-91 -210h-73l69 210h95zM238 -8q-56 0 -98.5 26.5t-67 74.5t-24.5 113q0 61 18.5 116t52 97.5t80 66.5t102.5 24q41 0 74.5 -14t56 -41t31.5 -66l77 336h107l-168 -725h-95l17 93q-24 -46 -68 -73.5t-95 -27.5zM274 77q32 0 61 17t50.5 47t33.5 69.5t12 82.5
q0 40 -14 69.5t-40 45.5t-61 16q-37 0 -66.5 -17t-50.5 -46.5t-33 -68t-12 -80.5q0 -43 14 -73t40.5 -46t65.5 -16z" />
    <glyph glyph-name="Dcroat" unicode="&#x110;" horiz-adv-x="727" 
d="M23 288l20 89h378l-20 -89h-378zM58 0l153 660h203q88 0 149 -34.5t93.5 -95.5t32.5 -140q0 -84 -26 -155t-74.5 -124t-117 -82t-152.5 -29h-261zM186 91h140q59 0 105.5 24t79 65t49.5 93t17 108q0 54 -19 96.5t-58 67t-98 24.5h-105z" />
    <glyph glyph-name="dcroat" unicode="&#x111;" horiz-adv-x="629" 
d="M707 629l-16 -71h-354l16 71h354zM237 -8q-55 0 -98 26.5t-67 74.5t-24 113q0 61 18.5 116t52 97.5t80 66.5t101.5 24q41 0 74.5 -14t56.5 -41t31 -66l77 336h107l-167 -725h-95l17 93q-25 -46 -68.5 -73.5t-95.5 -27.5zM273 77q33 0 62 17t50 47t33.5 69.5t12.5 82.5
q0 40 -14.5 69.5t-40 45.5t-60.5 16q-37 0 -66.5 -17t-51 -46.5t-33.5 -68t-12 -80.5q0 -43 14 -73t41 -46t65 -16z" />
    <glyph glyph-name="Emacron" unicode="&#x112;" horiz-adv-x="625" 
d="M37 0l153 660h471l-22 -92h-363l-44 -190h285l-20 -90h-285l-45 -196h377l-22 -92h-485zM619 826l-17 -78h-328l18 78h327z" />
    <glyph glyph-name="emacron" unicode="&#x113;" horiz-adv-x="575" 
d="M278 -9q-71 0 -122 29.5t-79 80.5t-28 115q0 80 32 146.5t93 106.5t147 40q64 0 110 -26t70 -72.5t24 -108.5q0 -20 -2.5 -41t-9.5 -42h-403v82h345l-39 -28q4 12 5 23.5t1 21.5q0 33 -12.5 57t-36.5 37t-57 13q-45 0 -76.5 -18.5t-50.5 -50t-27 -69.5t-8 -75
q0 -42 16.5 -72.5t46 -47.5t69.5 -17q47 0 76.5 20t47.5 51l86 -46q-20 -34 -52.5 -58.5t-74 -37.5t-91.5 -13zM522 666l-17 -78h-328l18 78h327z" />
    <glyph glyph-name="Ebreve" unicode="&#x114;" horiz-adv-x="625" 
d="M37 0l153 660h471l-22 -92h-363l-44 -190h285l-20 -90h-285l-45 -196h377l-22 -92h-485zM617 883q-11 -69 -59 -111t-119 -42q-62 0 -98.5 34t-36.5 85q0 8 1 16.5t3 17.5h74q-1 -5 -1.5 -10t-0.5 -9q0 -30 18.5 -46.5t49.5 -16.5q35 0 59.5 20.5t31.5 61.5h78z" />
    <glyph glyph-name="ebreve" unicode="&#x115;" horiz-adv-x="575" 
d="M278 -9q-71 0 -122 29.5t-79 80.5t-28 115q0 80 32 146.5t93 106.5t147 40q64 0 110 -26t70 -72.5t24 -108.5q0 -20 -2.5 -41t-9.5 -42h-403v82h345l-39 -28q4 12 5 23.5t1 21.5q0 33 -12.5 57t-36.5 37t-57 13q-45 0 -76.5 -18.5t-50.5 -50t-27 -69.5t-8 -75
q0 -42 16.5 -72.5t46 -47.5t69.5 -17q47 0 76.5 20t47.5 51l86 -46q-20 -34 -52.5 -58.5t-74 -37.5t-91.5 -13zM523 723q-11 -69 -59 -111t-119 -42q-62 0 -98.5 34t-36.5 85q0 8 1 16.5t3 17.5h74q-1 -5 -1.5 -10t-0.5 -9q0 -30 18.5 -46.5t49.5 -16.5q35 0 59.5 20.5
t31.5 61.5h78z" />
    <glyph glyph-name="Edotaccent" unicode="&#x116;" horiz-adv-x="625" 
d="M37 0l153 660h471l-22 -92h-363l-44 -190h285l-20 -90h-285l-45 -196h377l-22 -92h-485zM448 746q-28 0 -45.5 14.5t-17.5 41.5q0 36 21 56t53 20q29 0 46.5 -15t17.5 -41q0 -37 -21.5 -56.5t-53.5 -19.5z" />
    <glyph glyph-name="edotaccent" unicode="&#x117;" horiz-adv-x="575" 
d="M278 -9q-71 0 -122 29.5t-79 80.5t-28 115q0 80 32 146.5t93 106.5t147 40q64 0 110 -26t70 -72.5t24 -108.5q0 -20 -2.5 -41t-9.5 -42h-403v82h345l-39 -28q4 12 5 23.5t1 21.5q0 33 -12.5 57t-36.5 37t-57 13q-45 0 -76.5 -18.5t-50.5 -50t-27 -69.5t-8 -75
q0 -42 16.5 -72.5t46 -47.5t69.5 -17q47 0 76.5 20t47.5 51l86 -46q-20 -34 -52.5 -58.5t-74 -37.5t-91.5 -13zM351 586q-28 0 -45.5 14.5t-17.5 41.5q0 36 21 56t53 20q29 0 46.5 -15t17.5 -41q0 -37 -21.5 -56.5t-53.5 -19.5z" />
    <glyph glyph-name="Eogonek" unicode="&#x118;" horiz-adv-x="625" 
d="M425 -218q-30 0 -57.5 10.5t-44.5 32t-17 55.5q0 33 17 60t56 48.5t103 37.5l41 -26q-37 -10 -68.5 -24t-50 -33t-18.5 -46t19 -37.5t40 -10.5q12 0 20.5 2t17.5 5l-6 -65q-12 -5 -25 -7t-27 -2zM37 0l153 660h471l-22 -92h-363l-44 -190h285l-20 -90h-285l-45 -196h377
l-22 -92h-485z" />
    <glyph glyph-name="eogonek" unicode="&#x119;" horiz-adv-x="575" 
d="M278 -9q-71 0 -122 29.5t-79 80.5t-28 115q0 80 32 146.5t93 106.5t147 40q64 0 110 -26t70 -72.5t24 -108.5q0 -20 -2.5 -41t-9.5 -42h-403v82h345l-39 -28q4 12 5 23.5t1 21.5q0 33 -12.5 57t-36.5 37t-57 13q-45 0 -76.5 -18.5t-50.5 -50t-27 -69.5t-8 -75
q0 -42 16.5 -72.5t46 -47.5t69.5 -17q47 0 76.5 20t47.5 51l86 -46q-20 -34 -52.5 -58.5t-74 -37.5t-91.5 -13zM276 -214q-31 0 -58 11t-43.5 34t-16.5 57q0 35 18 62t56 48t98 37l44 -29q-36 -12 -67.5 -26.5t-50.5 -33.5t-19 -45q0 -27 19 -37t40 -10q12 0 20.5 2t18.5 5
l-6 -66q-12 -5 -25.5 -7t-27.5 -2z" />
    <glyph glyph-name="Ecaron" unicode="&#x11a;" horiz-adv-x="625" 
d="M37 0l153 660h471l-22 -92h-363l-44 -190h285l-20 -90h-285l-45 -196h377l-22 -92h-485zM380 737l-70 160h81l54 -101l97 101h94l-145 -160h-111z" />
    <glyph glyph-name="ecaron" unicode="&#x11b;" horiz-adv-x="575" 
d="M278 -9q-71 0 -122 29.5t-79 80.5t-28 115q0 80 32 146.5t93 106.5t147 40q64 0 110 -26t70 -72.5t24 -108.5q0 -20 -2.5 -41t-9.5 -42h-403v82h345l-39 -28q4 12 5 23.5t1 21.5q0 33 -12.5 57t-36.5 37t-57 13q-45 0 -76.5 -18.5t-50.5 -50t-27 -69.5t-8 -75
q0 -42 16.5 -72.5t46 -47.5t69.5 -17q47 0 76.5 20t47.5 51l86 -46q-20 -34 -52.5 -58.5t-74 -37.5t-91.5 -13zM278 578l-74 168h83l57 -106l104 106h94l-152 -168h-112z" />
    <glyph glyph-name="Gcircumflex" unicode="&#x11c;" horiz-adv-x="709" 
d="M337 -8q-71 0 -130.5 33.5t-95 97.5t-35.5 153q0 77 23 148t67.5 126.5t109.5 87.5t150 32q64 0 117.5 -19t91.5 -59.5t54 -107.5l-105 -29q-15 65 -57 94t-105 29q-57 0 -100.5 -24.5t-73.5 -66t-45.5 -94t-15.5 -107.5q0 -63 21.5 -108.5t61 -69.5t94.5 -24
q51 0 88 17.5t60.5 48t34.5 71.5l7 28h-192l20 86h282l-83 -335h-78l29 139l11 -13q-19 -43 -47.5 -73t-68 -45.5t-90.5 -15.5zM554 897l70 -160h-82l-53 102l-98 -102h-93l145 160h111z" />
    <glyph glyph-name="gcircumflex" unicode="&#x11d;" horiz-adv-x="614" 
d="M212 -215q-43 0 -82 11.5t-68.5 33t-48 52.5t-23.5 70l107 26q8 -52 35.5 -81.5t89.5 -29.5q34 0 64 13t53 43.5t35 86.5l28 127l12 8q-15 -61 -62 -97t-111 -36q-56 0 -100 27t-69.5 75t-25.5 108q0 62 18.5 114t52 91.5t79.5 61t101 21.5q47 0 84 -18.5t59.5 -54
t23.5 -86.5l-16 -13l37 162h107l-115 -492q-18 -81 -55.5 -129.5t-90.5 -71t-119 -22.5zM278 97q43 0 76.5 26.5t53.5 71.5t20 100q0 40 -14 68.5t-40.5 44.5t-61.5 16q-48 0 -83.5 -25.5t-55.5 -69.5t-20 -100q0 -58 32.5 -95t92.5 -37zM178 571l151 169h112l74 -169h-83
l-57 106l-104 -106h-93z" />
    <glyph glyph-name="Gbreve" unicode="&#x11e;" horiz-adv-x="709" 
d="M337 -8q-71 0 -130.5 33.5t-95 97.5t-35.5 153q0 77 23 148t67.5 126.5t109.5 87.5t150 32q64 0 117.5 -19t91.5 -59.5t54 -107.5l-105 -29q-15 65 -57 94t-105 29q-57 0 -100.5 -24.5t-73.5 -66t-45.5 -94t-15.5 -107.5q0 -63 21.5 -108.5t61 -69.5t94.5 -24
q51 0 88 17.5t60.5 48t34.5 71.5l7 28h-192l20 86h282l-83 -335h-78l29 139l11 -13q-19 -43 -47.5 -73t-68 -45.5t-90.5 -15.5zM642 883q-11 -69 -59 -111t-119 -42q-62 0 -98.5 34t-36.5 85q0 8 1 16.5t3 17.5h74q-1 -5 -1.5 -10t-0.5 -9q0 -30 18.5 -46.5t49.5 -16.5
q35 0 59.5 20.5t31.5 61.5h78z" />
    <glyph glyph-name="gbreve" unicode="&#x11f;" horiz-adv-x="614" 
d="M212 -215q-43 0 -82 11.5t-68.5 33t-48 52.5t-23.5 70l107 26q8 -52 35.5 -81.5t89.5 -29.5q34 0 64 13t53 43.5t35 86.5l28 127l12 8q-15 -61 -62 -97t-111 -36q-56 0 -100 27t-69.5 75t-25.5 108q0 62 18.5 114t52 91.5t79.5 61t101 21.5q47 0 84 -18.5t59.5 -54
t23.5 -86.5l-16 -13l37 162h107l-115 -492q-18 -81 -55.5 -129.5t-90.5 -71t-119 -22.5zM278 97q43 0 76.5 26.5t53.5 71.5t20 100q0 40 -14 68.5t-40.5 44.5t-61.5 16q-48 0 -83.5 -25.5t-55.5 -69.5t-20 -100q0 -58 32.5 -95t92.5 -37zM534 723q-11 -69 -59 -111t-119 -42
q-62 0 -98.5 34t-36.5 85q0 8 1 16.5t3 17.5h74q-1 -5 -1.5 -10t-0.5 -9q0 -30 18.5 -46.5t49.5 -16.5q35 0 59.5 20.5t31.5 61.5h78z" />
    <glyph glyph-name="Gdotaccent" unicode="&#x120;" horiz-adv-x="709" 
d="M337 -8q-71 0 -130.5 33.5t-95 97.5t-35.5 153q0 77 23 148t67.5 126.5t109.5 87.5t150 32q64 0 117.5 -19t91.5 -59.5t54 -107.5l-105 -29q-15 65 -57 94t-105 29q-57 0 -100.5 -24.5t-73.5 -66t-45.5 -94t-15.5 -107.5q0 -63 21.5 -108.5t61 -69.5t94.5 -24
q51 0 88 17.5t60.5 48t34.5 71.5l7 28h-192l20 86h282l-83 -335h-78l29 139l11 -13q-19 -43 -47.5 -73t-68 -45.5t-90.5 -15.5zM473 746q-28 0 -45.5 14.5t-17.5 41.5q0 36 21 56t53 20q29 0 46.5 -15t17.5 -41q0 -37 -21.5 -56.5t-53.5 -19.5z" />
    <glyph glyph-name="gdotaccent" unicode="&#x121;" horiz-adv-x="614" 
d="M212 -215q-43 0 -82 11.5t-68.5 33t-48 52.5t-23.5 70l107 26q8 -52 35.5 -81.5t89.5 -29.5q34 0 64 13t53 43.5t35 86.5l28 127l12 8q-15 -61 -62 -97t-111 -36q-56 0 -100 27t-69.5 75t-25.5 108q0 62 18.5 114t52 91.5t79.5 61t101 21.5q47 0 84 -18.5t59.5 -54
t23.5 -86.5l-16 -13l37 162h107l-115 -492q-18 -81 -55.5 -129.5t-90.5 -71t-119 -22.5zM278 97q43 0 76.5 26.5t53.5 71.5t20 100q0 40 -14 68.5t-40.5 44.5t-61.5 16q-48 0 -83.5 -25.5t-55.5 -69.5t-20 -100q0 -58 32.5 -95t92.5 -37zM362 586q-28 0 -45.5 14.5
t-17.5 41.5q0 36 21 56t53 20q29 0 46.5 -15t17.5 -41q0 -37 -21.5 -56.5t-53.5 -19.5z" />
    <glyph glyph-name="uni0122" unicode="&#x122;" horiz-adv-x="709" 
d="M337 -8q-71 0 -130.5 33.5t-95 97.5t-35.5 153q0 77 23 148t67.5 126.5t109.5 87.5t150 32q64 0 117.5 -19t91.5 -59.5t54 -107.5l-105 -29q-15 65 -57 94t-105 29q-57 0 -100.5 -24.5t-73.5 -66t-45.5 -94t-15.5 -107.5q0 -63 21.5 -108.5t61 -69.5t94.5 -24
q51 0 88 17.5t60.5 48t34.5 71.5l7 28h-192l20 86h282l-83 -335h-78l29 139l11 -13q-19 -43 -47.5 -73t-68 -45.5t-90.5 -15.5zM404 -71l-104 -167h-83l78 167h109z" />
    <glyph glyph-name="uni0123" unicode="&#x123;" horiz-adv-x="614" 
d="M212 -215q-43 0 -82 11.5t-68.5 33t-48 52.5t-23.5 70l107 26q8 -52 35.5 -81.5t89.5 -29.5q34 0 64 13t53 43.5t35 86.5l28 127l12 8q-15 -61 -62 -97t-111 -36q-56 0 -100 27t-69.5 75t-25.5 108q0 62 18.5 114t52 91.5t79.5 61t101 21.5q47 0 84 -18.5t59.5 -54
t23.5 -86.5l-16 -13l37 162h107l-115 -492q-18 -81 -55.5 -129.5t-90.5 -71t-119 -22.5zM278 97q43 0 76.5 26.5t53.5 71.5t20 100q0 40 -14 68.5t-40.5 44.5t-61.5 16q-48 0 -83.5 -25.5t-55.5 -69.5t-20 -100q0 -58 32.5 -95t92.5 -37zM481 776l-84 -196h-111l118 196h77z
" />
    <glyph glyph-name="Hcircumflex" unicode="&#x124;" horiz-adv-x="724" 
d="M724 660l-153 -660h-108l153 660h108zM298 660l-153 -660h-108l153 660h108zM605 380l-21 -92h-425l21 92h425zM567 897l70 -160h-82l-53 102l-98 -102h-93l145 160h111z" />
    <glyph glyph-name="hcircumflex" unicode="&#x125;" horiz-adv-x="603" 
d="M22 0l168 725h107l-76 -329l-16 -12q13 40 41 68t65.5 43t81.5 15q54 0 93 -24.5t55.5 -69.5t2.5 -109l-72 -307h-107l70 300q13 57 -11 89.5t-76 32.5q-40 0 -71.5 -18t-52.5 -52.5t-34 -86.5l-61 -265h-107zM348 945l70 -160h-82l-53 102l-98 -102h-93l145 160h111z
" />
    <glyph glyph-name="Hbar" unicode="&#x126;" horiz-adv-x="724" 
d="M724 660l-153 -660h-108l153 660h108zM298 660l-153 -660h-108l153 660h108zM605 380l-21 -92h-425l21 92h425zM779 557l-17 -78h-694l18 78h693z" />
    <glyph glyph-name="hbar" unicode="&#x127;" horiz-adv-x="603" 
d="M94 629h329l-16 -71h-330zM22 0l168 725h107l-76 -329l-16 -12q13 40 41 68t65.5 43t81.5 15q54 0 93 -24.5t55.5 -69.5t2.5 -109l-72 -307h-107l70 300q13 57 -11 89.5t-76 32.5q-40 0 -71.5 -18t-52.5 -52.5t-34 -86.5l-61 -265h-107z" />
    <glyph glyph-name="Itilde" unicode="&#x128;" horiz-adv-x="298" 
d="M298 660l-153 -660h-108l153 660h108zM464 877q-11 -69 -47 -105t-82 -36q-26 0 -44 10t-31.5 23t-25.5 23t-27 10q-17 0 -30.5 -18t-20.5 -49h-73q12 70 47.5 106t81.5 36q25 0 43 -10t31.5 -23t26 -23t27.5 -10q17 0 30.5 18t21.5 48h72z" />
    <glyph glyph-name="itilde" unicode="&#x129;" horiz-adv-x="267" 
d="M245 500l-116 -500h-107l116 500h107zM411 717q-11 -69 -47 -105t-82 -36q-26 0 -44 10t-31.5 23t-25.5 23t-27 10q-17 0 -30.5 -18t-20.5 -49h-73q12 70 47.5 106t81.5 36q25 0 43 -10t31.5 -23t26 -23t27.5 -10q17 0 30.5 18t21.5 48h72z" />
    <glyph glyph-name="Imacron" unicode="&#x12a;" horiz-adv-x="303" 
d="M402 826l-18 -78h-236l18 78h236zM298 660l-153 -660h-108l153 660h108z" />
    <glyph glyph-name="imacron" unicode="&#x12b;" horiz-adv-x="267" 
d="M335 666l-18 -78h-223l18 78h223zM245 500l-116 -500h-107l116 500h107z" />
    <glyph glyph-name="Ibreve" unicode="&#x12c;" horiz-adv-x="298" 
d="M298 660l-153 -660h-108l153 660h108zM441 883q-11 -69 -59 -111t-119 -42q-62 0 -98.5 34t-36.5 85q0 8 1 16.5t3 17.5h74q-1 -5 -1.5 -10t-0.5 -9q0 -30 18.5 -46.5t49.5 -16.5q35 0 59.5 20.5t31.5 61.5h78z" />
    <glyph glyph-name="ibreve" unicode="&#x12d;" horiz-adv-x="267" 
d="M245 500l-116 -500h-107l116 500h107zM392 723q-11 -69 -59 -111t-119 -42q-62 0 -98.5 34t-36.5 85q0 8 1 16.5t3 17.5h74q-1 -5 -1.5 -10t-0.5 -9q0 -30 18.5 -46.5t49.5 -16.5q35 0 59.5 20.5t31.5 61.5h78z" />
    <glyph glyph-name="Iogonek" unicode="&#x12e;" horiz-adv-x="298" 
d="M58 -221q-31 0 -57 11.5t-41.5 33t-15.5 53.5t15 60.5t50 52t92 40.5l44 -30q-36 -12 -64 -27t-43 -35t-15 -47q0 -26 17 -35t38 -9q11 0 20 2t18 5l-6 -65q-11 -5 -24.5 -7.5t-27.5 -2.5zM298 660l-153 -660h-108l153 660h108z" />
    <glyph glyph-name="iogonek" unicode="&#x12f;" horiz-adv-x="267" 
d="M42 -221q-31 0 -57 11.5t-41.5 33t-15.5 53.5t15 60.5t50 52t92 40.5l44 -30q-36 -12 -63.5 -27t-42.5 -35t-15 -47q0 -26 16.5 -35t37.5 -9q12 0 20.5 2t18.5 5l-6 -65q-12 -5 -25.5 -7.5t-27.5 -2.5zM220 584q-30 0 -48 16t-16 44q1 35 22 54t53 19q31 0 48.5 -15.5
t16.5 -42.5q-2 -37 -23 -56t-53 -19zM245 500l-116 -500h-107l116 500h107z" />
    <glyph glyph-name="Idotaccent" unicode="&#x130;" horiz-adv-x="298" 
d="M298 660l-153 -660h-108l153 660h108zM272 746q-28 0 -45.5 14.5t-17.5 41.5q0 36 21 56t53 20q29 0 46.5 -15t17.5 -41q0 -37 -21.5 -56.5t-53.5 -19.5z" />
    <glyph glyph-name="dotlessi" unicode="&#x131;" horiz-adv-x="267" 
d="M245 500l-116 -500h-107l116 500h107z" />
    <glyph glyph-name="IJ" unicode="&#x132;" horiz-adv-x="865" 
d="M298 660l-153 -660h-108l153 660h108zM526 -8q-58 0 -101.5 20t-68.5 56t-29 83.5t16 101.5l104 5q-18 -53 -14.5 -92.5t29.5 -61.5t73 -22q59 0 88 36t48 120l97 422h109l-103 -445q-15 -64 -44 -115t-77.5 -79.5t-126.5 -28.5z" />
    <glyph glyph-name="ij" unicode="&#x133;" horiz-adv-x="534" 
d="M220 584q-30 0 -48 16t-16 44q1 35 22 54t53 19q31 0 48.5 -15.5t16.5 -42.5q-2 -37 -23 -56t-53 -19zM245 500l-116 -500h-107l116 500h107zM487 584q-30 0 -48 16t-16 44q1 35 22 54t53 19q31 0 48.5 -15.5t16.5 -42.5q-2 -37 -23 -56t-53 -19zM221 -215
q-33 0 -64.5 8.5t-50.5 26.5l31 84q14 -11 31.5 -18.5t35.5 -7.5q29 0 46 16t27 61l128 545h107l-131 -566q-18 -78 -61.5 -113.5t-98.5 -35.5z" />
    <glyph glyph-name="Jcircumflex" unicode="&#x134;" horiz-adv-x="567" 
d="M228 -8q-58 0 -101.5 20t-68.5 56t-29 83.5t16 101.5l104 5q-18 -53 -14.5 -92.5t29.5 -61.5t73 -22q59 0 88 36t48 120l97 422h109l-103 -445q-15 -64 -44 -115t-77.5 -79.5t-126.5 -28.5zM634 897l70 -160h-82l-53 102l-98 -102h-93l145 160h111z" />
    <glyph glyph-name="jcircumflex" unicode="&#x135;" horiz-adv-x="267" 
d="M-46 -215q-33 0 -64.5 8.5t-50.5 26.5l31 84q14 -11 31.5 -18.5t35.5 -7.5q29 0 46 16t27 61l128 545h107l-131 -566q-18 -78 -61.5 -113.5t-98.5 -35.5zM35 571l151 169h112l74 -169h-83l-57 106l-104 -106h-93z" />
    <glyph glyph-name="uni0136" unicode="&#x136;" horiz-adv-x="651" 
d="M37 0l153 660h108l-74 -316l359 316h137l-310 -276l161 -384h-114l-130 314l-137 -119l-45 -195h-108zM349 -71l-104 -167h-83l78 167h109z" />
    <glyph glyph-name="uni0137" unicode="&#x137;" horiz-adv-x="565" 
d="M593 500l-269 -227l-18 -10l-190 -161l15 120l325 278h137zM297 725l-168 -725h-107l168 725h107zM347 332l145 -332h-111l-115 273zM294 -71l-104 -167h-83l78 167h109z" />
    <glyph glyph-name="kgreenlandic" unicode="&#x138;" horiz-adv-x="565" 
d="M593 500l-269 -227l-18 -11l-190 -160l15 123l325 275h137zM245 500l-116 -500h-107l116 500h107zM347 332l145 -332h-111l-115 273z" />
    <glyph glyph-name="Lacute" unicode="&#x139;" horiz-adv-x="591" 
d="M166 92h360l-22 -92h-467l153 660h108zM301 897h113l-123 -160h-86z" />
    <glyph glyph-name="lacute" unicode="&#x13a;" horiz-adv-x="311" 
d="M172 -8q-75 0 -105 44t-13 116l133 573h107l-133 -574q-10 -39 5 -56.5t52 -17.5q14 0 24.5 1t18.5 3l-23 -78q-16 -6 -30.5 -8.5t-35.5 -2.5zM200 790l85 137h104l-108 -137h-81z" />
    <glyph glyph-name="uni013B" unicode="&#x13b;" horiz-adv-x="591" 
d="M166 92h360l-22 -92h-467l153 660h108zM333 -71l-104 -167h-83l78 167h109z" />
    <glyph glyph-name="uni013C" unicode="&#x13c;" horiz-adv-x="311" 
d="M172 -8q-75 0 -105 44t-13 116l133 573h107l-133 -574q-10 -39 5 -56.5t52 -17.5q14 0 24.5 1t18.5 3l-23 -78q-16 -6 -30.5 -8.5t-35.5 -2.5zM186 -71l-104 -167h-83l78 167h109z" />
    <glyph glyph-name="Lcaron" unicode="&#x13d;" horiz-adv-x="591" 
d="M537 660l-95 -210h-78l73 210h100zM166 92h360l-22 -92h-467l153 660h108z" />
    <glyph glyph-name="lcaron" unicode="&#x13e;" horiz-adv-x="337" 
d="M462 725l-92 -210h-72l69 210h95zM172 -8q-75 0 -105 44t-13 116l133 573h107l-133 -574q-10 -39 5 -56.5t52 -17.5q14 0 24.5 1t18.5 3l-23 -78q-16 -6 -30.5 -8.5t-35.5 -2.5z" />
    <glyph glyph-name="Ldot" unicode="&#x13f;" horiz-adv-x="626" 
d="M166 92h360l-22 -92h-467l153 660h108zM479 289q-30 0 -49 16.5t-19 45.5q0 38 22.5 60t56.5 22q30 0 49 -16.5t19 -45.5q0 -38 -22 -60t-57 -22z" />
    <glyph glyph-name="ldot" unicode="&#x140;" horiz-adv-x="419" 
d="M172 -8q-75 0 -105 44t-13 116l133 573h107l-133 -574q-10 -39 5 -56.5t52 -17.5q14 0 24.5 1t18.5 3l-23 -78q-16 -6 -30.5 -8.5t-35.5 -2.5zM363 292q-30 0 -49 16.5t-19 45.5q0 38 22.5 60t56.5 22q30 0 49 -16.5t19 -45.5q0 -38 -22 -60t-57 -22z" />
    <glyph glyph-name="Lslash" unicode="&#x141;" horiz-adv-x="623" 
d="M445 490l-24 -102l-410 -198l24 102zM198 92h360l-22 -92h-467l153 660h108z" />
    <glyph glyph-name="lslash" unicode="&#x142;" horiz-adv-x="370" 
d="M24 218l23 99l127 71l46 17l167 96l-23 -99l-150 -87l-31 -8zM216 -8q-75 0 -104.5 44t-12.5 116l132 573h107l-133 -574q-9 -39 5.5 -56.5t51.5 -17.5q14 0 24.5 1t19.5 3l-23 -78q-16 -6 -31 -8.5t-36 -2.5z" />
    <glyph glyph-name="Nacute" unicode="&#x143;" horiz-adv-x="724" 
d="M37 0l153 660h122l151 -417l39 -125h1l23 116l99 426h99l-153 -660h-121l-154 416l-38 124h-1l-22 -114l-99 -426h-99zM508 897h113l-123 -160h-86z" />
    <glyph glyph-name="nacute" unicode="&#x144;" horiz-adv-x="603" 
d="M22 0l116 500h94l-21 -126l-10 7q21 64 74 96.5t117 32.5q56 0 95 -24.5t55 -70t1 -110.5l-71 -305h-107l70 300q13 57 -11 89.5t-76 32.5q-40 0 -71.5 -18t-52.5 -52.5t-34 -86.5l-61 -265h-107zM435 746h116l-144 -168h-90z" />
    <glyph glyph-name="uni0145" unicode="&#x145;" horiz-adv-x="724" 
d="M37 0l153 660h122l151 -417l39 -125h1l23 116l99 426h99l-153 -660h-121l-154 416l-38 124h-1l-22 -114l-99 -426h-99zM368 -71l-104 -167h-83l78 167h109z" />
    <glyph glyph-name="uni0146" unicode="&#x146;" horiz-adv-x="603" 
d="M22 0l116 500h94l-21 -126l-10 7q21 64 74 96.5t117 32.5q56 0 95 -24.5t55 -70t1 -110.5l-71 -305h-107l70 300q13 57 -11 89.5t-76 32.5q-40 0 -71.5 -18t-52.5 -52.5t-34 -86.5l-61 -265h-107zM303 -71l-104 -167h-83l78 167h109z" />
    <glyph glyph-name="Ncaron" unicode="&#x147;" horiz-adv-x="724" 
d="M37 0l153 660h122l151 -417l39 -125h1l23 116l99 426h99l-153 -660h-121l-154 416l-38 124h-1l-22 -114l-99 -426h-99zM411 737l-70 160h81l54 -101l97 101h94l-145 -160h-111z" />
    <glyph glyph-name="ncaron" unicode="&#x148;" horiz-adv-x="603" 
d="M22 0l116 500h94l-21 -126l-10 7q21 64 74 96.5t117 32.5q56 0 95 -24.5t55 -70t1 -110.5l-71 -305h-107l70 300q13 57 -11 89.5t-76 32.5q-40 0 -71.5 -18t-52.5 -52.5t-34 -86.5l-61 -265h-107zM316 578l-74 168h83l57 -106l104 106h94l-152 -168h-112z" />
    <glyph glyph-name="Eng" unicode="&#x14a;" horiz-adv-x="724" 
d="M392 -215q-33 0 -63 8.5t-48 25.5l33 85q13 -11 31.5 -18t37.5 -7q30 0 49 15.5t31 60.5l11 47l-170 409l-46 127h-1l-22 -112l-99 -426h-99l153 660h119l149 -376l52 -135h2l25 130l88 381h99l-169 -726q-17 -78 -61.5 -113.5t-101.5 -35.5z" />
    <glyph glyph-name="eng" unicode="&#x14b;" horiz-adv-x="603" 
d="M291 -215q-35 0 -65.5 8.5t-49.5 26.5l34 83q13 -11 31 -18t37 -7q28 0 47.5 15.5t29.5 59.5l80 347q13 57 -11 89.5t-76 32.5q-40 0 -71.5 -18t-52.5 -52.5t-34 -86.5l-61 -265h-107l116 500h94l-13 -80q26 44 72.5 67t100.5 23q56 0 95 -24.5t55 -70t1 -110.5l-85 -368
q-18 -80 -63.5 -116t-103.5 -36z" />
    <glyph glyph-name="Omacron" unicode="&#x14c;" horiz-adv-x="739" 
d="M358 -10q-77 0 -141 33.5t-102 99t-38 157.5q0 79 23 149t66 124t107.5 85.5t147.5 31.5q77 0 139.5 -34t100 -98.5t37.5 -157.5q0 -78 -22 -148.5t-65.5 -124.5t-107 -85.5t-145.5 -31.5zM366 84q55 0 96.5 25.5t69.5 68t42 95.5t14 107q0 62 -22 106t-61.5 67t-92.5 23
q-55 0 -97 -25.5t-70.5 -68t-42.5 -95t-14 -107.5q0 -62 22 -106t62 -67t94 -23zM636 826l-17 -78h-328l18 78h327z" />
    <glyph glyph-name="omacron" unicode="&#x14d;" horiz-adv-x="596" 
d="M282 -9q-74 0 -125.5 30t-79.5 81.5t-28 113.5q0 85 33.5 151t93 104t140.5 38q74 0 125.5 -30t78.5 -81t27 -114q0 -83 -32.5 -149.5t-92.5 -105t-140 -38.5zM284 75q33 0 61.5 16t50 45t33 67.5t11.5 82.5q0 40 -13.5 71t-42 49.5t-71.5 18.5q-33 0 -62 -16t-50 -44.5
t-33 -67t-12 -83.5q0 -38 14 -70t42.5 -50.5t71.5 -18.5zM528 666l-17 -78h-328l18 78h327z" />
    <glyph glyph-name="Obreve" unicode="&#x14e;" horiz-adv-x="739" 
d="M358 -10q-77 0 -141 33.5t-102 99t-38 157.5q0 79 23 149t66 124t107.5 85.5t147.5 31.5q77 0 139.5 -34t100 -98.5t37.5 -157.5q0 -78 -22 -148.5t-65.5 -124.5t-107 -85.5t-145.5 -31.5zM366 84q55 0 96.5 25.5t69.5 68t42 95.5t14 107q0 62 -22 106t-61.5 67t-92.5 23
q-55 0 -97 -25.5t-70.5 -68t-42.5 -95t-14 -107.5q0 -62 22 -106t62 -67t94 -23zM634 883q-11 -69 -59 -111t-119 -42q-62 0 -98.5 34t-36.5 85q0 8 1 16.5t3 17.5h74q-1 -5 -1.5 -10t-0.5 -9q0 -30 18.5 -46.5t49.5 -16.5q35 0 59.5 20.5t31.5 61.5h78z" />
    <glyph glyph-name="obreve" unicode="&#x14f;" horiz-adv-x="596" 
d="M282 -9q-74 0 -125.5 30t-79.5 81.5t-28 113.5q0 85 33.5 151t93 104t140.5 38q74 0 125.5 -30t78.5 -81t27 -114q0 -83 -32.5 -149.5t-92.5 -105t-140 -38.5zM284 75q33 0 61.5 16t50 45t33 67.5t11.5 82.5q0 40 -13.5 71t-42 49.5t-71.5 18.5q-33 0 -62 -16t-50 -44.5
t-33 -67t-12 -83.5q0 -38 14 -70t42.5 -50.5t71.5 -18.5zM529 723q-11 -69 -59 -111t-119 -42q-62 0 -98.5 34t-36.5 85q0 8 1 16.5t3 17.5h74q-1 -5 -1.5 -10t-0.5 -9q0 -30 18.5 -46.5t49.5 -16.5q35 0 59.5 20.5t31.5 61.5h78z" />
    <glyph glyph-name="Ohungarumlaut" unicode="&#x150;" horiz-adv-x="739" 
d="M358 -10q-77 0 -141 33.5t-102 99t-38 157.5q0 79 23 149t66 124t107.5 85.5t147.5 31.5q77 0 139.5 -34t100 -98.5t37.5 -157.5q0 -78 -22 -148.5t-65.5 -124.5t-107 -85.5t-145.5 -31.5zM366 84q55 0 96.5 25.5t69.5 68t42 95.5t14 107q0 62 -22 106t-61.5 67t-92.5 23
q-55 0 -97 -25.5t-70.5 -68t-42.5 -95t-14 -107.5q0 -62 22 -106t62 -67t94 -23zM500 737l97 160h110l-124 -160h-83zM314 737l98 160h109l-124 -160h-83z" />
    <glyph glyph-name="ohungarumlaut" unicode="&#x151;" horiz-adv-x="596" 
d="M282 -9q-74 0 -125.5 30t-79.5 81.5t-28 113.5q0 85 33.5 151t93 104t140.5 38q74 0 125.5 -30t78.5 -81t27 -114q0 -83 -32.5 -149.5t-92.5 -105t-140 -38.5zM284 75q33 0 61.5 16t50 45t33 67.5t11.5 82.5q0 40 -13.5 71t-42 49.5t-71.5 18.5q-33 0 -62 -16t-50 -44.5
t-33 -67t-12 -83.5q0 -38 14 -70t42.5 -50.5t71.5 -18.5zM393 578l120 168h112l-144 -168h-88zM202 578l120 168h112l-144 -168h-88z" />
    <glyph glyph-name="OE" unicode="&#x152;" horiz-adv-x="1061" 
d="M347 -10q-70 0 -131 33t-99 95.5t-40 150.5q-1 79 20.5 151.5t65 128.5t107.5 88.5t147 32.5q52 0 97 -16.5t78 -48t48 -77.5l30 132h428l-22 -92h-337l-44 -190h258l-21 -90h-258l-45 -196h352l-22 -92h-438l19 82q-40 -48 -88.5 -70t-104.5 -22zM362 84q52 0 93 24.5
t70 66.5t43.5 95t14.5 110q0 62 -21 106t-60 67t-91 23q-54 0 -95.5 -25.5t-70 -68t-43 -95t-14.5 -107.5q0 -62 22 -106t61 -67t91 -23z" />
    <glyph glyph-name="oe" unicode="&#x153;" horiz-adv-x="961" 
d="M278 -9q-72 0 -123.5 29.5t-78.5 81t-27 114.5q0 84 33.5 150t93.5 104.5t142 38.5q45 0 80.5 -12t62.5 -35.5t44 -57.5q35 51 86 78t117 27q64 0 109.5 -25.5t70 -70t24.5 -101.5q0 -20 -3.5 -41.5t-10.5 -43.5h-357q-1 -5 -1 -10v-9q0 -40 16 -70.5t45.5 -46.5
t69.5 -16q47 0 77 19.5t49 51.5l86 -46q-31 -51 -87.5 -80t-131.5 -29q-42 0 -78 12t-63 34.5t-46 55.5q-34 -49 -84 -75.5t-115 -26.5zM282 75q35 0 63.5 16t50 45t33 67.5t11.5 82.5q0 40 -14 71.5t-42 49.5t-70 18q-34 0 -63 -16t-50.5 -45t-33 -67.5t-11.5 -82.5
q0 -60 31.5 -99.5t94.5 -39.5zM552 299h256q1 5 1 9.5v8.5q0 33 -13 57.5t-37 37.5t-57 13q-42 0 -72 -17t-49 -45.5t-29 -63.5z" />
    <glyph glyph-name="Racute" unicode="&#x154;" horiz-adv-x="649" 
d="M37 0l153 660h236q93 0 147.5 -48t54.5 -134q0 -60 -28 -106t-74 -73.5t-101 -34.5l-46 -8h-191l20 89h165q49 0 81.5 17.5t48.5 47.5t16 66q0 46 -31.5 69.5t-84.5 23.5h-127l-132 -569h-107zM461 0l-112 282l103 15l122 -297h-113zM465 897h113l-123 -160h-86z" />
    <glyph glyph-name="racute" unicode="&#x155;" horiz-adv-x="399" 
d="M22 0l116 500h90l-16 -135l-11 10q16 42 43.5 72t63.5 46.5t75 16.5q16 0 28.5 -2t21.5 -7l-29 -96q-10 5 -22.5 7.5t-31.5 2.5q-36 0 -68 -16.5t-56 -50.5t-37 -89l-60 -259h-107zM357 746h116l-144 -168h-90z" />
    <glyph glyph-name="uni0156" unicode="&#x156;" horiz-adv-x="649" 
d="M37 0l153 660h236q93 0 147.5 -48t54.5 -134q0 -60 -28 -106t-74 -73.5t-101 -34.5l-46 -8h-191l20 89h165q49 0 81.5 17.5t48.5 47.5t16 66q0 46 -31.5 69.5t-84.5 23.5h-127l-132 -569h-107zM461 0l-112 282l103 15l122 -297h-113zM356 -71l-104 -167h-83l78 167h109z
" />
    <glyph glyph-name="uni0157" unicode="&#x157;" horiz-adv-x="399" 
d="M22 0l116 500h90l-16 -135l-11 10q16 42 43.5 72t63.5 46.5t75 16.5q16 0 28.5 -2t21.5 -7l-29 -96q-10 5 -22.5 7.5t-31.5 2.5q-36 0 -68 -16.5t-56 -50.5t-37 -89l-60 -259h-107zM124 -71l-104 -167h-83l78 167h109z" />
    <glyph glyph-name="Rcaron" unicode="&#x158;" horiz-adv-x="649" 
d="M37 0l153 660h236q93 0 147.5 -48t54.5 -134q0 -60 -28 -106t-74 -73.5t-101 -34.5l-46 -8h-191l20 89h165q49 0 81.5 17.5t48.5 47.5t16 66q0 46 -31.5 69.5t-84.5 23.5h-127l-132 -569h-107zM461 0l-112 282l103 15l122 -297h-113zM368 737l-70 160h81l54 -101l97 101
h94l-145 -160h-111z" />
    <glyph glyph-name="rcaron" unicode="&#x159;" horiz-adv-x="399" 
d="M22 0l116 500h90l-16 -135l-11 10q16 42 43.5 72t63.5 46.5t75 16.5q16 0 28.5 -2t21.5 -7l-29 -96q-10 5 -22.5 7.5t-31.5 2.5q-36 0 -68 -16.5t-56 -50.5t-37 -89l-60 -259h-107zM238 578l-74 168h83l57 -106l104 106h94l-152 -168h-112z" />
    <glyph glyph-name="Sacute" unicode="&#x15a;" horiz-adv-x="639" 
d="M335 -9q-72 0 -132.5 21.5t-104.5 62.5t-70 102l87 58q19 -54 53 -87.5t78.5 -49t93.5 -15.5q44 0 73 14.5t43.5 37.5t14.5 49q0 33 -21.5 51.5t-62.5 30.5l-104 30q-50 15 -85.5 39.5t-55 58t-19.5 75.5q0 58 31 104t86.5 72t130.5 26q99 0 165.5 -39t100.5 -117
l-88 -56q-15 48 -43.5 73.5t-64 35.5t-74.5 10q-44 0 -73.5 -12.5t-44 -34.5t-14.5 -48q0 -30 24 -54t65 -36l112 -34q74 -22 110.5 -61.5t36.5 -98.5q0 -64 -33.5 -110.5t-89.5 -72t-125 -25.5zM454 897h113l-123 -160h-86z" />
    <glyph glyph-name="sacute" unicode="&#x15b;" horiz-adv-x="515" 
d="M253 -11q-57 0 -104.5 17t-82.5 49t-55 75l81 49q21 -51 61.5 -78.5t97.5 -27.5q46 0 71 18t25 48q0 22 -14 35.5t-43 21.5l-80 24q-66 18 -97.5 53.5t-31.5 82.5q0 45 24 79.5t69 54.5t106 20q73 0 129 -30t82 -87l-77 -52q-11 26 -31 45t-46.5 30t-58.5 11
q-49 0 -73 -16.5t-24 -44.5q0 -25 19 -38t45 -21l97 -29q52 -15 81 -47.5t29 -76.5q0 -51 -25 -88t-70 -57t-104 -20zM374 746h116l-144 -168h-90z" />
    <glyph glyph-name="Scircumflex" unicode="&#x15c;" horiz-adv-x="639" 
d="M335 -9q-72 0 -132.5 21.5t-104.5 62.5t-70 102l87 58q19 -54 53 -87.5t78.5 -49t93.5 -15.5q44 0 73 14.5t43.5 37.5t14.5 49q0 33 -21.5 51.5t-62.5 30.5l-104 30q-50 15 -85.5 39.5t-55 58t-19.5 75.5q0 58 31 104t86.5 72t130.5 26q99 0 165.5 -39t100.5 -117
l-88 -56q-15 48 -43.5 73.5t-64 35.5t-74.5 10q-44 0 -73.5 -12.5t-44 -34.5t-14.5 -48q0 -30 24 -54t65 -36l112 -34q74 -22 110.5 -61.5t36.5 -98.5q0 -64 -33.5 -110.5t-89.5 -72t-125 -25.5zM506 897l70 -160h-82l-53 102l-98 -102h-93l145 160h111z" />
    <glyph glyph-name="scircumflex" unicode="&#x15d;" horiz-adv-x="515" 
d="M253 -11q-57 0 -104.5 17t-82.5 49t-55 75l81 49q21 -51 61.5 -78.5t97.5 -27.5q46 0 71 18t25 48q0 22 -14 35.5t-43 21.5l-80 24q-66 18 -97.5 53.5t-31.5 82.5q0 45 24 79.5t69 54.5t106 20q73 0 129 -30t82 -87l-77 -52q-11 26 -31 45t-46.5 30t-58.5 11
q-49 0 -73 -16.5t-24 -44.5q0 -25 19 -38t45 -21l97 -29q52 -15 81 -47.5t29 -76.5q0 -51 -25 -88t-70 -57t-104 -20zM144 571l151 169h112l74 -169h-83l-57 106l-104 -106h-93z" />
    <glyph glyph-name="Scedilla" unicode="&#x15e;" horiz-adv-x="639" 
d="M335 -9q-72 0 -132.5 21.5t-104.5 62.5t-70 102l87 58q19 -54 53 -87.5t78.5 -49t93.5 -15.5q44 0 73 14.5t43.5 37.5t14.5 49q0 33 -21.5 51.5t-62.5 30.5l-104 30q-50 15 -85.5 39.5t-55 58t-19.5 75.5q0 58 31 104t86.5 72t130.5 26q99 0 165.5 -39t100.5 -117
l-88 -56q-15 48 -43.5 73.5t-64 35.5t-74.5 10q-44 0 -73.5 -12.5t-44 -34.5t-14.5 -48q0 -30 24 -54t65 -36l112 -34q74 -22 110.5 -61.5t36.5 -98.5q0 -64 -33.5 -110.5t-89.5 -72t-125 -25.5zM239 6l46 23q47 -17 72.5 -46t25.5 -71q0 -41 -18.5 -69.5t-49 -43.5
t-66.5 -15q-35 0 -63 13.5t-42 30.5l35 57q14 -15 32.5 -22t37.5 -7q28 0 45.5 18t17.5 45q0 29 -18.5 49.5t-54.5 37.5z" />
    <glyph glyph-name="scedilla" unicode="&#x15f;" horiz-adv-x="515" 
d="M253 -11q-57 0 -104.5 17t-82.5 49t-55 75l81 49q21 -51 61.5 -78.5t97.5 -27.5q46 0 71 18t25 48q0 22 -14 35.5t-43 21.5l-80 24q-66 18 -97.5 53.5t-31.5 82.5q0 45 24 79.5t69 54.5t106 20q73 0 129 -30t82 -87l-77 -52q-11 26 -31 45t-46.5 30t-58.5 11
q-49 0 -73 -16.5t-24 -44.5q0 -25 19 -38t45 -21l97 -29q52 -15 81 -47.5t29 -76.5q0 -51 -25 -88t-70 -57t-104 -20zM175 6l46 23q47 -17 72.5 -46t25.5 -71q0 -41 -18.5 -69.5t-49 -43.5t-66.5 -15q-35 0 -63 13.5t-42 30.5l35 57q14 -15 32.5 -22t37.5 -7q28 0 45.5 18
t17.5 45q0 29 -18.5 49.5t-54.5 37.5z" />
    <glyph glyph-name="Scaron" unicode="&#x160;" horiz-adv-x="639" 
d="M335 -9q-72 0 -132.5 21.5t-104.5 62.5t-70 102l87 58q19 -54 53 -87.5t78.5 -49t93.5 -15.5q44 0 73 14.5t43.5 37.5t14.5 49q0 33 -21.5 51.5t-62.5 30.5l-104 30q-50 15 -85.5 39.5t-55 58t-19.5 75.5q0 58 31 104t86.5 72t130.5 26q99 0 165.5 -39t100.5 -117
l-88 -56q-15 48 -43.5 73.5t-64 35.5t-74.5 10q-44 0 -73.5 -12.5t-44 -34.5t-14.5 -48q0 -30 24 -54t65 -36l112 -34q74 -22 110.5 -61.5t36.5 -98.5q0 -64 -33.5 -110.5t-89.5 -72t-125 -25.5zM357 737l-70 160h81l54 -101l97 101h94l-145 -160h-111z" />
    <glyph glyph-name="scaron" unicode="&#x161;" horiz-adv-x="515" 
d="M253 -11q-57 0 -104.5 17t-82.5 49t-55 75l81 49q21 -51 61.5 -78.5t97.5 -27.5q46 0 71 18t25 48q0 22 -14 35.5t-43 21.5l-80 24q-66 18 -97.5 53.5t-31.5 82.5q0 45 24 79.5t69 54.5t106 20q73 0 129 -30t82 -87l-77 -52q-11 26 -31 45t-46.5 30t-58.5 11
q-49 0 -73 -16.5t-24 -44.5q0 -25 19 -38t45 -21l97 -29q52 -15 81 -47.5t29 -76.5q0 -51 -25 -88t-70 -57t-104 -20zM255 578l-74 168h83l57 -106l104 106h94l-152 -168h-112z" />
    <glyph glyph-name="uni0162" unicode="&#x162;" horiz-adv-x="609" 
d="M213 -216q-36 0 -63.5 13.5t-41.5 30.5l35 57q14 -15 32.5 -22t37.5 -7q28 0 45.5 18t17.5 45q0 29 -18.5 49t-53.5 33l44 28q48 -17 73.5 -46t25.5 -71q0 -41 -18.5 -69.5t-49 -43.5t-66.5 -15zM675 660l-22 -92h-220l-131 -568h-108l131 568h-223l22 92h551z" />
    <glyph glyph-name="uni0163" unicode="&#x163;" horiz-adv-x="412" 
d="M241 -8q-52 0 -88.5 19.5t-51.5 57.5t-3 92l103 448l115 32l-113 -481q-10 -44 12 -63.5t57 -19.5q24 0 41.5 6t31.5 16l8 -79q-26 -16 -53.5 -22t-58.5 -6zM58 416l19 84h355l-19 -84h-355zM166 6l46 23q47 -17 72.5 -46t25.5 -71q0 -41 -18.5 -69.5t-49 -43.5
t-66.5 -15q-35 0 -63 13.5t-42 30.5l35 57q14 -15 32.5 -22t37.5 -7q28 0 45.5 18t17.5 45q0 29 -18.5 49.5t-54.5 37.5z" />
    <glyph glyph-name="Tcaron" unicode="&#x164;" horiz-adv-x="609" 
d="M675 660l-22 -92h-220l-131 -568h-108l131 568h-223l22 92h551zM359 737l-70 160h81l54 -101l97 101h94l-145 -160h-111z" />
    <glyph glyph-name="tcaron" unicode="&#x165;" horiz-adv-x="412" 
d="M513 767l-91 -202h-72l69 202h94zM241 -8q-52 0 -88.5 19.5t-51.5 57.5t-3 92l103 448l115 32l-113 -481q-10 -44 12 -63.5t57 -19.5q24 0 41.5 6t31.5 16l8 -79q-26 -16 -53.5 -22t-58.5 -6zM58 416l19 84h355l-19 -84h-355z" />
    <glyph glyph-name="Tbar" unicode="&#x166;" horiz-adv-x="609" 
d="M675 660l-22 -92h-220l-131 -568h-108l131 568h-223l22 92h551zM541 362l-21 -93h-419l21 93h419z" />
    <glyph glyph-name="tbar" unicode="&#x167;" horiz-adv-x="412" 
d="M394 335l-16 -72h-353l17 72h352zM241 -8q-52 0 -88.5 19.5t-51.5 57.5t-3 92l103 448l115 32l-113 -481q-10 -44 12 -63.5t57 -19.5q24 0 41.5 6t31.5 16l8 -79q-26 -16 -53.5 -22t-58.5 -6zM58 416l19 84h355l-19 -84h-355z" />
    <glyph glyph-name="Utilde" unicode="&#x168;" horiz-adv-x="696" 
d="M326 -10q-90 0 -151 35.5t-84 102.5t-1 160l87 372h108l-90 -392q-14 -61 0.5 -102.5t50.5 -62t88 -20.5q73 0 114.5 45t58.5 123l95 409h107l-98 -427q-27 -112 -97.5 -177.5t-187.5 -65.5zM654 861q-11 -69 -47 -105t-82 -36q-26 0 -44 10t-31.5 23t-25.5 23t-27 10
q-17 0 -30.5 -18t-20.5 -49h-73q12 70 47.5 106t81.5 36q25 0 43 -10t31.5 -23t26 -23t27.5 -10q17 0 30.5 18t21.5 48h72z" />
    <glyph glyph-name="utilde" unicode="&#x169;" horiz-adv-x="602" 
d="M215 -8q-54 0 -94.5 24t-58 69t-2.5 109l71 306h107l-69 -297q-14 -60 11.5 -91.5t76.5 -31.5q40 0 70.5 17.5t51.5 52t32 85.5l62 265h107l-116 -500h-95l21 126l10 -8q-20 -63 -70.5 -94.5t-114.5 -31.5zM566 709q-11 -69 -47 -105t-82 -36q-26 0 -44 10t-31.5 23
t-25.5 23t-27 10q-17 0 -30.5 -18t-20.5 -49h-73q12 70 47.5 106t81.5 36q25 0 43 -10t31.5 -23t26 -23t27.5 -10q17 0 30.5 18t21.5 48h72z" />
    <glyph glyph-name="Umacron" unicode="&#x16a;" horiz-adv-x="696" 
d="M326 -10q-90 0 -151 35.5t-84 102.5t-1 160l87 372h108l-90 -392q-14 -61 0.5 -102.5t50.5 -62t88 -20.5q73 0 114.5 45t58.5 123l95 409h107l-98 -427q-27 -112 -97.5 -177.5t-187.5 -65.5zM633 810l-17 -78h-328l18 78h327z" />
    <glyph glyph-name="umacron" unicode="&#x16b;" horiz-adv-x="602" 
d="M215 -8q-54 0 -94.5 24t-58 69t-2.5 109l71 306h107l-69 -297q-14 -60 11.5 -91.5t76.5 -31.5q40 0 70.5 17.5t51.5 52t32 85.5l62 265h107l-116 -500h-95l21 126l10 -8q-20 -63 -70.5 -94.5t-114.5 -31.5zM545 658l-17 -78h-328l18 78h327z" />
    <glyph glyph-name="Ubreve" unicode="&#x16c;" horiz-adv-x="696" 
d="M326 -10q-90 0 -151 35.5t-84 102.5t-1 160l87 372h108l-90 -392q-14 -61 0.5 -102.5t50.5 -62t88 -20.5q73 0 114.5 45t58.5 123l95 409h107l-98 -427q-27 -112 -97.5 -177.5t-187.5 -65.5zM631 867q-11 -69 -59 -111t-119 -42q-62 0 -98.5 34t-36.5 85q0 8 1 16.5
t3 17.5h74q-1 -5 -1.5 -10t-0.5 -9q0 -30 18.5 -46.5t49.5 -16.5q35 0 59.5 20.5t31.5 61.5h78z" />
    <glyph glyph-name="ubreve" unicode="&#x16d;" horiz-adv-x="602" 
d="M215 -8q-54 0 -94.5 24t-58 69t-2.5 109l71 306h107l-69 -297q-14 -60 11.5 -91.5t76.5 -31.5q40 0 70.5 17.5t51.5 52t32 85.5l62 265h107l-116 -500h-95l21 126l10 -8q-20 -63 -70.5 -94.5t-114.5 -31.5zM546 715q-11 -69 -59 -111t-119 -42q-62 0 -98.5 34t-36.5 85
q0 8 1 16.5t3 17.5h74q-1 -5 -1.5 -10t-0.5 -9q0 -30 18.5 -46.5t49.5 -16.5q35 0 59.5 20.5t31.5 61.5h78z" />
    <glyph glyph-name="Uring" unicode="&#x16e;" horiz-adv-x="696" 
d="M326 -10q-90 0 -151 35.5t-84 102.5t-1 160l87 372h108l-90 -392q-14 -61 0.5 -102.5t50.5 -62t88 -20.5q73 0 114.5 45t58.5 123l95 409h107l-98 -427q-27 -112 -97.5 -177.5t-187.5 -65.5zM461 926q54 0 88 -31.5t34 -78.5q0 -57 -38 -94t-95 -37q-54 0 -88 31.5
t-34 77.5q0 57 37.5 94.5t95.5 37.5zM459 869q-28 0 -47.5 -18.5t-19.5 -50.5q0 -25 17.5 -41.5t43.5 -16.5q27 0 46 18.5t19 50.5q0 25 -16 41.5t-43 16.5z" />
    <glyph glyph-name="uring" unicode="&#x16f;" horiz-adv-x="602" 
d="M215 -8q-54 0 -94.5 24t-58 69t-2.5 109l71 306h107l-69 -297q-14 -60 11.5 -91.5t76.5 -31.5q40 0 70.5 17.5t51.5 52t32 85.5l62 265h107l-116 -500h-95l21 126l10 -8q-20 -63 -70.5 -94.5t-114.5 -31.5zM388 802q54 0 88 -31.5t34 -78.5q0 -57 -38 -94t-95 -37
q-54 0 -88 31.5t-34 77.5q0 57 37.5 94.5t95.5 37.5zM386 745q-28 0 -47.5 -18.5t-19.5 -50.5q0 -25 17.5 -41.5t43.5 -16.5q27 0 46 18.5t19 50.5q0 25 -16 41.5t-43 16.5z" />
    <glyph glyph-name="Uhungarumlaut" unicode="&#x170;" horiz-adv-x="696" 
d="M326 -10q-90 0 -151 35.5t-84 102.5t-1 160l87 372h108l-90 -392q-14 -61 0.5 -102.5t50.5 -62t88 -20.5q73 0 114.5 45t58.5 123l95 409h107l-98 -427q-27 -112 -97.5 -177.5t-187.5 -65.5zM497 721l97 160h110l-124 -160h-83zM311 721l98 160h109l-124 -160h-83z" />
    <glyph glyph-name="uhungarumlaut" unicode="&#x171;" horiz-adv-x="602" 
d="M215 -8q-54 0 -94.5 24t-58 69t-2.5 109l71 306h107l-69 -297q-14 -60 11.5 -91.5t76.5 -31.5q40 0 70.5 17.5t51.5 52t32 85.5l62 265h107l-116 -500h-95l21 126l10 -8q-20 -63 -70.5 -94.5t-114.5 -31.5zM410 570l120 168h112l-144 -168h-88zM219 570l120 168h112
l-144 -168h-88z" />
    <glyph glyph-name="Uogonek" unicode="&#x172;" horiz-adv-x="696" 
d="M326 -10q-90 0 -151 35.5t-84 102.5t-1 160l87 372h108l-90 -392q-14 -61 0.5 -102.5t50.5 -62t88 -20.5q73 0 114.5 45t58.5 123l95 409h107l-98 -427q-27 -112 -97.5 -177.5t-187.5 -65.5zM310 -218q-31 0 -58 11t-43.5 34t-16.5 57q0 35 18 62t56 48t98 37l44 -29
q-36 -12 -67.5 -26.5t-50.5 -33.5t-19 -45q0 -27 19 -37t40 -10q12 0 20.5 2t18.5 5l-6 -66q-12 -5 -25.5 -7t-27.5 -2z" />
    <glyph glyph-name="uogonek" unicode="&#x173;" horiz-adv-x="602" 
d="M370 -218q-31 0 -57 9.5t-42 30t-16 53.5q0 31 18 59t55 52.5t92 45.5l44 -32q-66 -33 -97.5 -57.5t-31.5 -53.5q0 -24 17 -32t38 -8q12 0 20.5 2t17.5 5l-6 -65q-11 -5 -24.5 -7t-27.5 -2zM215 -8q-54 0 -94.5 24t-58 69t-2.5 109l71 306h107l-69 -297
q-14 -60 11.5 -91.5t76.5 -31.5q40 0 70.5 17.5t51.5 52t32 85.5l62 265h107l-116 -500h-95l21 126l10 -8q-20 -63 -70.5 -94.5t-114.5 -31.5z" />
    <glyph glyph-name="Wcircumflex" unicode="&#x174;" horiz-adv-x="954" 
d="M158 0l-37 660h104l19 -558l260 558h116l15 -562l271 562h117l-343 -660h-128l-14 396l2 154h-1l-67 -154l-189 -396h-125zM673 897l70 -160h-82l-53 102l-98 -102h-93l145 160h111z" />
    <glyph glyph-name="wcircumflex" unicode="&#x175;" horiz-adv-x="826" 
d="M117 0l-46 500h104l27 -388l200 388h106l42 -393l200 393h114l-271 -500h-117l-45 370l-195 -370h-119zM292 571l151 169h112l74 -169h-83l-57 106l-104 -106h-93z" />
    <glyph glyph-name="Ycircumflex" unicode="&#x176;" horiz-adv-x="589" 
d="M183 0l59 254l-133 406h110l66 -215l27 -101l74 106l162 210h122l-322 -414l-58 -246h-107zM481 881l70 -160h-82l-53 102l-98 -102h-93l145 160h111z" />
    <glyph glyph-name="ycircumflex" unicode="&#x177;" horiz-adv-x="520" 
d="M22 -215q-40 0 -70 9t-49 25l37 83q34 -31 79 -31q30 0 53.5 16t45.5 50l39 63l-88 500h107l36 -281l16 -124l66 118l163 287h118l-361 -581q-29 -48 -59.5 -77.5t-63.5 -43t-69 -13.5zM160 563l151 169h112l74 -169h-83l-57 106l-104 -106h-93z" />
    <glyph glyph-name="Ydieresis" unicode="&#x178;" horiz-adv-x="589" 
d="M183 0l59 254l-133 406h110l66 -215l27 -101l74 106l162 210h122l-322 -414l-58 -246h-107zM496 718q-26 0 -42.5 14.5t-16.5 38.5q0 35 20.5 54t51.5 19q26 0 42.5 -14.5t16.5 -38.5q0 -36 -20.5 -54.5t-51.5 -18.5zM294 718q-26 0 -42.5 14.5t-16.5 38.5q0 35 20.5 54
t51.5 19q26 0 42 -14.5t16 -38.5q0 -36 -20 -54.5t-51 -18.5z" />
    <glyph glyph-name="Zacute" unicode="&#x179;" horiz-adv-x="601" 
d="M-7 0l21 90l474 479h-368l22 91h496l-21 -89l-475 -480h390l-22 -91h-517zM434 897h113l-123 -160h-86z" />
    <glyph glyph-name="zacute" unicode="&#x17a;" horiz-adv-x="513" 
d="M-5 0l18 77l303 292l56 49l-86 -2h-199l20 84h407l-18 -80l-281 -270l-75 -67l103 1h195l-20 -84h-423zM370 746h116l-144 -168h-90z" />
    <glyph glyph-name="Zdotaccent" unicode="&#x17b;" horiz-adv-x="601" 
d="M-7 0l21 90l474 479h-368l22 91h496l-21 -89l-475 -480h390l-22 -91h-517zM405 746q-28 0 -45.5 14.5t-17.5 41.5q0 36 21 56t53 20q29 0 46.5 -15t17.5 -41q0 -37 -21.5 -56.5t-53.5 -19.5z" />
    <glyph glyph-name="zdotaccent" unicode="&#x17c;" horiz-adv-x="513" 
d="M-5 0l18 77l303 292l56 49l-86 -2h-199l20 84h407l-18 -80l-281 -270l-75 -67l103 1h195l-20 -84h-423zM324 586q-28 0 -45.5 14.5t-17.5 41.5q0 36 21 56t53 20q29 0 46.5 -15t17.5 -41q0 -37 -21.5 -56.5t-53.5 -19.5z" />
    <glyph glyph-name="Zcaron" unicode="&#x17d;" horiz-adv-x="601" 
d="M-7 0l21 90l474 479h-368l22 91h496l-21 -89l-475 -480h390l-22 -91h-517zM337 737l-70 160h81l54 -101l97 101h94l-145 -160h-111z" />
    <glyph glyph-name="zcaron" unicode="&#x17e;" horiz-adv-x="513" 
d="M-5 0l18 77l303 292l56 49l-86 -2h-199l20 84h407l-18 -80l-281 -270l-75 -67l103 1h195l-20 -84h-423zM251 578l-74 168h83l57 -106l104 106h94l-152 -168h-112z" />
    <glyph glyph-name="longs" unicode="&#x17f;" horiz-adv-x="277" 
d="M19 0l132 572q12 50 37 86t63 55t88 19q30 0 48.5 -6t28.5 -17l-32 -78q-15 14 -40 14q-33 0 -56 -19.5t-33 -62.5l-130 -563h-106z" />
    <glyph glyph-name="uni018F" unicode="&#x18f;" horiz-adv-x="721" 
d="M342 -10q-83 0 -142.5 35.5t-90.5 97t-31 140.5q0 24 2.5 46.5t7.5 46.5h481v11v11q0 63 -20.5 107.5t-59 67.5t-92.5 23q-60 0 -106.5 -24.5t-74.5 -81.5l-95 45q42 79 115.5 117t170.5 38q75 0 136 -33t98.5 -95t38.5 -152q1 -79 -19.5 -151.5t-63.5 -128.5t-106.5 -88
t-148.5 -32zM351 84q59 0 100 25.5t67.5 67.5t38.5 92h-370q-2 -54 15.5 -96t55 -65.5t93.5 -23.5z" />
    <glyph glyph-name="florin" unicode="&#x192;" horiz-adv-x="496" 
d="M500 733q29 0 52 -5.5t43 -19.5l-34 -83q-12 11 -26 16t-34 5q-33 0 -59 -20.5t-42 -62.5l-207 -533q-30 -78 -80.5 -118t-113.5 -40q-32 0 -55.5 5.5t-44.5 19.5l35 82q27 -21 67 -21q32 0 54.5 21t38.5 63l208 532q30 79 80 119t118 40zM483 405l-19 -84h-398l19 84
h398z" />
    <glyph glyph-name="Ohorn" unicode="&#x1a0;" horiz-adv-x="739" 
d="M555 602l-62 59q45 -7 76 -2t51 20t31 37.5t14 50.5h94q-9 -59 -37.5 -100.5t-71.5 -59t-95 -5.5zM358 -10q-77 0 -141 33.5t-102 99t-38 157.5q0 79 23 149t66 124t107.5 85.5t147.5 31.5q77 0 139.5 -34t100 -98.5t37.5 -157.5q0 -78 -22 -148.5t-65.5 -124.5
t-107 -85.5t-145.5 -31.5zM366 84q55 0 96.5 25.5t69.5 68t42 95.5t14 107q0 62 -22 106t-61.5 67t-92.5 23q-55 0 -97 -25.5t-70.5 -68t-42.5 -95t-14 -107.5q0 -62 22 -106t62 -67t94 -23z" />
    <glyph glyph-name="ohorn" unicode="&#x1a1;" horiz-adv-x="596" 
d="M410 444l-24 57q43 -9 70.5 3t43 41t22.5 71h83q-8 -70 -36.5 -112t-69.5 -56.5t-89 -3.5zM282 -9q-74 0 -125.5 30t-79.5 81.5t-28 113.5q0 85 33.5 151t93 104t140.5 38q74 0 125.5 -30t78.5 -81t27 -114q0 -83 -32.5 -149.5t-92.5 -105t-140 -38.5zM284 75
q33 0 61.5 16t50 45t33 67.5t11.5 82.5q0 40 -13.5 71t-42 49.5t-71.5 18.5q-33 0 -62 -16t-50 -44.5t-33 -67t-12 -83.5q0 -38 14 -70t42.5 -50.5t71.5 -18.5z" />
    <glyph glyph-name="Uhorn" unicode="&#x1af;" horiz-adv-x="696" 
d="M326 -10q-90 0 -151 35.5t-84 102.5t-1 160l87 372h108l-90 -392q-14 -61 0.5 -102.5t50.5 -62t88 -20.5q73 0 114.5 45t58.5 123l95 409h107l-98 -427q-27 -112 -97.5 -177.5t-187.5 -65.5zM619 597l17 63q32 0 57.5 25t34.5 82h93q-9 -62 -37 -103t-70.5 -58t-94.5 -9z
" />
    <glyph glyph-name="uhorn" unicode="&#x1b0;" horiz-adv-x="605" 
d="M215 -8q-54 0 -94.5 24t-58 69t-2.5 109l71 306h107l-69 -297q-14 -60 11.5 -91.5t76.5 -31.5q40 0 70.5 17.5t51.5 52t32 85.5l62 265h107l-116 -500h-95l21 126l10 -8q-20 -63 -70.5 -94.5t-114.5 -31.5zM542 444l-24 56q31 0 56 25.5t38 90.5h83q-9 -66 -33 -103.5
t-55 -53t-65 -15.5z" />
    <glyph glyph-name="uni01C4" unicode="&#x1c4;" horiz-adv-x="1296" 
d="M37 0l153 660h204q87 0 148.5 -34.5t94 -95.5t32.5 -140q0 -84 -26 -155t-75 -124t-117.5 -82t-152.5 -29h-261zM166 91h139q59 0 106 24t79 65t49 93t17 108q0 54 -19 96.5t-57.5 67t-98.5 24.5h-104zM689 0l21 90l474 479h-368l22 91h496l-21 -89l-475 -480h390
l-22 -91h-517zM1033 737l-70 160h81l54 -101l97 101h94l-145 -160h-111z" />
    <glyph glyph-name="uni01C5" unicode="&#x1c5;" horiz-adv-x="1214" 
d="M37 0l153 660h204q87 0 148.5 -34.5t94 -95.5t32.5 -140q0 -84 -26 -155t-75 -124t-117.5 -82t-152.5 -29h-261zM166 91h139q59 0 106 24t79 65t49 93t17 108q0 54 -19 96.5t-57.5 67t-98.5 24.5h-104zM697 0l18 77l303 292l56 49l-86 -2h-199l20 84h407l-18 -80
l-281 -270l-75 -67l103 1h195l-20 -84h-423zM953 578l-74 168h83l57 -106l104 106h94l-152 -168h-112z" />
    <glyph glyph-name="uni01C6" unicode="&#x1c6;" horiz-adv-x="1129" 
d="M237 -8q-55 0 -98 26.5t-67 74.5t-24 113q0 61 18.5 116t52 97.5t80 66.5t101.5 24q41 0 74.5 -14t56.5 -41t31 -66l77 336h107l-167 -725h-95l17 93q-25 -46 -68.5 -73.5t-95.5 -27.5zM273 77q33 0 62 17t50 47t33.5 69.5t12.5 82.5q0 40 -14.5 69.5t-40 45.5t-60.5 16
q-37 0 -66.5 -17t-51 -46.5t-33.5 -68t-12 -80.5q0 -43 14 -73t41 -46t65 -16zM612 0l18 77l303 292l56 49l-86 -2h-199l20 84h407l-18 -80l-281 -270l-75 -67l103 1h195l-20 -84h-423zM868 578l-74 168h83l57 -106l104 106h94l-152 -168h-112z" />
    <glyph glyph-name="uni01C7" unicode="&#x1c7;" horiz-adv-x="1158" 
d="M166 92h360l-22 -92h-467l153 660h108zM819 -8q-58 0 -101.5 20t-68.5 56t-29 83.5t16 101.5l104 5q-18 -53 -14.5 -92.5t29.5 -61.5t73 -22q59 0 88 36t48 120l97 422h109l-103 -445q-15 -64 -44 -115t-77.5 -79.5t-126.5 -28.5z" />
    <glyph glyph-name="uni01C8" unicode="&#x1c8;" horiz-adv-x="858" 
d="M166 92h360l-22 -92h-467l153 660h108zM811 584q-30 0 -48 16t-16 44q1 35 22 54t53 19q31 0 48.5 -15.5t16.5 -42.5q-2 -37 -23 -56t-53 -19zM545 -215q-33 0 -64.5 8.5t-50.5 26.5l31 84q14 -11 31.5 -18.5t35.5 -7.5q29 0 46 16t27 61l128 545h107l-131 -566
q-18 -78 -61.5 -113.5t-98.5 -35.5z" />
    <glyph glyph-name="uni01C9" unicode="&#x1c9;" horiz-adv-x="578" 
d="M172 -8q-75 0 -105 44t-13 116l133 573h107l-133 -574q-10 -39 5 -56.5t52 -17.5q14 0 24.5 1t18.5 3l-23 -78q-16 -6 -30.5 -8.5t-35.5 -2.5zM531 584q-30 0 -48 16t-16 44q1 35 22 54t53 19q31 0 48.5 -15.5t16.5 -42.5q-2 -37 -23 -56t-53 -19zM265 -215
q-33 0 -64.5 8.5t-50.5 26.5l31 84q14 -11 31.5 -18.5t35.5 -7.5q29 0 46 16t27 61l128 545h107l-131 -566q-18 -78 -61.5 -113.5t-98.5 -35.5z" />
    <glyph glyph-name="uni01CA" unicode="&#x1ca;" horiz-adv-x="1291" 
d="M37 0l153 660h122l151 -417l39 -125h1l23 116l99 426h99l-153 -660h-121l-154 416l-38 124h-1l-22 -114l-99 -426h-99zM952 -8q-58 0 -101.5 20t-68.5 56t-29 83.5t16 101.5l104 5q-18 -53 -14.5 -92.5t29.5 -61.5t73 -22q59 0 88 36t48 120l97 422h109l-103 -445
q-15 -64 -44 -115t-77.5 -79.5t-126.5 -28.5z" />
    <glyph glyph-name="uni01CB" unicode="&#x1cb;" horiz-adv-x="991" 
d="M37 0l153 660h122l151 -417l39 -125h1l23 116l99 426h99l-153 -660h-121l-154 416l-38 124h-1l-22 -114l-99 -426h-99zM944 584q-30 0 -48 16t-16 44q1 35 22 54t53 19q31 0 48.5 -15.5t16.5 -42.5q-2 -37 -23 -56t-53 -19zM678 -215q-33 0 -64.5 8.5t-50.5 26.5l31 84
q14 -11 31.5 -18.5t35.5 -7.5q29 0 46 16t27 61l128 545h107l-131 -566q-18 -78 -61.5 -113.5t-98.5 -35.5z" />
    <glyph glyph-name="uni01CC" unicode="&#x1cc;" horiz-adv-x="870" 
d="M22 0l116 500h94l-21 -126l-10 7q21 64 74 96.5t117 32.5q56 0 95 -24.5t55 -70t1 -110.5l-71 -305h-107l70 300q13 57 -11 89.5t-76 32.5q-40 0 -71.5 -18t-52.5 -52.5t-34 -86.5l-61 -265h-107zM823 584q-30 0 -48 16t-16 44q1 35 22 54t53 19q31 0 48.5 -15.5
t16.5 -42.5q-2 -37 -23 -56t-53 -19zM557 -215q-33 0 -64.5 8.5t-50.5 26.5l31 84q14 -11 31.5 -18.5t35.5 -7.5q29 0 46 16t27 61l128 545h107l-131 -566q-18 -78 -61.5 -113.5t-98.5 -35.5z" />
    <glyph glyph-name="Gcaron" unicode="&#x1e6;" horiz-adv-x="709" 
d="M337 -8q-71 0 -130.5 33.5t-95 97.5t-35.5 153q0 77 23 148t67.5 126.5t109.5 87.5t150 32q64 0 117.5 -19t91.5 -59.5t54 -107.5l-105 -29q-15 65 -57 94t-105 29q-57 0 -100.5 -24.5t-73.5 -66t-45.5 -94t-15.5 -107.5q0 -63 21.5 -108.5t61 -69.5t94.5 -24
q51 0 88 17.5t60.5 48t34.5 71.5l7 28h-192l20 86h282l-83 -335h-78l29 139l11 -13q-19 -43 -47.5 -73t-68 -45.5t-90.5 -15.5zM405 737l-70 160h81l54 -101l97 101h94l-145 -160h-111z" />
    <glyph glyph-name="gcaron" unicode="&#x1e7;" horiz-adv-x="614" 
d="M212 -215q-43 0 -82 11.5t-68.5 33t-48 52.5t-23.5 70l107 26q8 -52 35.5 -81.5t89.5 -29.5q34 0 64 13t53 43.5t35 86.5l28 127l12 8q-15 -61 -62 -97t-111 -36q-56 0 -100 27t-69.5 75t-25.5 108q0 62 18.5 114t52 91.5t79.5 61t101 21.5q47 0 84 -18.5t59.5 -54
t23.5 -86.5l-16 -13l37 162h107l-115 -492q-18 -81 -55.5 -129.5t-90.5 -71t-119 -22.5zM278 97q43 0 76.5 26.5t53.5 71.5t20 100q0 40 -14 68.5t-40.5 44.5t-61.5 16q-48 0 -83.5 -25.5t-55.5 -69.5t-20 -100q0 -58 32.5 -95t92.5 -37zM289 578l-74 168h83l57 -106
l104 106h94l-152 -168h-112z" />
    <glyph glyph-name="uni01EA" unicode="&#x1ea;" horiz-adv-x="739" 
d="M358 -10q-77 0 -141 33.5t-102 99t-38 157.5q0 79 23 149t66 124t107.5 85.5t147.5 31.5q77 0 139.5 -34t100 -98.5t37.5 -157.5q0 -78 -22 -148.5t-65.5 -124.5t-107 -85.5t-145.5 -31.5zM366 84q55 0 96.5 25.5t69.5 68t42 95.5t14 107q0 62 -22 106t-61.5 67t-92.5 23
q-55 0 -97 -25.5t-70.5 -68t-42.5 -95t-14 -107.5q0 -62 22 -106t62 -67t94 -23zM353 -218q-31 0 -58 11t-43.5 34t-16.5 57q0 35 18 62t56 48t98 37l44 -29q-36 -12 -67.5 -26.5t-50.5 -33.5t-19 -45q0 -27 19 -37t40 -10q12 0 20.5 2t18.5 5l-6 -66q-12 -5 -25.5 -7
t-27.5 -2z" />
    <glyph glyph-name="uni01EB" unicode="&#x1eb;" horiz-adv-x="596" 
d="M282 -9q-74 0 -125.5 30t-79.5 81.5t-28 113.5q0 85 33.5 151t93 104t140.5 38q74 0 125.5 -30t78.5 -81t27 -114q0 -83 -32.5 -149.5t-92.5 -105t-140 -38.5zM284 75q33 0 61.5 16t50 45t33 67.5t11.5 82.5q0 40 -13.5 71t-42 49.5t-71.5 18.5q-33 0 -62 -16t-50 -44.5
t-33 -67t-12 -83.5q0 -38 14 -70t42.5 -50.5t71.5 -18.5zM271 -216q-31 0 -58 11t-43.5 34t-16.5 57q0 35 18 62t56 48t98 37l44 -29q-36 -12 -67.5 -26.5t-50.5 -33.5t-19 -45q0 -27 19 -37t40 -10q12 0 20.5 2t18.5 5l-6 -66q-12 -5 -25.5 -7t-27.5 -2z" />
    <glyph glyph-name="uni01F1" unicode="&#x1f1;" horiz-adv-x="1296" 
d="M37 0l153 660h204q87 0 148.5 -34.5t94 -95.5t32.5 -140q0 -84 -26 -155t-75 -124t-117.5 -82t-152.5 -29h-261zM166 91h139q59 0 106 24t79 65t49 93t17 108q0 54 -19 96.5t-57.5 67t-98.5 24.5h-104zM689 0l21 90l474 479h-368l22 91h496l-21 -89l-475 -480h390
l-22 -91h-517z" />
    <glyph glyph-name="uni01F2" unicode="&#x1f2;" horiz-adv-x="1214" 
d="M37 0l153 660h204q87 0 148.5 -34.5t94 -95.5t32.5 -140q0 -84 -26 -155t-75 -124t-117.5 -82t-152.5 -29h-261zM166 91h139q59 0 106 24t79 65t49 93t17 108q0 54 -19 96.5t-57.5 67t-98.5 24.5h-104zM697 0l18 77l303 292l56 49l-86 -2h-199l20 84h407l-18 -80
l-281 -270l-75 -67l103 1h195l-20 -84h-423z" />
    <glyph glyph-name="uni01F3" unicode="&#x1f3;" horiz-adv-x="1129" 
d="M237 -8q-55 0 -98 26.5t-67 74.5t-24 113q0 61 18.5 116t52 97.5t80 66.5t101.5 24q41 0 74.5 -14t56.5 -41t31 -66l77 336h107l-167 -725h-95l17 93q-25 -46 -68.5 -73.5t-95.5 -27.5zM273 77q33 0 62 17t50 47t33.5 69.5t12.5 82.5q0 40 -14.5 69.5t-40 45.5t-60.5 16
q-37 0 -66.5 -17t-51 -46.5t-33.5 -68t-12 -80.5q0 -43 14 -73t41 -46t65 -16zM612 0l18 77l303 292l56 49l-86 -2h-199l20 84h407l-18 -80l-281 -270l-75 -67l103 1h195l-20 -84h-423z" />
    <glyph glyph-name="Aringacute" unicode="&#x1fa;" horiz-adv-x="651" 
d="M-41 0l396 660h132l89 -660h-104l-58 457l-12 103v0l-57 -100l-269 -460h-117zM133 179l20 87h351l-20 -87h-351zM434 846q54 0 88 -31.5t34 -78.5q0 -57 -38 -94t-95 -37q-54 0 -88 31.5t-34 77.5q0 57 37.5 94.5t95.5 37.5zM432 789q-28 0 -47.5 -18.5t-19.5 -50.5
q0 -25 17.5 -41.5t43.5 -16.5q27 0 46 18.5t19 50.5q0 25 -16 41.5t-43 16.5zM495 1054h113l-123 -160h-86z" />
    <glyph glyph-name="aringacute" unicode="&#x1fb;" horiz-adv-x="617" 
d="M237 -8q-55 0 -98 26.5t-67 74.5t-24 113q0 61 18.5 116t52 97.5t80 66.5t101.5 24q41 0 74.5 -14t56.5 -41t31 -66l26 111h107l-116 -500h-95l17 93q-25 -46 -68.5 -73.5t-95.5 -27.5zM274 77q32 0 60.5 17t50 47t34 69.5t12.5 82.5q0 40 -14.5 69.5t-40 45.5t-60.5 16
q-37 0 -66.5 -17t-51 -46.5t-33.5 -68t-12 -80.5q0 -43 14 -73t41 -46t66 -16zM376 810q54 0 88 -31.5t34 -78.5q0 -57 -38 -94t-95 -37q-54 0 -88 31.5t-34 77.5q0 57 37.5 94.5t95.5 37.5zM374 753q-28 0 -47.5 -18.5t-19.5 -50.5q0 -25 17.5 -41.5t43.5 -16.5
q27 0 46 18.5t19 50.5q0 25 -16 41.5t-43 16.5zM354 847l85 137h104l-108 -137h-81z" />
    <glyph glyph-name="AEacute" unicode="&#x1fc;" horiz-adv-x="929" 
d="M-55 0l495 660h525l-21 -90h-331l-45 -192h252l-20 -89h-252l-47 -199h347l-21 -90h-450l48 208h-205l-153 -208h-122zM280 294h165l64 277h-21zM639 897h113l-123 -160h-86z" />
    <glyph glyph-name="aeacute" unicode="&#x1fd;" horiz-adv-x="883" 
d="M200 -10q-83 0 -124.5 40t-41.5 99q0 46 23.5 76t64 47.5t91.5 23.5l189 25l-6 -72l-144 -20q-52 -7 -83 -21t-31 -52q0 -30 20 -47t60 -17q57 0 91 30t46 85l27 119q2 9 3 17t1 15q0 39 -26.5 63.5t-72.5 24.5q-50 0 -82 -21t-53 -67l-83 40q28 62 84.5 96.5t140.5 34.5
q46 0 81 -15.5t56.5 -40t23.5 -54.5l-18 6q21 32 51.5 55t70 36t87.5 13q58 0 100 -25.5t65 -70t23 -101.5q0 -22 -3 -45t-10 -48h-366l9 82h266q1 4 1 8.5v8.5q0 33 -12.5 57t-34 37t-49.5 13q-46 0 -78 -19.5t-51 -51t-27.5 -70t-8.5 -76.5q0 -40 16 -70.5t44.5 -46.5
t66.5 -16q44 0 73.5 19.5t48.5 51.5l86 -46q-21 -34 -53 -58.5t-72.5 -37.5t-87.5 -13q-57 0 -102 22t-70.5 58.5t-26.5 79.5l22 6q-5 -42 -33 -80.5t-74 -62.5t-108 -24zM537 746h116l-144 -168h-90z" />
    <glyph glyph-name="Oslashacute" unicode="&#x1fe;" horiz-adv-x="739" 
d="M224 104l-40 44l367 412l37 -48zM39 -14l133 150l41 -44l-96 -106h-78zM594 517l-33 52l96 106h79zM358 -10q-77 0 -141 33.5t-102 99t-38 157.5q0 79 23 149t66 124t107.5 85.5t147.5 31.5q77 0 139.5 -34t100 -98.5t37.5 -157.5q0 -78 -22 -148.5t-65.5 -124.5
t-107 -85.5t-145.5 -31.5zM366 84q55 0 96.5 25.5t69.5 68t42 95.5t14 107q0 62 -22 106t-61.5 67t-92.5 23q-55 0 -97 -25.5t-70.5 -68t-42.5 -95t-14 -107.5q0 -62 22 -106t62 -67t94 -23zM494 897h113l-123 -160h-86z" />
    <glyph glyph-name="oslashacute" unicode="&#x1ff;" horiz-adv-x="596" 
d="M282 -9q-74 0 -125.5 30t-79.5 81.5t-28 113.5q0 85 33.5 151t93 104t140.5 38q74 0 125.5 -30t78.5 -81t27 -114q0 -83 -32.5 -149.5t-92.5 -105t-140 -38.5zM284 75q33 0 61.5 16t50 45t33 67.5t11.5 82.5q0 40 -13.5 71t-42 49.5t-71.5 18.5q-33 0 -62 -16t-50 -44.5
t-33 -67t-12 -83.5q0 -38 14 -70t42.5 -50.5t71.5 -18.5zM6 -25l509 551h72l-508 -551h-73zM403 746h116l-144 -168h-90z" />
    <glyph glyph-name="uni0200" unicode="&#x200;" horiz-adv-x="651" 
d="M-41 0l396 660h132l89 -660h-104l-58 457l-12 103v0l-57 -100l-269 -460h-117zM133 179l20 87h351l-20 -87h-351zM343 897l38 -160h-74l-65 160h101zM515 897l38 -160h-74l-65 160h101z" />
    <glyph glyph-name="uni0201" unicode="&#x201;" horiz-adv-x="617" 
d="M237 -8q-55 0 -98 26.5t-67 74.5t-24 113q0 61 18.5 116t52 97.5t80 66.5t101.5 24q41 0 74.5 -14t56.5 -41t31 -66l26 111h107l-116 -500h-95l17 93q-25 -46 -68.5 -73.5t-95.5 -27.5zM274 77q32 0 60.5 17t50 47t34 69.5t12.5 82.5q0 40 -14.5 69.5t-40 45.5t-60.5 16
q-37 0 -66.5 -17t-51 -46.5t-33.5 -68t-12 -80.5q0 -43 14 -73t41 -46t66 -16zM263 746l44 -168h-76l-66 168h98zM436 746l44 -168h-77l-65 168h98z" />
    <glyph glyph-name="uni0202" unicode="&#x202;" horiz-adv-x="651" 
d="M-41 0l396 660h132l89 -660h-104l-58 457l-12 103v0l-57 -100l-269 -460h-117zM133 179l20 87h351l-20 -87h-351zM270 730q9 67 54.5 110t117.5 43q65 0 102.5 -35t37.5 -87q0 -7 -1 -14.5t-3 -16.5h-75q2 6 2.5 10.5t0.5 8.5q0 32 -21.5 47.5t-48.5 15.5q-41 0 -62 -23
t-26 -59h-78z" />
    <glyph glyph-name="uni0203" unicode="&#x203;" horiz-adv-x="617" 
d="M237 -8q-55 0 -98 26.5t-67 74.5t-24 113q0 61 18.5 116t52 97.5t80 66.5t101.5 24q41 0 74.5 -14t56.5 -41t31 -66l26 111h107l-116 -500h-95l17 93q-25 -46 -68.5 -73.5t-95.5 -27.5zM274 77q32 0 60.5 17t50 47t34 69.5t12.5 82.5q0 40 -14.5 69.5t-40 45.5t-60.5 16
q-37 0 -66.5 -17t-51 -46.5t-33.5 -68t-12 -80.5q0 -43 14 -73t41 -46t66 -16zM190 570q9 67 54.5 110t117.5 43q65 0 102.5 -35t37.5 -87q0 -7 -1 -14.5t-3 -16.5h-75q2 6 2.5 10.5t0.5 8.5q0 32 -21.5 47.5t-48.5 15.5q-41 0 -62 -23t-26 -59h-78z" />
    <glyph glyph-name="uni0204" unicode="&#x204;" horiz-adv-x="625" 
d="M37 0l153 660h471l-22 -92h-363l-44 -190h285l-20 -90h-285l-45 -196h377l-22 -92h-485zM349 897l38 -160h-74l-65 160h101zM521 897l38 -160h-74l-65 160h101z" />
    <glyph glyph-name="uni0205" unicode="&#x205;" horiz-adv-x="575" 
d="M278 -9q-71 0 -122 29.5t-79 80.5t-28 115q0 80 32 146.5t93 106.5t147 40q64 0 110 -26t70 -72.5t24 -108.5q0 -20 -2.5 -41t-9.5 -42h-403v82h345l-39 -28q4 12 5 23.5t1 21.5q0 33 -12.5 57t-36.5 37t-57 13q-45 0 -76.5 -18.5t-50.5 -50t-27 -69.5t-8 -75
q0 -42 16.5 -72.5t46 -47.5t69.5 -17q47 0 76.5 20t47.5 51l86 -46q-20 -34 -52.5 -58.5t-74 -37.5t-91.5 -13zM252 746l44 -168h-76l-66 168h98zM425 746l44 -168h-77l-65 168h98z" />
    <glyph glyph-name="uni0206" unicode="&#x206;" horiz-adv-x="625" 
d="M37 0l153 660h471l-22 -92h-363l-44 -190h285l-20 -90h-285l-45 -196h377l-22 -92h-485zM276 730q9 67 54.5 110t117.5 43q65 0 102.5 -35t37.5 -87q0 -7 -1 -14.5t-3 -16.5h-75q2 6 2.5 10.5t0.5 8.5q0 32 -21.5 47.5t-48.5 15.5q-41 0 -62 -23t-26 -59h-78z" />
    <glyph glyph-name="uni0207" unicode="&#x207;" horiz-adv-x="575" 
d="M278 -9q-71 0 -122 29.5t-79 80.5t-28 115q0 80 32 146.5t93 106.5t147 40q64 0 110 -26t70 -72.5t24 -108.5q0 -20 -2.5 -41t-9.5 -42h-403v82h345l-39 -28q4 12 5 23.5t1 21.5q0 33 -12.5 57t-36.5 37t-57 13q-45 0 -76.5 -18.5t-50.5 -50t-27 -69.5t-8 -75
q0 -42 16.5 -72.5t46 -47.5t69.5 -17q47 0 76.5 20t47.5 51l86 -46q-20 -34 -52.5 -58.5t-74 -37.5t-91.5 -13zM179 570q9 67 54.5 110t117.5 43q65 0 102.5 -35t37.5 -87q0 -7 -1 -14.5t-3 -16.5h-75q2 6 2.5 10.5t0.5 8.5q0 32 -21.5 47.5t-48.5 15.5q-41 0 -62 -23
t-26 -59h-78z" />
    <glyph glyph-name="uni0208" unicode="&#x208;" horiz-adv-x="298" 
d="M298 660l-153 -660h-108l153 660h108zM173 897l38 -160h-74l-65 160h101zM345 897l38 -160h-74l-65 160h101z" />
    <glyph glyph-name="uni0209" unicode="&#x209;" horiz-adv-x="267" 
d="M245 500l-116 -500h-107l116 500h107zM120 746l44 -168h-76l-66 168h98zM293 746l44 -168h-77l-65 168h98z" />
    <glyph glyph-name="uni020A" unicode="&#x20a;" horiz-adv-x="298" 
d="M298 660l-153 -660h-108l153 660h108zM100 730q9 67 54.5 110t117.5 43q65 0 102.5 -35t37.5 -87q0 -7 -1 -14.5t-3 -16.5h-75q2 6 2.5 10.5t0.5 8.5q0 32 -21.5 47.5t-48.5 15.5q-41 0 -62 -23t-26 -59h-78z" />
    <glyph glyph-name="uni020B" unicode="&#x20b;" horiz-adv-x="267" 
d="M245 500l-116 -500h-107l116 500h107zM47 570q9 67 54.5 110t117.5 43q65 0 102.5 -35t37.5 -87q0 -7 -1 -14.5t-3 -16.5h-75q2 6 2.5 10.5t0.5 8.5q0 32 -21.5 47.5t-48.5 15.5q-41 0 -62 -23t-26 -59h-78z" />
    <glyph glyph-name="uni020C" unicode="&#x20c;" horiz-adv-x="739" 
d="M358 -10q-77 0 -141 33.5t-102 99t-38 157.5q0 79 23 149t66 124t107.5 85.5t147.5 31.5q77 0 139.5 -34t100 -98.5t37.5 -157.5q0 -78 -22 -148.5t-65.5 -124.5t-107 -85.5t-145.5 -31.5zM366 84q55 0 96.5 25.5t69.5 68t42 95.5t14 107q0 62 -22 106t-61.5 67t-92.5 23
q-55 0 -97 -25.5t-70.5 -68t-42.5 -95t-14 -107.5q0 -62 22 -106t62 -67t94 -23zM366 897l38 -160h-74l-65 160h101zM538 897l38 -160h-74l-65 160h101z" />
    <glyph glyph-name="uni020D" unicode="&#x20d;" horiz-adv-x="596" 
d="M282 -9q-74 0 -125.5 30t-79.5 81.5t-28 113.5q0 85 33.5 151t93 104t140.5 38q74 0 125.5 -30t78.5 -81t27 -114q0 -83 -32.5 -149.5t-92.5 -105t-140 -38.5zM284 75q33 0 61.5 16t50 45t33 67.5t11.5 82.5q0 40 -13.5 71t-42 49.5t-71.5 18.5q-33 0 -62 -16t-50 -44.5
t-33 -67t-12 -83.5q0 -38 14 -70t42.5 -50.5t71.5 -18.5zM258 746l44 -168h-76l-66 168h98zM431 746l44 -168h-77l-65 168h98z" />
    <glyph glyph-name="uni020E" unicode="&#x20e;" horiz-adv-x="739" 
d="M358 -10q-77 0 -141 33.5t-102 99t-38 157.5q0 79 23 149t66 124t107.5 85.5t147.5 31.5q77 0 139.5 -34t100 -98.5t37.5 -157.5q0 -78 -22 -148.5t-65.5 -124.5t-107 -85.5t-145.5 -31.5zM366 84q55 0 96.5 25.5t69.5 68t42 95.5t14 107q0 62 -22 106t-61.5 67t-92.5 23
q-55 0 -97 -25.5t-70.5 -68t-42.5 -95t-14 -107.5q0 -62 22 -106t62 -67t94 -23zM293 730q9 67 54.5 110t117.5 43q65 0 102.5 -35t37.5 -87q0 -7 -1 -14.5t-3 -16.5h-75q2 6 2.5 10.5t0.5 8.5q0 32 -21.5 47.5t-48.5 15.5q-41 0 -62 -23t-26 -59h-78z" />
    <glyph glyph-name="uni020F" unicode="&#x20f;" horiz-adv-x="596" 
d="M282 -9q-74 0 -125.5 30t-79.5 81.5t-28 113.5q0 85 33.5 151t93 104t140.5 38q74 0 125.5 -30t78.5 -81t27 -114q0 -83 -32.5 -149.5t-92.5 -105t-140 -38.5zM284 75q33 0 61.5 16t50 45t33 67.5t11.5 82.5q0 40 -13.5 71t-42 49.5t-71.5 18.5q-33 0 -62 -16t-50 -44.5
t-33 -67t-12 -83.5q0 -38 14 -70t42.5 -50.5t71.5 -18.5zM185 570q9 67 54.5 110t117.5 43q65 0 102.5 -35t37.5 -87q0 -7 -1 -14.5t-3 -16.5h-75q2 6 2.5 10.5t0.5 8.5q0 32 -21.5 47.5t-48.5 15.5q-41 0 -62 -23t-26 -59h-78z" />
    <glyph glyph-name="uni0210" unicode="&#x210;" horiz-adv-x="649" 
d="M37 0l153 660h236q93 0 147.5 -48t54.5 -134q0 -60 -28 -106t-74 -73.5t-101 -34.5l-46 -8h-191l20 89h165q49 0 81.5 17.5t48.5 47.5t16 66q0 46 -31.5 69.5t-84.5 23.5h-127l-132 -569h-107zM461 0l-112 282l103 15l122 -297h-113zM337 897l38 -160h-74l-65 160h101z
M509 897l38 -160h-74l-65 160h101z" />
    <glyph glyph-name="uni0211" unicode="&#x211;" horiz-adv-x="399" 
d="M22 0l116 500h90l-16 -135l-11 10q16 42 43.5 72t63.5 46.5t75 16.5q16 0 28.5 -2t21.5 -7l-29 -96q-10 5 -22.5 7.5t-31.5 2.5q-36 0 -68 -16.5t-56 -50.5t-37 -89l-60 -259h-107zM212 746l44 -168h-76l-66 168h98zM385 746l44 -168h-77l-65 168h98z" />
    <glyph glyph-name="uni0212" unicode="&#x212;" horiz-adv-x="649" 
d="M37 0l153 660h236q93 0 147.5 -48t54.5 -134q0 -60 -28 -106t-74 -73.5t-101 -34.5l-46 -8h-191l20 89h165q49 0 81.5 17.5t48.5 47.5t16 66q0 46 -31.5 69.5t-84.5 23.5h-127l-132 -569h-107zM461 0l-112 282l103 15l122 -297h-113zM264 730q9 67 54.5 110t117.5 43
q65 0 102.5 -35t37.5 -87q0 -7 -1 -14.5t-3 -16.5h-75q2 6 2.5 10.5t0.5 8.5q0 32 -21.5 47.5t-48.5 15.5q-41 0 -62 -23t-26 -59h-78z" />
    <glyph glyph-name="uni0213" unicode="&#x213;" horiz-adv-x="399" 
d="M22 0l116 500h90l-16 -135l-11 10q16 42 43.5 72t63.5 46.5t75 16.5q16 0 28.5 -2t21.5 -7l-29 -96q-10 5 -22.5 7.5t-31.5 2.5q-36 0 -68 -16.5t-56 -50.5t-37 -89l-60 -259h-107zM139 570q9 67 54.5 110t117.5 43q65 0 102.5 -35t37.5 -87q0 -7 -1 -14.5t-3 -16.5h-75
q2 6 2.5 10.5t0.5 8.5q0 32 -21.5 47.5t-48.5 15.5q-41 0 -62 -23t-26 -59h-78z" />
    <glyph glyph-name="uni0214" unicode="&#x214;" horiz-adv-x="696" 
d="M326 -10q-90 0 -151 35.5t-84 102.5t-1 160l87 372h108l-90 -392q-14 -61 0.5 -102.5t50.5 -62t88 -20.5q73 0 114.5 45t58.5 123l95 409h107l-98 -427q-27 -112 -97.5 -177.5t-187.5 -65.5zM363 881l38 -160h-74l-65 160h101zM535 881l38 -160h-74l-65 160h101z" />
    <glyph glyph-name="uni0215" unicode="&#x215;" horiz-adv-x="602" 
d="M215 -8q-54 0 -94.5 24t-58 69t-2.5 109l71 306h107l-69 -297q-14 -60 11.5 -91.5t76.5 -31.5q40 0 70.5 17.5t51.5 52t32 85.5l62 265h107l-116 -500h-95l21 126l10 -8q-20 -63 -70.5 -94.5t-114.5 -31.5zM275 738l44 -168h-76l-66 168h98zM448 738l44 -168h-77l-65 168
h98z" />
    <glyph glyph-name="uni0216" unicode="&#x216;" horiz-adv-x="696" 
d="M326 -10q-90 0 -151 35.5t-84 102.5t-1 160l87 372h108l-90 -392q-14 -61 0.5 -102.5t50.5 -62t88 -20.5q73 0 114.5 45t58.5 123l95 409h107l-98 -427q-27 -112 -97.5 -177.5t-187.5 -65.5zM290 714q9 67 54.5 110t117.5 43q65 0 102.5 -35t37.5 -87q0 -7 -1 -14.5
t-3 -16.5h-75q2 6 2.5 10.5t0.5 8.5q0 32 -21.5 47.5t-48.5 15.5q-41 0 -62 -23t-26 -59h-78z" />
    <glyph glyph-name="uni0217" unicode="&#x217;" horiz-adv-x="602" 
d="M215 -8q-54 0 -94.5 24t-58 69t-2.5 109l71 306h107l-69 -297q-14 -60 11.5 -91.5t76.5 -31.5q40 0 70.5 17.5t51.5 52t32 85.5l62 265h107l-116 -500h-95l21 126l10 -8q-20 -63 -70.5 -94.5t-114.5 -31.5zM202 562q9 67 54.5 110t117.5 43q65 0 102.5 -35t37.5 -87
q0 -7 -1 -14.5t-3 -16.5h-75q2 6 2.5 10.5t0.5 8.5q0 32 -21.5 47.5t-48.5 15.5q-41 0 -62 -23t-26 -59h-78z" />
    <glyph glyph-name="uni0218" unicode="&#x218;" horiz-adv-x="639" 
d="M335 -9q-72 0 -132.5 21.5t-104.5 62.5t-70 102l87 58q19 -54 53 -87.5t78.5 -49t93.5 -15.5q44 0 73 14.5t43.5 37.5t14.5 49q0 33 -21.5 51.5t-62.5 30.5l-104 30q-50 15 -85.5 39.5t-55 58t-19.5 75.5q0 58 31 104t86.5 72t130.5 26q99 0 165.5 -39t100.5 -117
l-88 -56q-15 48 -43.5 73.5t-64 35.5t-74.5 10q-44 0 -73.5 -12.5t-44 -34.5t-14.5 -48q0 -30 24 -54t65 -36l112 -34q74 -22 110.5 -61.5t36.5 -98.5q0 -64 -33.5 -110.5t-89.5 -72t-125 -25.5zM328 -71l-104 -167h-83l78 167h109z" />
    <glyph glyph-name="uni0219" unicode="&#x219;" horiz-adv-x="515" 
d="M253 -11q-57 0 -104.5 17t-82.5 49t-55 75l81 49q21 -51 61.5 -78.5t97.5 -27.5q46 0 71 18t25 48q0 22 -14 35.5t-43 21.5l-80 24q-66 18 -97.5 53.5t-31.5 82.5q0 45 24 79.5t69 54.5t106 20q73 0 129 -30t82 -87l-77 -52q-11 26 -31 45t-46.5 30t-58.5 11
q-49 0 -73 -16.5t-24 -44.5q0 -25 19 -38t45 -21l97 -29q52 -15 81 -47.5t29 -76.5q0 -51 -25 -88t-70 -57t-104 -20zM265 -71l-104 -167h-83l78 167h109z" />
    <glyph glyph-name="uni021A" unicode="&#x21a;" horiz-adv-x="609" 
d="M675 660l-22 -92h-220l-131 -568h-108l131 568h-223l22 92h551zM289 -71l-104 -167h-83l78 167h109z" />
    <glyph glyph-name="uni021B" unicode="&#x21b;" horiz-adv-x="412" 
d="M241 -8q-52 0 -88.5 19.5t-51.5 57.5t-3 92l103 448l115 32l-113 -481q-10 -44 12 -63.5t57 -19.5q24 0 41.5 6t31.5 16l8 -79q-26 -16 -53.5 -22t-58.5 -6zM58 416l19 84h355l-19 -84h-355zM256 -71l-104 -167h-83l78 167h109z" />
    <glyph glyph-name="uni022A" unicode="&#x22a;" horiz-adv-x="739" 
d="M358 -10q-77 0 -141 33.5t-102 99t-38 157.5q0 79 23 149t66 124t107.5 85.5t147.5 31.5q77 0 139.5 -34t100 -98.5t37.5 -157.5q0 -78 -22 -148.5t-65.5 -124.5t-107 -85.5t-145.5 -31.5zM366 84q55 0 96.5 25.5t69.5 68t42 95.5t14 107q0 62 -22 106t-61.5 67t-92.5 23
q-55 0 -97 -25.5t-70.5 -68t-42.5 -95t-14 -107.5q0 -62 22 -106t62 -67t94 -23zM561 734q-26 0 -42.5 14.5t-16.5 38.5q0 35 20.5 54t51.5 19q26 0 42.5 -14.5t16.5 -38.5q0 -36 -20.5 -54.5t-51.5 -18.5zM359 734q-26 0 -42.5 14.5t-16.5 38.5q0 35 20.5 54t51.5 19
q26 0 42 -14.5t16 -38.5q0 -36 -20 -54.5t-51 -18.5zM679 1001l-17 -78h-328l18 78h327z" />
    <glyph glyph-name="uni022B" unicode="&#x22b;" horiz-adv-x="596" 
d="M282 -9q-74 0 -125.5 30t-79.5 81.5t-28 113.5q0 85 33.5 151t93 104t140.5 38q74 0 125.5 -30t78.5 -81t27 -114q0 -83 -32.5 -149.5t-92.5 -105t-140 -38.5zM284 75q33 0 61.5 16t50 45t33 67.5t11.5 82.5q0 40 -13.5 71t-42 49.5t-71.5 18.5q-33 0 -62 -16t-50 -44.5
t-33 -67t-12 -83.5q0 -38 14 -70t42.5 -50.5t71.5 -18.5zM453 574q-26 0 -42.5 14.5t-16.5 38.5q0 35 20.5 54t51.5 19q26 0 42.5 -14.5t16.5 -38.5q0 -36 -20.5 -54.5t-51.5 -18.5zM251 574q-26 0 -42.5 14.5t-16.5 38.5q0 35 20.5 54t51.5 19q26 0 42 -14.5t16 -38.5
q0 -36 -20 -54.5t-51 -18.5zM571 841l-17 -78h-328l18 78h327z" />
    <glyph glyph-name="uni022C" unicode="&#x22c;" horiz-adv-x="739" 
d="M358 -10q-77 0 -141 33.5t-102 99t-38 157.5q0 79 23 149t66 124t107.5 85.5t147.5 31.5q77 0 139.5 -34t100 -98.5t37.5 -157.5q0 -78 -22 -148.5t-65.5 -124.5t-107 -85.5t-145.5 -31.5zM366 84q55 0 96.5 25.5t69.5 68t42 95.5t14 107q0 62 -22 106t-61.5 67t-92.5 23
q-55 0 -97 -25.5t-70.5 -68t-42.5 -95t-14 -107.5q0 -62 22 -106t62 -67t94 -23zM657 877q-11 -69 -47 -105t-82 -36q-26 0 -44 10t-31.5 23t-25.5 23t-27 10q-17 0 -30.5 -18t-20.5 -49h-73q12 70 47.5 106t81.5 36q25 0 43 -10t31.5 -23t26 -23t27.5 -10q17 0 30.5 18
t21.5 48h72zM677 1026l-17 -78h-328l18 78h327z" />
    <glyph glyph-name="uni022D" unicode="&#x22d;" horiz-adv-x="596" 
d="M282 -9q-74 0 -125.5 30t-79.5 81.5t-28 113.5q0 85 33.5 151t93 104t140.5 38q74 0 125.5 -30t78.5 -81t27 -114q0 -83 -32.5 -149.5t-92.5 -105t-140 -38.5zM284 75q33 0 61.5 16t50 45t33 67.5t11.5 82.5q0 40 -13.5 71t-42 49.5t-71.5 18.5q-33 0 -62 -16t-50 -44.5
t-33 -67t-12 -83.5q0 -38 14 -70t42.5 -50.5t71.5 -18.5zM549 717q-11 -69 -47 -105t-82 -36q-26 0 -44 10t-31.5 23t-25.5 23t-27 10q-17 0 -30.5 -18t-20.5 -49h-73q12 70 47.5 106t81.5 36q25 0 43 -10t31.5 -23t26 -23t27.5 -10q17 0 30.5 18t21.5 48h72zM568 866
l-17 -78h-328l18 78h327z" />
    <glyph glyph-name="uni0230" unicode="&#x230;" horiz-adv-x="739" 
d="M358 -10q-77 0 -141 33.5t-102 99t-38 157.5q0 79 23 149t66 124t107.5 85.5t147.5 31.5q77 0 139.5 -34t100 -98.5t37.5 -157.5q0 -78 -22 -148.5t-65.5 -124.5t-107 -85.5t-145.5 -31.5zM366 84q55 0 96.5 25.5t69.5 68t42 95.5t14 107q0 62 -22 106t-61.5 67t-92.5 23
q-55 0 -97 -25.5t-70.5 -68t-42.5 -95t-14 -107.5q0 -62 22 -106t62 -67t94 -23zM465 746q-28 0 -45.5 14.5t-17.5 41.5q0 36 21 56t53 20q29 0 46.5 -15t17.5 -41q0 -37 -21.5 -56.5t-53.5 -19.5zM679 1018l-17 -78h-328l18 78h327z" />
    <glyph glyph-name="uni0231" unicode="&#x231;" horiz-adv-x="596" 
d="M282 -9q-74 0 -125.5 30t-79.5 81.5t-28 113.5q0 85 33.5 151t93 104t140.5 38q74 0 125.5 -30t78.5 -81t27 -114q0 -83 -32.5 -149.5t-92.5 -105t-140 -38.5zM284 75q33 0 61.5 16t50 45t33 67.5t11.5 82.5q0 40 -13.5 71t-42 49.5t-71.5 18.5q-33 0 -62 -16t-50 -44.5
t-33 -67t-12 -83.5q0 -38 14 -70t42.5 -50.5t71.5 -18.5zM357 586q-28 0 -45.5 14.5t-17.5 41.5q0 36 21 56t53 20q29 0 46.5 -15t17.5 -41q0 -37 -21.5 -56.5t-53.5 -19.5zM571 858l-17 -78h-328l18 78h327z" />
    <glyph glyph-name="uni0232" unicode="&#x232;" horiz-adv-x="589" 
d="M183 0l59 254l-133 406h110l66 -215l27 -101l74 106l162 210h122l-322 -414l-58 -246h-107zM571 810l-17 -78h-328l18 78h327z" />
    <glyph glyph-name="uni0233" unicode="&#x233;" horiz-adv-x="520" 
d="M22 -215q-40 0 -70 9t-49 25l37 83q34 -31 79 -31q30 0 53.5 16t45.5 50l39 63l-88 500h107l36 -281l16 -124l66 118l163 287h118l-361 -581q-29 -48 -59.5 -77.5t-63.5 -43t-69 -13.5zM515 658l-17 -78h-328l18 78h327z" />
    <glyph glyph-name="uni0237" unicode="&#x237;" horiz-adv-x="267" 
d="M-46 -215q-33 0 -64.5 8.5t-50.5 26.5l31 84q14 -11 31.5 -18.5t35.5 -7.5q29 0 46 16t27 61l128 545h107l-131 -566q-18 -78 -61.5 -113.5t-98.5 -35.5z" />
    <glyph glyph-name="uni0259" unicode="&#x259;" horiz-adv-x="575" 
d="M255 -9q-65 0 -111 25.5t-70.5 70t-24.5 99.5q0 20 4 43t12 51h400v-73h-345l39 21q-4 -13 -5 -24.5t-1 -21.5q0 -33 12.5 -57t37 -37t57.5 -13q46 0 76.5 18.5t50 50t28.5 69.5t9 76q0 40 -15.5 70.5t-42.5 48t-64 17.5q-52 0 -84.5 -24.5t-49.5 -57.5l-85 44
q32 51 85.5 86.5t140.5 35.5q64 0 112.5 -28.5t76 -79.5t27.5 -118q0 -79 -32 -146t-92 -106.5t-146 -39.5z" />
    <glyph glyph-name="uni02B9" unicode="&#x2b9;" horiz-adv-x="518" 
d="M411 686l-130 -256h-84l103 256h111z" />
    <glyph glyph-name="uni02BA" unicode="&#x2ba;" horiz-adv-x="422" 
d="M485 686l-130 -256h-84l103 256h111zM303 686l-130 -256h-84l103 256h111z" />
    <glyph glyph-name="uni02BB" unicode="&#x2bb;" horiz-adv-x="517" 
d="M381 776l-84 -196h-111l118 196h77z" />
    <glyph glyph-name="uni02BC" unicode="&#x2bc;" horiz-adv-x="600" 
d="M223 696q36 0 56 -24t20 -62q0 -42 -21.5 -84t-61.5 -73.5t-96 -43.5l-29 53q39 7 66.5 21t45 34.5t25.5 42.5l-2 2q-5 -4 -10.5 -5.5t-16.5 -1.5q-26 0 -41 19t-15 43q0 36 23 57.5t57 21.5z" />
    <glyph glyph-name="uni02BE" unicode="&#x2be;" horiz-adv-x="320" 
d="M206 725q40 0 68.5 -16.5t43.5 -43.5t15 -60q0 -66 -44 -104.5t-115 -38.5h-49l16 65h44q35 0 56.5 19.5t21.5 53.5q0 29 -20 44.5t-50 15.5h-22l15 65h20z" />
    <glyph glyph-name="uni02BF" unicode="&#x2bf;" horiz-adv-x="320" 
d="M273 462q-40 0 -68.5 16.5t-43.5 43.5t-15 60q0 66 44 104.5t115 38.5h49l-16 -65h-44q-35 0 -56.5 -19.5t-21.5 -53.5q0 -29 20 -44.5t50 -15.5h22l-15 -65h-20z" />
    <glyph glyph-name="circumflex" unicode="&#x2c6;" horiz-adv-x="582" 
d="M197 571l151 169h112l74 -169h-83l-57 106l-104 -106h-93z" />
    <glyph glyph-name="caron" unicode="&#x2c7;" horiz-adv-x="500" 
d="M269 578l-74 168h83l57 -106l104 106h94l-152 -168h-112z" />
    <glyph glyph-name="uni02C8" unicode="&#x2c8;" horiz-adv-x="218" 
d="M175 725h88l-61 -262h-87z" />
    <glyph glyph-name="uni02C9" unicode="&#x2c9;" horiz-adv-x="500" 
d="M509 666l-17 -78h-328l18 78h327z" />
    <glyph glyph-name="uni02CA" unicode="&#x2ca;" horiz-adv-x="517" 
d="M352 746h116l-144 -168h-90z" />
    <glyph glyph-name="uni02CB" unicode="&#x2cb;" horiz-adv-x="518" 
d="M378 746l41 -168h-78l-66 168h103z" />
    <glyph glyph-name="uni02CC" unicode="&#x2cc;" horiz-adv-x="218" 
d="M21 60h88l-61 -262h-87z" />
    <glyph glyph-name="breve" unicode="&#x2d8;" horiz-adv-x="500" 
d="M514 723q-11 -69 -59 -111t-119 -42q-62 0 -98.5 34t-36.5 85q0 8 1 16.5t3 17.5h74q-1 -5 -1.5 -10t-0.5 -9q0 -30 18.5 -46.5t49.5 -16.5q35 0 59.5 20.5t31.5 61.5h78z" />
    <glyph glyph-name="dotaccent" unicode="&#x2d9;" horiz-adv-x="500" 
d="M337 586q-28 0 -45.5 14.5t-17.5 41.5q0 36 21 56t53 20q29 0 46.5 -15t17.5 -41q0 -37 -21.5 -56.5t-53.5 -19.5z" />
    <glyph glyph-name="ring" unicode="&#x2da;" horiz-adv-x="500" 
d="M357 810q54 0 88 -31.5t34 -78.5q0 -57 -38 -94t-95 -37q-54 0 -88 31.5t-34 77.5q0 57 37.5 94.5t95.5 37.5zM355 753q-28 0 -47.5 -18.5t-19.5 -50.5q0 -25 17.5 -41.5t43.5 -16.5q27 0 46 18.5t19 50.5q0 25 -16 41.5t-43 16.5z" />
    <glyph glyph-name="ogonek" unicode="&#x2db;" horiz-adv-x="509" 
d="M194 -218q-31 0 -58 11t-43.5 34t-16.5 57q0 35 18 62t56 48t98 37l44 -29q-36 -12 -67.5 -26.5t-50.5 -33.5t-19 -45q0 -27 19 -37t40 -10q12 0 20.5 2t18.5 5l-6 -66q-12 -5 -25.5 -7t-27.5 -2z" />
    <glyph glyph-name="tilde" unicode="&#x2dc;" horiz-adv-x="500" 
d="M532 717q-11 -69 -47 -105t-82 -36q-26 0 -44 10t-31.5 23t-25.5 23t-27 10q-17 0 -30.5 -18t-20.5 -49h-73q12 70 47.5 106t81.5 36q25 0 43 -10t31.5 -23t26 -23t27.5 -10q17 0 30.5 18t21.5 48h72z" />
    <glyph glyph-name="hungarumlaut" unicode="&#x2dd;" horiz-adv-x="500" 
d="M325 578l120 168h112l-144 -168h-88zM134 578l120 168h112l-144 -168h-88z" />
    <glyph glyph-name="gravecomb" unicode="&#x300;" horiz-adv-x="0" 
d="M79 746l41 -168h-78l-66 168h103z" />
    <glyph glyph-name="acutecomb" unicode="&#x301;" horiz-adv-x="0" 
d="M132 746h116l-144 -168h-90z" />
    <glyph glyph-name="uni0302" unicode="&#x302;" horiz-adv-x="0" 
d="M-98 571l151 169h112l74 -169h-83l-57 106l-104 -106h-93z" />
    <glyph glyph-name="tildecomb" unicode="&#x303;" horiz-adv-x="0" 
d="M278 717q-11 -69 -47 -105t-82 -36q-26 0 -44 10t-31.5 23t-25.5 23t-27 10q-17 0 -30.5 -18t-20.5 -49h-73q12 70 47.5 106t81.5 36q25 0 43 -10t31.5 -23t26 -23t27.5 -10q17 0 30.5 18t21.5 48h72z" />
    <glyph glyph-name="uni0304" unicode="&#x304;" horiz-adv-x="0" 
d="M257 666l-17 -78h-328l18 78h327z" />
    <glyph glyph-name="uni0306" unicode="&#x306;" horiz-adv-x="0" 
d="M264 723q-11 -69 -59 -111t-119 -42q-62 0 -98.5 34t-36.5 85q0 8 1 16.5t3 17.5h74q-1 -5 -1.5 -10t-0.5 -9q0 -30 18.5 -46.5t49.5 -16.5q35 0 59.5 20.5t31.5 61.5h78z" />
    <glyph glyph-name="uni0307" unicode="&#x307;" horiz-adv-x="0" 
d="M86 586q-28 0 -45.5 14.5t-17.5 41.5q0 36 21 56t53 20q29 0 46.5 -15t17.5 -41q0 -37 -21.5 -56.5t-53.5 -19.5z" />
    <glyph glyph-name="uni0308" unicode="&#x308;" horiz-adv-x="0" 
d="M182 574q-26 0 -42.5 14.5t-16.5 38.5q0 35 20.5 54t51.5 19q26 0 42.5 -14.5t16.5 -38.5q0 -36 -20.5 -54.5t-51.5 -18.5zM-20 574q-26 0 -42.5 14.5t-16.5 38.5q0 35 20.5 54t51.5 19q26 0 42 -14.5t16 -38.5q0 -36 -20 -54.5t-51 -18.5z" />
    <glyph glyph-name="hookabovecomb" unicode="&#x309;" horiz-adv-x="0" 
d="M342 551l-15 49q34 5 51.5 21t17.5 34t-11 25.5t-25 7.5q-13 0 -25.5 -6.5t-23.5 -17.5l-42 46q18 22 45 35.5t60 13.5q43 0 70 -23.5t27 -66.5q0 -29 -14.5 -54t-43.5 -41.5t-71 -22.5z" />
    <glyph glyph-name="uni030A" unicode="&#x30a;" horiz-adv-x="0" 
d="M100 810q54 0 88 -31.5t34 -78.5q0 -57 -38 -94t-95 -37q-54 0 -88 31.5t-34 77.5q0 57 37.5 94.5t95.5 37.5zM98 753q-28 0 -47.5 -18.5t-19.5 -50.5q0 -25 17.5 -41.5t43.5 -16.5q27 0 46 18.5t19 50.5q0 25 -16 41.5t-43 16.5z" />
    <glyph glyph-name="uni030B" unicode="&#x30b;" horiz-adv-x="0" 
d="M122 578l120 168h112l-144 -168h-88zM-69 578l120 168h112l-144 -168h-88z" />
    <glyph glyph-name="uni030C" unicode="&#x30c;" horiz-adv-x="0" 
d="M13 578l-74 168h83l57 -106l104 106h94l-152 -168h-112z" />
    <glyph glyph-name="uni030F" unicode="&#x30f;" horiz-adv-x="0" 
d="M-13 746l44 -168h-76l-66 168h98zM160 746l44 -168h-77l-65 168h98z" />
    <glyph glyph-name="uni0311" unicode="&#x311;" horiz-adv-x="0" 
d="M-86 570q9 67 54.5 110t117.5 43q65 0 102.5 -35t37.5 -87q0 -7 -1 -14.5t-3 -16.5h-75q2 6 2.5 10.5t0.5 8.5q0 32 -21.5 47.5t-48.5 15.5q-41 0 -62 -23t-26 -59h-78z" />
    <glyph glyph-name="uni0312" unicode="&#x312;" horiz-adv-x="0" 
d="M470 776l-84 -196h-111l118 196h77z" />
    <glyph glyph-name="uni031B" unicode="&#x31b;" horiz-adv-x="0" 
d="M330 444l-24 56q31 0 56 25.5t38 90.5h83q-9 -66 -33 -103.5t-55 -53t-65 -15.5z" />
    <glyph glyph-name="dotbelowcomb" unicode="&#x323;" horiz-adv-x="0" 
d="M-96 -218q-28 0 -45.5 15t-17.5 41q0 37 21 56.5t53 19.5q29 0 46.5 -15t17.5 -40q0 -37 -21.5 -57t-53.5 -20z" />
    <glyph glyph-name="uni0324" unicode="&#x324;" horiz-adv-x="0" 
d="M4 -200q-26 0 -42.5 14.5t-16.5 38.5q0 35 20.5 54t51.5 19q26 0 42.5 -14.5t16.5 -38.5q0 -36 -20.5 -54.5t-51.5 -18.5zM-198 -200q-26 0 -42.5 14.5t-16.5 38.5q0 35 20.5 54t51.5 19q26 0 42 -14.5t16 -38.5q0 -36 -20 -54.5t-51 -18.5z" />
    <glyph glyph-name="uni0326" unicode="&#x326;" horiz-adv-x="0" 
d="M-14 -71l-104 -167h-83l78 167h109z" />
    <glyph glyph-name="uni0327" unicode="&#x327;" horiz-adv-x="0" 
d="M-98 6l46 23q47 -17 72.5 -46t25.5 -71q0 -41 -18.5 -69.5t-49 -43.5t-66.5 -15q-35 0 -63 13.5t-42 30.5l35 57q14 -15 32.5 -22t37.5 -7q28 0 45.5 18t17.5 45q0 29 -18.5 49.5t-54.5 37.5z" />
    <glyph glyph-name="uni0328" unicode="&#x328;" horiz-adv-x="0" 
d="M-155 -218q-31 0 -58 11t-43.5 34t-16.5 57q0 35 18 62t56 48t98 37l44 -29q-36 -12 -67.5 -26.5t-50.5 -33.5t-19 -45q0 -27 19 -37t40 -10q12 0 20.5 2t18.5 5l-6 -66q-12 -5 -25.5 -7t-27.5 -2z" />
    <glyph glyph-name="uni032E" unicode="&#x32e;" horiz-adv-x="0" 
d="M81 -70q-11 -69 -59 -111t-119 -42q-62 0 -98.5 34t-36.5 85q0 8 1 16.5t3 17.5h74q-1 -5 -1.5 -10t-0.5 -9q0 -30 18.5 -46.5t49.5 -16.5q35 0 59.5 20.5t31.5 61.5h78z" />
    <glyph glyph-name="uni0331" unicode="&#x331;" horiz-adv-x="0" 
d="M86 -88l-17 -78h-328l18 78h327z" />
    <glyph glyph-name="uni0335" unicode="&#x335;" horiz-adv-x="0" 
d="M236 366l-16 -71h-419l16 71h419z" />
    <glyph glyph-name="uni0338" unicode="&#x338;" horiz-adv-x="0" 
d="M6 -25l509 551h72l-508 -551h-73z" />
    <glyph glyph-name="uni03A9" unicode="&#x3a9;" horiz-adv-x="749" 
d="M22 0l20 86h200l-18 -14q-41 20 -72.5 56t-48.5 83.5t-17 99.5q0 72 22.5 137t66 115t107.5 78.5t145 28.5q76 0 139.5 -32.5t101.5 -95t38 -153.5q0 -70 -24.5 -133.5t-70 -110.5t-112.5 -71l-12 12h192l-20 -86h-267l20 88q44 8 78.5 36.5t57.5 69.5t34.5 90t11.5 97
q0 62 -22 106t-61.5 67t-93.5 23q-56 0 -98 -23.5t-70.5 -63.5t-42.5 -90.5t-14 -102.5q0 -50 14.5 -92.5t41 -72t62.5 -40.5l-21 -92h-267z" />
    <glyph glyph-name="uni03BC" unicode="&#x3bc;" horiz-adv-x="608" 
d="M-26 -210l164 710h107l-69 -297q-14 -59 11 -91t76 -32q41 0 71.5 17.5t51.5 52t32 85.5l62 265h107l-116 -500h-95l13 79q-25 -43 -67.5 -65t-92.5 -22q-32 0 -64 11.5t-53 38.5l31 16l-62 -268h-107z" />
    <glyph glyph-name="pi" unicode="&#x3c0;" horiz-adv-x="740" 
d="M102 0l97 418h-133l19 82h676l-20 -82h-132l-63 -276q-5 -18 0 -34t25.5 -24t63.5 -4l-35 -81q-71 -7 -110.5 7.5t-51.5 49.5t0 87l64 275h-196l-97 -418h-107z" />
    <glyph glyph-name="uni1E08" unicode="&#x1e08;" horiz-adv-x="678" 
d="M361 -10q-79 0 -144 32.5t-103 96t-38 155.5q0 77 22 147.5t66 126.5t108.5 89t148.5 33q66 0 117.5 -21.5t86.5 -64.5t51 -108l-109 -31q-13 70 -51 101t-102 31q-56 0 -98.5 -26.5t-71 -69t-43 -95t-14.5 -105.5q0 -62 23.5 -106t64.5 -68t93 -24q61 0 96.5 27t59.5 73
l100 -44q-41 -68 -104 -108.5t-159 -40.5zM289 6l46 23q47 -17 72.5 -46t25.5 -71q0 -41 -18.5 -69.5t-49 -43.5t-66.5 -15q-35 0 -63 13.5t-42 30.5l35 57q14 -15 32.5 -22t37.5 -7q28 0 45.5 18t17.5 45q0 29 -18.5 49.5t-54.5 37.5zM493 897h113l-123 -160h-86z" />
    <glyph glyph-name="uni1E09" unicode="&#x1e09;" horiz-adv-x="545" 
d="M280 -9q-72 0 -123.5 30t-79 81.5t-27.5 114.5q0 85 33.5 150.5t94 103.5t142.5 38q60 0 105.5 -20.5t73 -57.5t33.5 -84l-107 -22q-2 42 -28.5 71t-80.5 29q-35 0 -64 -16.5t-50.5 -45t-33 -67t-11.5 -82.5q0 -40 15 -71.5t43.5 -49.5t70.5 -18q35 0 66 19.5t44 56.5
l100 -35q-27 -60 -84 -92.5t-132 -32.5zM195 7l46 23q47 -17 72.5 -46t25.5 -71q0 -41 -18.5 -69.5t-49 -43.5t-66.5 -15q-35 0 -63 13.5t-42 30.5l35 57q14 -15 32.5 -22t37.5 -7q28 0 45.5 18t17.5 45q0 29 -18.5 49.5t-54.5 37.5zM404 746h116l-144 -168h-90z" />
    <glyph glyph-name="uni1E0C" unicode="&#x1e0c;" horiz-adv-x="707" 
d="M37 0l153 660h204q87 0 148.5 -34.5t94 -95.5t32.5 -140q0 -84 -26 -155t-75 -124t-117.5 -82t-152.5 -29h-261zM166 91h139q59 0 106 24t79 65t49 93t17 108q0 54 -19 96.5t-57.5 67t-98.5 24.5h-104zM249 -218q-28 0 -45.5 15t-17.5 41q0 37 21 56.5t53 19.5
q29 0 46.5 -15t17.5 -40q0 -37 -21.5 -57t-53.5 -20z" />
    <glyph glyph-name="uni1E0D" unicode="&#x1e0d;" horiz-adv-x="617" 
d="M237 -8q-55 0 -98 26.5t-67 74.5t-24 113q0 61 18.5 116t52 97.5t80 66.5t101.5 24q41 0 74.5 -14t56.5 -41t31 -66l77 336h107l-167 -725h-95l17 93q-25 -46 -68.5 -73.5t-95.5 -27.5zM273 77q33 0 62 17t50 47t33.5 69.5t12.5 82.5q0 40 -14.5 69.5t-40 45.5t-60.5 16
q-37 0 -66.5 -17t-51 -46.5t-33.5 -68t-12 -80.5q0 -43 14 -73t41 -46t65 -16zM206 -218q-28 0 -45.5 15t-17.5 41q0 37 21 56.5t53 19.5q29 0 46.5 -15t17.5 -40q0 -37 -21.5 -57t-53.5 -20z" />
    <glyph glyph-name="uni1E0E" unicode="&#x1e0e;" horiz-adv-x="707" 
d="M37 0l153 660h204q87 0 148.5 -34.5t94 -95.5t32.5 -140q0 -84 -26 -155t-75 -124t-117.5 -82t-152.5 -29h-261zM166 91h139q59 0 106 24t79 65t49 93t17 108q0 54 -19 96.5t-57.5 67t-98.5 24.5h-104zM431 -88l-17 -78h-328l18 78h327z" />
    <glyph glyph-name="uni1E0F" unicode="&#x1e0f;" horiz-adv-x="617" 
d="M237 -8q-55 0 -98 26.5t-67 74.5t-24 113q0 61 18.5 116t52 97.5t80 66.5t101.5 24q41 0 74.5 -14t56.5 -41t31 -66l77 336h107l-167 -725h-95l17 93q-25 -46 -68.5 -73.5t-95.5 -27.5zM273 77q33 0 62 17t50 47t33.5 69.5t12.5 82.5q0 40 -14.5 69.5t-40 45.5t-60.5 16
q-37 0 -66.5 -17t-51 -46.5t-33.5 -68t-12 -80.5q0 -43 14 -73t41 -46t65 -16zM388 -88l-17 -78h-328l18 78h327z" />
    <glyph glyph-name="uni1E14" unicode="&#x1e14;" horiz-adv-x="625" 
d="M37 0l153 660h471l-22 -92h-363l-44 -190h285l-20 -90h-285l-45 -196h377l-22 -92h-485zM619 826l-17 -78h-328l18 78h327zM484 1061l38 -160h-74l-65 160h101z" />
    <glyph glyph-name="uni1E15" unicode="&#x1e15;" horiz-adv-x="575" 
d="M278 -9q-71 0 -122 29.5t-79 80.5t-28 115q0 80 32 146.5t93 106.5t147 40q64 0 110 -26t70 -72.5t24 -108.5q0 -20 -2.5 -41t-9.5 -42h-403v82h345l-39 -28q4 12 5 23.5t1 21.5q0 33 -12.5 57t-36.5 37t-57 13q-45 0 -76.5 -18.5t-50.5 -50t-27 -69.5t-8 -75
q0 -42 16.5 -72.5t46 -47.5t69.5 -17q47 0 76.5 20t47.5 51l86 -46q-20 -34 -52.5 -58.5t-74 -37.5t-91.5 -13zM522 666l-17 -78h-328l18 78h327zM387 901l38 -160h-74l-65 160h101z" />
    <glyph glyph-name="uni1E16" unicode="&#x1e16;" horiz-adv-x="625" 
d="M37 0l153 660h471l-22 -92h-363l-44 -190h285l-20 -90h-285l-45 -196h377l-22 -92h-485zM619 826l-17 -78h-328l18 78h327zM518 1061h113l-123 -160h-86z" />
    <glyph glyph-name="uni1E17" unicode="&#x1e17;" horiz-adv-x="575" 
d="M278 -9q-71 0 -122 29.5t-79 80.5t-28 115q0 80 32 146.5t93 106.5t147 40q64 0 110 -26t70 -72.5t24 -108.5q0 -20 -2.5 -41t-9.5 -42h-403v82h345l-39 -28q4 12 5 23.5t1 21.5q0 33 -12.5 57t-36.5 37t-57 13q-45 0 -76.5 -18.5t-50.5 -50t-27 -69.5t-8 -75
q0 -42 16.5 -72.5t46 -47.5t69.5 -17q47 0 76.5 20t47.5 51l86 -46q-20 -34 -52.5 -58.5t-74 -37.5t-91.5 -13zM522 666l-17 -78h-328l18 78h327zM421 901h113l-123 -160h-86z" />
    <glyph glyph-name="uni1E1C" unicode="&#x1e1c;" horiz-adv-x="625" 
d="M37 0l153 660h471l-22 -92h-363l-44 -190h285l-20 -90h-285l-45 -196h377l-22 -92h-485zM259 6l46 23q47 -17 72.5 -46t25.5 -71q0 -41 -18.5 -69.5t-49 -43.5t-66.5 -15q-35 0 -63 13.5t-42 30.5l35 57q14 -15 32.5 -22t37.5 -7q28 0 45.5 18t17.5 45q0 29 -18.5 49.5
t-54.5 37.5zM617 883q-11 -69 -59 -111t-119 -42q-62 0 -98.5 34t-36.5 85q0 8 1 16.5t3 17.5h74q-1 -5 -1.5 -10t-0.5 -9q0 -30 18.5 -46.5t49.5 -16.5q35 0 59.5 20.5t31.5 61.5h78z" />
    <glyph glyph-name="uni1E1D" unicode="&#x1e1d;" horiz-adv-x="575" 
d="M278 -9q-71 0 -122 29.5t-79 80.5t-28 115q0 80 32 146.5t93 106.5t147 40q64 0 110 -26t70 -72.5t24 -108.5q0 -20 -2.5 -41t-9.5 -42h-403v82h345l-39 -28q4 12 5 23.5t1 21.5q0 33 -12.5 57t-36.5 37t-57 13q-45 0 -76.5 -18.5t-50.5 -50t-27 -69.5t-8 -75
q0 -42 16.5 -72.5t46 -47.5t69.5 -17q47 0 76.5 20t47.5 51l86 -46q-20 -34 -52.5 -58.5t-74 -37.5t-91.5 -13zM222 6l46 23q47 -17 72.5 -46t25.5 -71q0 -41 -18.5 -69.5t-49 -43.5t-66.5 -15q-35 0 -63 13.5t-42 30.5l35 57q14 -15 32.5 -22t37.5 -7q28 0 45.5 18t17.5 45
q0 29 -18.5 49.5t-54.5 37.5zM523 723q-11 -69 -59 -111t-119 -42q-62 0 -98.5 34t-36.5 85q0 8 1 16.5t3 17.5h74q-1 -5 -1.5 -10t-0.5 -9q0 -30 18.5 -46.5t49.5 -16.5q35 0 59.5 20.5t31.5 61.5h78z" />
    <glyph glyph-name="uni1E20" unicode="&#x1e20;" horiz-adv-x="709" 
d="M337 -8q-71 0 -130.5 33.5t-95 97.5t-35.5 153q0 77 23 148t67.5 126.5t109.5 87.5t150 32q64 0 117.5 -19t91.5 -59.5t54 -107.5l-105 -29q-15 65 -57 94t-105 29q-57 0 -100.5 -24.5t-73.5 -66t-45.5 -94t-15.5 -107.5q0 -63 21.5 -108.5t61 -69.5t94.5 -24
q51 0 88 17.5t60.5 48t34.5 71.5l7 28h-192l20 86h282l-83 -335h-78l29 139l11 -13q-19 -43 -47.5 -73t-68 -45.5t-90.5 -15.5zM644 826l-17 -78h-328l18 78h327z" />
    <glyph glyph-name="uni1E21" unicode="&#x1e21;" horiz-adv-x="614" 
d="M212 -215q-43 0 -82 11.5t-68.5 33t-48 52.5t-23.5 70l107 26q8 -52 35.5 -81.5t89.5 -29.5q34 0 64 13t53 43.5t35 86.5l28 127l12 8q-15 -61 -62 -97t-111 -36q-56 0 -100 27t-69.5 75t-25.5 108q0 62 18.5 114t52 91.5t79.5 61t101 21.5q47 0 84 -18.5t59.5 -54
t23.5 -86.5l-16 -13l37 162h107l-115 -492q-18 -81 -55.5 -129.5t-90.5 -71t-119 -22.5zM278 97q43 0 76.5 26.5t53.5 71.5t20 100q0 40 -14 68.5t-40.5 44.5t-61.5 16q-48 0 -83.5 -25.5t-55.5 -69.5t-20 -100q0 -58 32.5 -95t92.5 -37zM533 666l-17 -78h-328l18 78h327z
" />
    <glyph glyph-name="uni1E24" unicode="&#x1e24;" horiz-adv-x="724" 
d="M724 660l-153 -660h-108l153 660h108zM298 660l-153 -660h-108l153 660h108zM605 380l-21 -92h-425l21 92h425zM271 -218q-28 0 -45.5 15t-17.5 41q0 37 21 56.5t53 19.5q29 0 46.5 -15t17.5 -40q0 -37 -21.5 -57t-53.5 -20z" />
    <glyph glyph-name="uni1E25" unicode="&#x1e25;" horiz-adv-x="603" 
d="M22 0l168 725h107l-76 -329l-16 -12q13 40 41 68t65.5 43t81.5 15q54 0 93 -24.5t55.5 -69.5t2.5 -109l-72 -307h-107l70 300q13 57 -11 89.5t-76 32.5q-40 0 -71.5 -18t-52.5 -52.5t-34 -86.5l-61 -265h-107zM214 -218q-28 0 -45.5 15t-17.5 41q0 37 21 56.5t53 19.5
q29 0 46.5 -15t17.5 -40q0 -37 -21.5 -57t-53.5 -20z" />
    <glyph glyph-name="uni1E2A" unicode="&#x1e2a;" horiz-adv-x="724" 
d="M724 660l-153 -660h-108l153 660h108zM298 660l-153 -660h-108l153 660h108zM605 380l-21 -92h-425l21 92h425zM448 -70q-11 -69 -59 -111t-119 -42q-62 0 -98.5 34t-36.5 85q0 8 1 16.5t3 17.5h74q-1 -5 -1.5 -10t-0.5 -9q0 -30 18.5 -46.5t49.5 -16.5q35 0 59.5 20.5
t31.5 61.5h78z" />
    <glyph glyph-name="uni1E2B" unicode="&#x1e2b;" horiz-adv-x="603" 
d="M22 0l168 725h107l-76 -329l-16 -12q13 40 41 68t65.5 43t81.5 15q54 0 93 -24.5t55.5 -69.5t2.5 -109l-72 -307h-107l70 300q13 57 -11 89.5t-76 32.5q-40 0 -71.5 -18t-52.5 -52.5t-34 -86.5l-61 -265h-107zM391 -70q-11 -69 -59 -111t-119 -42q-62 0 -98.5 34
t-36.5 85q0 8 1 16.5t3 17.5h74q-1 -5 -1.5 -10t-0.5 -9q0 -30 18.5 -46.5t49.5 -16.5q35 0 59.5 20.5t31.5 61.5h78z" />
    <glyph glyph-name="uni1E2E" unicode="&#x1e2e;" horiz-adv-x="298" 
d="M298 660l-153 -660h-108l153 660h108zM368 734q-26 0 -42.5 14.5t-16.5 38.5q0 35 20.5 54t51.5 19q26 0 42.5 -14.5t16.5 -38.5q0 -36 -20.5 -54.5t-51.5 -18.5zM166 734q-26 0 -42.5 14.5t-16.5 38.5q0 35 20.5 54t51.5 19q26 0 42 -14.5t16 -38.5q0 -36 -20 -54.5
t-51 -18.5zM344 1072h113l-123 -160h-86z" />
    <glyph glyph-name="uni1E2F" unicode="&#x1e2f;" horiz-adv-x="267" 
d="M245 500l-116 -500h-107l116 500h107zM315 574q-26 0 -42.5 14.5t-16.5 38.5q0 35 20.5 54t51.5 19q26 0 42.5 -14.5t16.5 -38.5q0 -36 -20.5 -54.5t-51.5 -18.5zM113 574q-26 0 -42.5 14.5t-16.5 38.5q0 35 20.5 54t51.5 19q26 0 42 -14.5t16 -38.5q0 -36 -20 -54.5
t-51 -18.5zM292 912h113l-123 -160h-86z" />
    <glyph glyph-name="uni1E36" unicode="&#x1e36;" horiz-adv-x="591" 
d="M166 92h360l-22 -92h-467l153 660h108zM251 -218q-28 0 -45.5 15t-17.5 41q0 37 21 56.5t53 19.5q29 0 46.5 -15t17.5 -40q0 -37 -21.5 -57t-53.5 -20z" />
    <glyph glyph-name="uni1E37" unicode="&#x1e37;" horiz-adv-x="311" 
d="M172 -8q-75 0 -105 44t-13 116l133 573h107l-133 -574q-10 -39 5 -56.5t52 -17.5q14 0 24.5 1t18.5 3l-23 -78q-16 -6 -30.5 -8.5t-35.5 -2.5zM104 -218q-28 0 -45.5 15t-17.5 41q0 37 21 56.5t53 19.5q29 0 46.5 -15t17.5 -40q0 -37 -21.5 -57t-53.5 -20z" />
    <glyph glyph-name="uni1E3A" unicode="&#x1e3a;" horiz-adv-x="591" 
d="M166 92h360l-22 -92h-467l153 660h108zM433 -88l-17 -78h-328l18 78h327z" />
    <glyph glyph-name="uni1E3B" unicode="&#x1e3b;" horiz-adv-x="311" 
d="M-32 -166l17 78h238l-17 -78h-238zM172 -8q-75 0 -105 44t-13 116l133 573h107l-133 -574q-10 -39 5 -56.5t52 -17.5q14 0 24.5 1t18.5 3l-23 -78q-16 -6 -30.5 -8.5t-35.5 -2.5z" />
    <glyph glyph-name="uni1E42" unicode="&#x1e42;" horiz-adv-x="857" 
d="M37 0l153 660h146l44 -383l12 -156h1l81 155l219 384h164l-153 -660h-98l88 382l46 180h-2l-326 -562h-87l-67 560h-1l-33 -178l-88 -382h-99zM341 -218q-28 0 -45.5 15t-17.5 41q0 37 21 56.5t53 19.5q29 0 46.5 -15t17.5 -40q0 -37 -21.5 -57t-53.5 -20z" />
    <glyph glyph-name="uni1E43" unicode="&#x1e43;" horiz-adv-x="934" 
d="M22 0l116 500h94l-21 -126l-10 7q21 64 73 96.5t116 32.5q53 0 91 -24.5t53.5 -70.5t-0.5 -111l-71 -304h-107l70 298q14 58 -8.5 91t-71.5 33q-40 0 -71 -18t-51.5 -52.5t-33.5 -86.5l-61 -265h-107zM691 0l69 298q13 58 -9 91t-70 33q-41 0 -71.5 -18t-51.5 -52.5
t-33 -86.5l-10 97q27 74 83.5 111t125.5 37q53 0 91 -24.5t53.5 -70.5t0.5 -111l-71 -304h-107zM372 -218q-28 0 -45.5 15t-17.5 41q0 37 21 56.5t53 19.5q29 0 46.5 -15t17.5 -40q0 -37 -21.5 -57t-53.5 -20z" />
    <glyph glyph-name="uni1E44" unicode="&#x1e44;" horiz-adv-x="724" 
d="M37 0l153 660h122l151 -417l39 -125h1l23 116l99 426h99l-153 -660h-121l-154 416l-38 124h-1l-22 -114l-99 -426h-99zM479 746q-28 0 -45.5 14.5t-17.5 41.5q0 36 21 56t53 20q29 0 46.5 -15t17.5 -41q0 -37 -21.5 -56.5t-53.5 -19.5z" />
    <glyph glyph-name="uni1E45" unicode="&#x1e45;" horiz-adv-x="603" 
d="M22 0l116 500h94l-21 -126l-10 7q21 64 74 96.5t117 32.5q56 0 95 -24.5t55 -70t1 -110.5l-71 -305h-107l70 300q13 57 -11 89.5t-76 32.5q-40 0 -71.5 -18t-52.5 -52.5t-34 -86.5l-61 -265h-107zM389 586q-28 0 -45.5 14.5t-17.5 41.5q0 36 21 56t53 20q29 0 46.5 -15
t17.5 -41q0 -37 -21.5 -56.5t-53.5 -19.5z" />
    <glyph glyph-name="uni1E46" unicode="&#x1e46;" horiz-adv-x="724" 
d="M37 0l153 660h122l151 -417l39 -125h1l23 116l99 426h99l-153 -660h-121l-154 416l-38 124h-1l-22 -114l-99 -426h-99zM286 -218q-28 0 -45.5 15t-17.5 41q0 37 21 56.5t53 19.5q29 0 46.5 -15t17.5 -40q0 -37 -21.5 -57t-53.5 -20z" />
    <glyph glyph-name="uni1E47" unicode="&#x1e47;" horiz-adv-x="603" 
d="M22 0l116 500h94l-21 -126l-10 7q21 64 74 96.5t117 32.5q56 0 95 -24.5t55 -70t1 -110.5l-71 -305h-107l70 300q13 57 -11 89.5t-76 32.5q-40 0 -71.5 -18t-52.5 -52.5t-34 -86.5l-61 -265h-107zM221 -218q-28 0 -45.5 15t-17.5 41q0 37 21 56.5t53 19.5q29 0 46.5 -15
t17.5 -40q0 -37 -21.5 -57t-53.5 -20z" />
    <glyph glyph-name="uni1E48" unicode="&#x1e48;" horiz-adv-x="724" 
d="M37 0l153 660h122l151 -417l39 -125h1l23 116l99 426h99l-153 -660h-121l-154 416l-38 124h-1l-22 -114l-99 -426h-99zM468 -88l-17 -78h-328l18 78h327z" />
    <glyph glyph-name="uni1E49" unicode="&#x1e49;" horiz-adv-x="603" 
d="M22 0l116 500h94l-21 -126l-10 7q21 64 74 96.5t117 32.5q56 0 95 -24.5t55 -70t1 -110.5l-71 -305h-107l70 300q13 57 -11 89.5t-76 32.5q-40 0 -71.5 -18t-52.5 -52.5t-34 -86.5l-61 -265h-107zM403 -88l-17 -78h-328l18 78h327z" />
    <glyph glyph-name="uni1E4C" unicode="&#x1e4c;" horiz-adv-x="739" 
d="M358 -10q-77 0 -141 33.5t-102 99t-38 157.5q0 79 23 149t66 124t107.5 85.5t147.5 31.5q77 0 139.5 -34t100 -98.5t37.5 -157.5q0 -78 -22 -148.5t-65.5 -124.5t-107 -85.5t-145.5 -31.5zM366 84q55 0 96.5 25.5t69.5 68t42 95.5t14 107q0 62 -22 106t-61.5 67t-92.5 23
q-55 0 -97 -25.5t-70.5 -68t-42.5 -95t-14 -107.5q0 -62 22 -106t62 -67t94 -23zM657 877q-11 -69 -47 -105t-82 -36q-26 0 -44 10t-31.5 23t-25.5 23t-27 10q-17 0 -30.5 -18t-20.5 -49h-73q12 70 47.5 106t81.5 36q25 0 43 -10t31.5 -23t26 -23t27.5 -10q17 0 30.5 18
t21.5 48h72zM535 1097h113l-123 -160h-86z" />
    <glyph glyph-name="uni1E4D" unicode="&#x1e4d;" horiz-adv-x="596" 
d="M282 -9q-74 0 -125.5 30t-79.5 81.5t-28 113.5q0 85 33.5 151t93 104t140.5 38q74 0 125.5 -30t78.5 -81t27 -114q0 -83 -32.5 -149.5t-92.5 -105t-140 -38.5zM284 75q33 0 61.5 16t50 45t33 67.5t11.5 82.5q0 40 -13.5 71t-42 49.5t-71.5 18.5q-33 0 -62 -16t-50 -44.5
t-33 -67t-12 -83.5q0 -38 14 -70t42.5 -50.5t71.5 -18.5zM549 717q-11 -69 -47 -105t-82 -36q-26 0 -44 10t-31.5 23t-25.5 23t-27 10q-17 0 -30.5 -18t-20.5 -49h-73q12 70 47.5 106t81.5 36q25 0 43 -10t31.5 -23t26 -23t27.5 -10q17 0 30.5 18t21.5 48h72zM426 937h113
l-123 -160h-86z" />
    <glyph glyph-name="uni1E4E" unicode="&#x1e4e;" horiz-adv-x="739" 
d="M358 -10q-77 0 -141 33.5t-102 99t-38 157.5q0 79 23 149t66 124t107.5 85.5t147.5 31.5q77 0 139.5 -34t100 -98.5t37.5 -157.5q0 -78 -22 -148.5t-65.5 -124.5t-107 -85.5t-145.5 -31.5zM366 84q55 0 96.5 25.5t69.5 68t42 95.5t14 107q0 62 -22 106t-61.5 67t-92.5 23
q-55 0 -97 -25.5t-70.5 -68t-42.5 -95t-14 -107.5q0 -62 22 -106t62 -67t94 -23zM657 877q-11 -69 -47 -105t-82 -36q-26 0 -44 10t-31.5 23t-25.5 23t-27 10q-17 0 -30.5 -18t-20.5 -49h-73q12 70 47.5 106t81.5 36q25 0 43 -10t31.5 -23t26 -23t27.5 -10q17 0 30.5 18
t21.5 48h72zM602 934q-26 0 -42.5 14.5t-16.5 38.5q0 35 20.5 54t51.5 19q26 0 42.5 -14.5t16.5 -38.5q0 -36 -20.5 -54.5t-51.5 -18.5zM400 934q-26 0 -42.5 14.5t-16.5 38.5q0 35 20.5 54t51.5 19q26 0 42 -14.5t16 -38.5q0 -36 -20 -54.5t-51 -18.5z" />
    <glyph glyph-name="uni1E4F" unicode="&#x1e4f;" horiz-adv-x="596" 
d="M282 -9q-74 0 -125.5 30t-79.5 81.5t-28 113.5q0 85 33.5 151t93 104t140.5 38q74 0 125.5 -30t78.5 -81t27 -114q0 -83 -32.5 -149.5t-92.5 -105t-140 -38.5zM284 75q33 0 61.5 16t50 45t33 67.5t11.5 82.5q0 40 -13.5 71t-42 49.5t-71.5 18.5q-33 0 -62 -16t-50 -44.5
t-33 -67t-12 -83.5q0 -38 14 -70t42.5 -50.5t71.5 -18.5zM549 717q-11 -69 -47 -105t-82 -36q-26 0 -44 10t-31.5 23t-25.5 23t-27 10q-17 0 -30.5 -18t-20.5 -49h-73q12 70 47.5 106t81.5 36q25 0 43 -10t31.5 -23t26 -23t27.5 -10q17 0 30.5 18t21.5 48h72zM493 774
q-26 0 -42.5 14.5t-16.5 38.5q0 35 20.5 54t51.5 19q26 0 42.5 -14.5t16.5 -38.5q0 -36 -20.5 -54.5t-51.5 -18.5zM291 774q-26 0 -42.5 14.5t-16.5 38.5q0 35 20.5 54t51.5 19q26 0 42 -14.5t16 -38.5q0 -36 -20 -54.5t-51 -18.5z" />
    <glyph glyph-name="uni1E50" unicode="&#x1e50;" horiz-adv-x="739" 
d="M358 -10q-77 0 -141 33.5t-102 99t-38 157.5q0 79 23 149t66 124t107.5 85.5t147.5 31.5q77 0 139.5 -34t100 -98.5t37.5 -157.5q0 -78 -22 -148.5t-65.5 -124.5t-107 -85.5t-145.5 -31.5zM366 84q55 0 96.5 25.5t69.5 68t42 95.5t14 107q0 62 -22 106t-61.5 67t-92.5 23
q-55 0 -97 -25.5t-70.5 -68t-42.5 -95t-14 -107.5q0 -62 22 -106t62 -67t94 -23zM636 826l-17 -78h-328l18 78h327zM501 1061l38 -160h-74l-65 160h101z" />
    <glyph glyph-name="uni1E51" unicode="&#x1e51;" horiz-adv-x="596" 
d="M282 -9q-74 0 -125.5 30t-79.5 81.5t-28 113.5q0 85 33.5 151t93 104t140.5 38q74 0 125.5 -30t78.5 -81t27 -114q0 -83 -32.5 -149.5t-92.5 -105t-140 -38.5zM284 75q33 0 61.5 16t50 45t33 67.5t11.5 82.5q0 40 -13.5 71t-42 49.5t-71.5 18.5q-33 0 -62 -16t-50 -44.5
t-33 -67t-12 -83.5q0 -38 14 -70t42.5 -50.5t71.5 -18.5zM528 666l-17 -78h-328l18 78h327zM393 901l38 -160h-74l-65 160h101z" />
    <glyph glyph-name="uni1E52" unicode="&#x1e52;" horiz-adv-x="739" 
d="M358 -10q-77 0 -141 33.5t-102 99t-38 157.5q0 79 23 149t66 124t107.5 85.5t147.5 31.5q77 0 139.5 -34t100 -98.5t37.5 -157.5q0 -78 -22 -148.5t-65.5 -124.5t-107 -85.5t-145.5 -31.5zM366 84q55 0 96.5 25.5t69.5 68t42 95.5t14 107q0 62 -22 106t-61.5 67t-92.5 23
q-55 0 -97 -25.5t-70.5 -68t-42.5 -95t-14 -107.5q0 -62 22 -106t62 -67t94 -23zM636 826l-17 -78h-328l18 78h327zM535 1061h113l-123 -160h-86z" />
    <glyph glyph-name="uni1E53" unicode="&#x1e53;" horiz-adv-x="596" 
d="M282 -9q-74 0 -125.5 30t-79.5 81.5t-28 113.5q0 85 33.5 151t93 104t140.5 38q74 0 125.5 -30t78.5 -81t27 -114q0 -83 -32.5 -149.5t-92.5 -105t-140 -38.5zM284 75q33 0 61.5 16t50 45t33 67.5t11.5 82.5q0 40 -13.5 71t-42 49.5t-71.5 18.5q-33 0 -62 -16t-50 -44.5
t-33 -67t-12 -83.5q0 -38 14 -70t42.5 -50.5t71.5 -18.5zM528 666l-17 -78h-328l18 78h327zM427 901h113l-123 -160h-86z" />
    <glyph glyph-name="uni1E5A" unicode="&#x1e5a;" horiz-adv-x="649" 
d="M37 0l153 660h236q93 0 147.5 -48t54.5 -134q0 -60 -28 -106t-74 -73.5t-101 -34.5l-46 -8h-191l20 89h165q49 0 81.5 17.5t48.5 47.5t16 66q0 46 -31.5 69.5t-84.5 23.5h-127l-132 -569h-107zM461 0l-112 282l103 15l122 -297h-113zM274 -218q-28 0 -45.5 15t-17.5 41
q0 37 21 56.5t53 19.5q29 0 46.5 -15t17.5 -40q0 -37 -21.5 -57t-53.5 -20z" />
    <glyph glyph-name="uni1E5B" unicode="&#x1e5b;" horiz-adv-x="399" 
d="M22 0l116 500h90l-16 -135l-11 10q16 42 43.5 72t63.5 46.5t75 16.5q16 0 28.5 -2t21.5 -7l-29 -96q-10 5 -22.5 7.5t-31.5 2.5q-36 0 -68 -16.5t-56 -50.5t-37 -89l-60 -259h-107zM42 -218q-28 0 -45.5 15t-17.5 41q0 37 21 56.5t53 19.5q29 0 46.5 -15t17.5 -40
q0 -37 -21.5 -57t-53.5 -20z" />
    <glyph glyph-name="uni1E5E" unicode="&#x1e5e;" horiz-adv-x="649" 
d="M37 0l153 660h236q93 0 147.5 -48t54.5 -134q0 -60 -28 -106t-74 -73.5t-101 -34.5l-46 -8h-191l20 89h165q49 0 81.5 17.5t48.5 47.5t16 66q0 46 -31.5 69.5t-84.5 23.5h-127l-132 -569h-107zM461 0l-112 282l103 15l122 -297h-113zM456 -88l-17 -78h-328l18 78h327z
" />
    <glyph glyph-name="uni1E5F" unicode="&#x1e5f;" horiz-adv-x="399" 
d="M-62 -166l18 78h228l-18 -78h-228zM22 0l116 500h90l-16 -135l-11 10q16 42 43.5 72t63.5 46.5t75 16.5q16 0 28.5 -2t21.5 -7l-29 -96q-10 5 -22.5 7.5t-31.5 2.5q-36 0 -68 -16.5t-56 -50.5t-37 -89l-60 -259h-107z" />
    <glyph glyph-name="uni1E60" unicode="&#x1e60;" horiz-adv-x="639" 
d="M335 -9q-72 0 -132.5 21.5t-104.5 62.5t-70 102l87 58q19 -54 53 -87.5t78.5 -49t93.5 -15.5q44 0 73 14.5t43.5 37.5t14.5 49q0 33 -21.5 51.5t-62.5 30.5l-104 30q-50 15 -85.5 39.5t-55 58t-19.5 75.5q0 58 31 104t86.5 72t130.5 26q99 0 165.5 -39t100.5 -117
l-88 -56q-15 48 -43.5 73.5t-64 35.5t-74.5 10q-44 0 -73.5 -12.5t-44 -34.5t-14.5 -48q0 -30 24 -54t65 -36l112 -34q74 -22 110.5 -61.5t36.5 -98.5q0 -64 -33.5 -110.5t-89.5 -72t-125 -25.5zM425 746q-28 0 -45.5 14.5t-17.5 41.5q0 36 21 56t53 20q29 0 46.5 -15
t17.5 -41q0 -37 -21.5 -56.5t-53.5 -19.5z" />
    <glyph glyph-name="uni1E61" unicode="&#x1e61;" horiz-adv-x="515" 
d="M253 -11q-57 0 -104.5 17t-82.5 49t-55 75l81 49q21 -51 61.5 -78.5t97.5 -27.5q46 0 71 18t25 48q0 22 -14 35.5t-43 21.5l-80 24q-66 18 -97.5 53.5t-31.5 82.5q0 45 24 79.5t69 54.5t106 20q73 0 129 -30t82 -87l-77 -52q-11 26 -31 45t-46.5 30t-58.5 11
q-49 0 -73 -16.5t-24 -44.5q0 -25 19 -38t45 -21l97 -29q52 -15 81 -47.5t29 -76.5q0 -51 -25 -88t-70 -57t-104 -20zM328 586q-28 0 -45.5 14.5t-17.5 41.5q0 36 21 56t53 20q29 0 46.5 -15t17.5 -41q0 -37 -21.5 -56.5t-53.5 -19.5z" />
    <glyph glyph-name="uni1E62" unicode="&#x1e62;" horiz-adv-x="639" 
d="M335 -9q-72 0 -132.5 21.5t-104.5 62.5t-70 102l87 58q19 -54 53 -87.5t78.5 -49t93.5 -15.5q44 0 73 14.5t43.5 37.5t14.5 49q0 33 -21.5 51.5t-62.5 30.5l-104 30q-50 15 -85.5 39.5t-55 58t-19.5 75.5q0 58 31 104t86.5 72t130.5 26q99 0 165.5 -39t100.5 -117
l-88 -56q-15 48 -43.5 73.5t-64 35.5t-74.5 10q-44 0 -73.5 -12.5t-44 -34.5t-14.5 -48q0 -30 24 -54t65 -36l112 -34q74 -22 110.5 -61.5t36.5 -98.5q0 -64 -33.5 -110.5t-89.5 -72t-125 -25.5zM246 -218q-28 0 -45.5 15t-17.5 41q0 37 21 56.5t53 19.5q29 0 46.5 -15
t17.5 -40q0 -37 -21.5 -57t-53.5 -20z" />
    <glyph glyph-name="uni1E63" unicode="&#x1e63;" horiz-adv-x="515" 
d="M253 -11q-57 0 -104.5 17t-82.5 49t-55 75l81 49q21 -51 61.5 -78.5t97.5 -27.5q46 0 71 18t25 48q0 22 -14 35.5t-43 21.5l-80 24q-66 18 -97.5 53.5t-31.5 82.5q0 45 24 79.5t69 54.5t106 20q73 0 129 -30t82 -87l-77 -52q-11 26 -31 45t-46.5 30t-58.5 11
q-49 0 -73 -16.5t-24 -44.5q0 -25 19 -38t45 -21l97 -29q52 -15 81 -47.5t29 -76.5q0 -51 -25 -88t-70 -57t-104 -20zM183 -218q-28 0 -45.5 15t-17.5 41q0 37 21 56.5t53 19.5q29 0 46.5 -15t17.5 -40q0 -37 -21.5 -57t-53.5 -20z" />
    <glyph glyph-name="uni1E64" unicode="&#x1e64;" horiz-adv-x="639" 
d="M335 -9q-72 0 -132.5 21.5t-104.5 62.5t-70 102l87 58q19 -54 53 -87.5t78.5 -49t93.5 -15.5q44 0 73 14.5t43.5 37.5t14.5 49q0 33 -21.5 51.5t-62.5 30.5l-104 30q-50 15 -85.5 39.5t-55 58t-19.5 75.5q0 58 31 104t86.5 72t130.5 26q99 0 165.5 -39t100.5 -117
l-88 -56q-15 48 -43.5 73.5t-64 35.5t-74.5 10q-44 0 -73.5 -12.5t-44 -34.5t-14.5 -48q0 -30 24 -54t65 -36l112 -34q74 -22 110.5 -61.5t36.5 -98.5q0 -64 -33.5 -110.5t-89.5 -72t-125 -25.5zM454 897h113l-123 -160h-86zM476 958q-28 0 -45.5 14.5t-17.5 41.5
q0 36 21 56t53 20q29 0 46.5 -15t17.5 -41q0 -37 -21.5 -56.5t-53.5 -19.5z" />
    <glyph glyph-name="uni1E65" unicode="&#x1e65;" horiz-adv-x="515" 
d="M253 -11q-57 0 -104.5 17t-82.5 49t-55 75l81 49q21 -51 61.5 -78.5t97.5 -27.5q46 0 71 18t25 48q0 22 -14 35.5t-43 21.5l-80 24q-66 18 -97.5 53.5t-31.5 82.5q0 45 24 79.5t69 54.5t106 20q73 0 129 -30t82 -87l-77 -52q-11 26 -31 45t-46.5 30t-58.5 11
q-49 0 -73 -16.5t-24 -44.5q0 -25 19 -38t45 -21l97 -29q52 -15 81 -47.5t29 -76.5q0 -51 -25 -88t-70 -57t-104 -20zM374 746h116l-144 -168h-90zM370 798q-28 0 -45.5 14.5t-17.5 41.5q0 36 21 56t53 20q29 0 46.5 -15t17.5 -41q0 -37 -21.5 -56.5t-53.5 -19.5z" />
    <glyph glyph-name="uni1E66" unicode="&#x1e66;" horiz-adv-x="639" 
d="M335 -9q-72 0 -132.5 21.5t-104.5 62.5t-70 102l87 58q19 -54 53 -87.5t78.5 -49t93.5 -15.5q44 0 73 14.5t43.5 37.5t14.5 49q0 33 -21.5 51.5t-62.5 30.5l-104 30q-50 15 -85.5 39.5t-55 58t-19.5 75.5q0 58 31 104t86.5 72t130.5 26q99 0 165.5 -39t100.5 -117
l-88 -56q-15 48 -43.5 73.5t-64 35.5t-74.5 10q-44 0 -73.5 -12.5t-44 -34.5t-14.5 -48q0 -30 24 -54t65 -36l112 -34q74 -22 110.5 -61.5t36.5 -98.5q0 -64 -33.5 -110.5t-89.5 -72t-125 -25.5zM357 737l-70 160h81l54 -101l97 101h94l-145 -160h-111zM470 953
q-28 0 -45.5 14.5t-17.5 41.5q0 36 21 56t53 20q29 0 46.5 -15t17.5 -41q0 -37 -21.5 -56.5t-53.5 -19.5z" />
    <glyph glyph-name="uni1E67" unicode="&#x1e67;" horiz-adv-x="515" 
d="M253 -11q-57 0 -104.5 17t-82.5 49t-55 75l81 49q21 -51 61.5 -78.5t97.5 -27.5q46 0 71 18t25 48q0 22 -14 35.5t-43 21.5l-80 24q-66 18 -97.5 53.5t-31.5 82.5q0 45 24 79.5t69 54.5t106 20q73 0 129 -30t82 -87l-77 -52q-11 26 -31 45t-46.5 30t-58.5 11
q-49 0 -73 -16.5t-24 -44.5q0 -25 19 -38t45 -21l97 -29q52 -15 81 -47.5t29 -76.5q0 -51 -25 -88t-70 -57t-104 -20zM255 578l-74 168h83l57 -106l104 106h94l-152 -168h-112zM355 784q-28 0 -45.5 14.5t-17.5 41.5q0 36 21 56t53 20q29 0 46.5 -15t17.5 -41
q0 -37 -21.5 -56.5t-53.5 -19.5z" />
    <glyph glyph-name="uni1E68" unicode="&#x1e68;" horiz-adv-x="639" 
d="M335 -9q-72 0 -132.5 21.5t-104.5 62.5t-70 102l87 58q19 -54 53 -87.5t78.5 -49t93.5 -15.5q44 0 73 14.5t43.5 37.5t14.5 49q0 33 -21.5 51.5t-62.5 30.5l-104 30q-50 15 -85.5 39.5t-55 58t-19.5 75.5q0 58 31 104t86.5 72t130.5 26q99 0 165.5 -39t100.5 -117
l-88 -56q-15 48 -43.5 73.5t-64 35.5t-74.5 10q-44 0 -73.5 -12.5t-44 -34.5t-14.5 -48q0 -30 24 -54t65 -36l112 -34q74 -22 110.5 -61.5t36.5 -98.5q0 -64 -33.5 -110.5t-89.5 -72t-125 -25.5zM425 746q-28 0 -45.5 14.5t-17.5 41.5q0 36 21 56t53 20q29 0 46.5 -15
t17.5 -41q0 -37 -21.5 -56.5t-53.5 -19.5zM246 -218q-28 0 -45.5 15t-17.5 41q0 37 21 56.5t53 19.5q29 0 46.5 -15t17.5 -40q0 -37 -21.5 -57t-53.5 -20z" />
    <glyph glyph-name="uni1E69" unicode="&#x1e69;" horiz-adv-x="515" 
d="M253 -11q-57 0 -104.5 17t-82.5 49t-55 75l81 49q21 -51 61.5 -78.5t97.5 -27.5q46 0 71 18t25 48q0 22 -14 35.5t-43 21.5l-80 24q-66 18 -97.5 53.5t-31.5 82.5q0 45 24 79.5t69 54.5t106 20q73 0 129 -30t82 -87l-77 -52q-11 26 -31 45t-46.5 30t-58.5 11
q-49 0 -73 -16.5t-24 -44.5q0 -25 19 -38t45 -21l97 -29q52 -15 81 -47.5t29 -76.5q0 -51 -25 -88t-70 -57t-104 -20zM328 586q-28 0 -45.5 14.5t-17.5 41.5q0 36 21 56t53 20q29 0 46.5 -15t17.5 -41q0 -37 -21.5 -56.5t-53.5 -19.5zM183 -218q-28 0 -45.5 15t-17.5 41
q0 37 21 56.5t53 19.5q29 0 46.5 -15t17.5 -40q0 -37 -21.5 -57t-53.5 -20z" />
    <glyph glyph-name="uni1E6C" unicode="&#x1e6c;" horiz-adv-x="609" 
d="M675 660l-22 -92h-220l-131 -568h-108l131 568h-223l22 92h551zM210 -218q-28 0 -45.5 15t-17.5 41q0 37 21 56.5t53 19.5q29 0 46.5 -15t17.5 -40q0 -37 -21.5 -57t-53.5 -20z" />
    <glyph glyph-name="uni1E6D" unicode="&#x1e6d;" horiz-adv-x="412" 
d="M241 -8q-52 0 -88.5 19.5t-51.5 57.5t-3 92l103 448l115 32l-113 -481q-10 -44 12 -63.5t57 -19.5q24 0 41.5 6t31.5 16l8 -79q-26 -16 -53.5 -22t-58.5 -6zM58 416l19 84h355l-19 -84h-355zM174 -218q-28 0 -45.5 15t-17.5 41q0 37 21 56.5t53 19.5q29 0 46.5 -15
t17.5 -40q0 -37 -21.5 -57t-53.5 -20z" />
    <glyph glyph-name="uni1E6E" unicode="&#x1e6e;" horiz-adv-x="609" 
d="M675 660l-22 -92h-220l-131 -568h-108l131 568h-223l22 92h551zM399 -88l-17 -78h-328l18 78h327z" />
    <glyph glyph-name="uni1E6F" unicode="&#x1e6f;" horiz-adv-x="412" 
d="M241 -8q-52 0 -88.5 19.5t-51.5 57.5t-3 92l103 448l115 32l-113 -481q-10 -44 12 -63.5t57 -19.5q24 0 41.5 6t31.5 16l8 -79q-26 -16 -53.5 -22t-58.5 -6zM58 416l19 84h355l-19 -84h-355zM356 -88l-17 -78h-328l18 78h327z" />
    <glyph glyph-name="uni1E78" unicode="&#x1e78;" horiz-adv-x="696" 
d="M326 -10q-90 0 -151 35.5t-84 102.5t-1 160l87 372h108l-90 -392q-14 -61 0.5 -102.5t50.5 -62t88 -20.5q73 0 114.5 45t58.5 123l95 409h107l-98 -427q-27 -112 -97.5 -177.5t-187.5 -65.5zM654 861q-11 -69 -47 -105t-82 -36q-26 0 -44 10t-31.5 23t-25.5 23t-27 10
q-17 0 -30.5 -18t-20.5 -49h-73q12 70 47.5 106t81.5 36q25 0 43 -10t31.5 -23t26 -23t27.5 -10q17 0 30.5 18t21.5 48h72zM531 1081h113l-123 -160h-86z" />
    <glyph glyph-name="uni1E79" unicode="&#x1e79;" horiz-adv-x="602" 
d="M215 -8q-54 0 -94.5 24t-58 69t-2.5 109l71 306h107l-69 -297q-14 -60 11.5 -91.5t76.5 -31.5q40 0 70.5 17.5t51.5 52t32 85.5l62 265h107l-116 -500h-95l21 126l10 -8q-20 -63 -70.5 -94.5t-114.5 -31.5zM566 709q-11 -69 -47 -105t-82 -36q-26 0 -44 10t-31.5 23
t-25.5 23t-27 10q-17 0 -30.5 -18t-20.5 -49h-73q12 70 47.5 106t81.5 36q25 0 43 -10t31.5 -23t26 -23t27.5 -10q17 0 30.5 18t21.5 48h72zM444 929h113l-123 -160h-86z" />
    <glyph glyph-name="uni1E7A" unicode="&#x1e7a;" horiz-adv-x="696" 
d="M326 -10q-90 0 -151 35.5t-84 102.5t-1 160l87 372h108l-90 -392q-14 -61 0.5 -102.5t50.5 -62t88 -20.5q73 0 114.5 45t58.5 123l95 409h107l-98 -427q-27 -112 -97.5 -177.5t-187.5 -65.5zM633 810l-17 -78h-328l18 78h327zM599 882q-26 0 -42.5 14.5t-16.5 38.5
q0 35 20.5 54t51.5 19q26 0 42.5 -14.5t16.5 -38.5q0 -36 -20.5 -54.5t-51.5 -18.5zM397 882q-26 0 -42.5 14.5t-16.5 38.5q0 35 20.5 54t51.5 19q26 0 42 -14.5t16 -38.5q0 -36 -20 -54.5t-51 -18.5z" />
    <glyph glyph-name="uni1E7B" unicode="&#x1e7b;" horiz-adv-x="602" 
d="M215 -8q-54 0 -94.5 24t-58 69t-2.5 109l71 306h107l-69 -297q-14 -60 11.5 -91.5t76.5 -31.5q40 0 70.5 17.5t51.5 52t32 85.5l62 265h107l-116 -500h-95l21 126l10 -8q-20 -63 -70.5 -94.5t-114.5 -31.5zM545 658l-17 -78h-328l18 78h327zM511 730q-26 0 -42.5 14.5
t-16.5 38.5q0 35 20.5 54t51.5 19q26 0 42.5 -14.5t16.5 -38.5q0 -36 -20.5 -54.5t-51.5 -18.5zM309 730q-26 0 -42.5 14.5t-16.5 38.5q0 35 20.5 54t51.5 19q26 0 42 -14.5t16 -38.5q0 -36 -20 -54.5t-51 -18.5z" />
    <glyph glyph-name="Wgrave" unicode="&#x1e80;" horiz-adv-x="954" 
d="M158 0l-37 660h104l19 -558l260 558h116l15 -562l271 562h117l-343 -660h-128l-14 396l2 154h-1l-67 -154l-189 -396h-125zM587 897l38 -160h-74l-65 160h101z" />
    <glyph glyph-name="wgrave" unicode="&#x1e81;" horiz-adv-x="826" 
d="M117 0l-46 500h104l27 -388l200 388h106l42 -393l200 393h114l-271 -500h-117l-45 370l-195 -370h-119zM469 746l41 -168h-78l-66 168h103z" />
    <glyph glyph-name="Wacute" unicode="&#x1e82;" horiz-adv-x="954" 
d="M158 0l-37 660h104l19 -558l260 558h116l15 -562l271 562h117l-343 -660h-128l-14 396l2 154h-1l-67 -154l-189 -396h-125zM621 897h113l-123 -160h-86z" />
    <glyph glyph-name="wacute" unicode="&#x1e83;" horiz-adv-x="826" 
d="M117 0l-46 500h104l27 -388l200 388h106l42 -393l200 393h114l-271 -500h-117l-45 370l-195 -370h-119zM522 746h116l-144 -168h-90z" />
    <glyph glyph-name="Wdieresis" unicode="&#x1e84;" horiz-adv-x="954" 
d="M158 0l-37 660h104l19 -558l260 558h116l15 -562l271 562h117l-343 -660h-128l-14 396l2 154h-1l-67 -154l-189 -396h-125zM688 734q-26 0 -42.5 14.5t-16.5 38.5q0 35 20.5 54t51.5 19q26 0 42.5 -14.5t16.5 -38.5q0 -36 -20.5 -54.5t-51.5 -18.5zM486 734
q-26 0 -42.5 14.5t-16.5 38.5q0 35 20.5 54t51.5 19q26 0 42 -14.5t16 -38.5q0 -36 -20 -54.5t-51 -18.5z" />
    <glyph glyph-name="wdieresis" unicode="&#x1e85;" horiz-adv-x="826" 
d="M117 0l-46 500h104l27 -388l200 388h106l42 -393l200 393h114l-271 -500h-117l-45 370l-195 -370h-119zM572 574q-26 0 -42.5 14.5t-16.5 38.5q0 35 20.5 54t51.5 19q26 0 42.5 -14.5t16.5 -38.5q0 -36 -20.5 -54.5t-51.5 -18.5zM370 574q-26 0 -42.5 14.5t-16.5 38.5
q0 35 20.5 54t51.5 19q26 0 42 -14.5t16 -38.5q0 -36 -20 -54.5t-51 -18.5z" />
    <glyph glyph-name="uni1E8E" unicode="&#x1e8e;" horiz-adv-x="589" 
d="M183 0l59 254l-133 406h110l66 -215l27 -101l74 106l162 210h122l-322 -414l-58 -246h-107zM400 730q-28 0 -45.5 14.5t-17.5 41.5q0 36 21 56t53 20q29 0 46.5 -15t17.5 -41q0 -37 -21.5 -56.5t-53.5 -19.5z" />
    <glyph glyph-name="uni1E8F" unicode="&#x1e8f;" horiz-adv-x="520" 
d="M22 -215q-40 0 -70 9t-49 25l37 83q34 -31 79 -31q30 0 53.5 16t45.5 50l39 63l-88 500h107l36 -281l16 -124l66 118l163 287h118l-361 -581q-29 -48 -59.5 -77.5t-63.5 -43t-69 -13.5zM344 578q-28 0 -45.5 14.5t-17.5 41.5q0 36 21 56t53 20q29 0 46.5 -15t17.5 -41
q0 -37 -21.5 -56.5t-53.5 -19.5z" />
    <glyph glyph-name="uni1E92" unicode="&#x1e92;" horiz-adv-x="601" 
d="M-7 0l21 90l474 479h-368l22 91h496l-21 -89l-475 -480h390l-22 -91h-517zM248 -218q-28 0 -45.5 15t-17.5 41q0 37 21 56.5t53 19.5q29 0 46.5 -15t17.5 -40q0 -37 -21.5 -57t-53.5 -20z" />
    <glyph glyph-name="uni1E93" unicode="&#x1e93;" horiz-adv-x="513" 
d="M-5 0l18 77l303 292l56 49l-86 -2h-199l20 84h407l-18 -80l-281 -270l-75 -67l103 1h195l-20 -84h-423zM191 -218q-28 0 -45.5 15t-17.5 41q0 37 21 56.5t53 19.5q29 0 46.5 -15t17.5 -40q0 -37 -21.5 -57t-53.5 -20z" />
    <glyph glyph-name="uni1E97" unicode="&#x1e97;" horiz-adv-x="412" 
d="M241 -8q-52 0 -88.5 19.5t-51.5 57.5t-3 92l103 448l115 32l-113 -481q-10 -44 12 -63.5t57 -19.5q24 0 41.5 6t31.5 16l8 -79q-26 -16 -53.5 -22t-58.5 -6zM58 416l19 84h355l-19 -84h-355zM387 718q-26 0 -42.5 14.5t-16.5 38.5q0 35 20.5 54t51.5 19q26 0 42.5 -14.5
t16.5 -38.5q0 -36 -20.5 -54.5t-51.5 -18.5zM185 718q-26 0 -42.5 14.5t-16.5 38.5q0 35 20.5 54t51.5 19q26 0 42 -14.5t16 -38.5q0 -36 -20 -54.5t-51 -18.5z" />
    <glyph glyph-name="uni1E9E" unicode="&#x1e9e;" horiz-adv-x="663" 
d="M411 -5q-52 0 -95.5 17.5t-72.5 43.5l47 76q19 -22 50 -36t69 -14q31 0 56.5 13.5t41 39t15.5 61.5q0 49 -27 72.5t-81 23.5h-86l18 79l220 198h-184q-44 0 -74 -16t-47.5 -45.5t-27.5 -70.5l-101 -437h-107l105 455q14 62 47.5 108t87.5 71.5t127 25.5h322l-21 -88
l-237 -208h14q45 0 80.5 -19.5t56 -56t20.5 -88.5q0 -63 -28 -109t-76.5 -71t-111.5 -25z" />
    <glyph glyph-name="uni1EA0" unicode="&#x1ea0;" horiz-adv-x="651" 
d="M-41 0l396 660h132l89 -660h-104l-58 457l-12 103v0l-57 -100l-269 -460h-117zM133 179l20 87h351l-20 -87h-351zM256 -218q-28 0 -45.5 15t-17.5 41q0 37 21 56.5t53 19.5q29 0 46.5 -15t17.5 -40q0 -37 -21.5 -57t-53.5 -20z" />
    <glyph glyph-name="uni1EA1" unicode="&#x1ea1;" horiz-adv-x="617" 
d="M237 -8q-55 0 -98 26.5t-67 74.5t-24 113q0 61 18.5 116t52 97.5t80 66.5t101.5 24q41 0 74.5 -14t56.5 -41t31 -66l26 111h107l-116 -500h-95l17 93q-25 -46 -68.5 -73.5t-95.5 -27.5zM274 77q32 0 60.5 17t50 47t34 69.5t12.5 82.5q0 40 -14.5 69.5t-40 45.5t-60.5 16
q-37 0 -66.5 -17t-51 -46.5t-33.5 -68t-12 -80.5q0 -43 14 -73t41 -46t66 -16zM216 -218q-28 0 -45.5 15t-17.5 41q0 37 21 56.5t53 19.5q29 0 46.5 -15t17.5 -40q0 -37 -21.5 -57t-53.5 -20z" />
    <glyph glyph-name="uni1EA2" unicode="&#x1ea2;" horiz-adv-x="651" 
d="M-41 0l396 660h132l89 -660h-104l-58 457l-12 103v0l-57 -100l-269 -460h-117zM133 179l20 87h351l-20 -87h-351zM416 706l-15 45q31 6 44.5 21.5t13.5 34.5q0 18 -11 25.5t-25 7.5q-12 0 -24 -6.5t-21 -19.5l-45 47q16 24 44 38t60 14q41 0 69.5 -24t28.5 -67
q0 -29 -14 -53t-40 -40.5t-65 -22.5z" />
    <glyph glyph-name="uni1EA3" unicode="&#x1ea3;" horiz-adv-x="617" 
d="M237 -8q-55 0 -98 26.5t-67 74.5t-24 113q0 61 18.5 116t52 97.5t80 66.5t101.5 24q41 0 74.5 -14t56.5 -41t31 -66l26 111h107l-116 -500h-95l17 93q-25 -46 -68.5 -73.5t-95.5 -27.5zM274 77q32 0 60.5 17t50 47t34 69.5t12.5 82.5q0 40 -14.5 69.5t-40 45.5t-60.5 16
q-37 0 -66.5 -17t-51 -46.5t-33.5 -68t-12 -80.5q0 -43 14 -73t41 -46t66 -16zM332 551l-15 49q34 5 51.5 21t17.5 34t-11 25.5t-25 7.5q-13 0 -25.5 -6.5t-23.5 -17.5l-42 46q18 22 45 35.5t60 13.5q43 0 70 -23.5t27 -66.5q0 -29 -14.5 -54t-43.5 -41.5t-71 -22.5z" />
    <glyph glyph-name="uni1EA4" unicode="&#x1ea4;" horiz-adv-x="651" 
d="M261 731l149 166h108l73 -166h-81l-56 105l-102 -105h-91zM665 988h101l-110 -144h-77zM-41 0l396 660h132l89 -660h-104l-58 457l-12 103v0l-57 -100l-269 -460h-117zM133 179l20 87h351l-20 -87h-351z" />
    <glyph glyph-name="uni1EA5" unicode="&#x1ea5;" horiz-adv-x="617" 
d="M182 571l148 166h109l73 -166h-81l-56 105l-103 -105h-90zM586 828h101l-111 -144h-77zM237 -8q-55 0 -98 26.5t-67 74.5t-24 113q0 61 18.5 116t52 97.5t80 66.5t101.5 24q41 0 74.5 -14t56.5 -41t31 -66l26 111h107l-116 -500h-95l17 93q-25 -46 -68.5 -73.5
t-95.5 -27.5zM274 77q32 0 60.5 17t50 47t34 69.5t12.5 82.5q0 40 -14.5 69.5t-40 45.5t-60.5 16q-37 0 -66.5 -17t-51 -46.5t-33.5 -68t-12 -80.5q0 -43 14 -73t41 -46t66 -16z" />
    <glyph glyph-name="uni1EA6" unicode="&#x1ea6;" horiz-adv-x="651" 
d="M261 731l149 166h108l73 -166h-81l-56 105l-102 -105h-91zM635 988l34 -144h-66l-59 144h91zM-41 0l396 660h132l89 -660h-104l-58 457l-12 103v0l-57 -100l-269 -460h-117zM133 179l20 87h351l-20 -87h-351z" />
    <glyph glyph-name="uni1EA7" unicode="&#x1ea7;" horiz-adv-x="617" 
d="M182 571l148 166h109l73 -166h-81l-56 105l-103 -105h-90zM556 828l34 -144h-66l-59 144h91zM237 -8q-55 0 -98 26.5t-67 74.5t-24 113q0 61 18.5 116t52 97.5t80 66.5t101.5 24q41 0 74.5 -14t56.5 -41t31 -66l26 111h107l-116 -500h-95l17 93q-25 -46 -68.5 -73.5
t-95.5 -27.5zM274 77q32 0 60.5 17t50 47t34 69.5t12.5 82.5q0 40 -14.5 69.5t-40 45.5t-60.5 16q-37 0 -66.5 -17t-51 -46.5t-33.5 -68t-12 -80.5q0 -43 14 -73t41 -46t66 -16z" />
    <glyph glyph-name="uni1EA8" unicode="&#x1ea8;" horiz-adv-x="651" 
d="M261 731l149 166h108l73 -166h-81l-56 105l-102 -105h-91zM608 821l-15 45q30 5 44 20.5t14 35.5q0 18 -11 25.5t-25 7.5q-13 0 -25 -6.5t-20 -19.5l-46 47q17 23 44.5 37t60.5 14q41 0 69 -23.5t28 -66.5q0 -29 -13.5 -53.5t-40 -40.5t-64.5 -22zM-41 0l396 660h132
l89 -660h-104l-58 457l-12 103v0l-57 -100l-269 -460h-117zM133 179l20 87h351l-20 -87h-351z" />
    <glyph glyph-name="uni1EA9" unicode="&#x1ea9;" horiz-adv-x="617" 
d="M182 571l148 166h109l73 -166h-81l-56 105l-103 -105h-90zM528 661l-15 45q31 5 44.5 20.5t13.5 35.5q0 18 -11 25.5t-25 7.5q-12 0 -24 -6.5t-21 -19.5l-45 47q16 23 44 37t60 14q41 0 69.5 -23.5t28.5 -66.5q0 -29 -14 -53.5t-40 -40.5t-65 -22zM237 -8q-55 0 -98 26.5
t-67 74.5t-24 113q0 61 18.5 116t52 97.5t80 66.5t101.5 24q41 0 74.5 -14t56.5 -41t31 -66l26 111h107l-116 -500h-95l17 93q-25 -46 -68.5 -73.5t-95.5 -27.5zM274 77q32 0 60.5 17t50 47t34 69.5t12.5 82.5q0 40 -14.5 69.5t-40 45.5t-60.5 16q-37 0 -66.5 -17t-51 -46.5
t-33.5 -68t-12 -80.5q0 -43 14 -73t41 -46t66 -16z" />
    <glyph glyph-name="uni1EAA" unicode="&#x1eaa;" horiz-adv-x="651" 
d="M261 731l149 166h108l73 -166h-81l-56 105l-102 -105h-91zM658 1054q-9 -65 -42.5 -98t-78.5 -33q-25 0 -42 9t-29.5 21t-25 21t-28.5 9q-17 0 -28.5 -16t-16.5 -42h-70q9 64 41.5 97.5t78.5 33.5q24 0 40.5 -9.5t30 -21t26.5 -21t28 -9.5q17 0 28.5 16t17.5 43h70z
M-41 0l396 660h132l89 -660h-104l-58 457l-12 103v0l-57 -100l-269 -460h-117zM133 179l20 87h351l-20 -87h-351z" />
    <glyph glyph-name="uni1EAB" unicode="&#x1eab;" horiz-adv-x="617" 
d="M182 571l148 166h109l73 -166h-81l-56 105l-103 -105h-90zM579 894q-10 -65 -43 -98t-78 -33q-25 0 -42 9t-30 21t-25 21t-29 9t-28 -16t-16 -42h-71q9 64 42 97.5t78 33.5q24 0 41 -9.5t30 -21t26 -21t29 -9.5q17 0 28 16t17 43h71zM237 -8q-55 0 -98 26.5t-67 74.5
t-24 113q0 61 18.5 116t52 97.5t80 66.5t101.5 24q41 0 74.5 -14t56.5 -41t31 -66l26 111h107l-116 -500h-95l17 93q-25 -46 -68.5 -73.5t-95.5 -27.5zM274 77q32 0 60.5 17t50 47t34 69.5t12.5 82.5q0 40 -14.5 69.5t-40 45.5t-60.5 16q-37 0 -66.5 -17t-51 -46.5
t-33.5 -68t-12 -80.5q0 -43 14 -73t41 -46t66 -16z" />
    <glyph glyph-name="uni1EAC" unicode="&#x1eac;" horiz-adv-x="651" 
d="M-41 0l396 660h132l89 -660h-104l-58 457l-12 103v0l-57 -100l-269 -460h-117zM133 179l20 87h351l-20 -87h-351zM256 -218q-28 0 -45.5 15t-17.5 41q0 37 21 56.5t53 19.5q29 0 46.5 -15t17.5 -40q0 -37 -21.5 -57t-53.5 -20zM523 897l70 -160h-82l-53 102l-98 -102h-93
l145 160h111z" />
    <glyph glyph-name="uni1EAD" unicode="&#x1ead;" horiz-adv-x="617" 
d="M237 -8q-55 0 -98 26.5t-67 74.5t-24 113q0 61 18.5 116t52 97.5t80 66.5t101.5 24q41 0 74.5 -14t56.5 -41t31 -66l26 111h107l-116 -500h-95l17 93q-25 -46 -68.5 -73.5t-95.5 -27.5zM274 77q32 0 60.5 17t50 47t34 69.5t12.5 82.5q0 40 -14.5 69.5t-40 45.5t-60.5 16
q-37 0 -66.5 -17t-51 -46.5t-33.5 -68t-12 -80.5q0 -43 14 -73t41 -46t66 -16zM216 -218q-28 0 -45.5 15t-17.5 41q0 37 21 56.5t53 19.5q29 0 46.5 -15t17.5 -40q0 -37 -21.5 -57t-53.5 -20zM178 571l151 169h112l74 -169h-83l-57 106l-104 -106h-93z" />
    <glyph glyph-name="uni1EAE" unicode="&#x1eae;" horiz-adv-x="651" 
d="M605 880q-11 -68 -58 -109t-116 -41q-61 0 -97 33.5t-36 83.5q0 16 5 33h71q-1 -5 -1.5 -9.5t-0.5 -9.5q0 -29 18.5 -45.5t49.5 -16.5q34 0 58.5 20t31.5 61h75zM399 899l83 134h101l-106 -134h-78zM-41 0l396 660h132l89 -660h-104l-58 457l-12 103v0l-57 -100
l-269 -460h-117zM133 179l20 87h351l-20 -87h-351z" />
    <glyph glyph-name="uni1EAF" unicode="&#x1eaf;" horiz-adv-x="617" 
d="M536 720q-11 -68 -57.5 -109t-116.5 -41q-61 0 -96.5 33.5t-35.5 83.5q0 16 4 33h72q-1 -5 -1.5 -9.5t-0.5 -9.5q0 -29 18 -45.5t49 -16.5q34 0 58.5 20t31.5 61h75zM331 739l83 134h100l-105 -134h-78zM237 -8q-55 0 -98 26.5t-67 74.5t-24 113q0 61 18.5 116t52 97.5
t80 66.5t101.5 24q41 0 74.5 -14t56.5 -41t31 -66l26 111h107l-116 -500h-95l17 93q-25 -46 -68.5 -73.5t-95.5 -27.5zM274 77q32 0 60.5 17t50 47t34 69.5t12.5 82.5q0 40 -14.5 69.5t-40 45.5t-60.5 16q-37 0 -66.5 -17t-51 -46.5t-33.5 -68t-12 -80.5q0 -43 14 -73
t41 -46t66 -16z" />
    <glyph glyph-name="uni1EB0" unicode="&#x1eb0;" horiz-adv-x="651" 
d="M605 880q-10 -68 -57 -109t-116 -41q-61 0 -97 33.5t-36 83.5q0 16 5 33h71q-1 -5 -1.5 -9.5t-0.5 -9.5q0 -29 18.5 -45.5t49.5 -16.5q33 0 58 20t32 61h74zM434 899l-62 134h97l37 -134h-72zM-41 0l396 660h132l89 -660h-104l-58 457l-12 103v0l-57 -100l-269 -460h-117
zM133 179l20 87h351l-20 -87h-351z" />
    <glyph glyph-name="uni1EB1" unicode="&#x1eb1;" horiz-adv-x="617" 
d="M536 720q-11 -68 -57.5 -109t-116.5 -41q-61 0 -96.5 33.5t-35.5 83.5q0 16 4 33h72q-1 -5 -1.5 -9.5t-0.5 -9.5q0 -29 18 -45.5t49 -16.5q34 0 58.5 20t31.5 61h75zM364 739l-62 134h98l37 -134h-73zM237 -8q-55 0 -98 26.5t-67 74.5t-24 113q0 61 18.5 116t52 97.5
t80 66.5t101.5 24q41 0 74.5 -14t56.5 -41t31 -66l26 111h107l-116 -500h-95l17 93q-25 -46 -68.5 -73.5t-95.5 -27.5zM274 77q32 0 60.5 17t50 47t34 69.5t12.5 82.5q0 40 -14.5 69.5t-40 45.5t-60.5 16q-37 0 -66.5 -17t-51 -46.5t-33.5 -68t-12 -80.5q0 -43 14 -73
t41 -46t66 -16z" />
    <glyph glyph-name="uni1EB2" unicode="&#x1eb2;" horiz-adv-x="651" 
d="M606 880q-11 -68 -58 -108.5t-116 -40.5q-61 0 -96.5 33t-35.5 83q0 17 4 33h71q-1 -4 -1.5 -9t-0.5 -9q0 -30 18.5 -46.5t49.5 -16.5q34 0 58.5 20.5t31.5 60.5h75zM442 881l-14 44q29 6 43 21t14 34q0 18 -11 25.5t-25 7.5q-13 0 -24.5 -6.5t-19.5 -19.5l-44 46
q16 23 43 37t59 14q40 0 67.5 -23.5t27.5 -65.5q0 -29 -13.5 -52.5t-39 -39.5t-63.5 -22zM-41 0l396 660h132l89 -660h-104l-58 457l-12 103v0l-57 -100l-269 -460h-117zM133 179l20 87h351l-20 -87h-351z" />
    <glyph glyph-name="uni1EB3" unicode="&#x1eb3;" horiz-adv-x="617" 
d="M536 720q-10 -68 -57 -108.5t-117 -40.5q-61 0 -96.5 33t-35.5 83q0 17 4 33h72q-1 -4 -1.5 -9t-0.5 -9q0 -30 18.5 -46.5t48.5 -16.5q34 0 59 20.5t31 60.5h75zM373 721l-15 44q30 6 43.5 21t13.5 34q0 18 -11 25.5t-24 7.5t-24.5 -6.5t-20.5 -19.5l-44 46q16 23 43 37
t59 14q40 0 68 -23.5t28 -65.5q0 -29 -13.5 -52.5t-39 -39.5t-63.5 -22zM237 -8q-55 0 -98 26.5t-67 74.5t-24 113q0 61 18.5 116t52 97.5t80 66.5t101.5 24q41 0 74.5 -14t56.5 -41t31 -66l26 111h107l-116 -500h-95l17 93q-25 -46 -68.5 -73.5t-95.5 -27.5zM274 77
q32 0 60.5 17t50 47t34 69.5t12.5 82.5q0 40 -14.5 69.5t-40 45.5t-60.5 16q-37 0 -66.5 -17t-51 -46.5t-33.5 -68t-12 -80.5q0 -43 14 -73t41 -46t66 -16z" />
    <glyph glyph-name="uni1EB4" unicode="&#x1eb4;" horiz-adv-x="651" 
d="M607 880q-11 -68 -57.5 -109t-116.5 -41q-61 0 -96.5 33.5t-35.5 83.5q0 16 4 33h72q-2 -5 -2.5 -9.5t-0.5 -9.5q0 -29 18.5 -45.5t49.5 -16.5q34 0 58.5 20t31.5 61h75zM647 1044q-10 -65 -43.5 -98t-77.5 -33q-25 0 -42 9t-30 21t-25 21t-29 9t-28 -15.5t-16 -42.5h-71
q9 65 42 98t78 33q24 0 41 -9t30 -21t26 -21t28 -9q18 0 29 15.5t17 42.5h71zM-41 0l396 660h132l89 -660h-104l-58 457l-12 103v0l-57 -100l-269 -460h-117zM133 179l20 87h351l-20 -87h-351z" />
    <glyph glyph-name="uni1EB5" unicode="&#x1eb5;" horiz-adv-x="617" 
d="M537 720q-11 -68 -58 -109t-116 -41q-61 0 -97 33.5t-36 83.5q0 16 5 33h71q-1 -5 -1.5 -9.5t-0.5 -9.5q0 -29 18.5 -45.5t49.5 -16.5q34 0 58.5 20t31.5 61h75zM576 884q-9 -65 -42.5 -98t-77.5 -33q-25 0 -42 9t-30 21t-25.5 21t-28.5 9q-17 0 -28.5 -15.5t-16.5 -42.5
h-70q9 65 41.5 98t78.5 33q24 0 40.5 -9t30 -21t26.5 -21t28 -9q17 0 28.5 15.5t17.5 42.5h70zM237 -8q-55 0 -98 26.5t-67 74.5t-24 113q0 61 18.5 116t52 97.5t80 66.5t101.5 24q41 0 74.5 -14t56.5 -41t31 -66l26 111h107l-116 -500h-95l17 93q-25 -46 -68.5 -73.5
t-95.5 -27.5zM274 77q32 0 60.5 17t50 47t34 69.5t12.5 82.5q0 40 -14.5 69.5t-40 45.5t-60.5 16q-37 0 -66.5 -17t-51 -46.5t-33.5 -68t-12 -80.5q0 -43 14 -73t41 -46t66 -16z" />
    <glyph glyph-name="uni1EB6" unicode="&#x1eb6;" horiz-adv-x="651" 
d="M-41 0l396 660h132l89 -660h-104l-58 457l-12 103v0l-57 -100l-269 -460h-117zM133 179l20 87h351l-20 -87h-351zM256 -218q-28 0 -45.5 15t-17.5 41q0 37 21 56.5t53 19.5q29 0 46.5 -15t17.5 -40q0 -37 -21.5 -57t-53.5 -20zM611 883q-11 -69 -59 -111t-119 -42
q-62 0 -98.5 34t-36.5 85q0 8 1 16.5t3 17.5h74q-1 -5 -1.5 -10t-0.5 -9q0 -30 18.5 -46.5t49.5 -16.5q35 0 59.5 20.5t31.5 61.5h78z" />
    <glyph glyph-name="uni1EB7" unicode="&#x1eb7;" horiz-adv-x="617" 
d="M237 -8q-55 0 -98 26.5t-67 74.5t-24 113q0 61 18.5 116t52 97.5t80 66.5t101.5 24q41 0 74.5 -14t56.5 -41t31 -66l26 111h107l-116 -500h-95l17 93q-25 -46 -68.5 -73.5t-95.5 -27.5zM274 77q32 0 60.5 17t50 47t34 69.5t12.5 82.5q0 40 -14.5 69.5t-40 45.5t-60.5 16
q-37 0 -66.5 -17t-51 -46.5t-33.5 -68t-12 -80.5q0 -43 14 -73t41 -46t66 -16zM216 -218q-28 0 -45.5 15t-17.5 41q0 37 21 56.5t53 19.5q29 0 46.5 -15t17.5 -40q0 -37 -21.5 -57t-53.5 -20zM534 723q-11 -69 -59 -111t-119 -42q-62 0 -98.5 34t-36.5 85q0 8 1 16.5t3 17.5
h74q-1 -5 -1.5 -10t-0.5 -9q0 -30 18.5 -46.5t49.5 -16.5q35 0 59.5 20.5t31.5 61.5h78z" />
    <glyph glyph-name="uni1EB8" unicode="&#x1eb8;" horiz-adv-x="625" 
d="M37 0l153 660h471l-22 -92h-363l-44 -190h285l-20 -90h-285l-45 -196h377l-22 -92h-485zM266 -218q-28 0 -45.5 15t-17.5 41q0 37 21 56.5t53 19.5q29 0 46.5 -15t17.5 -40q0 -37 -21.5 -57t-53.5 -20z" />
    <glyph glyph-name="uni1EB9" unicode="&#x1eb9;" horiz-adv-x="575" 
d="M278 -9q-71 0 -122 29.5t-79 80.5t-28 115q0 80 32 146.5t93 106.5t147 40q64 0 110 -26t70 -72.5t24 -108.5q0 -20 -2.5 -41t-9.5 -42h-403v82h345l-39 -28q4 12 5 23.5t1 21.5q0 33 -12.5 57t-36.5 37t-57 13q-45 0 -76.5 -18.5t-50.5 -50t-27 -69.5t-8 -75
q0 -42 16.5 -72.5t46 -47.5t69.5 -17q47 0 76.5 20t47.5 51l86 -46q-20 -34 -52.5 -58.5t-74 -37.5t-91.5 -13zM229 -218q-28 0 -45.5 15t-17.5 41q0 37 21 56.5t53 19.5q29 0 46.5 -15t17.5 -40q0 -37 -21.5 -57t-53.5 -20z" />
    <glyph glyph-name="uni1EBA" unicode="&#x1eba;" horiz-adv-x="625" 
d="M37 0l153 660h471l-22 -92h-363l-44 -190h285l-20 -90h-285l-45 -196h377l-22 -92h-485zM422 706l-15 45q31 6 44.5 21.5t13.5 34.5q0 18 -11 25.5t-25 7.5q-12 0 -24 -6.5t-21 -19.5l-45 47q16 24 44 38t60 14q41 0 69.5 -24t28.5 -67q0 -29 -14 -53t-40 -40.5
t-65 -22.5z" />
    <glyph glyph-name="uni1EBB" unicode="&#x1ebb;" horiz-adv-x="575" 
d="M278 -9q-71 0 -122 29.5t-79 80.5t-28 115q0 80 32 146.5t93 106.5t147 40q64 0 110 -26t70 -72.5t24 -108.5q0 -20 -2.5 -41t-9.5 -42h-403v82h345l-39 -28q4 12 5 23.5t1 21.5q0 33 -12.5 57t-36.5 37t-57 13q-45 0 -76.5 -18.5t-50.5 -50t-27 -69.5t-8 -75
q0 -42 16.5 -72.5t46 -47.5t69.5 -17q47 0 76.5 20t47.5 51l86 -46q-20 -34 -52.5 -58.5t-74 -37.5t-91.5 -13zM322 551l-15 49q34 5 51.5 21t17.5 34t-11 25.5t-25 7.5q-13 0 -25.5 -6.5t-23.5 -17.5l-42 46q18 22 45 35.5t60 13.5q43 0 70 -23.5t27 -66.5q0 -29 -14.5 -54
t-43.5 -41.5t-71 -22.5z" />
    <glyph glyph-name="uni1EBC" unicode="&#x1ebc;" horiz-adv-x="625" 
d="M37 0l153 660h471l-22 -92h-363l-44 -190h285l-20 -90h-285l-45 -196h377l-22 -92h-485zM640 877q-11 -69 -47 -105t-82 -36q-26 0 -44 10t-31.5 23t-25.5 23t-27 10q-17 0 -30.5 -18t-20.5 -49h-73q12 70 47.5 106t81.5 36q25 0 43 -10t31.5 -23t26 -23t27.5 -10
q17 0 30.5 18t21.5 48h72z" />
    <glyph glyph-name="uni1EBD" unicode="&#x1ebd;" horiz-adv-x="575" 
d="M278 -9q-71 0 -122 29.5t-79 80.5t-28 115q0 80 32 146.5t93 106.5t147 40q64 0 110 -26t70 -72.5t24 -108.5q0 -20 -2.5 -41t-9.5 -42h-403v82h345l-39 -28q4 12 5 23.5t1 21.5q0 33 -12.5 57t-36.5 37t-57 13q-45 0 -76.5 -18.5t-50.5 -50t-27 -69.5t-8 -75
q0 -42 16.5 -72.5t46 -47.5t69.5 -17q47 0 76.5 20t47.5 51l86 -46q-20 -34 -52.5 -58.5t-74 -37.5t-91.5 -13zM543 717q-11 -69 -47 -105t-82 -36q-26 0 -44 10t-31.5 23t-25.5 23t-27 10q-17 0 -30.5 -18t-20.5 -49h-73q12 70 47.5 106t81.5 36q25 0 43 -10t31.5 -23
t26 -23t27.5 -10q17 0 30.5 18t21.5 48h72z" />
    <glyph glyph-name="uni1EBE" unicode="&#x1ebe;" horiz-adv-x="625" 
d="M267 731l149 166h108l73 -166h-81l-56 105l-103 -105h-90zM671 988h101l-110 -144h-77zM37 0l153 660h471l-22 -92h-363l-44 -190h285l-20 -90h-285l-45 -196h377l-22 -92h-485z" />
    <glyph glyph-name="uni1EBF" unicode="&#x1ebf;" horiz-adv-x="575" 
d="M575 828h101l-111 -144h-77zM171 571l148 166h109l73 -166h-81l-56 105l-103 -105h-90zM278 -9q-71 0 -122.5 29.5t-78.5 80.5t-27 116q0 79 32 146t92.5 106.5t146.5 39.5q64 0 110 -25.5t70.5 -70t24.5 -101.5q0 -20 -3.5 -41.5t-10.5 -43.5h-402v72h345l-39 -27
q4 13 5 24.5t1 21.5q0 33 -12.5 57t-36.5 37t-57 13q-45 0 -76 -18.5t-50.5 -50t-27.5 -69.5t-8 -76q0 -41 16.5 -71.5t46 -47.5t69.5 -17q47 0 76.5 20t47.5 51l87 -46q-21 -34 -53.5 -58.5t-74.5 -37.5t-91 -13z" />
    <glyph glyph-name="uni1EC0" unicode="&#x1ec0;" horiz-adv-x="625" 
d="M267 731l149 166h108l73 -166h-81l-56 105l-103 -105h-90zM641 988l34 -144h-66l-59 144h91zM37 0l153 660h471l-22 -92h-363l-44 -190h285l-20 -90h-285l-45 -196h377l-22 -92h-485z" />
    <glyph glyph-name="uni1EC1" unicode="&#x1ec1;" horiz-adv-x="575" 
d="M545 828l34 -144h-66l-59 144h91zM171 571l148 166h109l73 -166h-81l-56 105l-103 -105h-90zM278 -9q-71 0 -122.5 29.5t-78.5 80.5t-27 116q0 79 32 146t92.5 106.5t146.5 39.5q64 0 110 -25.5t70.5 -70t24.5 -101.5q0 -20 -3.5 -41.5t-10.5 -43.5h-402v72h345l-39 -27
q4 13 5 24.5t1 21.5q0 33 -12.5 57t-36.5 37t-57 13q-45 0 -76 -18.5t-50.5 -50t-27.5 -69.5t-8 -76q0 -41 16.5 -71.5t46 -47.5t69.5 -17q47 0 76.5 20t47.5 51l87 -46q-21 -34 -53.5 -58.5t-74.5 -37.5t-91 -13z" />
    <glyph glyph-name="uni1EC2" unicode="&#x1ec2;" horiz-adv-x="625" 
d="M267 731l149 166h108l73 -166h-81l-56 105l-103 -105h-90zM614 821l-15 45q30 5 44 20.5t14 35.5q0 18 -11.5 25.5t-24.5 7.5t-25 -6.5t-20 -19.5l-46 47q17 23 44.5 37t59.5 14q41 0 69.5 -23.5t28.5 -66.5q0 -29 -14 -53.5t-40 -40.5t-64 -22zM37 0l153 660h471
l-22 -92h-363l-44 -190h285l-20 -90h-285l-45 -196h377l-22 -92h-485z" />
    <glyph glyph-name="uni1EC3" unicode="&#x1ec3;" horiz-adv-x="575" 
d="M518 661l-15 45q30 5 43.5 20.5t13.5 35.5q0 18 -11 25.5t-25 7.5q-12 0 -24 -6.5t-21 -19.5l-45 47q17 23 44.5 37t59.5 14q41 0 69.5 -23.5t28.5 -66.5q0 -29 -14 -53.5t-40 -40.5t-64 -22zM171 571l148 166h109l73 -166h-81l-56 105l-103 -105h-90zM278 -9
q-71 0 -122.5 29.5t-78.5 80.5t-27 116q0 79 32 146t92.5 106.5t146.5 39.5q64 0 110 -25.5t70.5 -70t24.5 -101.5q0 -20 -3.5 -41.5t-10.5 -43.5h-402v72h345l-39 -27q4 13 5 24.5t1 21.5q0 33 -12.5 57t-36.5 37t-57 13q-45 0 -76 -18.5t-50.5 -50t-27.5 -69.5t-8 -76
q0 -41 16.5 -71.5t46 -47.5t69.5 -17q47 0 76.5 20t47.5 51l87 -46q-21 -34 -53.5 -58.5t-74.5 -37.5t-91 -13z" />
    <glyph glyph-name="uni1EC4" unicode="&#x1ec4;" horiz-adv-x="625" 
d="M267 731l149 166h108l73 -166h-81l-56 105l-103 -105h-90zM664 1054q-9 -65 -42.5 -98t-78.5 -33q-25 0 -42 9t-30 21t-25 21t-28 9q-17 0 -28.5 -16t-16.5 -42h-70q8 64 41 97.5t78 33.5q24 0 41 -9.5t30 -21t26 -21t29 -9.5q17 0 28.5 16t17.5 43h70zM37 0l153 660h471
l-22 -92h-363l-44 -190h285l-20 -90h-285l-45 -196h377l-22 -92h-485z" />
    <glyph glyph-name="uni1EC5" unicode="&#x1ec5;" horiz-adv-x="575" 
d="M171 571l148 166h109l73 -166h-81l-56 105l-103 -105h-90zM568 894q-10 -65 -43 -98t-78 -33q-25 0 -42 9t-30 21t-25 21t-28 9q-18 0 -29 -16t-16 -42h-70q8 64 41 97.5t78 33.5q24 0 41 -9.5t30 -21t26 -21t29 -9.5q17 0 28.5 16t16.5 43h71zM278 -9q-71 0 -122.5 29.5
t-78.5 80.5t-27 116q0 79 32 146t92.5 106.5t146.5 39.5q64 0 110 -25.5t70.5 -70t24.5 -101.5q0 -20 -3.5 -41.5t-10.5 -43.5h-402v72h345l-39 -27q4 13 5 24.5t1 21.5q0 33 -12.5 57t-36.5 37t-57 13q-45 0 -76 -18.5t-50.5 -50t-27.5 -69.5t-8 -76q0 -41 16.5 -71.5
t46 -47.5t69.5 -17q47 0 76.5 20t47.5 51l87 -46q-21 -34 -53.5 -58.5t-74.5 -37.5t-91 -13z" />
    <glyph glyph-name="uni1EC6" unicode="&#x1ec6;" horiz-adv-x="625" 
d="M37 0l153 660h471l-22 -92h-363l-44 -190h285l-20 -90h-285l-45 -196h377l-22 -92h-485zM266 -218q-28 0 -45.5 15t-17.5 41q0 37 21 56.5t53 19.5q29 0 46.5 -15t17.5 -40q0 -37 -21.5 -57t-53.5 -20zM529 897l70 -160h-82l-53 102l-98 -102h-93l145 160h111z" />
    <glyph glyph-name="uni1EC7" unicode="&#x1ec7;" horiz-adv-x="575" 
d="M278 -9q-71 0 -122 29.5t-79 80.5t-28 115q0 80 32 146.5t93 106.5t147 40q64 0 110 -26t70 -72.5t24 -108.5q0 -20 -2.5 -41t-9.5 -42h-403v82h345l-39 -28q4 12 5 23.5t1 21.5q0 33 -12.5 57t-36.5 37t-57 13q-45 0 -76.5 -18.5t-50.5 -50t-27 -69.5t-8 -75
q0 -42 16.5 -72.5t46 -47.5t69.5 -17q47 0 76.5 20t47.5 51l86 -46q-20 -34 -52.5 -58.5t-74 -37.5t-91.5 -13zM229 -218q-28 0 -45.5 15t-17.5 41q0 37 21 56.5t53 19.5q29 0 46.5 -15t17.5 -40q0 -37 -21.5 -57t-53.5 -20zM167 571l151 169h112l74 -169h-83l-57 106
l-104 -106h-93z" />
    <glyph glyph-name="uni1EC8" unicode="&#x1ec8;" horiz-adv-x="298" 
d="M298 660l-153 -660h-108l153 660h108zM246 706l-15 45q31 6 44.5 21.5t13.5 34.5q0 18 -11 25.5t-25 7.5q-12 0 -24 -6.5t-21 -19.5l-45 47q16 24 44 38t60 14q41 0 69.5 -24t28.5 -67q0 -29 -14 -53t-40 -40.5t-65 -22.5z" />
    <glyph glyph-name="uni1EC9" unicode="&#x1ec9;" horiz-adv-x="267" 
d="M245 500l-116 -500h-107l116 500h107zM190 551l-15 49q34 5 51.5 21t17.5 34t-11 25.5t-25 7.5q-13 0 -25.5 -6.5t-23.5 -17.5l-42 46q18 22 45 35.5t60 13.5q43 0 70 -23.5t27 -66.5q0 -29 -14.5 -54t-43.5 -41.5t-71 -22.5z" />
    <glyph glyph-name="uni1ECA" unicode="&#x1eca;" horiz-adv-x="298" 
d="M298 660l-153 -660h-108l153 660h108zM53 -218q-28 0 -45.5 15t-17.5 41q0 37 21 56.5t53 19.5q29 0 46.5 -15t17.5 -40q0 -37 -21.5 -57t-53.5 -20z" />
    <glyph glyph-name="uni1ECB" unicode="&#x1ecb;" horiz-adv-x="267" 
d="M220 584q-30 0 -48 16t-16 44q1 35 22 54t53 19q31 0 48.5 -15.5t16.5 -42.5q-2 -37 -23 -56t-53 -19zM245 500l-116 -500h-107l116 500h107zM37 -218q-28 0 -45.5 15t-17.5 41q0 37 21 56.5t53 19.5q29 0 46.5 -15t17.5 -40q0 -37 -21.5 -57t-53.5 -20z" />
    <glyph glyph-name="uni1ECC" unicode="&#x1ecc;" horiz-adv-x="739" 
d="M358 -10q-77 0 -141 33.5t-102 99t-38 157.5q0 79 23 149t66 124t107.5 85.5t147.5 31.5q77 0 139.5 -34t100 -98.5t37.5 -157.5q0 -78 -22 -148.5t-65.5 -124.5t-107 -85.5t-145.5 -31.5zM366 84q55 0 96.5 25.5t69.5 68t42 95.5t14 107q0 62 -22 106t-61.5 67t-92.5 23
q-55 0 -97 -25.5t-70.5 -68t-42.5 -95t-14 -107.5q0 -62 22 -106t62 -67t94 -23zM302 -218q-28 0 -45.5 15t-17.5 41q0 37 21 56.5t53 19.5q29 0 46.5 -15t17.5 -40q0 -37 -21.5 -57t-53.5 -20z" />
    <glyph glyph-name="uni1ECD" unicode="&#x1ecd;" horiz-adv-x="596" 
d="M282 -9q-74 0 -125.5 30t-79.5 81.5t-28 113.5q0 85 33.5 151t93 104t140.5 38q74 0 125.5 -30t78.5 -81t27 -114q0 -83 -32.5 -149.5t-92.5 -105t-140 -38.5zM284 75q33 0 61.5 16t50 45t33 67.5t11.5 82.5q0 40 -13.5 71t-42 49.5t-71.5 18.5q-33 0 -62 -16t-50 -44.5
t-33 -67t-12 -83.5q0 -38 14 -70t42.5 -50.5t71.5 -18.5zM222 -218q-28 0 -45.5 15t-17.5 41q0 37 21 56.5t53 19.5q29 0 46.5 -15t17.5 -40q0 -37 -21.5 -57t-53.5 -20z" />
    <glyph glyph-name="uni1ECE" unicode="&#x1ece;" horiz-adv-x="739" 
d="M358 -10q-77 0 -141 33.5t-102 99t-38 157.5q0 79 23 149t66 124t107.5 85.5t147.5 31.5q77 0 139.5 -34t100 -98.5t37.5 -157.5q0 -78 -22 -148.5t-65.5 -124.5t-107 -85.5t-145.5 -31.5zM366 84q55 0 96.5 25.5t69.5 68t42 95.5t14 107q0 62 -22 106t-61.5 67t-92.5 23
q-55 0 -97 -25.5t-70.5 -68t-42.5 -95t-14 -107.5q0 -62 22 -106t62 -67t94 -23zM439 706l-15 45q31 6 44.5 21.5t13.5 34.5q0 18 -11 25.5t-25 7.5q-12 0 -24 -6.5t-21 -19.5l-45 47q16 24 44 38t60 14q41 0 69.5 -24t28.5 -67q0 -29 -14 -53t-40 -40.5t-65 -22.5z" />
    <glyph glyph-name="uni1ECF" unicode="&#x1ecf;" horiz-adv-x="596" 
d="M282 -9q-74 0 -125.5 30t-79.5 81.5t-28 113.5q0 85 33.5 151t93 104t140.5 38q74 0 125.5 -30t78.5 -81t27 -114q0 -83 -32.5 -149.5t-92.5 -105t-140 -38.5zM284 75q33 0 61.5 16t50 45t33 67.5t11.5 82.5q0 40 -13.5 71t-42 49.5t-71.5 18.5q-33 0 -62 -16t-50 -44.5
t-33 -67t-12 -83.5q0 -38 14 -70t42.5 -50.5t71.5 -18.5zM327 551l-15 49q34 5 51.5 21t17.5 34t-11 25.5t-25 7.5q-13 0 -25.5 -6.5t-23.5 -17.5l-42 46q18 22 45 35.5t60 13.5q43 0 70 -23.5t27 -66.5q0 -29 -14.5 -54t-43.5 -41.5t-71 -22.5z" />
    <glyph glyph-name="uni1ED0" unicode="&#x1ed0;" horiz-adv-x="739" 
d="M284 731l149 166h108l73 -166h-81l-55 105l-103 -105h-91zM688 988h101l-110 -144h-77zM358 -10q-77 0 -141 33.5t-102 99t-38 157.5q0 79 23 149t66 124t107.5 85.5t147.5 31.5q77 0 139.5 -34t100 -98.5t37.5 -157.5q0 -78 -22 -148.5t-65.5 -124.5t-107 -85.5
t-145.5 -31.5zM366 84q55 0 96.5 25.5t69.5 68t42 95.5t14 107q0 62 -22 106t-61.5 67t-92.5 23q-55 0 -97 -25.5t-70.5 -68t-42.5 -95t-14 -107.5q0 -62 22 -106t62 -67t94 -23z" />
    </font>
</defs>
</svg>
