<?xml version="1.0" standalone="no"?>
<!DOCTYPE svg PUBLIC "-//W3C//DTD SVG 1.1//EN" "http://www.w3.org/Graphics/SVG/1.1/DTD/svg11.dtd" >
<svg xmlns="http://www.w3.org/2000/svg" xmlns:xlink="http://www.w3.org/1999/xlink" version="1.1">
<metadata>
Created by FontForge 20170731 at Wed Feb 26 09:24:02 2020
 By Aleksey,,,
Copyright 2019 The Work Sans Project Authors (https://github.com/weiweihuanghuang/Work-Sans)
</metadata>
<defs>
<font id="WorkSans-ThinItalic" horiz-adv-x="604" >
  <font-face 
    font-family="Work Sans Thin"
    font-weight="250"
    font-style="italic"
    font-stretch="normal"
    units-per-em="1000"
    panose-1="0 0 0 0 0 0 0 0 0 0"
    ascent="800"
    descent="-200"
    x-height="500"
    cap-height="660"
    bbox="-217 -269 1255 1050"
    underline-thickness="50"
    underline-position="-175"
    slope="-13"
    unicode-range="U+000D-FB02"
  />
<missing-glyph horiz-adv-x="500" 
d="M130 80h240v500h-240v-500zM50 0v660h400v-660h-400z" />
    <glyph glyph-name="fi" unicode="fi" horiz-adv-x="498" 
d="M52 0l137 590q11 45 30.5 77.5t50.5 50t75 17.5q23 0 41.5 -7t31.5 -19l-7 -15q-13 14 -30 20.5t-36 6.5q-61 0 -93.5 -36t-49.5 -107l-18 -78l-2 -9l-114 -491h-16zM63 486l4 14h292l-4 -14h-292zM489 598q-9 0 -14.5 6t-5.5 14q0 11 6.5 17.5t16.5 6.5q9 0 14.5 -6
t5.5 -14q0 -11 -6 -17.5t-17 -6.5zM471 500l-116 -500h-16l116 500h16z" />
    <glyph glyph-name="fl" unicode="fl" horiz-adv-x="546" 
d="M52 0l137 590q11 45 30.5 77.5t50.5 50t75 17.5q23 0 41.5 -7t31.5 -19l-7 -15q-13 14 -30 20.5t-36 6.5q-61 0 -93.5 -36t-49.5 -107l-18 -78l-2 -9l-114 -491h-16zM63 486l4 14h292l-4 -14h-292zM428 -9q-48 0 -63.5 33t-1.5 96l141 610h16l-142 -614q-13 -55 -1 -83
t53 -28q18 0 30 2.5t23 6.5l-3 -14q-7 -4 -21 -6.5t-31 -2.5z" />
    <glyph glyph-name="f_f" unicode="ff" horiz-adv-x="599" 
d="M52 0l137 590q11 45 30.5 77.5t50.5 50t75 17.5q23 0 41.5 -7t31.5 -19l-7 -15q-13 14 -30 20.5t-36 6.5q-61 0 -93.5 -36t-49.5 -107l-18 -78l-2 -9l-114 -491h-16zM63 486l4 14h292l-4 -14h-292zM337 0l137 590q11 45 30.5 77.5t50.5 50t75 17.5q23 0 41.5 -7t31.5 -19
l-7 -15q-13 14 -30 20.5t-36 6.5q-61 0 -93.5 -36t-49.5 -107l-18 -78l-2 -9l-114 -491h-16zM348 486l4 14h292l-4 -14h-292z" />
    <glyph glyph-name="f_f_i" unicode="ffi" horiz-adv-x="783" 
d="M52 0l137 590q11 45 30.5 77.5t50.5 50t75 17.5q23 0 41.5 -7t31.5 -19l-7 -15q-13 14 -30 20.5t-36 6.5q-61 0 -93.5 -36t-49.5 -107l-18 -78l-2 -9l-114 -491h-16zM63 486l4 14h292l-4 -14h-292zM337 0l137 590q11 45 30.5 77.5t50.5 50t75 17.5q23 0 41.5 -7t31.5 -19
l-7 -15q-13 14 -30 20.5t-36 6.5q-61 0 -93.5 -36t-49.5 -107l-18 -78l-2 -9l-114 -491h-16zM348 486l4 14h292l-4 -14h-292zM774 598q-9 0 -14.5 6t-5.5 14q0 11 6.5 17.5t16.5 6.5q9 0 14.5 -6t5.5 -14q0 -11 -6 -17.5t-17 -6.5zM756 500l-116 -500h-16l116 500h16z" />
    <glyph glyph-name="f_f_l" unicode="ffl" horiz-adv-x="831" 
d="M52 0l137 590q11 45 30.5 77.5t50.5 50t75 17.5q23 0 41.5 -7t31.5 -19l-7 -15q-13 14 -30 20.5t-36 6.5q-61 0 -93.5 -36t-49.5 -107l-18 -78l-2 -9l-114 -491h-16zM63 486l4 14h292l-4 -14h-292zM337 0l137 590q11 45 30.5 77.5t50.5 50t75 17.5q23 0 41.5 -7t31.5 -19
l-7 -15q-13 14 -30 20.5t-36 6.5q-61 0 -93.5 -36t-49.5 -107l-18 -78l-2 -9l-114 -491h-16zM348 486l4 14h292l-4 -14h-292zM713 -9q-48 0 -63.5 33t-1.5 96l141 610h16l-142 -614q-13 -55 -1 -83t53 -28q18 0 30 2.5t23 6.5l-3 -14q-7 -4 -21 -6.5t-31 -2.5z" />
    <glyph glyph-name=".notdef" horiz-adv-x="500" 
d="M130 80h240v500h-240v-500zM50 0v660h400v-660h-400z" />
    <glyph glyph-name=".null" horiz-adv-x="0" 
 />
    <glyph glyph-name="nonmarkingreturn" horiz-adv-x="333" 
 />
    <glyph glyph-name="NULL" horiz-adv-x="0" 
 />
    <glyph glyph-name="NULL" horiz-adv-x="0" 
 />
    <glyph glyph-name="CR" unicode="&#xd;" horiz-adv-x="278" 
 />
    <glyph glyph-name="space" unicode=" " horiz-adv-x="278" 
 />
    <glyph glyph-name="exclam" unicode="!" horiz-adv-x="182" 
d="M65 170l30 132l83 358h16l-83 -358l-30 -132h-16zM37 -5q-9 0 -14.5 5.5t-5.5 14.5q0 10 6 17t16 7q9 0 14.5 -5.5t5.5 -14.5q0 -10 -6.5 -17t-15.5 -7z" />
    <glyph glyph-name="quotedbl" unicode="&#x22;" horiz-adv-x="241" 
d="M274 680l-37 -159h-16l36 159h17zM182 680l-37 -159h-16l36 159h17z" />
    <glyph glyph-name="numbersign" unicode="#" horiz-adv-x="602" 
d="M291 0l223 660h16l-223 -660h-16zM36 213v14h516v-14h-516zM83 0l223 660h16l-223 -660h-16zM92 443v14h511v-14h-511z" />
    <glyph glyph-name="dollar" unicode="$" horiz-adv-x="598" 
d="M300 0q-67 0 -122 25.5t-90 68.5t-45 96l15 5q9 -49 42 -90.5t85 -66t116 -24.5q61 0 106.5 20.5t70.5 56.5t25 82q0 59 -44 89.5t-113 49.5l-44 12q-51 14 -91 34.5t-63 52.5t-23 79q0 53 27.5 91t77 58.5t116.5 20.5t111.5 -21t72 -56t40.5 -79l-15 -8q-12 42 -37.5 76
t-67.5 54t-106 20q-91 0 -147 -42t-56 -113q0 -43 21 -72t58 -47.5t85 -31.5l48 -13q73 -19 119.5 -54t46.5 -100q0 -51 -27 -90t-76 -61t-116 -22zM209 -100l200 860h15l-199 -860h-16z" />
    <glyph glyph-name="percent" unicode="%" horiz-adv-x="755" 
d="M86 0l598 660h21l-598 -660h-21zM214 327q-39 0 -66.5 17t-42 48t-14.5 71q0 56 19.5 100.5t57 70.5t90.5 26q38 0 64 -17.5t39.5 -47.5t13.5 -70q0 -53 -18.5 -98.5t-54.5 -72.5t-88 -27zM216 341q47 0 78.5 25t48 66.5t16.5 89.5q0 56 -27 90t-76 34q-47 0 -80.5 -24
t-51 -65t-17.5 -91q0 -58 30 -91.5t79 -33.5zM539 0q-39 0 -66.5 17t-42 48t-14.5 71q0 56 19.5 100.5t57 70.5t90.5 26q38 0 64 -17.5t39.5 -47.5t13.5 -70q0 -53 -18.5 -98.5t-54.5 -72.5t-88 -27zM541 14q47 0 78.5 25.5t48 66.5t16.5 89q0 56 -27 90t-76 34
q-47 0 -80.5 -24t-51 -65t-17.5 -91q0 -58 30 -91.5t79 -33.5z" />
    <glyph glyph-name="ampersand" unicode="&#x26;" horiz-adv-x="550" 
d="M213 -10q-55 0 -97.5 19t-66 54.5t-23.5 84.5q0 54 24 90.5t70 62.5t111 50l5 2q63 24 110 50.5t73 61.5t26 84q0 44 -30 73.5t-83 29.5q-57 0 -93.5 -37.5t-36.5 -92.5q0 -22 6 -54.5t18.5 -71.5t32 -82.5t45.5 -88.5q51 -87 90 -135t71.5 -66.5t63.5 -18.5l-4 -15v0
q-34 0 -69.5 21.5t-75.5 71.5t-90 135q-32 57 -55.5 113.5t-36 106t-12.5 84.5q0 42 18.5 74.5t51.5 51t76 18.5q62 0 95.5 -33.5t33.5 -83.5q0 -53 -28 -91t-77 -66t-114 -52l-5 -2q-60 -23 -103.5 -47.5t-67.5 -58t-24 -84.5q0 -67 48 -105.5t123 -38.5q53 0 98 18.5
t81 52.5l6 6q50 48 79.5 122t36.5 162h16q-7 -91 -38.5 -168.5t-85.5 -128.5l-3 -3q-25 -23 -55 -40t-63.5 -26t-71.5 -9z" />
    <glyph glyph-name="quotesingle" unicode="'" horiz-adv-x="149" 
d="M182 680l-37 -159h-16l36 159h17z" />
    <glyph glyph-name="parenleft" unicode="(" horiz-adv-x="253" 
d="M134 -170q-40 70 -60 159t-20 185q0 87 21 171.5t59.5 160t93 136t120.5 98.5l7 -11q-92 -58 -156 -146.5t-96.5 -193.5t-32.5 -215q0 -89 17 -173.5t58 -163.5z" />
    <glyph glyph-name="parenright" unicode=")" horiz-adv-x="254" 
d="M136 740q40 -70 60 -159t20 -185q0 -87 -21 -171.5t-59.5 -160t-93 -136t-120.5 -98.5l-7 11q92 58 156 146.5t96.5 193.5t32.5 215q0 89 -17 173.5t-58 163.5z" />
    <glyph glyph-name="asterisk" unicode="*" horiz-adv-x="503" 
d="M395 316l-56 116l-29 65l-56 -57l-102 -99l-11 11l102 99l59 54l-67 30l-115 55l7 14l115 -55l65 -34l15 80l28 135h16l-29 -138l-18 -78l74 17l133 27l2 -16l-133 -27l-75 -13l33 -63l56 -116z" />
    <glyph glyph-name="plus" unicode="+" 
d="M378 545l-107 -466h-16l107 466h16zM551 323l-3 -14h-464l3 14h464z" />
    <glyph glyph-name="comma" unicode="," horiz-adv-x="168" 
d="M33 39q13 0 20 -8.5t7 -22.5q0 -23 -12 -47.5t-32 -43t-45 -24.5l-5 14q26 6 44 23t28 38t10 39h-1q-4 -7 -9.5 -10t-11.5 -3q-9 0 -14 6t-5 15q0 10 7 17t19 7z" />
    <glyph glyph-name="hyphen" unicode="-" horiz-adv-x="417" 
d="M355 278l-3 -16h-281l3 16h281z" />
    <glyph glyph-name="period" unicode="." horiz-adv-x="167" 
d="M29 -5q-9 0 -14.5 5.5t-5.5 14.5q0 10 6 17t16 7q9 0 14.5 -5.5t5.5 -14.5q0 -10 -6.5 -17t-15.5 -7z" />
    <glyph glyph-name="slash" unicode="/" horiz-adv-x="349" 
d="M424 730l-445 -800h-18l445 800h18z" />
    <glyph glyph-name="zero" unicode="0" horiz-adv-x="600" 
d="M282 -6q-72 0 -120 33t-71.5 90t-23.5 128q0 38 4 75t12 72q14 57 38 107t58.5 88t80 59t100.5 21q70 0 116.5 -33t70 -90t23.5 -128q0 -37 -4 -73t-12 -71q-13 -58 -37.5 -108.5t-59 -88.5t-78.5 -59.5t-97 -21.5zM283 8q67 0 118 36t85.5 96.5t51.5 133.5q8 35 12 70.5
t4 71.5q0 108 -50.5 172.5t-144.5 64.5q-70 0 -122 -35.5t-86.5 -95t-51.5 -132.5q-8 -35 -12 -71.5t-4 -73.5q0 -72 23 -125.5t68 -82.5t109 -29z" />
    <glyph glyph-name="one" unicode="1" horiz-adv-x="309" 
d="M145 0l131 568q4 16 7.5 30.5t9.5 33.5q-27 -31 -60 -56.5t-69 -42.5t-72 -25l-1 14q37 11 74.5 30t72 46.5t61.5 61.5h15l-153 -660h-16z" />
    <glyph glyph-name="two" unicode="2" horiz-adv-x="533" 
d="M4 0l3 15q106 74 193.5 138t151.5 122t98.5 114.5t34.5 116.5q0 83 -44.5 116.5t-117.5 33.5q-78 0 -135.5 -49.5t-77.5 -128.5l-13 7q14 54 45 96t77 65.5t105 23.5q54 0 93.5 -17.5t61.5 -52.5t22 -90q0 -51 -22.5 -98.5t-64.5 -94.5t-100.5 -95.5t-129.5 -99.5
t-151 -107v-1h14h14h376l-3 -14h-430z" />
    <glyph glyph-name="three" unicode="3" horiz-adv-x="508" 
d="M228 -10q-84 0 -140 46.5t-73 128.5l16 4q12 -73 65 -119t133 -46q58 0 103.5 21.5t72 61.5t26.5 96q0 62 -41.5 103t-123.5 41h-12.5t-15.5 -1l3 16q10 -1 16 -1h13q64 0 109.5 22t69.5 60t24 84q0 48 -21 81.5t-57.5 51t-83.5 17.5q-72 0 -124.5 -32.5t-78.5 -93.5
l-14 9q27 63 84 97t134 34q53 0 92.5 -20t62 -56.5t22.5 -86.5q0 -48 -22.5 -85.5t-60 -60t-82.5 -28.5v-1q35 -6 63 -26.5t44.5 -51.5t16.5 -70q0 -61 -29 -104.5t-78.5 -67t-112.5 -23.5z" />
    <glyph glyph-name="four" unicode="4" horiz-adv-x="515" 
d="M290 0l48 205h-315l3 14q5 5 11 12t18 20l382 409h24l-104 -441h130l-3 -14h-130l-48 -205h-16zM44 219h297l100 424l-364 -390q-11 -12 -18.5 -19.5z" />
    <glyph glyph-name="five" unicode="5" horiz-adv-x="524" 
d="M251 -10q-61 0 -107.5 25t-73.5 65t-32 86l15 4q4 -44 30 -82t69.5 -61t99.5 -23q65 0 111 30t70 78.5t24 104.5q0 57 -23.5 95t-63.5 57.5t-91 19.5q-55 0 -96 -19.5t-66 -41.5l-15 6l99 326h335l-3 -14h-322l-90 -302q24 23 68 41t95 18q54 0 96.5 -21.5t67.5 -62.5
t25 -100q0 -62 -26.5 -114t-76 -83.5t-119.5 -31.5z" />
    <glyph glyph-name="six" unicode="6" horiz-adv-x="531" 
d="M274 -10q-69 0 -115 32t-69.5 90t-23.5 137q0 80 20 154.5t59 134t97.5 94.5t134.5 35q60 0 106 -31.5t61 -88.5l-14 -6q-14 53 -57 82.5t-96 29.5q-70 0 -124.5 -32.5t-92.5 -89.5t-58 -132t-21 -161q19 71 76 112.5t138 41.5q83 0 136 -50t53 -140q0 -65 -27 -112.5
t-74.5 -73.5t-108.5 -26zM274 4q57 0 101 24.5t68.5 68.5t24.5 103q0 85 -49 131.5t-129 46.5q-55 0 -101 -25t-73 -67t-27 -93q0 -28 10 -61t32 -62t57 -47.5t86 -18.5z" />
    <glyph glyph-name="seven" unicode="7" horiz-adv-x="478" 
d="M108 660h448l-4 -14q-98 -87 -174 -186t-130 -213t-86 -247h-19q32 127 85.5 242t131 218.5t181.5 194.5v-9h-437z" />
    <glyph glyph-name="eight" unicode="8" horiz-adv-x="573" 
d="M263 -9q-47 0 -87.5 12.5t-70.5 36.5t-46.5 57t-16.5 73q0 61 33 100.5t84.5 59.5t104.5 20l23 -6q-37 6 -70 28t-53.5 55t-20.5 71q0 49 24.5 88t69.5 62t108 23q59 0 103 -21t68.5 -57t24.5 -83q0 -73 -49.5 -120.5t-142.5 -52.5l-10 4q40 -4 76 -28t58.5 -60t22.5 -77
q0 -61 -28.5 -102t-81 -62t-123.5 -21zM268 5q61 0 109 18.5t75.5 55.5t27.5 92q0 47 -27 84.5t-74 59.5t-109 22q-54 0 -102.5 -19t-79 -56t-30.5 -91q0 -52 28 -89t75.5 -57t106.5 -20zM341 348q55 0 96.5 20.5t64.5 57t23 82.5q0 65 -49.5 107t-130.5 42q-58 0 -99.5 -21
t-64 -57t-22.5 -80q0 -40 24 -74.5t65.5 -55.5t92.5 -21z" />
    <glyph glyph-name="nine" unicode="9" horiz-adv-x="544" 
d="M224 -10q-53 0 -95 19t-69.5 53t-39.5 78l14 5q12 -42 38 -74t65 -49.5t87 -17.5q64 0 115 33.5t86.5 92t54.5 134.5t19 161q-11 -49 -41 -85t-73 -55t-95 -19q-58 0 -102 24t-68 68t-24 104q0 56 26 103.5t73.5 76t111.5 28.5q58 0 105 -27.5t74.5 -82.5t27.5 -138
q0 -85 -19.5 -163t-57 -138.5t-91 -95.5t-122.5 -35zM290 280q55 0 100.5 25t73 68.5t27.5 99.5q0 47 -23 89t-64.5 68t-96.5 26q-60 0 -103.5 -26t-67.5 -69.5t-24 -96.5q0 -57 22 -98t62.5 -63.5t93.5 -22.5z" />
    <glyph glyph-name="colon" unicode=":" horiz-adv-x="192" 
d="M101 29q-9 0 -14.5 5.5t-5.5 14.5q0 10 6 17t16 7q9 0 14.5 -5.5t5.5 -14.5q0 -10 -6.5 -17t-15.5 -7zM208 490q-9 0 -14.5 5.5t-5.5 14.5q0 10 6 17t16 7q9 0 14.5 -5.5t5.5 -14.5q0 -10 -6.5 -17t-15.5 -7z" />
    <glyph glyph-name="semicolon" unicode=";" horiz-adv-x="192" 
d="M44 39q13 0 20 -8.5t7 -22.5q0 -23 -12 -47.5t-32 -43t-45 -24.5l-5 14q26 6 44 23t28 38t10 39h-1q-4 -7 -9.5 -10t-11.5 -3q-9 0 -14 6t-5 15q0 10 7 17t19 7zM151 500q9 0 14.5 -5.5t5.5 -14.5q0 -10 -6 -17t-16 -7q-9 0 -14.5 5.5t-5.5 14.5q0 10 6.5 17t15.5 7z" />
    <glyph glyph-name="less" unicode="&#x3c;" horiz-adv-x="605" 
d="M581 541l-5 -21l-479 -222l376 -224l-4 -16l-388 232l4 19z" />
    <glyph glyph-name="equal" unicode="=" 
d="M557 422l-4 -14h-430l4 14h430zM510 218l-4 -14h-430l4 14h430z" />
    <glyph glyph-name="greater" unicode="&#x3e;" horiz-adv-x="605" 
d="M47 58l5 21l479 222l-376 224l4 16l388 -232l-4 -19z" />
    <glyph glyph-name="question" unicode="?" horiz-adv-x="473" 
d="M195 150l37 157q84 1 137 25.5t78 67.5t25 98q0 71 -44.5 113.5t-124.5 42.5q-81 0 -129.5 -39t-67.5 -93l-13 8q15 40 42 71t68.5 49t99.5 18t99.5 -21t63.5 -59t22 -90q0 -61 -29 -107.5t-83.5 -72.5t-131.5 -27l-33 -141h-16zM171 -5q-9 0 -14.5 5.5t-5.5 14.5
q0 10 6 17t16 7q9 0 14.5 -5.5t5.5 -14.5q0 -10 -6.5 -17t-15.5 -7z" />
    <glyph glyph-name="at" unicode="@" horiz-adv-x="910" 
d="M449 -171q-113 0 -198.5 45.5t-132.5 131t-47 206.5q0 107 34.5 188.5t93.5 137t135 84t158 28.5q94 0 162 -29t112.5 -80t66 -118t21.5 -143q0 -52 -12 -101.5t-35 -89.5t-55 -63.5t-72 -23.5q-34 0 -53.5 17t-26.5 43.5t-4 52.5q-23 -44 -65 -73.5t-105 -29.5
q-55 0 -94.5 27t-60.5 73t-21 102q0 55 16.5 102.5t46.5 83.5t70 56t88 20q52 0 89 -22.5t57 -64.5t20 -100l41 177h16l-78 -331q-3 -11 -4 -21.5t-1 -19.5q0 -44 23.5 -61t48.5 -17q35 0 63.5 23.5t49 62t31.5 85t11 91.5q0 73 -20.5 138t-62.5 114.5t-107.5 77.5
t-155.5 28q-79 0 -151.5 -27.5t-129.5 -81t-90.5 -132.5t-33.5 -183q0 -87 26 -155.5t74.5 -116t114.5 -72.5t147 -25q78 0 145 20t103 46l10 -13q-26 -17 -65.5 -32.5t-88.5 -25t-104 -9.5zM423 26q61 0 106 32.5t70 89.5t25 131q0 66 -21 106t-56 57.5t-77 17.5
q-41 0 -78 -18t-65.5 -50.5t-44.5 -77.5t-16 -100q0 -57 21 -99.5t56.5 -65.5t79.5 -23z" />
    <glyph glyph-name="A" unicode="A" horiz-adv-x="575" 
d="M-46 0l418 660h21l112 -660h-16l-102 595l-8 47v0l-27 -45l-379 -597h-19zM112 236l4 14h342l-4 -14h-342z" />
    <glyph glyph-name="B" unicode="B" horiz-adv-x="630" 
d="M39 0l153 660h212q91 0 137.5 -40.5t46.5 -108.5q0 -47 -22 -86.5t-61.5 -64.5t-94.5 -31v1q72 -7 108.5 -44t36.5 -92q0 -62 -28.5 -105.5t-82.5 -66t-133 -22.5h-272zM58 14h253q111 0 169.5 46.5t58.5 133.5q0 34 -16 63.5t-56 47.5t-113 18h-224zM133 337h237
q65 0 110 25t68.5 65t23.5 84q0 62 -42.5 98.5t-128.5 36.5h-196z" />
    <glyph glyph-name="C" unicode="C" horiz-adv-x="661" 
d="M343 -10q-74 0 -135.5 33t-97.5 97t-36 157q0 77 21 148t63 126t104.5 87t144.5 32q59 0 107.5 -21t84 -61t52.5 -98l-15 -4q-25 82 -86 126t-144 44q-78 0 -137 -31t-99 -84.5t-60 -121t-20 -139.5q0 -87 34.5 -149t92.5 -94.5t127 -32.5q83 0 143.5 35t96.5 101l13 -10
q-38 -67 -102.5 -103.5t-151.5 -36.5z" />
    <glyph glyph-name="D" unicode="D" horiz-adv-x="686" 
d="M44 0l153 660h194q85 0 142.5 -35t87.5 -96t30 -139q0 -83 -25 -154t-72.5 -124t-115 -82.5t-151.5 -29.5h-243zM64 14h224q80 0 144 28.5t109.5 79.5t69.5 119.5t24 147.5q0 74 -27.5 132t-82 91.5t-137.5 33.5h-178z" />
    <glyph glyph-name="E" unicode="E" horiz-adv-x="572" 
d="M39 0l153 660h426l-4 -14h-410l-69 -302h331l-4 -14h-331l-72 -316h428l-3 -14h-445z" />
    <glyph glyph-name="F" unicode="F" horiz-adv-x="530" 
d="M601 646h-397l-69 -302h326l-4 -14h-326l-76 -330h-16l153 660h413z" />
    <glyph glyph-name="G" unicode="G" horiz-adv-x="689" 
d="M343 -9q-74 0 -135.5 32.5t-97.5 96t-36 156.5q0 77 21.5 148t65 126.5t108.5 87.5t151 32q57 0 105 -20t84.5 -59t58.5 -96l-15 -4q-32 81 -93 123t-141 42q-82 0 -143.5 -31.5t-103 -85t-62 -121t-20.5 -139.5q0 -87 34.5 -148.5t92.5 -93.5t127 -32q56 0 108.5 21
t93.5 71t60 137l13 56h-236l3 14h252l-70 -304h-16l44 186l8 13q-17 -79 -57 -124t-93 -64.5t-111 -19.5z" />
    <glyph glyph-name="H" unicode="H" horiz-adv-x="682" 
d="M680 660l-153 -660h-16l153 660h16zM208 660l-153 -660h-16l153 660h16zM600 344l-4 -14h-473l4 14h473z" />
    <glyph glyph-name="I" unicode="I" horiz-adv-x="210" 
d="M208 660l-153 -660h-16l153 660h16z" />
    <glyph glyph-name="J" unicode="J" horiz-adv-x="483" 
d="M177 -10q-48 0 -83 16t-55.5 46t-24 72.5t12.5 94.5l15 1q-19 -68 -8.5 -116.5t48 -74t96.5 -25.5q75 0 122 44.5t69 140.5l108 471h16l-109 -473q-15 -68 -43 -111.5t-68.5 -64.5t-95.5 -21z" />
    <glyph glyph-name="K" unicode="K" horiz-adv-x="546" 
d="M39 0l153 660h16l-93 -400l477 400h26l-314 -263l171 -397h-18l-167 385l-181 -152l-54 -233h-16z" />
    <glyph glyph-name="L" unicode="L" horiz-adv-x="532" 
d="M59 14h407l-4 -14h-423l153 660h16z" />
    <glyph glyph-name="M" unicode="M" horiz-adv-x="770" 
d="M39 0l153 660h21l112 -610l5 -33v0l18 30l398 613h22l-153 -660h-16l135 582l14 55v0l-411 -637h-19l-117 637v0l-11 -55l-135 -582h-16z" />
    <glyph glyph-name="N" unicode="N" horiz-adv-x="680" 
d="M39 0l153 660h21l283 -604l18 -40v0l12 57l136 587h16l-153 -660h-21l-283 604l-18 40v0l-12 -57l-136 -587h-16z" />
    <glyph glyph-name="O" unicode="O" horiz-adv-x="712" 
d="M344 -10q-74 0 -135.5 33.5t-97.5 98.5t-36 158q0 77 21 147t63 124.5t104.5 86.5t144.5 32q74 0 134.5 -34t96 -98.5t35.5 -157.5q0 -76 -21 -146t-62.5 -125t-103 -87t-143.5 -32zM345 4q77 0 135.5 31t98 83.5t59.5 120.5t20 141q0 89 -34 150.5t-90.5 93.5t-126.5 32
q-78 0 -137 -31t-99 -83.5t-60 -120t-20 -141.5q0 -89 34.5 -150.5t92.5 -93.5t127 -32z" />
    <glyph glyph-name="P" unicode="P" horiz-adv-x="569" 
d="M39 0l153 660h171q94 0 150.5 -44t56.5 -123q0 -61 -28 -109t-82.5 -76t-132.5 -28h-213v14h215q72 0 122 27t76.5 72t26.5 100q0 71 -51 112t-140 41h-158l-150 -646h-16z" />
    <glyph glyph-name="Q" unicode="Q" horiz-adv-x="712" 
d="M456 -195q-33 0 -60.5 9.5t-47.5 27.5t-31 43.5t-11 56.5q0 14 2.5 28.5t6.5 30.5l13 -5q-4 -14 -5.5 -27t-1.5 -25q0 -58 38 -91.5t99 -33.5q23 0 47.5 6t43.5 17l6 -12q-19 -12 -44.5 -18.5t-54.5 -6.5zM344 -10q-74 0 -135.5 33.5t-97.5 98.5t-36 158q0 77 21 147
t63 124.5t104.5 86.5t144.5 32q74 0 134.5 -34t96 -98.5t35.5 -157.5q0 -76 -21 -146t-62.5 -125t-103 -87t-143.5 -32zM345 4q77 0 135.5 31t98 83.5t59.5 120.5t20 141q0 89 -34 150.5t-90.5 93.5t-126.5 32q-78 0 -137 -31t-99 -83.5t-60 -120t-20 -141.5
q0 -89 34.5 -150.5t92.5 -93.5t127 -32z" />
    <glyph glyph-name="R" unicode="R" horiz-adv-x="606" 
d="M39 0l153 660h202q94 0 143 -43.5t49 -117.5q0 -58 -25 -104t-76 -72.5t-129 -26.5v0h-241v14h243q72 0 119 25t70 67.5t23 94.5q0 66 -43.5 107.5t-132.5 41.5h-189l-150 -646h-16zM492 0l-120 308h17l120 -308h-17z" />
    <glyph glyph-name="S" unicode="S" horiz-adv-x="596" 
d="M301 -8q-71 0 -128.5 24.5t-93 67.5t-44.5 101l16 5q6 -54 40.5 -95.5t89 -65t120.5 -23.5q57 0 106.5 18t80.5 54.5t31 89.5q0 52 -41.5 87t-118.5 55l-78 21q-50 14 -85 37.5t-53 56.5t-18 74q0 49 26.5 87.5t77 61.5t120.5 23q90 0 154 -39.5t84 -120.5l-15 -5
q-14 52 -45 85.5t-76 49.5t-103 16q-63 0 -109.5 -21t-72 -56.5t-25.5 -79.5q0 -55 36.5 -94.5t108.5 -59.5l74 -20q85 -22 130 -61t45 -95q0 -59 -32.5 -98.5t-85.5 -59.5t-116 -20z" />
    <glyph glyph-name="T" unicode="T" horiz-adv-x="534" 
d="M618 660l-4 -14h-247l-149 -646h-16l149 646h-249l4 14h512z" />
    <glyph glyph-name="U" unicode="U" horiz-adv-x="656" 
d="M307 -10q-87 0 -143 35t-75.5 99t0.5 152l90 384h16l-91 -389q-20 -84 -0.5 -144t72.5 -91.5t131 -31.5q101 0 161.5 64t88.5 182l95 410h16l-96 -415q-28 -121 -91.5 -188t-173.5 -67z" />
    <glyph glyph-name="V" unicode="V" horiz-adv-x="565" 
d="M643 660l-406 -660h-22l-103 660h16l90 -571l11 -71l40 66l355 576h19z" />
    <glyph glyph-name="W" unicode="W" horiz-adv-x="892" 
d="M179 0l-61 660h16l59 -641l335 641h23l38 -642l357 642h18l-367 -660h-22l-31 514l-8 127h-1l-71 -139l-265 -502h-20z" />
    <glyph glyph-name="X" unicode="X" horiz-adv-x="516" 
d="M-41 0l314 341l-142 319h16l137 -309l278 309h21l-291 -323l149 -337h-17l-144 327l-300 -327h-21z" />
    <glyph glyph-name="Y" unicode="Y" horiz-adv-x="503" 
d="M185 0l59 255l-133 405h17l79 -241l48 -147l125 159l182 229h20l-322 -405l-59 -255h-16z" />
    <glyph glyph-name="Z" unicode="Z" horiz-adv-x="542" 
d="M-29 0l3 14l590 632h-443l3 14h464l-3 -14l-590 -632h469l-4 -14h-489z" />
    <glyph glyph-name="bracketleft" unicode="[" horiz-adv-x="268" 
d="M365 716h-166l-201 -870h166l-4 -14h-181l208 898h181z" />
    <glyph glyph-name="backslash" unicode="\" horiz-adv-x="373" 
d="M145 730h16l104 -800h-16z" />
    <glyph glyph-name="bracketright" unicode="]" horiz-adv-x="269" 
d="M-82 -154h166l201 870h-166l4 14h181l-208 -898h-181z" />
    <glyph glyph-name="asciicircum" unicode="^" horiz-adv-x="533" 
d="M61 355l306 375h19l134 -375h-18l-128 359l-293 -359h-20z" />
    <glyph glyph-name="underscore" unicode="_" horiz-adv-x="499" 
d="M419 -97l-3 -14h-499l3 14h499z" />
    <glyph glyph-name="grave" unicode="`" horiz-adv-x="550" 
d="M352 730l52 -147h-14l-55 147h17z" />
    <glyph glyph-name="a" unicode="a" horiz-adv-x="582" 
d="M253 -10q-64 0 -110 29.5t-70.5 80.5t-24.5 117q0 62 17.5 115t51 93t81 62.5t106.5 22.5q62 0 105 -24.5t66 -68.5t22 -101l43 184h16l-116 -500h-16l29 126q-27 -57 -76 -96.5t-124 -39.5zM257 4q53 0 95 26t72 69.5t46 96t16 106.5q0 70 -26 112.5t-67.5 62
t-89.5 19.5q-54 0 -97.5 -20.5t-75.5 -58t-49 -88.5t-17 -113q0 -67 25.5 -114.5t69.5 -72.5t98 -25z" />
    <glyph glyph-name="b" unicode="b" horiz-adv-x="582" 
d="M336 510q63 0 107 -30t67.5 -81t23.5 -114q0 -60 -16.5 -113t-47.5 -94t-76 -64.5t-102 -23.5q-63 0 -108 26.5t-69.5 72.5t-26.5 106l-45 -195h-16l168 730h16l-80 -345q30 60 84 92.5t121 32.5zM293 4q51 0 92 21.5t71 60t46 89.5t16 111q0 65 -24 112t-65.5 72.5
t-93.5 25.5q-55 0 -98 -22t-73 -62t-45.5 -93.5t-15.5 -115.5q0 -92 52.5 -145.5t137.5 -53.5z" />
    <glyph glyph-name="c" unicode="c" horiz-adv-x="516" 
d="M259 -10q-60 0 -108 27.5t-76 78t-28 118.5q0 82 30.5 149t87 107t134.5 40q48 0 85.5 -17.5t63 -50t35.5 -79.5l-15 -3q-14 64 -57.5 100t-111.5 36q-56 0 -99.5 -22t-74 -61t-46.5 -89t-16 -107q0 -67 26.5 -114.5t71.5 -73t101 -25.5q63 0 110 34.5t72 86.5l12 -7
q-27 -56 -77.5 -92t-119.5 -36z" />
    <glyph glyph-name="d" unicode="d" horiz-adv-x="582" 
d="M253 -10q-64 0 -110 29.5t-70.5 80.5t-24.5 117q0 62 17.5 115t51 93t81 62.5t106.5 22.5q60 0 104 -24t67 -68.5t21 -106.5l96 419h16l-168 -730h-16l29 126q-27 -57 -76 -96.5t-124 -39.5zM257 4q53 0 95 26t72 69.5t46 96t16 106.5q0 70 -26 112.5t-67.5 62
t-89.5 19.5q-54 0 -97.5 -20.5t-75.5 -58t-49 -88.5t-17 -113q0 -67 25.5 -114.5t69.5 -72.5t98 -25z" />
    <glyph glyph-name="e" unicode="e" horiz-adv-x="527" 
d="M260 -9q-68 0 -116 30.5t-72.5 82t-24.5 113.5q0 78 29.5 144.5t85.5 107t135 40.5q58 0 100 -27t64.5 -73t22.5 -104q0 -10 -0.5 -22t-2.5 -23h-423v14h413l-5 -3q1 8 1.5 16t0.5 15q0 53 -20 97t-58.5 70t-94.5 26q-53 0 -96 -21.5t-73.5 -59.5t-46.5 -88.5t-16 -108.5
q0 -61 24 -109t68 -75.5t105 -27.5q63 0 112 30.5t77 78.5l13 -8q-20 -32 -49.5 -58.5t-67.5 -41.5t-85 -15z" />
    <glyph glyph-name="f" unicode="f" horiz-adv-x="314" 
d="M52 0l137 590q11 45 30.5 77.5t50.5 50t75 17.5q23 0 41.5 -7t31.5 -19l-7 -15q-13 14 -30 20.5t-36 6.5q-61 0 -93.5 -36t-49.5 -107l-18 -78l-2 -9l-114 -491h-16zM63 486l4 14h292l-4 -14h-292z" />
    <glyph glyph-name="g" unicode="g" horiz-adv-x="583" 
d="M209 -215q-42 0 -78.5 11t-64.5 32.5t-46.5 52t-26.5 69.5l15 5q15 -77 71 -116.5t133 -39.5q54 0 95.5 19.5t70.5 62.5t45 111l39 167l-5 -25q-26 -53 -79.5 -88t-125.5 -35q-59 0 -105 25.5t-72 75t-26 121.5q0 55 16.5 105t48 88.5t77.5 61t106 22.5q73 0 120.5 -36.5
t66 -97.5t3.5 -135l-4 12l57 247h16l-118 -513q-16 -71 -47 -116t-76 -65.5t-106 -20.5zM253 25q75 0 125.5 38t76 99.5t25.5 130.5q0 71 -26.5 116t-68.5 66t-89 21q-74 0 -125.5 -38t-78.5 -98.5t-27 -127.5q0 -100 52 -153.5t136 -53.5z" />
    <glyph glyph-name="h" unicode="h" horiz-adv-x="562" 
d="M26 0l170 730h16l-87 -370l-4 1q16 42 46 75.5t75 53.5t103 20q59 0 98 -26t54 -74.5t-1 -115.5l-68 -294h-16l67 292q23 99 -16 151.5t-119 52.5q-66 0 -113.5 -27t-77 -71.5t-41.5 -96.5l-70 -301h-16z" />
    <glyph glyph-name="i" unicode="i" horiz-adv-x="184" 
d="M175 598q-9 0 -14.5 6t-5.5 14q0 11 6.5 17.5t16.5 6.5q9 0 14.5 -6t5.5 -14q0 -11 -6 -17.5t-17 -6.5zM157 500l-116 -500h-16l116 500h16z" />
    <glyph glyph-name="j" unicode="j" horiz-adv-x="182" 
d="M175 598q-9 0 -14.5 6t-5.5 14q0 11 6.5 17.5t16.5 6.5q9 0 14.5 -6t5.5 -14q0 -11 -6 -17.5t-17 -6.5zM-123 -215q-19 0 -34.5 5t-26.5 12l8 14q11 -8 24.5 -12.5t28.5 -4.5q51 0 84 34t49 102l131 565h16l-133 -573q-15 -66 -50 -104t-97 -38z" />
    <glyph glyph-name="k" unicode="k" horiz-adv-x="474" 
d="M514 500l-265 -205l-7 -5l-174 -135l6 24l414 321h26zM211 730l-169 -730h-16l169 730h16zM247 302l156 -302h-18l-152 295z" />
    <glyph glyph-name="l" unicode="l" horiz-adv-x="232" 
d="M114 -9q-48 0 -63.5 33t-1.5 96l141 610h16l-142 -614q-13 -55 -1 -83t53 -28q18 0 30 2.5t23 6.5l-3 -14q-7 -4 -21 -6.5t-31 -2.5z" />
    <glyph glyph-name="m" unicode="m" horiz-adv-x="936" 
d="M26 0l116 500h16l-33 -140l-4 1q23 63 79.5 106t144.5 43q60 0 97 -26t49.5 -74t-3.5 -116l-68 -294h-16l67 292q23 99 -12 151.5t-115 52.5q-66 0 -113.5 -27t-77 -71.5t-41.5 -96.5l-70 -301h-16zM782 0l67 292q23 99 -12 151.5t-115 52.5q-67 0 -115 -28t-77.5 -74
t-41.5 -100l6 63q28 69 84.5 111t144.5 42q60 0 97 -26t49.5 -74t-3.5 -116l-68 -294h-16z" />
    <glyph glyph-name="n" unicode="n" horiz-adv-x="562" 
d="M26 0l116 500h16l-33 -140l-4 1q23 63 79.5 106t144.5 43q60 0 99 -26t53.5 -74.5t-1.5 -115.5l-68 -294h-16l67 292q23 99 -16 151.5t-119 52.5q-66 0 -113.5 -27t-77 -71.5t-41.5 -96.5l-70 -301h-16z" />
    <glyph glyph-name="o" unicode="o" horiz-adv-x="561" 
d="M263 -9q-69 0 -117 30.5t-73 82t-25 112.5q0 86 31.5 152t88 103.5t131.5 37.5q70 0 117.5 -30.5t72 -81t24.5 -112.5q0 -85 -31.5 -151.5t-87.5 -104.5t-131 -38zM263 5q52 0 95 20t74 57.5t48 89t17 113.5q0 64 -24.5 111t-69 73t-104.5 26q-52 0 -95.5 -20
t-74.5 -57.5t-48 -88.5t-17 -113q0 -63 25 -110.5t70 -74t104 -26.5z" />
    <glyph glyph-name="p" unicode="p" horiz-adv-x="582" 
d="M-22 -210l164 710h16l-37 -159l-4 9q17 51 49 86.5t76 54.5t94 19q63 0 107 -30t67.5 -81t23.5 -114q0 -60 -16.5 -113t-47.5 -94t-76 -64.5t-102 -23.5q-67 0 -113.5 29.5t-69.5 81t-21 117.5l12 30l-106 -458h-16zM293 4q51 0 92 21.5t71 60t46 89.5t16 111
q0 65 -24 112t-65.5 72.5t-93.5 25.5q-55 0 -98 -22t-73 -62t-45.5 -93.5t-15.5 -115.5q0 -92 52.5 -145.5t137.5 -53.5z" />
    <glyph glyph-name="q" unicode="q" horiz-adv-x="582" 
d="M376 -210l85 369l-6 -36q-25 -58 -73 -95.5t-125 -37.5q-67 0 -114 30t-71 81.5t-24 115.5q0 62 17 115t49.5 93t78.5 62.5t104 22.5q76 0 123 -38.5t63.5 -100t1.5 -131.5l-3 12l58 248h16l-164 -710h-16zM254 4q52 0 93.5 21t71 59.5t45 90.5t15.5 114q0 75 -26 120.5
t-68 66t-89 20.5q-51 0 -93.5 -20.5t-73.5 -58t-48 -88.5t-17 -113q0 -64 24.5 -112t67.5 -74t98 -26z" />
    <glyph glyph-name="r" unicode="r" horiz-adv-x="338" 
d="M26 0l116 500h16l-35 -151l-5 7q19 43 45 78t62 55.5t85 20.5q18 0 34.5 -3.5t27.5 -11.5l-7 -13q-10 8 -25 11t-32 3q-51 0 -91 -27t-66.5 -71.5t-38.5 -97.5l-70 -300h-16z" />
    <glyph glyph-name="s" unicode="s" horiz-adv-x="489" 
d="M234 -10q-62 0 -107.5 19.5t-70.5 55t-27 82.5l15 4q4 -67 52.5 -107t136.5 -40q77 0 120 35.5t43 91.5q0 39 -21.5 63t-71.5 38l-103 29q-54 15 -82 42t-28 73q0 42 22.5 71.5t62.5 45.5t90 16q74 0 126 -34t61 -110l-14 -5q-5 48 -30 78t-63 43.5t-82 13.5
q-70 0 -113.5 -32t-43.5 -85q0 -42 25.5 -65t72.5 -37l105 -30q54 -16 78.5 -42.5t24.5 -71.5q0 -41 -22 -73.5t-62 -50.5t-94 -18z" />
    <glyph glyph-name="t" unicode="t" horiz-adv-x="329" 
d="M185 -10q-44 0 -70 17.5t-34 51t2 81.5l114 490l17 5l-115 -497q-14 -63 6.5 -98.5t80.5 -35.5q25 0 46 7t40 20l5 -13q-17 -13 -41.5 -20.5t-50.5 -7.5zM59 486l4 14h287l-4 -14h-287z" />
    <glyph glyph-name="u" unicode="u" horiz-adv-x="562" 
d="M227 -10q-65 0 -106.5 25.5t-55.5 75t2 119.5l67 290h16l-67 -292q-23 -100 17.5 -152t127.5 -52q61 0 106.5 27t74.5 71.5t41 96.5l70 301h16l-116 -500h-16l33 140l4 -1q-26 -65 -80 -107t-134 -42z" />
    <glyph glyph-name="v" unicode="v" horiz-adv-x="473" 
d="M490 500h19l-322 -500h-17l-90 500h16l88 -487l-5 3z" />
    <glyph glyph-name="w" unicode="w" horiz-adv-x="763" 
d="M133 0l-47 500h16l44 -476l285 476h16l64 -475l264 475h18l-279 -500h-16l-64 474l-284 -474h-17z" />
    <glyph glyph-name="x" unicode="x" horiz-adv-x="464" 
d="M-39 0l265 265l3 3l231 232h23l-241 -241l-8 -8l-250 -251h-23zM374 0l-145 253l-2 3l-142 244h19l132 -228l4 -6l153 -266h-19z" />
    <glyph glyph-name="y" unicode="y" horiz-adv-x="472" 
d="M-31 -215q-26 0 -45.5 8t-27.5 24l12 10q18 -28 63 -28q38 0 71 25t70 84l58 92l-91 500h16l81 -444l6 -39l28 45l279 438h19l-383 -601q-26 -42 -50.5 -67t-49.5 -36t-56 -11z" />
    <glyph glyph-name="z" unicode="z" horiz-adv-x="464" 
d="M-19 0l3 14l425 427l47 45h-65h-301l3 14h387l-3 -14l-401 -403l-70 -69h80h296l-3 -14h-398z" />
    <glyph glyph-name="braceleft" unicode="{" horiz-adv-x="259" 
d="M128 -170q-44 0 -66 31.5t-10 84.5l56 242q10 44 -15.5 68t-69.5 23h-7l3 13h7q51 0 84 24.5t41 59.5l60 262q11 46 41 74t76 28h21l-3 -13h-21q-40 0 -64.5 -25.5t-34.5 -67.5l-59 -261q-6 -27 -32 -54t-69 -34q37 -10 51 -36.5t6 -63.5l-56 -243q-10 -46 9 -72t56 -28
h10l-3 -12h-11z" />
    <glyph glyph-name="bar" unicode="|" horiz-adv-x="165" 
d="M201 730l-208 -898h-15l208 898h15z" />
    <glyph glyph-name="braceright" unicode="}" horiz-adv-x="259" 
d="M-74 -170l3 13h21q41 0 65 25.5t34 67.5l59 261q6 27 32 54t69 34q-37 10 -51 36.5t-6 63.5l56 243q11 46 -8 72.5t-57 27.5h-10l3 12h11q30 0 49.5 -14t27 -40t-0.5 -62l-56 -242q-10 -43 15.5 -67.5t69.5 -23.5h7l-3 -13h-7q-51 0 -84 -24.5t-41 -59.5l-60 -262
q-10 -46 -40 -74t-77 -28h-21z" />
    <glyph glyph-name="asciitilde" unicode="~" horiz-adv-x="479" 
d="M466 395q-11 -32 -28 -53t-39 -31t-47 -10q-31 0 -54 11t-42 26t-39 26t-46 11q-34 0 -59 -19.5t-40 -60.5h-16q11 32 28.5 52.5t40 31t48.5 10.5q28 0 48.5 -11t39.5 -26t40.5 -26t50.5 -11q34 0 58.5 19.5t39.5 60.5h16z" />
    <glyph glyph-name="uni00A0" unicode="&#xa0;" horiz-adv-x="278" 
 />
    <glyph glyph-name="exclamdown" unicode="&#xa1;" horiz-adv-x="174" 
d="M113 330l-30 -132l-83 -358h-16l83 358l30 132h16zM141 505q9 0 14.5 -5.5t5.5 -14.5q0 -10 -6 -17t-16 -7q-9 0 -14.5 5.5t-5.5 14.5q0 10 6.5 17t15.5 7z" />
    <glyph glyph-name="cent" unicode="&#xa2;" horiz-adv-x="541" 
d="M276 -10q-62 0 -111.5 27.5t-78 78t-28.5 118.5q0 82 31 149t88.5 107t138.5 40q50 0 89 -17.5t65.5 -50t36.5 -79.5l-15 -3q-14 64 -59.5 100t-116.5 36q-76 0 -130.5 -38.5t-83 -101.5t-28.5 -139q0 -67 27 -114.5t73.5 -73t104.5 -25.5q66 0 115 34.5t74 86.5l12 -7
q-27 -56 -79.5 -92t-124.5 -36zM191 -100l162 700h14l-162 -700h-14z" />
    <glyph glyph-name="sterling" unicode="&#xa3;" horiz-adv-x="558" 
d="M73 303l3 14h337l-3 -14h-337zM341 -3q-42 0 -72.5 12t-54.5 30t-45.5 36t-44 30t-51.5 12q-27 0 -44.5 -15t-17.5 -38q0 -25 17 -38.5t39 -13.5q39 0 69 25t47 64.5t17 82.5q0 45 -6.5 80.5t-14.5 67.5t-14.5 64t-6.5 70q0 60 25.5 106t70 72.5t101.5 26.5q47 0 82 -19
t56 -53t24 -80l-15 -5q-5 65 -44 104t-103 39q-53 0 -94 -25.5t-64 -68.5t-23 -98q0 -48 10.5 -88.5t20.5 -85.5t10 -107q0 -35 -10.5 -68t-30.5 -60t-47 -42.5t-60 -15.5q-29 0 -50.5 18t-21.5 48t23 48.5t55 18.5q31 0 55.5 -12t46 -30t45 -36t53 -30t68.5 -12q55 0 85 29
t43 78l14 -5q-9 -33 -26.5 -59t-45.5 -41.5t-70 -15.5z" />
    <glyph glyph-name="currency" unicode="&#xa4;" horiz-adv-x="601" 
d="M319 516q53 0 92.5 -22.5t61.5 -63.5t22 -97t-22 -97.5t-61.5 -64.5t-92.5 -23t-93 23t-62 64.5t-22 97.5t22 97t62 63.5t93 22.5zM319 502q-73 0 -117 -46t-44 -123q0 -79 44 -125t117 -46q74 0 117 46t43 125q0 77 -43 123t-117 46zM92 569l106 -107l-12 -11l-106 106z
M188 211l12 -12l-108 -108l-12 12zM449 211l109 -109l-11 -11l-108 108zM547 569l11 -11l-107 -108l-11 13z" />
    <glyph glyph-name="yen" unicode="&#xa5;" horiz-adv-x="568" 
d="M218 0l31 133h-206l3 14h206l25 109h-206l4 14h163h37l-136 390h19l121 -363l8 -24h2l20 24l291 363h19l-316 -390h37h164l-4 -14h-207l-25 -109h207l-3 -14h-207l-31 -133h-16z" />
    <glyph glyph-name="brokenbar" unicode="&#xa6;" horiz-adv-x="165" 
d="M201 730l-85 -366h-15l85 366h15zM78 198l-85 -366h-15l85 366h15z" />
    <glyph glyph-name="section" unicode="&#xa7;" horiz-adv-x="551" 
d="M245 -110q-45 0 -82 11.5t-64.5 35t-44.5 59.5l14 7q23 -51 71 -75t106 -24q85 0 125.5 36.5t40.5 91.5q0 44 -24.5 70.5t-65.5 40.5l-141 48q-51 17 -85.5 45t-34.5 80q0 29 15 55t48.5 43t88.5 19l10 -11q-79 -4 -112.5 -34.5t-33.5 -71.5q0 -46 32 -71t83 -42l133 -46
q48 -16 75.5 -46t27.5 -78q0 -41 -20 -73.5t-60.5 -51t-101.5 -18.5zM354 131l-10 11q45 -3 78 12t50.5 42.5t17.5 61.5q0 38 -25.5 61t-90.5 45l-101 34q-49 17 -74.5 38t-34.5 45.5t-9 50.5q0 36 20.5 67.5t62.5 51t104 19.5q42 0 77.5 -10t62.5 -31.5t41 -56.5l-14 -7
q-22 50 -67 70.5t-100 20.5q-56 0 -94.5 -18t-57.5 -46t-19 -60q0 -35 20 -66t87 -54l104 -35q68 -23 96 -50t28 -69q0 -35 -18 -64.5t-52 -46.5t-82 -16z" />
    <glyph glyph-name="dieresis" unicode="&#xa8;" horiz-adv-x="550" 
d="M452 598q-9 0 -14.5 5.5t-5.5 14.5q0 10 6 17t16 7t15 -5.5t5 -14.5q0 -10 -6 -17t-16 -7zM268 598q-9 0 -14.5 5.5t-5.5 14.5q0 10 6 17t16 7t15 -5.5t5 -14.5q0 -10 -6 -17t-16 -7z" />
    <glyph glyph-name="copyright" unicode="&#xa9;" horiz-adv-x="789" 
d="M414 -10q-100 0 -175 44.5t-116.5 121.5t-41.5 174t41.5 174t116.5 121.5t174 44.5q100 0 174.5 -44.5t116 -121.5t41.5 -174t-41.5 -174t-116 -121.5t-173.5 -44.5zM413 4q95 0 166 43t110.5 116.5t39.5 166.5t-39.5 166.5t-110.5 116.5t-166 43q-94 0 -165.5 -43
t-111 -116.5t-39.5 -166.5t39.5 -166.5t111 -116.5t165.5 -43zM425 143q-85 0 -133.5 49t-48.5 136t48.5 136t133.5 49q57 0 95 -25t54 -75l-14 -7q-14 47 -48.5 70t-87.5 23q-77 0 -121 -45.5t-44 -125.5t44 -125.5t121 -45.5q53 0 91 28t49 74l15 -6q-13 -50 -55.5 -80
t-98.5 -30z" />
    <glyph glyph-name="ordfeminine" unicode="&#xaa;" horiz-adv-x="375" 
d="M222 327q-61 0 -95 39.5t-34 107.5q0 38 11 72.5t32 61.5t49.5 42.5t64.5 15.5q43 0 70 -19.5t38.5 -54.5t6.5 -83l-5 -11l39 162h16l-77 -324h-16l19 79l4 7q-12 -38 -44 -66.5t-79 -28.5zM45 223l3 14h268l-3 -14h-268zM222 341q43 0 73 25.5t46 67t16 88.5
q0 67 -28 98.5t-79 31.5q-44 0 -76.5 -26t-49.5 -66.5t-17 -84.5q0 -61 30.5 -97.5t84.5 -36.5z" />
    <glyph glyph-name="guillemotleft" unicode="&#xab;" horiz-adv-x="380" 
d="M261 461l-196 -201l-2 11l103 -202h-18l-99 196l190 196h22zM379 461l-196 -201l-2 11l103 -202h-18l-99 196l190 196h22z" />
    <glyph glyph-name="logicalnot" unicode="&#xac;" 
d="M542 317l-32 -141h-16l32 141h16zM544 323l-3 -14h-450l3 14h450z" />
    <glyph glyph-name="uni00AD" unicode="&#xad;" horiz-adv-x="417" 
d="M355 278l-3 -16h-281l3 16h281z" />
    <glyph glyph-name="registered" unicode="&#xae;" horiz-adv-x="811" 
d="M424 670q103 0 179.5 -42.5t119.5 -119t43 -178.5t-43 -178.5t-119.5 -119t-179.5 -42.5q-102 0 -179 42.5t-120 119t-43 178.5t43 178.5t120 119t179 42.5zM318 513v-370h-16v370h16zM467 322l115 -179h-18l-111 173zM424 656q-97 0 -170.5 -41t-114.5 -114t-41 -171
q0 -97 41 -170.5t114.5 -114.5t170.5 -41q98 0 171 41t114 114.5t41 170.5q0 98 -41 171t-114 114t-171 41zM457 513q40 0 66 -11.5t39.5 -33.5t13.5 -56q0 -49 -30 -74.5t-89 -26.5h-149v13h149q52 1 78 23t26 65q0 44 -26 65.5t-78 21.5h-149v14h149z" />
    <glyph glyph-name="macron" unicode="&#xaf;" horiz-adv-x="550" 
d="M494 619l-3 -14h-268l3 14h268z" />
    <glyph glyph-name="degree" unicode="&#xb0;" horiz-adv-x="359" 
d="M245 400q-40 0 -70.5 17t-47 47.5t-16.5 70.5t16.5 70.5t47 47.5t70.5 17q41 0 71 -17t46.5 -47.5t16.5 -70.5t-16.5 -70.5t-46.5 -47.5t-71 -17zM245 414q54 0 86 34t32 87t-32 87t-86 34t-86 -34t-32 -87t32 -87t86 -34z" />
    <glyph glyph-name="plusminus" unicode="&#xb1;" 
d="M396 622l-119 -516h-15l119 516h15zM556 374l-4 -14h-450l4 14h450zM473 14l-4 -14h-450l4 14h450z" />
    <glyph glyph-name="uni00B2" unicode="&#xb2;" horiz-adv-x="384" 
d="M102 333l3 15q41 31 87 63t86 66.5t65.5 74t25.5 85.5q0 40 -23.5 62t-63.5 22q-46 0 -79 -28t-43 -75l-14 6q13 50 48 80.5t88 30.5q47 0 75 -27t28 -71q0 -48 -25 -88.5t-64.5 -75t-84.5 -65.5t-85 -61v0h16.5h16.5h197l-3 -14h-251z" />
    <glyph glyph-name="uni00B3" unicode="&#xb3;" horiz-adv-x="377" 
d="M228 327q-49 0 -85 25.5t-47 79.5l14 5q10 -52 42 -73.5t76 -21.5q47 0 75.5 26t28.5 72q0 43 -27.5 64.5t-64.5 21.5h-8t-9 -1l4 16q7 -1 12 -1h10q43 0 74 27.5t31 73.5q0 38 -23.5 59t-67.5 21q-37 0 -66 -17.5t-42 -49.5l-13 8q17 34 48 53.5t73 19.5q50 0 78.5 -26
t28.5 -68q0 -48 -27.5 -74.5t-62.5 -34.5l-1 -2q25 -7 47 -28t22 -62q0 -34 -16 -59.5t-43 -39.5t-61 -14z" />
    <glyph glyph-name="acute" unicode="&#xb4;" horiz-adv-x="600" 
d="M444 730h20l-122 -147h-17z" />
    <glyph glyph-name="uni00B5" unicode="&#xb5;" horiz-adv-x="570" 
d="M-22 -210l164 710h16l-68 -295q-21 -92 19 -146.5t127 -54.5q61 0 106.5 27t74.5 71.5t41 96.5l70 301h16l-116 -500h-16l28 119q-28 -57 -79.5 -93t-125.5 -36q-70 0 -114.5 36t-48.5 97v0l-78 -333h-16z" />
    <glyph glyph-name="paragraph" unicode="&#xb6;" horiz-adv-x="521" 
d="M188 -100l82 354q-46 0 -81.5 12.5t-60 36.5t-37 58t-12.5 77q0 64 25 114t78 79t136 29h217l-176 -760h-16l172 746h-139l-172 -746h-16zM273 268l87 378h-42q-78 0 -127.5 -27.5t-72.5 -74.5t-23 -106q0 -79 45.5 -124.5t132.5 -45.5z" />
    <glyph glyph-name="periodcentered" unicode="&#xb7;" horiz-adv-x="191" 
d="M120 338q-9 0 -14.5 5.5t-5.5 14.5q0 10 6 17t16 7q9 0 14.5 -5.5t5.5 -14.5q0 -10 -6.5 -17t-15.5 -7z" />
    <glyph glyph-name="cedilla" unicode="&#xb8;" horiz-adv-x="600" 
d="M233 1l16 2q25 -19 40.5 -44t15.5 -57t-13 -55t-36 -35.5t-53 -12.5q-37 0 -56.5 14t-28.5 32l10 11q9 -18 26 -31t49 -13q38 0 62.5 24t24.5 65q0 29 -14.5 54.5t-42.5 45.5z" />
    <glyph glyph-name="uni00B9" unicode="&#xb9;" horiz-adv-x="214" 
d="M147 333l72 311q3 12 5.5 23t5.5 21t5 18q-17 -18 -48 -37.5t-76 -33.5l1 13q21 7 46 19t48 28.5t37 34.5h12l-92 -397h-16z" />
    <glyph glyph-name="ordmasculine" unicode="&#xba;" horiz-adv-x="377" 
d="M230 325q-55 0 -91 35t-36 113q0 54 19.5 97.5t55.5 69t83 25.5q56 0 91 -35t35 -113q0 -53 -19.5 -97t-54.5 -69.5t-83 -25.5zM52 223l3 14h261l-3 -14h-261zM229 339q43 0 75 24.5t49.5 65t17.5 87.5q0 72 -31 103.5t-78 31.5q-43 0 -75 -24.5t-50 -64.5t-18 -88
q0 -72 32 -103.5t78 -31.5z" />
    <glyph glyph-name="guillemotright" unicode="&#xbb;" horiz-adv-x="381" 
d="M8 69l196 201l2 -11l-103 202h18l99 -196l-190 -196h-22zM126 69l196 201l2 -11l-103 202h18l99 -196l-190 -196h-22z" />
    <glyph glyph-name="onequarter" unicode="&#xbc;" horiz-adv-x="695" 
d="M132 268l72 311q3 12 5.5 23t5.5 21t5 18q-17 -18 -48 -37.5t-76 -33.5l1 13q21 7 46 19t48 28.5t37 34.5h12l-92 -397h-16zM25 0l616 660h21l-616 -660h-21zM506 -4l28 120h-195l3 14q7 7 13 13.5t12.5 13.5t12.5 13l210 223h24l-61 -263h78l-3 -14h-78l-28 -120h-16z
M360 130h177l57 247l-192 -204q-10 -10 -20.5 -21t-21.5 -22z" />
    <glyph glyph-name="onehalf" unicode="&#xbd;" horiz-adv-x="820" 
d="M132 268l72 311q3 12 5.5 23t5.5 21t5 18q-17 -18 -48 -37.5t-76 -33.5l1 13q21 7 46 19t48 28.5t37 34.5h12l-92 -397h-16zM25 0l616 660h21l-616 -660h-21zM460 -4l3 15q41 31 87 63t86 66.5t65.5 74t25.5 85.5q0 40 -23.5 62t-63.5 22q-46 0 -79 -28t-43 -75l-14 6
q13 50 48 80.5t88 30.5q47 0 75 -27t28 -71q0 -48 -25 -88.5t-64.5 -75t-84.5 -65.5t-85 -61v0h16.5h16.5h197l-3 -14h-251z" />
    <glyph glyph-name="threequarters" unicode="&#xbe;" horiz-adv-x="858" 
d="M213 262q-49 0 -85 25.5t-47 79.5l14 5q10 -52 42 -73.5t76 -21.5q47 0 75.5 26t28.5 72q0 43 -27.5 64.5t-64.5 21.5h-8t-9 -1l4 16q7 -1 12 -1h10q43 0 74 27.5t31 73.5q0 38 -23.5 59t-67.5 21q-37 0 -66 -17.5t-42 -49.5l-13 8q17 34 48 53.5t73 19.5q50 0 78.5 -26
t28.5 -68q0 -48 -27.5 -74.5t-62.5 -34.5l-1 -2q25 -7 47 -28t22 -62q0 -34 -16 -59.5t-43 -39.5t-61 -14zM188 0l616 660h21l-616 -660h-21zM669 -4l28 120h-195l3 14q7 7 13 13.5t12.5 13.5t12.5 13l210 223h24l-61 -263h78l-3 -14h-78l-28 -120h-16zM523 130h177l57 247
l-192 -204q-10 -10 -20.5 -21t-21.5 -22z" />
    <glyph glyph-name="questiondown" unicode="&#xbf;" horiz-adv-x="441" 
d="M279 345l-37 -157q-84 -1 -137 -25.5t-78 -67.5t-25 -98q0 -71 44.5 -113.5t124.5 -42.5q81 0 129.5 39t67.5 93l13 -8q-15 -40 -42 -71t-68.5 -49t-99.5 -18t-99.5 21t-63.5 59t-22 90q0 61 29 107.5t83.5 72.5t131.5 27l33 141h16zM303 500q9 0 14.5 -5.5t5.5 -14.5
q0 -10 -6 -17t-16 -7q-9 0 -14.5 5.5t-5.5 14.5q0 10 6.5 17t15.5 7z" />
    <glyph glyph-name="Agrave" unicode="&#xc0;" horiz-adv-x="575" 
d="M-46 0l418 660h21l112 -660h-16l-102 595l-8 47v0l-27 -45l-379 -597h-19zM112 236l4 14h342l-4 -14h-342zM362 891l42 -148h-14l-45 148h17z" />
    <glyph glyph-name="Aacute" unicode="&#xc1;" horiz-adv-x="575" 
d="M-46 0l418 660h21l112 -660h-16l-102 595l-8 47v0l-27 -45l-379 -597h-19zM112 236l4 14h342l-4 -14h-342zM495 891h20l-111 -148h-17z" />
    <glyph glyph-name="Acircumflex" unicode="&#xc2;" horiz-adv-x="575" 
d="M-46 0l418 660h21l112 -660h-16l-102 595l-8 47v0l-27 -45l-379 -597h-19zM112 236l4 14h342l-4 -14h-342zM440 885l75 -142h-16l-69 129l-130 -129h-19l141 142h18z" />
    <glyph glyph-name="Atilde" unicode="&#xc3;" horiz-adv-x="575" 
d="M-46 0l418 660h21l112 -660h-16l-102 595l-8 47v0l-27 -45l-379 -597h-19zM112 236l4 14h342l-4 -14h-342zM564 843q-14 -44 -36.5 -64t-48.5 -20q-24 0 -39.5 10.5t-28 24t-26.5 24t-35 10.5q-29 0 -44.5 -18t-29.5 -52h-15q14 44 36 64t55 20q24 0 39.5 -10.5t27.5 -24
t26 -24t35 -10.5q23 0 40 18t30 52h14z" />
    <glyph glyph-name="Adieresis" unicode="&#xc4;" horiz-adv-x="575" 
d="M-46 0l418 660h21l112 -660h-16l-102 595l-8 47v0l-27 -45l-379 -597h-19zM112 236l4 14h342l-4 -14h-342zM491 758q-9 0 -14.5 5.5t-5.5 14.5q0 10 6 17t16 7t15 -5.5t5 -14.5q0 -10 -6 -17t-16 -7zM307 758q-9 0 -14.5 5.5t-5.5 14.5q0 10 6 17t16 7t15 -5.5t5 -14.5
q0 -10 -6 -17t-16 -7z" />
    <glyph glyph-name="Aring" unicode="&#xc5;" horiz-adv-x="575" 
d="M-46 0l418 660h21l112 -660h-16l-102 595l-8 47v0l-27 -45l-379 -597h-19zM112 236l4 14h342l-4 -14h-342zM393 806q35 0 57 -20.5t22 -52.5q0 -39 -24.5 -63t-60.5 -24q-35 0 -57.5 21t-22.5 52q0 38 24.5 62.5t61.5 24.5zM393 792q-31 0 -50.5 -21t-19.5 -52
q0 -26 18 -42.5t46 -16.5t48.5 19.5t20.5 53.5q0 26 -17 42.5t-46 16.5z" />
    <glyph glyph-name="AE" unicode="&#xc6;" horiz-adv-x="868" 
d="M-66 0l563 660h420l-4 -14h-377l-70 -304h302l-3 -14h-302l-72 -314h393l-4 -14h-409l59 254h-258l-213 -254h-25zM184 268h249l87 378h-15z" />
    <glyph glyph-name="Ccedilla" unicode="&#xc7;" horiz-adv-x="661" 
d="M343 -10q-74 0 -135.5 33t-97.5 97t-36 157q0 77 21 148t63 126t104.5 87t144.5 32q59 0 107.5 -21t84 -61t52.5 -98l-15 -4q-25 82 -86 126t-144 44q-78 0 -137 -31t-99 -84.5t-60 -121t-20 -139.5q0 -87 34.5 -149t92.5 -94.5t127 -32.5q83 0 143.5 35t96.5 101l13 -10
q-38 -67 -102.5 -103.5t-151.5 -36.5zM316 1l16 2q25 -19 40.5 -44t15.5 -57t-13 -55t-36 -35.5t-53 -12.5q-37 0 -56.5 14t-28.5 32l10 11q9 -18 26 -31t49 -13q38 0 62.5 24t24.5 65q0 29 -14.5 54.5t-42.5 45.5z" />
    <glyph glyph-name="Egrave" unicode="&#xc8;" horiz-adv-x="572" 
d="M39 0l153 660h426l-4 -14h-410l-69 -302h331l-4 -14h-331l-72 -316h428l-3 -14h-445zM378 891l42 -148h-14l-45 148h17z" />
    <glyph glyph-name="Eacute" unicode="&#xc9;" horiz-adv-x="572" 
d="M39 0l153 660h426l-4 -14h-410l-69 -302h331l-4 -14h-331l-72 -316h428l-3 -14h-445zM511 891h20l-111 -148h-17z" />
    <glyph glyph-name="Ecircumflex" unicode="&#xca;" horiz-adv-x="572" 
d="M39 0l153 660h426l-4 -14h-410l-69 -302h331l-4 -14h-331l-72 -316h428l-3 -14h-445zM456 885l75 -142h-16l-69 129l-130 -129h-19l141 142h18z" />
    <glyph glyph-name="Edieresis" unicode="&#xcb;" horiz-adv-x="572" 
d="M39 0l153 660h426l-4 -14h-410l-69 -302h331l-4 -14h-331l-72 -316h428l-3 -14h-445zM507 758q-9 0 -14.5 5.5t-5.5 14.5q0 10 6 17t16 7t15 -5.5t5 -14.5q0 -10 -6 -17t-16 -7zM323 758q-9 0 -14.5 5.5t-5.5 14.5q0 10 6 17t16 7t15 -5.5t5 -14.5q0 -10 -6 -17t-16 -7z
" />
    <glyph glyph-name="Igrave" unicode="&#xcc;" horiz-adv-x="210" 
d="M208 660l-153 -660h-16l153 660h16zM182 891l42 -148h-14l-45 148h17z" />
    <glyph glyph-name="Iacute" unicode="&#xcd;" horiz-adv-x="210" 
d="M208 660l-153 -660h-16l153 660h16zM315 891h20l-111 -148h-17z" />
    <glyph glyph-name="Icircumflex" unicode="&#xce;" horiz-adv-x="210" 
d="M208 660l-153 -660h-16l153 660h16zM260 885l75 -142h-16l-69 129l-130 -129h-19l141 142h18z" />
    <glyph glyph-name="Idieresis" unicode="&#xcf;" horiz-adv-x="209" 
d="M281 758q-9 0 -14.5 5.5t-5.5 14.5q0 10 6 17t16 7t15 -5.5t5 -14.5q0 -10 -6 -17t-16 -7zM157 758q-9 0 -14.5 5.5t-5.5 14.5q0 10 6 17t16 7t15 -5.5t5 -14.5q0 -10 -6 -17t-16 -7zM208 660l-153 -660h-16l153 660h16z" />
    <glyph glyph-name="Eth" unicode="&#xd0;" horiz-adv-x="693" 
d="M22 327l3 14h329l-3 -14h-329zM51 0l153 660h194q85 0 142.5 -35t87.5 -96t30 -139q0 -83 -25 -154t-72.5 -124t-115 -82.5t-151.5 -29.5h-243zM71 14h224q80 0 144 28.5t109.5 79.5t69.5 119.5t24 147.5q0 74 -27.5 132t-82 91.5t-137.5 33.5h-178z" />
    <glyph glyph-name="Ntilde" unicode="&#xd1;" horiz-adv-x="680" 
d="M39 0l153 660h21l283 -604l18 -40v0l12 57l136 587h16l-153 -660h-21l-283 604l-18 40v0l-12 -57l-136 -587h-16zM615 843q-14 -44 -36.5 -64t-48.5 -20q-24 0 -39.5 10.5t-28 24t-26.5 24t-35 10.5q-29 0 -44.5 -18t-29.5 -52h-15q14 44 36 64t55 20q24 0 39.5 -10.5
t27.5 -24t26 -24t35 -10.5q23 0 40 18t30 52h14z" />
    <glyph glyph-name="Ograve" unicode="&#xd2;" horiz-adv-x="712" 
d="M344 -10q-74 0 -135.5 33.5t-97.5 98.5t-36 158q0 77 21 147t63 124.5t104.5 86.5t144.5 32q74 0 134.5 -34t96 -98.5t35.5 -157.5q0 -76 -21 -146t-62.5 -125t-103 -87t-143.5 -32zM345 4q77 0 135.5 31t98 83.5t59.5 120.5t20 141q0 89 -34 150.5t-90.5 93.5t-126.5 32
q-78 0 -137 -31t-99 -83.5t-60 -120t-20 -141.5q0 -89 34.5 -150.5t92.5 -93.5t127 -32zM402 891l42 -148h-14l-45 148h17z" />
    <glyph glyph-name="Oacute" unicode="&#xd3;" horiz-adv-x="712" 
d="M344 -10q-74 0 -135.5 33.5t-97.5 98.5t-36 158q0 77 21 147t63 124.5t104.5 86.5t144.5 32q74 0 134.5 -34t96 -98.5t35.5 -157.5q0 -76 -21 -146t-62.5 -125t-103 -87t-143.5 -32zM345 4q77 0 135.5 31t98 83.5t59.5 120.5t20 141q0 89 -34 150.5t-90.5 93.5t-126.5 32
q-78 0 -137 -31t-99 -83.5t-60 -120t-20 -141.5q0 -89 34.5 -150.5t92.5 -93.5t127 -32zM535 891h20l-111 -148h-17z" />
    <glyph glyph-name="Ocircumflex" unicode="&#xd4;" horiz-adv-x="712" 
d="M344 -10q-74 0 -135.5 33.5t-97.5 98.5t-36 158q0 77 21 147t63 124.5t104.5 86.5t144.5 32q74 0 134.5 -34t96 -98.5t35.5 -157.5q0 -76 -21 -146t-62.5 -125t-103 -87t-143.5 -32zM345 4q77 0 135.5 31t98 83.5t59.5 120.5t20 141q0 89 -34 150.5t-90.5 93.5t-126.5 32
q-78 0 -137 -31t-99 -83.5t-60 -120t-20 -141.5q0 -89 34.5 -150.5t92.5 -93.5t127 -32zM480 885l75 -142h-16l-69 129l-130 -129h-19l141 142h18z" />
    <glyph glyph-name="Otilde" unicode="&#xd5;" horiz-adv-x="712" 
d="M344 -10q-74 0 -135.5 33.5t-97.5 98.5t-36 158q0 77 21 147t63 124.5t104.5 86.5t144.5 32q74 0 134.5 -34t96 -98.5t35.5 -157.5q0 -76 -21 -146t-62.5 -125t-103 -87t-143.5 -32zM345 4q77 0 135.5 31t98 83.5t59.5 120.5t20 141q0 89 -34 150.5t-90.5 93.5t-126.5 32
q-78 0 -137 -31t-99 -83.5t-60 -120t-20 -141.5q0 -89 34.5 -150.5t92.5 -93.5t127 -32zM604 843q-14 -44 -36.5 -64t-48.5 -20q-24 0 -39.5 10.5t-28 24t-26.5 24t-35 10.5q-29 0 -44.5 -18t-29.5 -52h-15q14 44 36 64t55 20q24 0 39.5 -10.5t27.5 -24t26 -24t35 -10.5
q23 0 40 18t30 52h14z" />
    <glyph glyph-name="Odieresis" unicode="&#xd6;" horiz-adv-x="712" 
d="M344 -10q-74 0 -135.5 33.5t-97.5 98.5t-36 158q0 77 21 147t63 124.5t104.5 86.5t144.5 32q74 0 134.5 -34t96 -98.5t35.5 -157.5q0 -76 -21 -146t-62.5 -125t-103 -87t-143.5 -32zM345 4q77 0 135.5 31t98 83.5t59.5 120.5t20 141q0 89 -34 150.5t-90.5 93.5t-126.5 32
q-78 0 -137 -31t-99 -83.5t-60 -120t-20 -141.5q0 -89 34.5 -150.5t92.5 -93.5t127 -32zM531 758q-9 0 -14.5 5.5t-5.5 14.5q0 10 6 17t16 7t15 -5.5t5 -14.5q0 -10 -6 -17t-16 -7zM347 758q-9 0 -14.5 5.5t-5.5 14.5q0 10 6 17t16 7t15 -5.5t5 -14.5q0 -10 -6 -17t-16 -7z
" />
    <glyph glyph-name="multiply" unicode="&#xd7;" 
d="M110 134l-10 13l422 343l10 -13zM440 134l-261 346l13 10l261 -346z" />
    <glyph glyph-name="Oslash" unicode="&#xd8;" horiz-adv-x="712" 
d="M161 71l-10 11l451 495l9 -11zM65 -12l86 94l10 -11l-76 -83h-20zM611 566l-9 11l88 97h20zM344 -10q-74 0 -135.5 33.5t-97.5 98.5t-36 158q0 77 21 147t63 124.5t104.5 86.5t144.5 32q74 0 134.5 -34t96 -98.5t35.5 -157.5q0 -76 -21 -146t-62.5 -125t-103 -87
t-143.5 -32zM345 4q77 0 135.5 31t98 83.5t59.5 120.5t20 141q0 89 -34 150.5t-90.5 93.5t-126.5 32q-78 0 -137 -31t-99 -83.5t-60 -120t-20 -141.5q0 -89 34.5 -150.5t92.5 -93.5t127 -32z" />
    <glyph glyph-name="Ugrave" unicode="&#xd9;" horiz-adv-x="656" 
d="M307 -10q-87 0 -143 35t-75.5 99t0.5 152l90 384h16l-91 -389q-20 -84 -0.5 -144t72.5 -91.5t131 -31.5q101 0 161.5 64t88.5 182l95 410h16l-96 -415q-28 -121 -91.5 -188t-173.5 -67zM402 851l42 -148h-14l-45 148h17z" />
    <glyph glyph-name="Uacute" unicode="&#xda;" horiz-adv-x="656" 
d="M307 -10q-87 0 -143 35t-75.5 99t0.5 152l90 384h16l-91 -389q-20 -84 -0.5 -144t72.5 -91.5t131 -31.5q101 0 161.5 64t88.5 182l95 410h16l-96 -415q-28 -121 -91.5 -188t-173.5 -67zM516 851h20l-111 -148h-17z" />
    <glyph glyph-name="Ucircumflex" unicode="&#xdb;" horiz-adv-x="656" 
d="M307 -10q-87 0 -143 35t-75.5 99t0.5 152l90 384h16l-91 -389q-20 -84 -0.5 -144t72.5 -91.5t131 -31.5q101 0 161.5 64t88.5 182l95 410h16l-96 -415q-28 -121 -91.5 -188t-173.5 -67zM480 845l75 -142h-16l-69 129l-130 -129h-19l141 142h18z" />
    <glyph glyph-name="Udieresis" unicode="&#xdc;" horiz-adv-x="656" 
d="M307 -10q-87 0 -143 35t-75.5 99t0.5 152l90 384h16l-91 -389q-20 -84 -0.5 -144t72.5 -91.5t131 -31.5q101 0 161.5 64t88.5 182l95 410h16l-96 -415q-28 -121 -91.5 -188t-173.5 -67zM531 718q-9 0 -14.5 5.5t-5.5 14.5q0 10 6 17t16 7t15 -5.5t5 -14.5q0 -10 -6 -17
t-16 -7zM347 718q-9 0 -14.5 5.5t-5.5 14.5q0 10 6 17t16 7t15 -5.5t5 -14.5q0 -10 -6 -17t-16 -7z" />
    <glyph glyph-name="Yacute" unicode="&#xdd;" horiz-adv-x="503" 
d="M185 0l59 255l-133 405h17l79 -241l48 -147l125 159l182 229h20l-322 -405l-59 -255h-16zM441 851h20l-111 -148h-17z" />
    <glyph glyph-name="Thorn" unicode="&#xde;" horiz-adv-x="556" 
d="M85 134v14h217q72 0 122 27t76.5 72t26.5 100q0 71 -51 112t-140 41h-167v14h167q94 0 150.5 -44t56.5 -123q0 -60 -28 -108t-81.5 -76.5t-132.5 -28.5h-216zM39 0l153 660h16l-153 -660h-16z" />
    <glyph glyph-name="germandbls" unicode="&#xdf;" horiz-adv-x="544" 
d="M274 -10q-39 0 -66.5 11.5t-44.5 25.5l9 13q19 -16 43.5 -26t60.5 -10q64 0 107.5 26.5t65.5 71.5t22 102q0 80 -48 122t-142 44h-4.5h-4.5l3 15q11 -1 20.5 -1h18.5q64 0 112 24t75 66t27 95q0 40 -15.5 74.5t-50 56t-93.5 21.5q-82 0 -133 -45.5t-71 -134.5l-124 -541
h-16l125 545q22 94 77 142t144 48q62 0 100 -24t55.5 -61.5t17.5 -79.5q0 -55 -25 -97t-70 -67t-106 -32v-1q46 -6 78 -28.5t49 -57.5t17 -82q0 -62 -24 -110.5t-71 -76.5t-118 -28z" />
    <glyph glyph-name="agrave" unicode="&#xe0;" horiz-adv-x="582" 
d="M253 -10q-64 0 -110 29.5t-70.5 80.5t-24.5 117q0 62 17.5 115t51 93t81 62.5t106.5 22.5q62 0 105 -24.5t66 -68.5t22 -101l43 184h16l-116 -500h-16l29 126q-27 -57 -76 -96.5t-124 -39.5zM257 4q53 0 95 26t72 69.5t46 96t16 106.5q0 70 -26 112.5t-67.5 62
t-89.5 19.5q-54 0 -97.5 -20.5t-75.5 -58t-49 -88.5t-17 -113q0 -67 25.5 -114.5t69.5 -72.5t98 -25zM288 730l52 -147h-14l-55 147h17z" />
    <glyph glyph-name="aacute" unicode="&#xe1;" horiz-adv-x="582" 
d="M253 -10q-64 0 -110 29.5t-70.5 80.5t-24.5 117q0 62 17.5 115t51 93t81 62.5t106.5 22.5q62 0 105 -24.5t66 -68.5t22 -101l43 184h16l-116 -500h-16l29 126q-27 -57 -76 -96.5t-124 -39.5zM257 4q53 0 95 26t72 69.5t46 96t16 106.5q0 70 -26 112.5t-67.5 62
t-89.5 19.5q-54 0 -97.5 -20.5t-75.5 -58t-49 -88.5t-17 -113q0 -67 25.5 -114.5t69.5 -72.5t98 -25zM445 730h20l-122 -147h-17z" />
    <glyph glyph-name="acircumflex" unicode="&#xe2;" horiz-adv-x="582" 
d="M253 -10q-64 0 -110 29.5t-70.5 80.5t-24.5 117q0 62 17.5 115t51 93t81 62.5t106.5 22.5q62 0 105 -24.5t66 -68.5t22 -101l43 184h16l-116 -500h-16l29 126q-27 -57 -76 -96.5t-124 -39.5zM257 4q53 0 95 26t72 69.5t46 96t16 106.5q0 70 -26 112.5t-67.5 62
t-89.5 19.5q-54 0 -97.5 -20.5t-75.5 -58t-49 -88.5t-17 -113q0 -67 25.5 -114.5t69.5 -72.5t98 -25zM217 583l141 142h18l75 -142h-16l-69 129l-130 -129h-19z" />
    <glyph glyph-name="atilde" unicode="&#xe3;" horiz-adv-x="582" 
d="M253 -10q-64 0 -110 29.5t-70.5 80.5t-24.5 117q0 62 17.5 115t51 93t81 62.5t106.5 22.5q62 0 105 -24.5t66 -68.5t22 -101l43 184h16l-116 -500h-16l29 126q-27 -57 -76 -96.5t-124 -39.5zM257 4q53 0 95 26t72 69.5t46 96t16 106.5q0 70 -26 112.5t-67.5 62
t-89.5 19.5q-54 0 -97.5 -20.5t-75.5 -58t-49 -88.5t-17 -113q0 -67 25.5 -114.5t69.5 -72.5t98 -25zM499 683q-14 -44 -36.5 -64t-48.5 -20q-24 0 -39.5 10.5t-28 24t-26.5 24t-35 10.5q-29 0 -44.5 -18t-29.5 -52h-15q14 44 36 64t55 20q24 0 39.5 -10.5t27.5 -24t26 -24
t35 -10.5q23 0 40 18t30 52h14z" />
    <glyph glyph-name="adieresis" unicode="&#xe4;" horiz-adv-x="582" 
d="M253 -10q-64 0 -110 29.5t-70.5 80.5t-24.5 117q0 62 17.5 115t51 93t81 62.5t106.5 22.5q62 0 105 -24.5t66 -68.5t22 -101l43 184h16l-116 -500h-16l29 126q-27 -57 -76 -96.5t-124 -39.5zM257 4q53 0 95 26t72 69.5t46 96t16 106.5q0 70 -26 112.5t-67.5 62
t-89.5 19.5q-54 0 -97.5 -20.5t-75.5 -58t-49 -88.5t-17 -113q0 -67 25.5 -114.5t69.5 -72.5t98 -25zM426 598q-9 0 -14.5 5.5t-5.5 14.5q0 10 6 17t16 7t15 -5.5t5 -14.5q0 -10 -6 -17t-16 -7zM242 598q-9 0 -14.5 5.5t-5.5 14.5q0 10 6 17t16 7t15 -5.5t5 -14.5
q0 -10 -6 -17t-16 -7z" />
    <glyph glyph-name="aring" unicode="&#xe5;" horiz-adv-x="582" 
d="M253 -10q-64 0 -110 29.5t-70.5 80.5t-24.5 117q0 62 17.5 115t51 93t81 62.5t106.5 22.5q62 0 105 -24.5t66 -68.5t22 -101l43 184h16l-116 -500h-16l29 126q-27 -57 -76 -96.5t-124 -39.5zM257 4q53 0 95 26t72 69.5t46 96t16 106.5q0 70 -26 112.5t-67.5 62
t-89.5 19.5q-54 0 -97.5 -20.5t-75.5 -58t-49 -88.5t-17 -113q0 -67 25.5 -114.5t69.5 -72.5t98 -25zM346 735q35 0 57 -20.5t22 -52.5q0 -39 -24.5 -63t-60.5 -24q-35 0 -57.5 21t-22.5 52q0 38 24.5 62.5t61.5 24.5zM346 721q-31 0 -50.5 -21t-19.5 -52q0 -26 18 -42.5
t46 -16.5t48.5 19.5t20.5 53.5q0 26 -17 42.5t-46 16.5z" />
    <glyph glyph-name="ae" unicode="&#xe6;" horiz-adv-x="848" 
d="M168 -10q-63 0 -105.5 30t-42.5 90q0 41 23 72t69.5 50.5t115.5 25.5l171 16v-14l-162 -15q-101 -10 -150.5 -44t-49.5 -90q0 -53 37 -80t93 -27q83 0 136 48t78 166l20 94q3 13 5 26t2 24q0 66 -42 99.5t-107 33.5t-104 -28t-65 -82l-12 7q26 55 68 86t113 31
q50 0 86.5 -17.5t56 -50t19.5 -79.5h-4q17 42 46.5 75t70.5 52.5t92 19.5q56 0 95.5 -26.5t61 -72t21.5 -104.5q0 -11 -1 -23t-3 -23h-398v14h385q2 7 2 14.5v14.5q0 54 -19.5 97.5t-55.5 69t-88 25.5q-48 0 -88.5 -20.5t-71 -58t-47 -88t-16.5 -111.5q0 -57 19.5 -105.5
t59.5 -77.5t101 -29q65 0 112 30.5t75 78.5l13 -8q-20 -32 -48 -58.5t-65.5 -41.5t-86.5 -15q-66 0 -108.5 31.5t-63 81t-22.5 103.5l3 3q-18 -85 -50 -132.5t-75.5 -67.5t-98.5 -20z" />
    <glyph glyph-name="ccedilla" unicode="&#xe7;" horiz-adv-x="516" 
d="M259 -10q-60 0 -108 27.5t-76 78t-28 118.5q0 82 30.5 149t87 107t134.5 40q48 0 85.5 -17.5t63 -50t35.5 -79.5l-15 -3q-14 64 -57.5 100t-111.5 36q-56 0 -99.5 -22t-74 -61t-46.5 -89t-16 -107q0 -67 26.5 -114.5t71.5 -73t101 -25.5q63 0 110 34.5t72 86.5l12 -7
q-27 -56 -77.5 -92t-119.5 -36zM225 1l16 2q25 -19 40.5 -44t15.5 -57t-13 -55t-36 -35.5t-53 -12.5q-37 0 -56.5 14t-28.5 32l10 11q9 -18 26 -31t49 -13q38 0 62.5 24t24.5 65q0 29 -14.5 54.5t-42.5 45.5z" />
    <glyph glyph-name="egrave" unicode="&#xe8;" horiz-adv-x="527" 
d="M260 -9q-68 0 -116 30.5t-72.5 82t-24.5 113.5q0 78 29.5 144.5t85.5 107t135 40.5q58 0 100 -27t64.5 -73t22.5 -104q0 -10 -0.5 -22t-2.5 -23h-423v14h413l-5 -3q1 8 1.5 16t0.5 15q0 53 -20 97t-58.5 70t-94.5 26q-53 0 -96 -21.5t-73.5 -59.5t-46.5 -88.5t-16 -108.5
q0 -61 24 -109t68 -75.5t105 -27.5q63 0 112 30.5t77 78.5l13 -8q-20 -32 -49.5 -58.5t-67.5 -41.5t-85 -15zM272 730l52 -147h-14l-55 147h17z" />
    <glyph glyph-name="eacute" unicode="&#xe9;" horiz-adv-x="527" 
d="M260 -9q-68 0 -116 30.5t-72.5 82t-24.5 113.5q0 78 29.5 144.5t85.5 107t135 40.5q58 0 100 -27t64.5 -73t22.5 -104q0 -10 -0.5 -22t-2.5 -23h-423v14h413l-5 -3q1 8 1.5 16t0.5 15q0 53 -20 97t-58.5 70t-94.5 26q-53 0 -96 -21.5t-73.5 -59.5t-46.5 -88.5t-16 -108.5
q0 -61 24 -109t68 -75.5t105 -27.5q63 0 112 30.5t77 78.5l13 -8q-20 -32 -49.5 -58.5t-67.5 -41.5t-85 -15zM429 730h20l-122 -147h-17z" />
    <glyph glyph-name="ecircumflex" unicode="&#xea;" horiz-adv-x="527" 
d="M260 -9q-68 0 -116 30.5t-72.5 82t-24.5 113.5q0 78 29.5 144.5t85.5 107t135 40.5q58 0 100 -27t64.5 -73t22.5 -104q0 -10 -0.5 -22t-2.5 -23h-423v14h413l-5 -3q1 8 1.5 16t0.5 15q0 53 -20 97t-58.5 70t-94.5 26q-53 0 -96 -21.5t-73.5 -59.5t-46.5 -88.5t-16 -108.5
q0 -61 24 -109t68 -75.5t105 -27.5q63 0 112 30.5t77 78.5l13 -8q-20 -32 -49.5 -58.5t-67.5 -41.5t-85 -15zM201 583l141 142h18l75 -142h-16l-69 129l-130 -129h-19z" />
    <glyph glyph-name="edieresis" unicode="&#xeb;" horiz-adv-x="527" 
d="M260 -9q-68 0 -116 30.5t-72.5 82t-24.5 113.5q0 78 29.5 144.5t85.5 107t135 40.5q58 0 100 -27t64.5 -73t22.5 -104q0 -10 -0.5 -22t-2.5 -23h-423v14h413l-5 -3q1 8 1.5 16t0.5 15q0 53 -20 97t-58.5 70t-94.5 26q-53 0 -96 -21.5t-73.5 -59.5t-46.5 -88.5t-16 -108.5
q0 -61 24 -109t68 -75.5t105 -27.5q63 0 112 30.5t77 78.5l13 -8q-20 -32 -49.5 -58.5t-67.5 -41.5t-85 -15zM410 598q-9 0 -14.5 5.5t-5.5 14.5q0 10 6 17t16 7t15 -5.5t5 -14.5q0 -10 -6 -17t-16 -7zM226 598q-9 0 -14.5 5.5t-5.5 14.5q0 10 6 17t16 7t15 -5.5t5 -14.5
q0 -10 -6 -17t-16 -7z" />
    <glyph glyph-name="igrave" unicode="&#xec;" horiz-adv-x="182" 
d="M157 500l-116 -500h-16l116 500h16zM122 730l52 -147h-14l-55 147h17z" />
    <glyph glyph-name="iacute" unicode="&#xed;" horiz-adv-x="182" 
d="M157 500l-116 -500h-16l116 500h16zM279 730h20l-122 -147h-17z" />
    <glyph glyph-name="icircumflex" unicode="&#xee;" horiz-adv-x="182" 
d="M157 500l-116 -500h-16l116 500h16zM51 583l141 142h18l75 -142h-16l-69 129l-130 -129h-19z" />
    <glyph glyph-name="idieresis" unicode="&#xef;" horiz-adv-x="182" 
d="M220 598q-9 0 -14.5 5.5t-5.5 14.5q0 10 6 17t16 7t15 -5.5t5 -14.5q0 -10 -6 -17t-16 -7zM116 598q-9 0 -14.5 5.5t-5.5 14.5q0 10 6 17t16 7t15 -5.5t5 -14.5q0 -10 -6 -17t-16 -7zM157 500l-116 -500h-16l116 500h16z" />
    <glyph glyph-name="eth" unicode="&#xf0;" horiz-adv-x="565" 
d="M255 -10q-69 0 -115 33t-69 85t-23 109q0 77 34 138t91 96.5t124 35.5q59 0 104 -27t71 -77t26 -119l-3 -8q12 52 15.5 100.5t3.5 80.5q0 77 -21.5 134t-59 96.5t-86.5 62.5h29q32 -16 60 -43t49 -63.5t33 -81t12 -96.5q0 -95 -16.5 -177.5t-50 -145t-85.5 -98
t-123 -35.5zM252 4q53 0 96 22.5t73.5 60t47 83.5t16.5 93q0 64 -24 111t-66.5 73t-98.5 26q-44 0 -85.5 -18.5t-74.5 -52.5t-52.5 -81.5t-19.5 -104.5q0 -59 24 -107t66.5 -76.5t97.5 -28.5zM291 574l-1 13l188 38l5 -12zM483 613l-5 12l123 26l1 -13z" />
    <glyph glyph-name="ntilde" unicode="&#xf1;" horiz-adv-x="562" 
d="M26 0l116 500h16l-33 -140l-4 1q23 63 79.5 106t144.5 43q60 0 99 -26t53.5 -74.5t-1.5 -115.5l-68 -294h-16l67 292q23 99 -16 151.5t-119 52.5q-66 0 -113.5 -27t-77 -71.5t-41.5 -96.5l-70 -301h-16zM516 683q-14 -44 -36.5 -64t-48.5 -20q-24 0 -39.5 10.5t-28 24
t-26.5 24t-35 10.5q-29 0 -44.5 -18t-29.5 -52h-15q14 44 36 64t55 20q24 0 39.5 -10.5t27.5 -24t26 -24t35 -10.5q23 0 40 18t30 52h14z" />
    <glyph glyph-name="ograve" unicode="&#xf2;" horiz-adv-x="561" 
d="M263 -9q-69 0 -117 30.5t-73 82t-25 112.5q0 86 31.5 152t88 103.5t131.5 37.5q70 0 117.5 -30.5t72 -81t24.5 -112.5q0 -85 -31.5 -151.5t-87.5 -104.5t-131 -38zM263 5q52 0 95 20t74 57.5t48 89t17 113.5q0 64 -24.5 111t-69 73t-104.5 26q-52 0 -95.5 -20
t-74.5 -57.5t-48 -88.5t-17 -113q0 -63 25 -110.5t70 -74t104 -26.5zM286 730l52 -147h-14l-55 147h17z" />
    <glyph glyph-name="oacute" unicode="&#xf3;" horiz-adv-x="561" 
d="M263 -9q-69 0 -117 30.5t-73 82t-25 112.5q0 86 31.5 152t88 103.5t131.5 37.5q70 0 117.5 -30.5t72 -81t24.5 -112.5q0 -85 -31.5 -151.5t-87.5 -104.5t-131 -38zM263 5q52 0 95 20t74 57.5t48 89t17 113.5q0 64 -24.5 111t-69 73t-104.5 26q-52 0 -95.5 -20
t-74.5 -57.5t-48 -88.5t-17 -113q0 -63 25 -110.5t70 -74t104 -26.5zM443 730h20l-122 -147h-17z" />
    <glyph glyph-name="ocircumflex" unicode="&#xf4;" horiz-adv-x="561" 
d="M263 -9q-69 0 -117 30.5t-73 82t-25 112.5q0 86 31.5 152t88 103.5t131.5 37.5q70 0 117.5 -30.5t72 -81t24.5 -112.5q0 -85 -31.5 -151.5t-87.5 -104.5t-131 -38zM263 5q52 0 95 20t74 57.5t48 89t17 113.5q0 64 -24.5 111t-69 73t-104.5 26q-52 0 -95.5 -20
t-74.5 -57.5t-48 -88.5t-17 -113q0 -63 25 -110.5t70 -74t104 -26.5zM215 583l141 142h18l75 -142h-16l-69 129l-130 -129h-19z" />
    <glyph glyph-name="otilde" unicode="&#xf5;" horiz-adv-x="561" 
d="M263 -9q-69 0 -117 30.5t-73 82t-25 112.5q0 86 31.5 152t88 103.5t131.5 37.5q70 0 117.5 -30.5t72 -81t24.5 -112.5q0 -85 -31.5 -151.5t-87.5 -104.5t-131 -38zM263 5q52 0 95 20t74 57.5t48 89t17 113.5q0 64 -24.5 111t-69 73t-104.5 26q-52 0 -95.5 -20
t-74.5 -57.5t-48 -88.5t-17 -113q0 -63 25 -110.5t70 -74t104 -26.5zM497 683q-14 -44 -36.5 -64t-48.5 -20q-24 0 -39.5 10.5t-28 24t-26.5 24t-35 10.5q-29 0 -44.5 -18t-29.5 -52h-15q14 44 36 64t55 20q24 0 39.5 -10.5t27.5 -24t26 -24t35 -10.5q23 0 40 18t30 52h14z
" />
    <glyph glyph-name="odieresis" unicode="&#xf6;" horiz-adv-x="561" 
d="M263 -9q-69 0 -117 30.5t-73 82t-25 112.5q0 86 31.5 152t88 103.5t131.5 37.5q70 0 117.5 -30.5t72 -81t24.5 -112.5q0 -85 -31.5 -151.5t-87.5 -104.5t-131 -38zM263 5q52 0 95 20t74 57.5t48 89t17 113.5q0 64 -24.5 111t-69 73t-104.5 26q-52 0 -95.5 -20
t-74.5 -57.5t-48 -88.5t-17 -113q0 -63 25 -110.5t70 -74t104 -26.5zM424 598q-9 0 -14.5 5.5t-5.5 14.5q0 10 6 17t16 7t15 -5.5t5 -14.5q0 -10 -6 -17t-16 -7zM240 598q-9 0 -14.5 5.5t-5.5 14.5q0 10 6 17t16 7t15 -5.5t5 -14.5q0 -10 -6 -17t-16 -7z" />
    <glyph glyph-name="divide" unicode="&#xf7;" 
d="M544 323l-3 -14h-450l3 14h450zM274 110q-9 0 -14.5 5.5t-5.5 14.5q0 10 6 17t16 7q9 0 14.5 -5.5t5.5 -14.5q0 -10 -6.5 -17t-15.5 -7zM359 480q-9 0 -14.5 5.5t-5.5 14.5q0 10 6 17t16 7q9 0 14.5 -5.5t5.5 -14.5q0 -10 -6.5 -17t-15.5 -7z" />
    <glyph glyph-name="oslash" unicode="&#xf8;" horiz-adv-x="561" 
d="M263 -9q-69 0 -117 30.5t-73 82t-25 112.5q0 86 31.5 152t88 103.5t131.5 37.5q70 0 117.5 -30.5t72 -81t24.5 -112.5q0 -85 -31.5 -151.5t-87.5 -104.5t-131 -38zM263 5q52 0 95 20t74 57.5t48 89t17 113.5q0 64 -24.5 111t-69 73t-104.5 26q-52 0 -95.5 -20
t-74.5 -57.5t-48 -88.5t-17 -113q0 -63 25 -110.5t70 -74t104 -26.5zM-16 -26l571 553h21l-571 -553h-21z" />
    <glyph glyph-name="ugrave" unicode="&#xf9;" horiz-adv-x="562" 
d="M227 -10q-65 0 -106.5 25.5t-55.5 75t2 119.5l67 290h16l-67 -292q-23 -100 17.5 -152t127.5 -52q61 0 106.5 27t74.5 71.5t41 96.5l70 301h16l-116 -500h-16l33 140l4 -1q-26 -65 -80 -107t-134 -42zM297 710l52 -147h-14l-55 147h17z" />
    <glyph glyph-name="uacute" unicode="&#xfa;" horiz-adv-x="562" 
d="M227 -10q-65 0 -106.5 25.5t-55.5 75t2 119.5l67 290h16l-67 -292q-23 -100 17.5 -152t127.5 -52q61 0 106.5 27t74.5 71.5t41 96.5l70 301h16l-116 -500h-16l33 140l4 -1q-26 -65 -80 -107t-134 -42zM454 710h20l-122 -147h-17z" />
    <glyph glyph-name="ucircumflex" unicode="&#xfb;" horiz-adv-x="562" 
d="M227 -10q-65 0 -106.5 25.5t-55.5 75t2 119.5l67 290h16l-67 -292q-23 -100 17.5 -152t127.5 -52q61 0 106.5 27t74.5 71.5t41 96.5l70 301h16l-116 -500h-16l33 140l4 -1q-26 -65 -80 -107t-134 -42zM226 563l141 142h18l75 -142h-16l-69 129l-130 -129h-19z" />
    <glyph glyph-name="udieresis" unicode="&#xfc;" horiz-adv-x="562" 
d="M227 -10q-65 0 -106.5 25.5t-55.5 75t2 119.5l67 290h16l-67 -292q-23 -100 17.5 -152t127.5 -52q61 0 106.5 27t74.5 71.5t41 96.5l70 301h16l-116 -500h-16l33 140l4 -1q-26 -65 -80 -107t-134 -42zM435 578q-9 0 -14.5 5.5t-5.5 14.5q0 10 6 17t16 7t15 -5.5t5 -14.5
q0 -10 -6 -17t-16 -7zM251 578q-9 0 -14.5 5.5t-5.5 14.5q0 10 6 17t16 7t15 -5.5t5 -14.5q0 -10 -6 -17t-16 -7z" />
    <glyph glyph-name="yacute" unicode="&#xfd;" horiz-adv-x="472" 
d="M-31 -215q-26 0 -45.5 8t-27.5 24l12 10q18 -28 63 -28q38 0 71 25t70 84l58 92l-91 500h16l81 -444l6 -39l28 45l279 438h19l-383 -601q-26 -42 -50.5 -67t-49.5 -36t-56 -11zM414 710h20l-122 -147h-17z" />
    <glyph glyph-name="thorn" unicode="&#xfe;" horiz-adv-x="582" 
d="M-22 -210l217 940h16l-90 -389l-4 9q25 77 84 118.5t135 41.5q63 0 107 -30t67.5 -81t23.5 -114q0 -60 -16.5 -113t-47.5 -94t-76 -64.5t-102 -23.5q-67 0 -113.5 29.5t-69.5 81t-21 117.5l12 30l-106 -458h-16zM293 4q51 0 92 21.5t71 60t46 89.5t16 111q0 65 -24 112
t-65.5 72.5t-93.5 25.5q-55 0 -98 -22t-73 -62t-45.5 -93.5t-15.5 -115.5q0 -92 52.5 -145.5t137.5 -53.5z" />
    <glyph glyph-name="ydieresis" unicode="&#xff;" horiz-adv-x="472" 
d="M-31 -215q-26 0 -45.5 8t-27.5 24l12 10q18 -28 63 -28q38 0 71 25t70 84l58 92l-91 500h16l81 -444l6 -39l28 45l279 438h19l-383 -601q-26 -42 -50.5 -67t-49.5 -36t-56 -11zM395 578q-9 0 -14.5 5.5t-5.5 14.5q0 10 6 17t16 7t15 -5.5t5 -14.5q0 -10 -6 -17t-16 -7z
M211 578q-9 0 -14.5 5.5t-5.5 14.5q0 10 6 17t16 7t15 -5.5t5 -14.5q0 -10 -6 -17t-16 -7z" />
    <glyph glyph-name="Amacron" unicode="&#x100;" horiz-adv-x="575" 
d="M-46 0l418 660h21l112 -660h-16l-102 595l-8 47v0l-27 -45l-379 -597h-19zM112 236l4 14h342l-4 -14h-342zM533 779l-3 -14h-268l3 14h268z" />
    <glyph glyph-name="amacron" unicode="&#x101;" horiz-adv-x="582" 
d="M253 -10q-64 0 -110 29.5t-70.5 80.5t-24.5 117q0 62 17.5 115t51 93t81 62.5t106.5 22.5q62 0 105 -24.5t66 -68.5t22 -101l43 184h16l-116 -500h-16l29 126q-27 -57 -76 -96.5t-124 -39.5zM257 4q53 0 95 26t72 69.5t46 96t16 106.5q0 70 -26 112.5t-67.5 62
t-89.5 19.5q-54 0 -97.5 -20.5t-75.5 -58t-49 -88.5t-17 -113q0 -67 25.5 -114.5t69.5 -72.5t98 -25zM468 619l-3 -14h-268l3 14h268z" />
    <glyph glyph-name="Abreve" unicode="&#x102;" horiz-adv-x="575" 
d="M-46 0l418 660h21l112 -660h-16l-102 595l-8 47v0l-27 -45l-379 -597h-19zM112 236l4 14h342l-4 -14h-342zM547 862q-11 -64 -49.5 -92.5t-92.5 -28.5q-49 0 -76.5 24t-27.5 65q0 8 1 16.5t2 15.5h13q-1 -7 -2 -14.5t-1 -14.5q0 -36 25.5 -57t66.5 -21q51 0 84.5 28.5
t42.5 78.5h14z" />
    <glyph glyph-name="abreve" unicode="&#x103;" horiz-adv-x="582" 
d="M253 -10q-64 0 -110 29.5t-70.5 80.5t-24.5 117q0 62 17.5 115t51 93t81 62.5t106.5 22.5q62 0 105 -24.5t66 -68.5t22 -101l43 184h16l-116 -500h-16l29 126q-27 -57 -76 -96.5t-124 -39.5zM257 4q53 0 95 26t72 69.5t46 96t16 106.5q0 70 -26 112.5t-67.5 62
t-89.5 19.5q-54 0 -97.5 -20.5t-75.5 -58t-49 -88.5t-17 -113q0 -67 25.5 -114.5t69.5 -72.5t98 -25zM482 702q-11 -64 -49.5 -92.5t-92.5 -28.5q-49 0 -76.5 24t-27.5 65q0 8 1 16.5t2 15.5h13q-1 -7 -2 -14.5t-1 -14.5q0 -36 25.5 -57t66.5 -21q51 0 84.5 28.5t42.5 78.5
h14z" />
    <glyph glyph-name="Aogonek" unicode="&#x104;" horiz-adv-x="575" 
d="M430 -205q-22 0 -39.5 8t-27.5 23.5t-10 38.5q0 32 19 58t50.5 47t69.5 37l13 -7q-37 -16 -68 -36.5t-50 -44.5t-19 -52q0 -29 18 -43.5t44 -14.5q14 0 27.5 3.5t23.5 7.5l-2 -15q-7 -4 -20.5 -7t-28.5 -3zM-46 0l418 660h21l112 -660h-16l-102 595l-8 47v0l-27 -45
l-379 -597h-19zM112 236l4 14h342l-4 -14h-342z" />
    <glyph glyph-name="aogonek" unicode="&#x105;" horiz-adv-x="582" 
d="M371 -205q-19 0 -36 7.5t-28 23t-11 39.5q0 32 17 58t46.5 47t67.5 37l13 -7q-55 -25 -92 -58t-37 -75q0 -31 19 -44.5t41 -13.5q18 0 27 3.5t18 7.5l-2 -15q-6 -4 -15 -7t-28 -3zM253 -10q-64 0 -110 29.5t-70.5 80.5t-24.5 117q0 62 17.5 115t51 93t81 62.5t106.5 22.5
q62 0 105 -24.5t66 -68.5t22 -101l43 184h16l-116 -500h-16l29 126q-27 -57 -76 -96.5t-124 -39.5zM257 4q53 0 95 26t72 69.5t46 96t16 106.5q0 70 -26 112.5t-67.5 62t-89.5 19.5q-54 0 -97.5 -20.5t-75.5 -58t-49 -88.5t-17 -113q0 -67 25.5 -114.5t69.5 -72.5t98 -25z
" />
    <glyph glyph-name="Cacute" unicode="&#x106;" horiz-adv-x="661" 
d="M343 -10q-74 0 -135.5 33t-97.5 97t-36 157q0 77 21 148t63 126t104.5 87t144.5 32q59 0 107.5 -21t84 -61t52.5 -98l-15 -4q-25 82 -86 126t-144 44q-78 0 -137 -31t-99 -84.5t-60 -121t-20 -139.5q0 -87 34.5 -149t92.5 -94.5t127 -32.5q83 0 143.5 35t96.5 101l13 -10
q-38 -67 -102.5 -103.5t-151.5 -36.5zM536 891h20l-111 -148h-17z" />
    <glyph glyph-name="cacute" unicode="&#x107;" horiz-adv-x="516" 
d="M259 -10q-60 0 -108 27.5t-76 78t-28 118.5q0 82 30.5 149t87 107t134.5 40q48 0 85.5 -17.5t63 -50t35.5 -79.5l-15 -3q-14 64 -57.5 100t-111.5 36q-56 0 -99.5 -22t-74 -61t-46.5 -89t-16 -107q0 -67 26.5 -114.5t71.5 -73t101 -25.5q63 0 110 34.5t72 86.5l12 -7
q-27 -56 -77.5 -92t-119.5 -36zM436 730h20l-122 -147h-17z" />
    <glyph glyph-name="Ccircumflex" unicode="&#x108;" horiz-adv-x="661" 
d="M343 -10q-74 0 -135.5 33t-97.5 97t-36 157q0 77 21 148t63 126t104.5 87t144.5 32q59 0 107.5 -21t84 -61t52.5 -98l-15 -4q-25 82 -86 126t-144 44q-78 0 -137 -31t-99 -84.5t-60 -121t-20 -139.5q0 -87 34.5 -149t92.5 -94.5t127 -32.5q83 0 143.5 35t96.5 101l13 -10
q-38 -67 -102.5 -103.5t-151.5 -36.5zM481 885l75 -142h-16l-69 129l-130 -129h-19l141 142h18z" />
    <glyph glyph-name="ccircumflex" unicode="&#x109;" horiz-adv-x="516" 
d="M259 -10q-60 0 -108 27.5t-76 78t-28 118.5q0 82 30.5 149t87 107t134.5 40q48 0 85.5 -17.5t63 -50t35.5 -79.5l-15 -3q-14 64 -57.5 100t-111.5 36q-56 0 -99.5 -22t-74 -61t-46.5 -89t-16 -107q0 -67 26.5 -114.5t71.5 -73t101 -25.5q63 0 110 34.5t72 86.5l12 -7
q-27 -56 -77.5 -92t-119.5 -36zM208 583l141 142h18l75 -142h-16l-69 129l-130 -129h-19z" />
    <glyph glyph-name="Cdotaccent" unicode="&#x10a;" horiz-adv-x="661" 
d="M343 -10q-74 0 -135.5 33t-97.5 97t-36 157q0 77 21 148t63 126t104.5 87t144.5 32q59 0 107.5 -21t84 -61t52.5 -98l-15 -4q-25 82 -86 126t-144 44q-78 0 -137 -31t-99 -84.5t-60 -121t-20 -139.5q0 -87 34.5 -149t92.5 -94.5t127 -32.5q83 0 143.5 35t96.5 101l13 -10
q-38 -67 -102.5 -103.5t-151.5 -36.5zM447 758q-9 0 -14.5 5.5t-5.5 14.5q0 10 6 17t16 7q9 0 14.5 -5.5t5.5 -14.5q0 -10 -6.5 -17t-15.5 -7z" />
    <glyph glyph-name="cdotaccent" unicode="&#x10b;" horiz-adv-x="516" 
d="M259 -10q-60 0 -108 27.5t-76 78t-28 118.5q0 82 30.5 149t87 107t134.5 40q48 0 85.5 -17.5t63 -50t35.5 -79.5l-15 -3q-14 64 -57.5 100t-111.5 36q-56 0 -99.5 -22t-74 -61t-46.5 -89t-16 -107q0 -67 26.5 -114.5t71.5 -73t101 -25.5q63 0 110 34.5t72 86.5l12 -7
q-27 -56 -77.5 -92t-119.5 -36zM332 598q-9 0 -14.5 5.5t-5.5 14.5q0 10 6 17t16 7q9 0 14.5 -5.5t5.5 -14.5q0 -10 -6.5 -17t-15.5 -7z" />
    <glyph glyph-name="Ccaron" unicode="&#x10c;" horiz-adv-x="661" 
d="M343 -10q-74 0 -135.5 33t-97.5 97t-36 157q0 77 21 148t63 126t104.5 87t144.5 32q59 0 107.5 -21t84 -61t52.5 -98l-15 -4q-25 82 -86 126t-144 44q-78 0 -137 -31t-99 -84.5t-60 -121t-20 -139.5q0 -87 34.5 -149t92.5 -94.5t127 -32.5q83 0 143.5 35t96.5 101l13 -10
q-38 -67 -102.5 -103.5t-151.5 -36.5zM431 743l-75 142h16l69 -129l130 129h19l-141 -142h-18z" />
    <glyph glyph-name="ccaron" unicode="&#x10d;" horiz-adv-x="516" 
d="M259 -10q-60 0 -108 27.5t-76 78t-28 118.5q0 82 30.5 149t87 107t134.5 40q48 0 85.5 -17.5t63 -50t35.5 -79.5l-15 -3q-14 64 -57.5 100t-111.5 36q-56 0 -99.5 -22t-74 -61t-46.5 -89t-16 -107q0 -67 26.5 -114.5t71.5 -73t101 -25.5q63 0 110 34.5t72 86.5l12 -7
q-27 -56 -77.5 -92t-119.5 -36zM316 583l-75 142h16l69 -129l130 129h19l-141 -142h-18z" />
    <glyph glyph-name="Dcaron" unicode="&#x10e;" horiz-adv-x="686" 
d="M44 0l153 660h194q85 0 142.5 -35t87.5 -96t30 -139q0 -83 -25 -154t-72.5 -124t-115 -82.5t-151.5 -29.5h-243zM64 14h224q80 0 144 28.5t109.5 79.5t69.5 119.5t24 147.5q0 74 -27.5 132t-82 91.5t-137.5 33.5h-178zM408 743l-75 142h16l69 -129l130 129h19l-141 -142
h-18z" />
    <glyph glyph-name="dcaron" unicode="&#x10f;" horiz-adv-x="601" 
d="M725 730l-75 -197h-15l72 197h18zM253 -10q-64 0 -110 29.5t-70.5 80.5t-24.5 117q0 62 17.5 115t51 93t81 62.5t106.5 22.5q60 0 104 -24t67 -68.5t21 -106.5l96 419h16l-168 -730h-16l29 126q-27 -57 -76 -96.5t-124 -39.5zM257 4q53 0 95 26t72 69.5t46 96t16 106.5
q0 70 -26 112.5t-67.5 62t-89.5 19.5q-54 0 -97.5 -20.5t-75.5 -58t-49 -88.5t-17 -113q0 -67 25.5 -114.5t69.5 -72.5t98 -25z" />
    <glyph glyph-name="Dcroat" unicode="&#x110;" horiz-adv-x="693" 
d="M22 327l3 14h329l-3 -14h-329zM51 0l153 660h194q85 0 142.5 -35t87.5 -96t30 -139q0 -83 -25 -154t-72.5 -124t-115 -82.5t-151.5 -29.5h-243zM71 14h224q80 0 144 28.5t109.5 79.5t69.5 119.5t24 147.5q0 74 -27.5 132t-82 91.5t-137.5 33.5h-178z" />
    <glyph glyph-name="dcroat" unicode="&#x111;" horiz-adv-x="573" 
d="M374 606h293l-3 -12h-293zM253 -10q-64 0 -110 29.5t-70.5 80.5t-24.5 117q0 62 17.5 115t51 93t81 62.5t106.5 22.5q60 0 104 -24t67 -68.5t21 -106.5l96 419h16l-168 -730h-16l29 126q-27 -57 -76 -96.5t-124 -39.5zM257 4q53 0 95 26t72 69.5t46 96t16 106.5
q0 70 -26 112.5t-67.5 62t-89.5 19.5q-54 0 -97.5 -20.5t-75.5 -58t-49 -88.5t-17 -113q0 -67 25.5 -114.5t69.5 -72.5t98 -25z" />
    <glyph glyph-name="Emacron" unicode="&#x112;" horiz-adv-x="572" 
d="M39 0l153 660h426l-4 -14h-410l-69 -302h331l-4 -14h-331l-72 -316h428l-3 -14h-445zM549 779l-3 -14h-268l3 14h268z" />
    <glyph glyph-name="emacron" unicode="&#x113;" horiz-adv-x="527" 
d="M260 -9q-68 0 -116 30.5t-72.5 82t-24.5 113.5q0 78 29.5 144.5t85.5 107t135 40.5q58 0 100 -27t64.5 -73t22.5 -104q0 -10 -0.5 -22t-2.5 -23h-423v14h413l-5 -3q1 8 1.5 16t0.5 15q0 53 -20 97t-58.5 70t-94.5 26q-53 0 -96 -21.5t-73.5 -59.5t-46.5 -88.5t-16 -108.5
q0 -61 24 -109t68 -75.5t105 -27.5q63 0 112 30.5t77 78.5l13 -8q-20 -32 -49.5 -58.5t-67.5 -41.5t-85 -15zM452 619l-3 -14h-268l3 14h268z" />
    <glyph glyph-name="Ebreve" unicode="&#x114;" horiz-adv-x="572" 
d="M39 0l153 660h426l-4 -14h-410l-69 -302h331l-4 -14h-331l-72 -316h428l-3 -14h-445zM563 862q-11 -64 -49.5 -92.5t-92.5 -28.5q-49 0 -76.5 24t-27.5 65q0 8 1 16.5t2 15.5h13q-1 -7 -2 -14.5t-1 -14.5q0 -36 25.5 -57t66.5 -21q51 0 84.5 28.5t42.5 78.5h14z" />
    <glyph glyph-name="ebreve" unicode="&#x115;" horiz-adv-x="527" 
d="M260 -9q-68 0 -116 30.5t-72.5 82t-24.5 113.5q0 78 29.5 144.5t85.5 107t135 40.5q58 0 100 -27t64.5 -73t22.5 -104q0 -10 -0.5 -22t-2.5 -23h-423v14h413l-5 -3q1 8 1.5 16t0.5 15q0 53 -20 97t-58.5 70t-94.5 26q-53 0 -96 -21.5t-73.5 -59.5t-46.5 -88.5t-16 -108.5
q0 -61 24 -109t68 -75.5t105 -27.5q63 0 112 30.5t77 78.5l13 -8q-20 -32 -49.5 -58.5t-67.5 -41.5t-85 -15zM466 702q-11 -64 -49.5 -92.5t-92.5 -28.5q-49 0 -76.5 24t-27.5 65q0 8 1 16.5t2 15.5h13q-1 -7 -2 -14.5t-1 -14.5q0 -36 25.5 -57t66.5 -21q51 0 84.5 28.5
t42.5 78.5h14z" />
    <glyph glyph-name="Edotaccent" unicode="&#x116;" horiz-adv-x="572" 
d="M39 0l153 660h426l-4 -14h-410l-69 -302h331l-4 -14h-331l-72 -316h428l-3 -14h-445zM422 758q-9 0 -14.5 5.5t-5.5 14.5q0 10 6 17t16 7q9 0 14.5 -5.5t5.5 -14.5q0 -10 -6.5 -17t-15.5 -7z" />
    <glyph glyph-name="edotaccent" unicode="&#x117;" horiz-adv-x="527" 
d="M260 -9q-68 0 -116 30.5t-72.5 82t-24.5 113.5q0 78 29.5 144.5t85.5 107t135 40.5q58 0 100 -27t64.5 -73t22.5 -104q0 -10 -0.5 -22t-2.5 -23h-423v14h413l-5 -3q1 8 1.5 16t0.5 15q0 53 -20 97t-58.5 70t-94.5 26q-53 0 -96 -21.5t-73.5 -59.5t-46.5 -88.5t-16 -108.5
q0 -61 24 -109t68 -75.5t105 -27.5q63 0 112 30.5t77 78.5l13 -8q-20 -32 -49.5 -58.5t-67.5 -41.5t-85 -15zM325 598q-9 0 -14.5 5.5t-5.5 14.5q0 10 6 17t16 7q9 0 14.5 -5.5t5.5 -14.5q0 -10 -6.5 -17t-15.5 -7z" />
    <glyph glyph-name="Eogonek" unicode="&#x118;" horiz-adv-x="572" 
d="M399 -205q-22 0 -39.5 8t-27.5 23.5t-10 38.5q0 32 21.5 58t55.5 47t72 37l13 -7q-37 -16 -70.5 -36.5t-55 -44.5t-21.5 -52q0 -29 18 -43.5t44 -14.5q14 0 27.5 3.5t23.5 7.5l-2 -15q-7 -4 -20.5 -7t-28.5 -3zM39 0l153 660h426l-4 -14h-410l-69 -302h331l-4 -14h-331
l-72 -316h428l-3 -14h-445z" />
    <glyph glyph-name="eogonek" unicode="&#x119;" horiz-adv-x="527" 
d="M260 -9q-68 0 -116 30.5t-72.5 82t-24.5 113.5q0 78 29.5 144.5t85.5 107t135 40.5q58 0 100 -27t64.5 -73t22.5 -104q0 -10 -0.5 -22t-2.5 -23h-423v14h413l-5 -3q1 8 1.5 16t0.5 15q0 53 -20 97t-58.5 70t-94.5 26q-53 0 -96 -21.5t-73.5 -59.5t-46.5 -88.5t-16 -108.5
q0 -61 24 -109t68 -75.5t105 -27.5q63 0 112 30.5t77 78.5l13 -8q-20 -32 -49.5 -58.5t-67.5 -41.5t-85 -15zM251 -205q-22 0 -39.5 8t-27.5 23.5t-10 38.5q0 32 19 58t50.5 47t69.5 37l13 -7q-37 -16 -68 -36.5t-50 -44.5t-19 -52q0 -29 18 -43.5t44 -14.5q14 0 27.5 3.5
t23.5 7.5l-2 -15q-7 -4 -20.5 -7t-28.5 -3z" />
    <glyph glyph-name="Ecaron" unicode="&#x11a;" horiz-adv-x="572" 
d="M39 0l153 660h426l-4 -14h-410l-69 -302h331l-4 -14h-331l-72 -316h428l-3 -14h-445zM406 743l-75 142h16l69 -129l130 129h19l-141 -142h-18z" />
    <glyph glyph-name="ecaron" unicode="&#x11b;" horiz-adv-x="527" 
d="M260 -9q-68 0 -116 30.5t-72.5 82t-24.5 113.5q0 78 29.5 144.5t85.5 107t135 40.5q58 0 100 -27t64.5 -73t22.5 -104q0 -10 -0.5 -22t-2.5 -23h-423v14h413l-5 -3q1 8 1.5 16t0.5 15q0 53 -20 97t-58.5 70t-94.5 26q-53 0 -96 -21.5t-73.5 -59.5t-46.5 -88.5t-16 -108.5
q0 -61 24 -109t68 -75.5t105 -27.5q63 0 112 30.5t77 78.5l13 -8q-20 -32 -49.5 -58.5t-67.5 -41.5t-85 -15zM309 583l-75 142h16l69 -129l130 129h19l-141 -142h-18z" />
    <glyph glyph-name="Gcircumflex" unicode="&#x11c;" horiz-adv-x="689" 
d="M343 -9q-74 0 -135.5 32.5t-97.5 96t-36 156.5q0 77 21.5 148t65 126.5t108.5 87.5t151 32q57 0 105 -20t84.5 -59t58.5 -96l-15 -4q-32 81 -93 123t-141 42q-82 0 -143.5 -31.5t-103 -85t-62 -121t-20.5 -139.5q0 -87 34.5 -148.5t92.5 -93.5t127 -32q56 0 108.5 21
t93.5 71t60 137l13 56h-236l3 14h252l-70 -304h-16l44 186l8 13q-17 -79 -57 -124t-93 -64.5t-111 -19.5zM480 885l75 -142h-16l-69 129l-130 -129h-19l141 142h18z" />
    <glyph glyph-name="gcircumflex" unicode="&#x11d;" horiz-adv-x="583" 
d="M209 -215q-42 0 -78.5 11t-64.5 32.5t-46.5 52t-26.5 69.5l15 5q15 -77 71 -116.5t133 -39.5q54 0 95.5 19.5t70.5 62.5t45 111l39 167l-5 -25q-26 -53 -79.5 -88t-125.5 -35q-59 0 -105 25.5t-72 75t-26 121.5q0 55 16.5 105t48 88.5t77.5 61t106 22.5q73 0 120.5 -36.5
t66 -97.5t3.5 -135l-4 12l57 247h16l-118 -513q-16 -71 -47 -116t-76 -65.5t-106 -20.5zM253 25q75 0 125.5 38t76 99.5t25.5 130.5q0 71 -26.5 116t-68.5 66t-89 21q-74 0 -125.5 -38t-78.5 -98.5t-27 -127.5q0 -100 52 -153.5t136 -53.5zM210 583l141 142h18l75 -142h-16
l-69 129l-130 -129h-19z" />
    <glyph glyph-name="Gbreve" unicode="&#x11e;" horiz-adv-x="689" 
d="M343 -9q-74 0 -135.5 32.5t-97.5 96t-36 156.5q0 77 21.5 148t65 126.5t108.5 87.5t151 32q57 0 105 -20t84.5 -59t58.5 -96l-15 -4q-32 81 -93 123t-141 42q-82 0 -143.5 -31.5t-103 -85t-62 -121t-20.5 -139.5q0 -87 34.5 -148.5t92.5 -93.5t127 -32q56 0 108.5 21
t93.5 71t60 137l13 56h-236l3 14h252l-70 -304h-16l44 186l8 13q-17 -79 -57 -124t-93 -64.5t-111 -19.5zM587 862q-11 -64 -49.5 -92.5t-92.5 -28.5q-49 0 -76.5 24t-27.5 65q0 8 1 16.5t2 15.5h13q-1 -7 -2 -14.5t-1 -14.5q0 -36 25.5 -57t66.5 -21q51 0 84.5 28.5
t42.5 78.5h14z" />
    <glyph glyph-name="gbreve" unicode="&#x11f;" horiz-adv-x="583" 
d="M209 -215q-42 0 -78.5 11t-64.5 32.5t-46.5 52t-26.5 69.5l15 5q15 -77 71 -116.5t133 -39.5q54 0 95.5 19.5t70.5 62.5t45 111l39 167l-5 -25q-26 -53 -79.5 -88t-125.5 -35q-59 0 -105 25.5t-72 75t-26 121.5q0 55 16.5 105t48 88.5t77.5 61t106 22.5q73 0 120.5 -36.5
t66 -97.5t3.5 -135l-4 12l57 247h16l-118 -513q-16 -71 -47 -116t-76 -65.5t-106 -20.5zM253 25q75 0 125.5 38t76 99.5t25.5 130.5q0 71 -26.5 116t-68.5 66t-89 21q-74 0 -125.5 -38t-78.5 -98.5t-27 -127.5q0 -100 52 -153.5t136 -53.5zM475 702q-11 -64 -49.5 -92.5
t-92.5 -28.5q-49 0 -76.5 24t-27.5 65q0 8 1 16.5t2 15.5h13q-1 -7 -2 -14.5t-1 -14.5q0 -36 25.5 -57t66.5 -21q51 0 84.5 28.5t42.5 78.5h14z" />
    <glyph glyph-name="Gdotaccent" unicode="&#x120;" horiz-adv-x="689" 
d="M343 -9q-74 0 -135.5 32.5t-97.5 96t-36 156.5q0 77 21.5 148t65 126.5t108.5 87.5t151 32q57 0 105 -20t84.5 -59t58.5 -96l-15 -4q-32 81 -93 123t-141 42q-82 0 -143.5 -31.5t-103 -85t-62 -121t-20.5 -139.5q0 -87 34.5 -148.5t92.5 -93.5t127 -32q56 0 108.5 21
t93.5 71t60 137l13 56h-236l3 14h252l-70 -304h-16l44 186l8 13q-17 -79 -57 -124t-93 -64.5t-111 -19.5zM446 758q-9 0 -14.5 5.5t-5.5 14.5q0 10 6 17t16 7q9 0 14.5 -5.5t5.5 -14.5q0 -10 -6.5 -17t-15.5 -7z" />
    <glyph glyph-name="gdotaccent" unicode="&#x121;" horiz-adv-x="583" 
d="M209 -215q-42 0 -78.5 11t-64.5 32.5t-46.5 52t-26.5 69.5l15 5q15 -77 71 -116.5t133 -39.5q54 0 95.5 19.5t70.5 62.5t45 111l39 167l-5 -25q-26 -53 -79.5 -88t-125.5 -35q-59 0 -105 25.5t-72 75t-26 121.5q0 55 16.5 105t48 88.5t77.5 61t106 22.5q73 0 120.5 -36.5
t66 -97.5t3.5 -135l-4 12l57 247h16l-118 -513q-16 -71 -47 -116t-76 -65.5t-106 -20.5zM253 25q75 0 125.5 38t76 99.5t25.5 130.5q0 71 -26.5 116t-68.5 66t-89 21q-74 0 -125.5 -38t-78.5 -98.5t-27 -127.5q0 -100 52 -153.5t136 -53.5zM334 598q-9 0 -14.5 5.5
t-5.5 14.5q0 10 6 17t16 7q9 0 14.5 -5.5t5.5 -14.5q0 -10 -6.5 -17t-15.5 -7z" />
    <glyph glyph-name="uni0122" unicode="&#x122;" horiz-adv-x="689" 
d="M343 -9q-74 0 -135.5 32.5t-97.5 96t-36 156.5q0 77 21.5 148t65 126.5t108.5 87.5t151 32q57 0 105 -20t84.5 -59t58.5 -96l-15 -4q-32 81 -93 123t-141 42q-82 0 -143.5 -31.5t-103 -85t-62 -121t-20.5 -139.5q0 -87 34.5 -148.5t92.5 -93.5t127 -32q56 0 108.5 21
t93.5 71t60 137l13 56h-236l3 14h252l-70 -304h-16l44 186l8 13q-17 -79 -57 -124t-93 -64.5t-111 -19.5zM354 -68l-93 -161h-14l87 161h20z" />
    <glyph glyph-name="uni0123" unicode="&#x123;" horiz-adv-x="583" 
d="M209 -215q-42 0 -78.5 11t-64.5 32.5t-46.5 52t-26.5 69.5l15 5q15 -77 71 -116.5t133 -39.5q54 0 95.5 19.5t70.5 62.5t45 111l39 167l-5 -25q-26 -53 -79.5 -88t-125.5 -35q-59 0 -105 25.5t-72 75t-26 121.5q0 55 16.5 105t48 88.5t77.5 61t106 22.5q73 0 120.5 -36.5
t66 -97.5t3.5 -135l-4 12l57 247h16l-118 -513q-16 -71 -47 -116t-76 -65.5t-106 -20.5zM253 25q75 0 125.5 38t76 99.5t25.5 130.5q0 71 -26.5 116t-68.5 66t-89 21q-74 0 -125.5 -38t-78.5 -98.5t-27 -127.5q0 -100 52 -153.5t136 -53.5zM446 778l-99 -191h-19l104 191h14
z" />
    <glyph glyph-name="Hcircumflex" unicode="&#x124;" horiz-adv-x="682" 
d="M680 660l-153 -660h-16l153 660h16zM208 660l-153 -660h-16l153 660h16zM600 344l-4 -14h-473l4 14h473zM500 885l75 -142h-16l-69 129l-130 -129h-19l141 142h18z" />
    <glyph glyph-name="hcircumflex" unicode="&#x125;" horiz-adv-x="562" 
d="M26 0l170 730h16l-87 -370l-4 1q16 42 46 75.5t75 53.5t103 20q59 0 98 -26t54 -74.5t-1 -115.5l-68 -294h-16l67 292q23 99 -16 151.5t-119 52.5q-66 0 -113.5 -27t-77 -71.5t-41.5 -96.5l-70 -301h-16zM250 905l75 -142h-16l-69 129l-130 -129h-19l141 142h18z" />
    <glyph glyph-name="Hbar" unicode="&#x126;" horiz-adv-x="682" 
d="M680 660l-153 -660h-16l153 660h16zM208 660l-153 -660h-16l153 660h16zM600 344l-4 -14h-473l4 14h473zM721 507l-3 -14h-633l3 14h633z" />
    <glyph glyph-name="hbar" unicode="&#x127;" horiz-adv-x="562" 
d="M70 606h293l-3 -12h-293zM26 0l170 730h16l-87 -370l-4 1q16 42 46 75.5t75 53.5t103 20q59 0 98 -26t54 -74.5t-1 -115.5l-68 -294h-16l67 292q23 99 -16 151.5t-119 52.5q-66 0 -113.5 -27t-77 -71.5t-41.5 -96.5l-70 -301h-16z" />
    <glyph glyph-name="Itilde" unicode="&#x128;" horiz-adv-x="210" 
d="M208 660l-153 -660h-16l153 660h16zM384 843q-14 -44 -36.5 -64t-48.5 -20q-24 0 -39.5 10.5t-28 24t-26.5 24t-35 10.5q-29 0 -44.5 -18t-29.5 -52h-15q14 44 36 64t55 20q24 0 39.5 -10.5t27.5 -24t26 -24t35 -10.5q23 0 40 18t30 52h14z" />
    <glyph glyph-name="itilde" unicode="&#x129;" horiz-adv-x="182" 
d="M157 500l-116 -500h-16l116 500h16zM333 683q-14 -44 -36.5 -64t-48.5 -20q-24 0 -39.5 10.5t-28 24t-26.5 24t-35 10.5q-29 0 -44.5 -18t-29.5 -52h-15q14 44 36 64t55 20q24 0 39.5 -10.5t27.5 -24t26 -24t35 -10.5q23 0 40 18t30 52h14z" />
    <glyph glyph-name="Imacron" unicode="&#x12a;" horiz-adv-x="210" 
d="M335 779l-3 -14h-216l3 14h216zM208 660l-153 -660h-16l153 660h16z" />
    <glyph glyph-name="imacron" unicode="&#x12b;" horiz-adv-x="182" 
d="M261 619l-3 -14h-168l3 14h168zM157 500l-116 -500h-16l116 500h16z" />
    <glyph glyph-name="Ibreve" unicode="&#x12c;" horiz-adv-x="210" 
d="M208 660l-153 -660h-16l153 660h16zM367 862q-11 -64 -49.5 -92.5t-92.5 -28.5q-49 0 -76.5 24t-27.5 65q0 8 1 16.5t2 15.5h13q-1 -7 -2 -14.5t-1 -14.5q0 -36 25.5 -57t66.5 -21q51 0 84.5 28.5t42.5 78.5h14z" />
    <glyph glyph-name="ibreve" unicode="&#x12d;" horiz-adv-x="182" 
d="M157 500l-116 -500h-16l116 500h16zM316 702q-11 -64 -49.5 -92.5t-92.5 -28.5q-49 0 -76.5 24t-27.5 65q0 8 1 16.5t2 15.5h13q-1 -7 -2 -14.5t-1 -14.5q0 -36 25.5 -57t66.5 -21q51 0 84.5 28.5t42.5 78.5h14z" />
    <glyph glyph-name="Iogonek" unicode="&#x12e;" horiz-adv-x="210" 
d="M-3 -205q-20 0 -38 7.5t-29 23.5t-11 42q0 32 16 57.5t44 45.5t63 36l13 -7q-34 -16 -61.5 -35.5t-43.5 -43t-16 -51.5q0 -34 21.5 -47.5t44.5 -13.5q11 0 20 1.5t16 5.5l-2 -14q-5 -3 -14 -5t-23 -2zM208 660l-153 -660h-16l153 660h16z" />
    <glyph glyph-name="iogonek" unicode="&#x12f;" horiz-adv-x="184" 
d="M-17 -205q-20 0 -38 7.5t-29 23.5t-11 42q0 32 16 57.5t44 45.5t63 36l13 -7q-34 -16 -61.5 -35.5t-43.5 -43t-16 -51.5q0 -34 21.5 -47.5t44.5 -13.5q11 0 20 1.5t16 5.5l-2 -14q-5 -3 -14 -5t-23 -2zM175 598q-9 0 -14.5 6t-5.5 14q0 11 6.5 17.5t16.5 6.5q9 0 14.5 -6
t5.5 -14q0 -11 -6 -17.5t-17 -6.5zM157 500l-116 -500h-16l116 500h16z" />
    <glyph glyph-name="Idotaccent" unicode="&#x130;" horiz-adv-x="210" 
d="M208 660l-153 -660h-16l153 660h16zM226 758q-9 0 -14.5 5.5t-5.5 14.5q0 10 6 17t16 7q9 0 14.5 -5.5t5.5 -14.5q0 -10 -6.5 -17t-15.5 -7z" />
    <glyph glyph-name="dotlessi" unicode="&#x131;" horiz-adv-x="182" 
d="M157 500l-116 -500h-16l116 500h16z" />
    <glyph glyph-name="IJ" unicode="&#x132;" horiz-adv-x="693" 
d="M208 660l-153 -660h-16l153 660h16zM387 -10q-48 0 -83 16t-55.5 46t-24 72.5t12.5 94.5l15 1q-19 -68 -8.5 -116.5t48 -74t96.5 -25.5q75 0 122 44.5t69 140.5l108 471h16l-109 -473q-15 -68 -43 -111.5t-68.5 -64.5t-95.5 -21z" />
    <glyph glyph-name="ij" unicode="&#x133;" horiz-adv-x="366" 
d="M175 598q-9 0 -14.5 6t-5.5 14q0 11 6.5 17.5t16.5 6.5q9 0 14.5 -6t5.5 -14q0 -11 -6 -17.5t-17 -6.5zM157 500l-116 -500h-16l116 500h16zM359 598q-9 0 -14.5 6t-5.5 14q0 11 6.5 17.5t16.5 6.5q9 0 14.5 -6t5.5 -14q0 -11 -6 -17.5t-17 -6.5zM61 -215q-19 0 -34.5 5
t-26.5 12l8 14q11 -8 24.5 -12.5t28.5 -4.5q51 0 84 34t49 102l131 565h16l-133 -573q-15 -66 -50 -104t-97 -38z" />
    <glyph glyph-name="Jcircumflex" unicode="&#x134;" horiz-adv-x="483" 
d="M177 -10q-48 0 -83 16t-55.5 46t-24 72.5t12.5 94.5l15 1q-19 -68 -8.5 -116.5t48 -74t96.5 -25.5q75 0 122 44.5t69 140.5l108 471h16l-109 -473q-15 -68 -43 -111.5t-68.5 -64.5t-95.5 -21zM545 885l75 -142h-16l-69 129l-130 -129h-19l141 142h18z" />
    <glyph glyph-name="jcircumflex" unicode="&#x135;" horiz-adv-x="182" 
d="M-123 -215q-19 0 -34.5 5t-26.5 12l8 14q11 -8 24.5 -12.5t28.5 -4.5q51 0 84 34t49 102l131 565h16l-133 -573q-15 -66 -50 -104t-97 -38zM51 583l141 142h18l75 -142h-16l-69 129l-130 -129h-19z" />
    <glyph glyph-name="uni0136" unicode="&#x136;" horiz-adv-x="546" 
d="M39 0l153 660h16l-93 -400l477 400h26l-314 -263l171 -397h-18l-167 385l-181 -152l-54 -233h-16zM261 -68l-93 -161h-14l87 161h20z" />
    <glyph glyph-name="uni0137" unicode="&#x137;" horiz-adv-x="474" 
d="M514 500l-265 -205l-7 -5l-174 -135l6 24l414 321h26zM211 730l-169 -730h-16l169 730h16zM247 302l156 -302h-18l-152 295zM248 -68l-93 -161h-14l87 161h20z" />
    <glyph glyph-name="kgreenlandic" unicode="&#x138;" horiz-adv-x="474" 
d="M514 500l-265 -205l-7 -5l-174 -135l6 24l414 321h26zM158 500l-116 -500h-16l116 500h16zM247 302l156 -302h-18l-152 295z" />
    <glyph glyph-name="Lacute" unicode="&#x139;" horiz-adv-x="532" 
d="M59 14h407l-4 -14h-423l153 660h16zM315 891h20l-111 -148h-17z" />
    <glyph glyph-name="lacute" unicode="&#x13a;" horiz-adv-x="232" 
d="M114 -9q-48 0 -63.5 33t-1.5 96l141 610h16l-142 -614q-13 -55 -1 -83t53 -28q18 0 30 2.5t23 6.5l-3 -14q-7 -4 -21 -6.5t-31 -2.5zM204 793l95 137h18l-97 -137h-16z" />
    <glyph glyph-name="uni013B" unicode="&#x13b;" horiz-adv-x="532" 
d="M59 14h407l-4 -14h-423l153 660h16zM274 -68l-93 -161h-14l87 161h20z" />
    <glyph glyph-name="uni013C" unicode="&#x13c;" horiz-adv-x="232" 
d="M114 -9q-48 0 -63.5 33t-1.5 96l141 610h16l-142 -614q-13 -55 -1 -83t53 -28q18 0 30 2.5t23 6.5l-3 -14q-7 -4 -21 -6.5t-31 -2.5zM95 -68l-93 -161h-14l87 161h20z" />
    <glyph glyph-name="Lcaron" unicode="&#x13d;" horiz-adv-x="532" 
d="M415 660l-75 -197h-15l72 197h18zM59 14h407l-4 -14h-423l153 660h16z" />
    <glyph glyph-name="lcaron" unicode="&#x13e;" horiz-adv-x="232" 
d="M336 730l-75 -197h-15l72 197h18zM114 -9q-48 0 -63.5 33t-1.5 96l141 610h16l-142 -614q-13 -55 -1 -83t53 -28q18 0 30 2.5t23 6.5l-3 -14q-7 -4 -21 -6.5t-31 -2.5z" />
    <glyph glyph-name="Ldot" unicode="&#x13f;" horiz-adv-x="532" 
d="M59 14h407l-4 -14h-423l153 660h16zM390 324q-9 0 -14.5 5.5t-5.5 14.5q0 10 6 17t16 7q9 0 14.5 -5.5t5.5 -14.5q0 -10 -6.5 -17t-15.5 -7z" />
    <glyph glyph-name="ldot" unicode="&#x140;" horiz-adv-x="285" 
d="M114 -9q-48 0 -63.5 33t-1.5 96l141 610h16l-142 -614q-13 -55 -1 -83t53 -28q18 0 30 2.5t23 6.5l-3 -14q-7 -4 -21 -6.5t-31 -2.5zM257 340q-9 0 -14.5 5.5t-5.5 14.5q0 10 6 17t16 7q9 0 14.5 -5.5t5.5 -14.5q0 -10 -6.5 -17t-15.5 -7z" />
    <glyph glyph-name="Lslash" unicode="&#x141;" horiz-adv-x="543" 
d="M372 441l-5 -22l-367 -207l5 22zM70 14h407l-4 -14h-423l153 660h16z" />
    <glyph glyph-name="lslash" unicode="&#x142;" horiz-adv-x="274" 
d="M23 268l5 20l114 73h3l145 93l-5 -21l-144 -91h-3zM144 -9q-48 0 -63.5 33t-1.5 96l141 610h16l-142 -614q-13 -55 -1 -83t53 -28q18 0 30 2.5t23 6.5l-3 -14q-7 -4 -21 -6.5t-31 -2.5z" />
    <glyph glyph-name="Nacute" unicode="&#x143;" horiz-adv-x="680" 
d="M39 0l153 660h21l283 -604l18 -40v0l12 57l136 587h16l-153 -660h-21l-283 604l-18 40v0l-12 -57l-136 -587h-16zM546 891h20l-111 -148h-17z" />
    <glyph glyph-name="nacute" unicode="&#x144;" horiz-adv-x="562" 
d="M26 0l116 500h16l-33 -140l-4 1q23 63 79.5 106t144.5 43q60 0 99 -26t53.5 -74.5t-1.5 -115.5l-68 -294h-16l67 292q23 99 -16 151.5t-119 52.5q-66 0 -113.5 -27t-77 -71.5t-41.5 -96.5l-70 -301h-16zM462 730h20l-122 -147h-17z" />
    <glyph glyph-name="uni0145" unicode="&#x145;" horiz-adv-x="680" 
d="M39 0l153 660h21l283 -604l18 -40v0l12 57l136 587h16l-153 -660h-21l-283 604l-18 40v0l-12 -57l-136 -587h-16zM289 -68l-93 -161h-14l87 161h20z" />
    <glyph glyph-name="uni0146" unicode="&#x146;" horiz-adv-x="562" 
d="M26 0l116 500h16l-33 -140l-4 1q23 63 79.5 106t144.5 43q60 0 99 -26t53.5 -74.5t-1.5 -115.5l-68 -294h-16l67 292q23 99 -16 151.5t-119 52.5q-66 0 -113.5 -27t-77 -71.5t-41.5 -96.5l-70 -301h-16zM254 -68l-93 -161h-14l87 161h20z" />
    <glyph glyph-name="Ncaron" unicode="&#x147;" horiz-adv-x="680" 
d="M39 0l153 660h21l283 -604l18 -40v0l12 57l136 587h16l-153 -660h-21l-283 604l-18 40v0l-12 -57l-136 -587h-16zM441 743l-75 142h16l69 -129l130 129h19l-141 -142h-18z" />
    <glyph glyph-name="ncaron" unicode="&#x148;" horiz-adv-x="562" 
d="M26 0l116 500h16l-33 -140l-4 1q23 63 79.5 106t144.5 43q60 0 99 -26t53.5 -74.5t-1.5 -115.5l-68 -294h-16l67 292q23 99 -16 151.5t-119 52.5q-66 0 -113.5 -27t-77 -71.5t-41.5 -96.5l-70 -301h-16zM342 583l-75 142h16l69 -129l130 129h19l-141 -142h-18z" />
    <glyph glyph-name="Eng" unicode="&#x14a;" horiz-adv-x="681" 
d="M362 -215q-20 0 -37 5.5t-28 13.5l8 14q11 -9 26 -14t31 -5q51 0 84 34t49 102l15 65l-289 607l-17 38v0l-13 -58l-136 -587h-16l153 660h22l289 -607l12 -29v0l9 41l138 595h16l-169 -733q-15 -64 -50 -103t-97 -39z" />
    <glyph glyph-name="eng" unicode="&#x14b;" horiz-adv-x="562" 
d="M264 -215q-20 0 -37 5.5t-28 13.5l8 14q11 -9 26 -14t31 -5q51 0 84 34t49 102l82 357q23 99 -16 151.5t-119 52.5q-66 0 -113.5 -27t-77 -71.5t-41.5 -96.5l-70 -301h-16l116 500h16l-28 -117q27 55 81.5 91t133.5 36q60 0 99 -26t53.5 -74.5t-1.5 -115.5l-85 -367
q-15 -66 -50 -104t-97 -38z" />
    <glyph glyph-name="Omacron" unicode="&#x14c;" horiz-adv-x="712" 
d="M344 -10q-74 0 -135.5 33.5t-97.5 98.5t-36 158q0 77 21 147t63 124.5t104.5 86.5t144.5 32q74 0 134.5 -34t96 -98.5t35.5 -157.5q0 -76 -21 -146t-62.5 -125t-103 -87t-143.5 -32zM345 4q77 0 135.5 31t98 83.5t59.5 120.5t20 141q0 89 -34 150.5t-90.5 93.5t-126.5 32
q-78 0 -137 -31t-99 -83.5t-60 -120t-20 -141.5q0 -89 34.5 -150.5t92.5 -93.5t127 -32zM573 779l-3 -14h-268l3 14h268z" />
    <glyph glyph-name="omacron" unicode="&#x14d;" horiz-adv-x="561" 
d="M263 -9q-69 0 -117 30.5t-73 82t-25 112.5q0 86 31.5 152t88 103.5t131.5 37.5q70 0 117.5 -30.5t72 -81t24.5 -112.5q0 -85 -31.5 -151.5t-87.5 -104.5t-131 -38zM263 5q52 0 95 20t74 57.5t48 89t17 113.5q0 64 -24.5 111t-69 73t-104.5 26q-52 0 -95.5 -20
t-74.5 -57.5t-48 -88.5t-17 -113q0 -63 25 -110.5t70 -74t104 -26.5zM466 619l-3 -14h-268l3 14h268z" />
    <glyph glyph-name="Obreve" unicode="&#x14e;" horiz-adv-x="712" 
d="M344 -10q-74 0 -135.5 33.5t-97.5 98.5t-36 158q0 77 21 147t63 124.5t104.5 86.5t144.5 32q74 0 134.5 -34t96 -98.5t35.5 -157.5q0 -76 -21 -146t-62.5 -125t-103 -87t-143.5 -32zM345 4q77 0 135.5 31t98 83.5t59.5 120.5t20 141q0 89 -34 150.5t-90.5 93.5t-126.5 32
q-78 0 -137 -31t-99 -83.5t-60 -120t-20 -141.5q0 -89 34.5 -150.5t92.5 -93.5t127 -32zM587 862q-11 -64 -49.5 -92.5t-92.5 -28.5q-49 0 -76.5 24t-27.5 65q0 8 1 16.5t2 15.5h13q-1 -7 -2 -14.5t-1 -14.5q0 -36 25.5 -57t66.5 -21q51 0 84.5 28.5t42.5 78.5h14z" />
    <glyph glyph-name="obreve" unicode="&#x14f;" horiz-adv-x="561" 
d="M263 -9q-69 0 -117 30.5t-73 82t-25 112.5q0 86 31.5 152t88 103.5t131.5 37.5q70 0 117.5 -30.5t72 -81t24.5 -112.5q0 -85 -31.5 -151.5t-87.5 -104.5t-131 -38zM263 5q52 0 95 20t74 57.5t48 89t17 113.5q0 64 -24.5 111t-69 73t-104.5 26q-52 0 -95.5 -20
t-74.5 -57.5t-48 -88.5t-17 -113q0 -63 25 -110.5t70 -74t104 -26.5zM480 702q-11 -64 -49.5 -92.5t-92.5 -28.5q-49 0 -76.5 24t-27.5 65q0 8 1 16.5t2 15.5h13q-1 -7 -2 -14.5t-1 -14.5q0 -36 25.5 -57t66.5 -21q51 0 84.5 28.5t42.5 78.5h14z" />
    <glyph glyph-name="Ohungarumlaut" unicode="&#x150;" horiz-adv-x="712" 
d="M344 -10q-74 0 -135.5 33.5t-97.5 98.5t-36 158q0 77 21 147t63 124.5t104.5 86.5t144.5 32q74 0 134.5 -34t96 -98.5t35.5 -157.5q0 -76 -21 -146t-62.5 -125t-103 -87t-143.5 -32zM345 4q77 0 135.5 31t98 83.5t59.5 120.5t20 141q0 89 -34 150.5t-90.5 93.5t-126.5 32
q-78 0 -137 -31t-99 -83.5t-60 -120t-20 -141.5q0 -89 34.5 -150.5t92.5 -93.5t127 -32zM484 743l108 148h20l-111 -148h-17zM366 743l108 148h20l-111 -148h-17z" />
    <glyph glyph-name="ohungarumlaut" unicode="&#x151;" horiz-adv-x="561" 
d="M263 -9q-69 0 -117 30.5t-73 82t-25 112.5q0 86 31.5 152t88 103.5t131.5 37.5q70 0 117.5 -30.5t72 -81t24.5 -112.5q0 -85 -31.5 -151.5t-87.5 -104.5t-131 -38zM263 5q52 0 95 20t74 57.5t48 89t17 113.5q0 64 -24.5 111t-69 73t-104.5 26q-52 0 -95.5 -20
t-74.5 -57.5t-48 -88.5t-17 -113q0 -63 25 -110.5t70 -74t104 -26.5zM379 583l119 147h20l-122 -147h-17zM248 583l119 147h20l-122 -147h-17z" />
    <glyph glyph-name="OE" unicode="&#x152;" horiz-adv-x="1038" 
d="M320 -10q-75 0 -130 34.5t-85.5 100.5t-30.5 159q0 76 22.5 145.5t65 123.5t102 85.5t132.5 31.5q82 0 132.5 -35t73 -97t19.5 -144l62 266h401l-4 -14h-385l-69 -302h306l-4 -14h-306l-72 -316h404l-4 -14h-420l32 140q-37 -71 -98 -110.5t-144 -39.5zM320 4
q68 0 120 29t87.5 80.5t55.5 120.5t24 148q4 77 -16 139t-68 98.5t-128 36.5q-70 0 -126 -31t-96 -84t-61.5 -119.5t-21.5 -137.5q0 -89 29 -151.5t80.5 -95.5t120.5 -33z" />
    <glyph glyph-name="oe" unicode="&#x153;" horiz-adv-x="943" 
d="M257 -9q-70 0 -116.5 30.5t-69 82t-22.5 112.5q0 86 29.5 152t85.5 103.5t134 37.5q59 0 101 -25t66.5 -67.5t30.5 -95.5q23 81 77 134.5t137 53.5q60 0 102.5 -27t65 -73t22.5 -103q0 -11 -1 -22.5t-3 -23.5h-397q-1 -10 -1.5 -21t-0.5 -22q0 -61 22 -109t63.5 -75.5
t99.5 -27.5q59 0 107 30.5t76 78.5l13 -8q-30 -49 -80 -82t-116 -33q-58 0 -100 24.5t-66.5 67t-31.5 94.5q-24 -84 -85.5 -135t-141.5 -51zM257 5q48 0 89.5 20t72.5 57.5t48 89t17 113.5q0 64 -23.5 111t-65 73t-97.5 26q-55 0 -98.5 -20t-73.5 -57.5t-45.5 -88.5
t-15.5 -113q0 -95 50.5 -153t141.5 -58zM501 274h381q1 8 1.5 15t0.5 14q0 53 -20 96.5t-59 69.5t-97 26q-56 0 -100 -29t-71 -79t-36 -113z" />
    <glyph glyph-name="Racute" unicode="&#x154;" horiz-adv-x="606" 
d="M39 0l153 660h202q94 0 143 -43.5t49 -117.5q0 -58 -25 -104t-76 -72.5t-129 -26.5v0h-241v14h243q72 0 119 25t70 67.5t23 94.5q0 66 -43.5 107.5t-132.5 41.5h-189l-150 -646h-16zM492 0l-120 308h17l120 -308h-17zM489 891h20l-111 -148h-17z" />
    <glyph glyph-name="racute" unicode="&#x155;" horiz-adv-x="338" 
d="M26 0l116 500h16l-35 -151l-5 7q19 43 45 78t62 55.5t85 20.5q18 0 34.5 -3.5t27.5 -11.5l-7 -13q-10 8 -25 11t-32 3q-51 0 -91 -27t-66.5 -71.5t-38.5 -97.5l-70 -300h-16zM382 730h20l-122 -147h-17z" />
    <glyph glyph-name="uni0156" unicode="&#x156;" horiz-adv-x="606" 
d="M39 0l153 660h202q94 0 143 -43.5t49 -117.5q0 -58 -25 -104t-76 -72.5t-129 -26.5v0h-241v14h243q72 0 119 25t70 67.5t23 94.5q0 66 -43.5 107.5t-132.5 41.5h-189l-150 -646h-16zM492 0l-120 308h17l120 -308h-17zM283 -68l-93 -161h-14l87 161h20z" />
    <glyph glyph-name="uni0157" unicode="&#x157;" horiz-adv-x="338" 
d="M26 0l116 500h16l-35 -151l-5 7q19 43 45 78t62 55.5t85 20.5q18 0 34.5 -3.5t27.5 -11.5l-7 -13q-10 8 -25 11t-32 3q-51 0 -91 -27t-66.5 -71.5t-38.5 -97.5l-70 -300h-16zM36 -68l-93 -161h-14l87 161h20z" />
    <glyph glyph-name="Rcaron" unicode="&#x158;" horiz-adv-x="606" 
d="M39 0l153 660h202q94 0 143 -43.5t49 -117.5q0 -58 -25 -104t-76 -72.5t-129 -26.5v0h-241v14h243q72 0 119 25t70 67.5t23 94.5q0 66 -43.5 107.5t-132.5 41.5h-189l-150 -646h-16zM492 0l-120 308h17l120 -308h-17zM384 743l-75 142h16l69 -129l130 129h19l-141 -142
h-18z" />
    <glyph glyph-name="rcaron" unicode="&#x159;" horiz-adv-x="338" 
d="M26 0l116 500h16l-35 -151l-5 7q19 43 45 78t62 55.5t85 20.5q18 0 34.5 -3.5t27.5 -11.5l-7 -13q-10 8 -25 11t-32 3q-51 0 -91 -27t-66.5 -71.5t-38.5 -97.5l-70 -300h-16zM262 583l-75 142h16l69 -129l130 129h19l-141 -142h-18z" />
    <glyph glyph-name="Sacute" unicode="&#x15a;" horiz-adv-x="596" 
d="M301 -8q-71 0 -128.5 24.5t-93 67.5t-44.5 101l16 5q6 -54 40.5 -95.5t89 -65t120.5 -23.5q57 0 106.5 18t80.5 54.5t31 89.5q0 52 -41.5 87t-118.5 55l-78 21q-50 14 -85 37.5t-53 56.5t-18 74q0 49 26.5 87.5t77 61.5t120.5 23q90 0 154 -39.5t84 -120.5l-15 -5
q-14 52 -45 85.5t-76 49.5t-103 16q-63 0 -109.5 -21t-72 -56.5t-25.5 -79.5q0 -55 36.5 -94.5t108.5 -59.5l74 -20q85 -22 130 -61t45 -95q0 -59 -32.5 -98.5t-85.5 -59.5t-116 -20zM480 891h20l-111 -148h-17z" />
    <glyph glyph-name="sacute" unicode="&#x15b;" horiz-adv-x="489" 
d="M234 -10q-62 0 -107.5 19.5t-70.5 55t-27 82.5l15 4q4 -67 52.5 -107t136.5 -40q77 0 120 35.5t43 91.5q0 39 -21.5 63t-71.5 38l-103 29q-54 15 -82 42t-28 73q0 42 22.5 71.5t62.5 45.5t90 16q74 0 126 -34t61 -110l-14 -5q-5 48 -30 78t-63 43.5t-82 13.5
q-70 0 -113.5 -32t-43.5 -85q0 -42 25.5 -65t72.5 -37l105 -30q54 -16 78.5 -42.5t24.5 -71.5q0 -41 -22 -73.5t-62 -50.5t-94 -18zM401 730h20l-122 -147h-17z" />
    <glyph glyph-name="Scircumflex" unicode="&#x15c;" horiz-adv-x="596" 
d="M301 -8q-71 0 -128.5 24.5t-93 67.5t-44.5 101l16 5q6 -54 40.5 -95.5t89 -65t120.5 -23.5q57 0 106.5 18t80.5 54.5t31 89.5q0 52 -41.5 87t-118.5 55l-78 21q-50 14 -85 37.5t-53 56.5t-18 74q0 49 26.5 87.5t77 61.5t120.5 23q90 0 154 -39.5t84 -120.5l-15 -5
q-14 52 -45 85.5t-76 49.5t-103 16q-63 0 -109.5 -21t-72 -56.5t-25.5 -79.5q0 -55 36.5 -94.5t108.5 -59.5l74 -20q85 -22 130 -61t45 -95q0 -59 -32.5 -98.5t-85.5 -59.5t-116 -20zM425 885l75 -142h-16l-69 129l-130 -129h-19l141 142h18z" />
    <glyph glyph-name="scircumflex" unicode="&#x15d;" horiz-adv-x="489" 
d="M234 -10q-62 0 -107.5 19.5t-70.5 55t-27 82.5l15 4q4 -67 52.5 -107t136.5 -40q77 0 120 35.5t43 91.5q0 39 -21.5 63t-71.5 38l-103 29q-54 15 -82 42t-28 73q0 42 22.5 71.5t62.5 45.5t90 16q74 0 126 -34t61 -110l-14 -5q-5 48 -30 78t-63 43.5t-82 13.5
q-70 0 -113.5 -32t-43.5 -85q0 -42 25.5 -65t72.5 -37l105 -30q54 -16 78.5 -42.5t24.5 -71.5q0 -41 -22 -73.5t-62 -50.5t-94 -18zM173 583l141 142h18l75 -142h-16l-69 129l-130 -129h-19z" />
    <glyph glyph-name="Scedilla" unicode="&#x15e;" horiz-adv-x="596" 
d="M301 -8q-71 0 -128.5 24.5t-93 67.5t-44.5 101l16 5q6 -54 40.5 -95.5t89 -65t120.5 -23.5q57 0 106.5 18t80.5 54.5t31 89.5q0 52 -41.5 87t-118.5 55l-78 21q-50 14 -85 37.5t-53 56.5t-18 74q0 49 26.5 87.5t77 61.5t120.5 23q90 0 154 -39.5t84 -120.5l-15 -5
q-14 52 -45 85.5t-76 49.5t-103 16q-63 0 -109.5 -21t-72 -56.5t-25.5 -79.5q0 -55 36.5 -94.5t108.5 -59.5l74 -20q85 -22 130 -61t45 -95q0 -59 -32.5 -98.5t-85.5 -59.5t-116 -20zM250 1l16 2q25 -19 40.5 -44t15.5 -57t-13 -55t-36 -35.5t-53 -12.5q-37 0 -56.5 14
t-28.5 32l10 11q9 -18 26 -31t49 -13q38 0 62.5 24t24.5 65q0 29 -14.5 54.5t-42.5 45.5z" />
    <glyph glyph-name="scedilla" unicode="&#x15f;" horiz-adv-x="489" 
d="M234 -10q-62 0 -107.5 19.5t-70.5 55t-27 82.5l15 4q4 -67 52.5 -107t136.5 -40q77 0 120 35.5t43 91.5q0 39 -21.5 63t-71.5 38l-103 29q-54 15 -82 42t-28 73q0 42 22.5 71.5t62.5 45.5t90 16q74 0 126 -34t61 -110l-14 -5q-5 48 -30 78t-63 43.5t-82 13.5
q-70 0 -113.5 -32t-43.5 -85q0 -42 25.5 -65t72.5 -37l105 -30q54 -16 78.5 -42.5t24.5 -71.5q0 -41 -22 -73.5t-62 -50.5t-94 -18zM197 1l16 2q25 -19 40.5 -44t15.5 -57t-13 -55t-36 -35.5t-53 -12.5q-37 0 -56.5 14t-28.5 32l10 11q9 -18 26 -31t49 -13q38 0 62.5 24
t24.5 65q0 29 -14.5 54.5t-42.5 45.5z" />
    <glyph glyph-name="Scaron" unicode="&#x160;" horiz-adv-x="596" 
d="M301 -8q-71 0 -128.5 24.5t-93 67.5t-44.5 101l16 5q6 -54 40.5 -95.5t89 -65t120.5 -23.5q57 0 106.5 18t80.5 54.5t31 89.5q0 52 -41.5 87t-118.5 55l-78 21q-50 14 -85 37.5t-53 56.5t-18 74q0 49 26.5 87.5t77 61.5t120.5 23q90 0 154 -39.5t84 -120.5l-15 -5
q-14 52 -45 85.5t-76 49.5t-103 16q-63 0 -109.5 -21t-72 -56.5t-25.5 -79.5q0 -55 36.5 -94.5t108.5 -59.5l74 -20q85 -22 130 -61t45 -95q0 -59 -32.5 -98.5t-85.5 -59.5t-116 -20zM375 743l-75 142h16l69 -129l130 129h19l-141 -142h-18z" />
    <glyph glyph-name="scaron" unicode="&#x161;" horiz-adv-x="489" 
d="M234 -10q-62 0 -107.5 19.5t-70.5 55t-27 82.5l15 4q4 -67 52.5 -107t136.5 -40q77 0 120 35.5t43 91.5q0 39 -21.5 63t-71.5 38l-103 29q-54 15 -82 42t-28 73q0 42 22.5 71.5t62.5 45.5t90 16q74 0 126 -34t61 -110l-14 -5q-5 48 -30 78t-63 43.5t-82 13.5
q-70 0 -113.5 -32t-43.5 -85q0 -42 25.5 -65t72.5 -37l105 -30q54 -16 78.5 -42.5t24.5 -71.5q0 -41 -22 -73.5t-62 -50.5t-94 -18zM281 583l-75 142h16l69 -129l130 129h19l-141 -142h-18z" />
    <glyph glyph-name="uni0162" unicode="&#x162;" horiz-adv-x="534" 
d="M168 -201q-37 0 -56.5 14t-28.5 32l10 11q9 -18 26 -31t49 -13q38 0 62.5 24t24.5 65q0 29 -14 54.5t-39 44.5l12 3q25 -19 40.5 -44t15.5 -57t-13 -55t-36 -35.5t-53 -12.5zM618 660l-4 -14h-247l-149 -646h-16l149 646h-249l4 14h512z" />
    <glyph glyph-name="uni0163" unicode="&#x163;" horiz-adv-x="329" 
d="M185 -10q-44 0 -70 17.5t-34 51t2 81.5l114 490l17 5l-115 -497q-14 -63 6.5 -98.5t80.5 -35.5q25 0 46 7t40 20l5 -13q-17 -13 -41.5 -20.5t-50.5 -7.5zM59 486l4 14h287l-4 -14h-287zM155 1l16 2q25 -19 40.5 -44t15.5 -57t-13 -55t-36 -35.5t-53 -12.5q-37 0 -56.5 14
t-28.5 32l10 11q9 -18 26 -31t49 -13q38 0 62.5 24t24.5 65q0 29 -14.5 54.5t-42.5 45.5z" />
    <glyph glyph-name="Tcaron" unicode="&#x164;" horiz-adv-x="534" 
d="M618 660l-4 -14h-247l-149 -646h-16l149 646h-249l4 14h512zM373 743l-75 142h16l69 -129l130 129h19l-141 -142h-18z" />
    <glyph glyph-name="tcaron" unicode="&#x165;" horiz-adv-x="329" 
d="M379 767l-75 -197h-15l72 197h18zM185 -10q-44 0 -70 17.5t-34 51t2 81.5l114 490l17 5l-115 -497q-14 -63 6.5 -98.5t80.5 -35.5q25 0 46 7t40 20l5 -13q-17 -13 -41.5 -20.5t-50.5 -7.5zM59 486l4 14h287l-4 -14h-287z" />
    <glyph glyph-name="Tbar" unicode="&#x166;" horiz-adv-x="534" 
d="M618 660l-4 -14h-247l-149 -646h-16l149 646h-249l4 14h512zM463 348l-3 -14h-344l3 14h344z" />
    <glyph glyph-name="tbar" unicode="&#x167;" horiz-adv-x="329" 
d="M331 358l-3 -14h-297l3 14h297zM185 -10q-44 0 -70 17.5t-34 51t2 81.5l114 490l17 5l-115 -497q-14 -63 6.5 -98.5t80.5 -35.5q25 0 46 7t40 20l5 -13q-17 -13 -41.5 -20.5t-50.5 -7.5zM59 486l4 14h287l-4 -14h-287z" />
    <glyph glyph-name="Utilde" unicode="&#x168;" horiz-adv-x="656" 
d="M307 -10q-87 0 -143 35t-75.5 99t0.5 152l90 384h16l-91 -389q-20 -84 -0.5 -144t72.5 -91.5t131 -31.5q101 0 161.5 64t88.5 182l95 410h16l-96 -415q-28 -121 -91.5 -188t-173.5 -67zM604 803q-14 -44 -36.5 -64t-48.5 -20q-24 0 -39.5 10.5t-28 24t-26.5 24t-35 10.5
q-29 0 -44.5 -18t-29.5 -52h-15q14 44 36 64t55 20q24 0 39.5 -10.5t27.5 -24t26 -24t35 -10.5q23 0 40 18t30 52h14z" />
    <glyph glyph-name="utilde" unicode="&#x169;" horiz-adv-x="562" 
d="M227 -10q-65 0 -106.5 25.5t-55.5 75t2 119.5l67 290h16l-67 -292q-23 -100 17.5 -152t127.5 -52q61 0 106.5 27t74.5 71.5t41 96.5l70 301h16l-116 -500h-16l33 140l4 -1q-26 -65 -80 -107t-134 -42zM508 663q-14 -44 -36.5 -64t-48.5 -20q-24 0 -39.5 10.5t-28 24
t-26.5 24t-35 10.5q-29 0 -44.5 -18t-29.5 -52h-15q14 44 36 64t55 20q24 0 39.5 -10.5t27.5 -24t26 -24t35 -10.5q23 0 40 18t30 52h14z" />
    <glyph glyph-name="Umacron" unicode="&#x16a;" horiz-adv-x="656" 
d="M307 -10q-87 0 -143 35t-75.5 99t0.5 152l90 384h16l-91 -389q-20 -84 -0.5 -144t72.5 -91.5t131 -31.5q101 0 161.5 64t88.5 182l95 410h16l-96 -415q-28 -121 -91.5 -188t-173.5 -67zM573 739l-3 -14h-268l3 14h268z" />
    <glyph glyph-name="umacron" unicode="&#x16b;" horiz-adv-x="562" 
d="M227 -10q-65 0 -106.5 25.5t-55.5 75t2 119.5l67 290h16l-67 -292q-23 -100 17.5 -152t127.5 -52q61 0 106.5 27t74.5 71.5t41 96.5l70 301h16l-116 -500h-16l33 140l4 -1q-26 -65 -80 -107t-134 -42zM477 599l-3 -14h-268l3 14h268z" />
    <glyph glyph-name="Ubreve" unicode="&#x16c;" horiz-adv-x="656" 
d="M307 -10q-87 0 -143 35t-75.5 99t0.5 152l90 384h16l-91 -389q-20 -84 -0.5 -144t72.5 -91.5t131 -31.5q101 0 161.5 64t88.5 182l95 410h16l-96 -415q-28 -121 -91.5 -188t-173.5 -67zM587 822q-11 -64 -49.5 -92.5t-92.5 -28.5q-49 0 -76.5 24t-27.5 65q0 8 1 16.5
t2 15.5h13q-1 -7 -2 -14.5t-1 -14.5q0 -36 25.5 -57t66.5 -21q51 0 84.5 28.5t42.5 78.5h14z" />
    <glyph glyph-name="ubreve" unicode="&#x16d;" horiz-adv-x="562" 
d="M227 -10q-65 0 -106.5 25.5t-55.5 75t2 119.5l67 290h16l-67 -292q-23 -100 17.5 -152t127.5 -52q61 0 106.5 27t74.5 71.5t41 96.5l70 301h16l-116 -500h-16l33 140l4 -1q-26 -65 -80 -107t-134 -42zM491 682q-11 -64 -49.5 -92.5t-92.5 -28.5q-49 0 -76.5 24t-27.5 65
q0 8 1 16.5t2 15.5h13q-1 -7 -2 -14.5t-1 -14.5q0 -36 25.5 -57t66.5 -21q51 0 84.5 28.5t42.5 78.5h14z" />
    <glyph glyph-name="Uring" unicode="&#x16e;" horiz-adv-x="656" 
d="M307 -10q-87 0 -143 35t-75.5 99t0.5 152l90 384h16l-91 -389q-20 -84 -0.5 -144t72.5 -91.5t131 -31.5q101 0 161.5 64t88.5 182l95 410h16l-96 -415q-28 -121 -91.5 -188t-173.5 -67zM446 833q35 0 57 -20.5t22 -52.5q0 -39 -24.5 -63t-60.5 -24q-35 0 -57.5 21
t-22.5 52q0 38 24.5 62.5t61.5 24.5zM446 819q-31 0 -50.5 -21t-19.5 -52q0 -26 18 -42.5t46 -16.5t48.5 19.5t20.5 53.5q0 26 -17 42.5t-46 16.5z" />
    <glyph glyph-name="uring" unicode="&#x16f;" horiz-adv-x="562" 
d="M227 -10q-65 0 -106.5 25.5t-55.5 75t2 119.5l67 290h16l-67 -292q-23 -100 17.5 -152t127.5 -52q61 0 106.5 27t74.5 71.5t41 96.5l70 301h16l-116 -500h-16l33 140l4 -1q-26 -65 -80 -107t-134 -42zM355 715q35 0 57 -20.5t22 -52.5q0 -39 -24.5 -63t-60.5 -24
q-35 0 -57.5 21t-22.5 52q0 38 24.5 62.5t61.5 24.5zM355 701q-31 0 -50.5 -21t-19.5 -52q0 -26 18 -42.5t46 -16.5t48.5 19.5t20.5 53.5q0 26 -17 42.5t-46 16.5z" />
    <glyph glyph-name="Uhungarumlaut" unicode="&#x170;" horiz-adv-x="656" 
d="M307 -10q-87 0 -143 35t-75.5 99t0.5 152l90 384h16l-91 -389q-20 -84 -0.5 -144t72.5 -91.5t131 -31.5q101 0 161.5 64t88.5 182l95 410h16l-96 -415q-28 -121 -91.5 -188t-173.5 -67zM484 703l108 148h20l-111 -148h-17zM366 703l108 148h20l-111 -148h-17z" />
    <glyph glyph-name="uhungarumlaut" unicode="&#x171;" horiz-adv-x="562" 
d="M227 -10q-65 0 -106.5 25.5t-55.5 75t2 119.5l67 290h16l-67 -292q-23 -100 17.5 -152t127.5 -52q61 0 106.5 27t74.5 71.5t41 96.5l70 301h16l-116 -500h-16l33 140l4 -1q-26 -65 -80 -107t-134 -42zM390 563l119 147h20l-122 -147h-17zM259 563l119 147h20l-122 -147
h-17z" />
    <glyph glyph-name="Uogonek" unicode="&#x172;" horiz-adv-x="656" 
d="M307 -10q-87 0 -143 35t-75.5 99t0.5 152l90 384h16l-91 -389q-20 -84 -0.5 -144t72.5 -91.5t131 -31.5q101 0 161.5 64t88.5 182l95 410h16l-96 -415q-28 -121 -91.5 -188t-173.5 -67zM264 -213q-22 0 -39.5 8t-27.5 23.5t-10 38.5q0 32 19 58t50.5 47t69.5 37l13 -7
q-37 -16 -68 -36.5t-50 -44.5t-19 -52q0 -29 18 -43.5t44 -14.5q14 0 27.5 3.5t23.5 7.5l-2 -15q-7 -4 -20.5 -7t-28.5 -3z" />
    <glyph glyph-name="uogonek" unicode="&#x173;" horiz-adv-x="562" 
d="M351 -205q-19 0 -36 7.5t-28 23t-11 39.5q0 32 17 58t46.5 47t67.5 37l13 -7q-55 -25 -92 -58t-37 -75q0 -31 19 -44.5t41 -13.5q18 0 27 3.5t18 7.5l-2 -15q-6 -4 -15 -7t-28 -3zM227 -10q-65 0 -106.5 25.5t-55.5 75t2 119.5l67 290h16l-67 -292q-23 -100 17.5 -152
t127.5 -52q61 0 106.5 27t74.5 71.5t41 96.5l70 301h16l-116 -500h-16l33 140l4 -1q-26 -65 -80 -107t-134 -42z" />
    <glyph glyph-name="Wcircumflex" unicode="&#x174;" horiz-adv-x="892" 
d="M179 0l-61 660h16l59 -641l335 641h23l38 -642l357 642h18l-367 -660h-22l-31 514l-8 127h-1l-71 -139l-265 -502h-20zM601 885l75 -142h-16l-69 129l-130 -129h-19l141 142h18z" />
    <glyph glyph-name="wcircumflex" unicode="&#x175;" horiz-adv-x="763" 
d="M133 0l-47 500h16l44 -476l285 476h16l64 -475l264 475h18l-279 -500h-16l-64 474l-284 -474h-17zM342 583l141 142h18l75 -142h-16l-69 129l-130 -129h-19z" />
    <glyph glyph-name="Ycircumflex" unicode="&#x176;" horiz-adv-x="503" 
d="M185 0l59 255l-133 405h17l79 -241l48 -147l125 159l182 229h20l-322 -405l-59 -255h-16zM396 845l75 -142h-16l-69 129l-130 -129h-19l141 142h18z" />
    <glyph glyph-name="ycircumflex" unicode="&#x177;" horiz-adv-x="472" 
d="M-31 -215q-26 0 -45.5 8t-27.5 24l12 10q18 -28 63 -28q38 0 71 25t70 84l58 92l-91 500h16l81 -444l6 -39l28 45l279 438h19l-383 -601q-26 -42 -50.5 -67t-49.5 -36t-56 -11zM186 563l141 142h18l75 -142h-16l-69 129l-130 -129h-19z" />
    <glyph glyph-name="Ydieresis" unicode="&#x178;" horiz-adv-x="503" 
d="M185 0l59 255l-133 405h17l79 -241l48 -147l125 159l182 229h20l-322 -405l-59 -255h-16zM447 718q-9 0 -14.5 5.5t-5.5 14.5q0 10 6 17t16 7t15 -5.5t5 -14.5q0 -10 -6 -17t-16 -7zM263 718q-9 0 -14.5 5.5t-5.5 14.5q0 10 6 17t16 7t15 -5.5t5 -14.5q0 -10 -6 -17
t-16 -7z" />
    <glyph glyph-name="Zacute" unicode="&#x179;" horiz-adv-x="542" 
d="M-29 0l3 14l590 632h-443l3 14h464l-3 -14l-590 -632h469l-4 -14h-489zM469 891h20l-111 -148h-17z" />
    <glyph glyph-name="zacute" unicode="&#x17a;" horiz-adv-x="464" 
d="M-19 0l3 14l425 427l47 45h-65h-301l3 14h387l-3 -14l-401 -403l-70 -69h80h296l-3 -14h-398zM404 730h20l-122 -147h-17z" />
    <glyph glyph-name="Zdotaccent" unicode="&#x17b;" horiz-adv-x="542" 
d="M-29 0l3 14l590 632h-443l3 14h464l-3 -14l-590 -632h469l-4 -14h-489zM380 758q-9 0 -14.5 5.5t-5.5 14.5q0 10 6 17t16 7q9 0 14.5 -5.5t5.5 -14.5q0 -10 -6.5 -17t-15.5 -7z" />
    <glyph glyph-name="zdotaccent" unicode="&#x17c;" horiz-adv-x="464" 
d="M-19 0l3 14l425 427l47 45h-65h-301l3 14h387l-3 -14l-401 -403l-70 -69h80h296l-3 -14h-398zM300 598q-9 0 -14.5 5.5t-5.5 14.5q0 10 6 17t16 7q9 0 14.5 -5.5t5.5 -14.5q0 -10 -6.5 -17t-15.5 -7z" />
    <glyph glyph-name="Zcaron" unicode="&#x17d;" horiz-adv-x="542" 
d="M-29 0l3 14l590 632h-443l3 14h464l-3 -14l-590 -632h469l-4 -14h-489zM364 743l-75 142h16l69 -129l130 129h19l-141 -142h-18z" />
    <glyph glyph-name="zcaron" unicode="&#x17e;" horiz-adv-x="464" 
d="M-19 0l3 14l425 427l47 45h-65h-301l3 14h387l-3 -14l-401 -403l-70 -69h80h296l-3 -14h-398zM284 583l-75 142h16l69 -129l130 129h19l-141 -142h-18z" />
    <glyph glyph-name="longs" unicode="&#x17f;" horiz-adv-x="205" 
d="M21 0l138 597q11 45 30 75.5t46 46.5t62 16q21 0 35 -5t25 -14l-9 -13q-22 18 -52 18q-45 0 -76 -32.5t-47 -99.5l-136 -589h-16z" />
    <glyph glyph-name="uni018F" unicode="&#x18f;" horiz-adv-x="688" 
d="M319 -10q-82 0 -139 37t-86.5 100.5t-29.5 142.5q0 13 1 27t2 27h564q2 14 2.5 28t0.5 28q0 91 -33 152t-89.5 92.5t-128.5 31.5q-90 0 -157.5 -41.5t-101.5 -108.5l-13 9q33 68 105 111.5t168 43.5q76 0 136 -33t95 -97t35 -157q0 -79 -20.5 -149.5t-61.5 -125.5
t-103 -86.5t-146 -31.5zM320 4q93 0 158 41.5t103 111t49 153.5h-548q-7 -90 19 -159t82 -108t137 -39z" />
    <glyph glyph-name="florin" unicode="&#x192;" horiz-adv-x="399" 
d="M458 735q20 0 33 -2.5t26 -10.5l-5 -14q-11 7 -23 10t-26 3q-51 0 -88 -31t-62 -96l-223 -580q-28 -70 -69.5 -106t-96.5 -36q-19 0 -32 3.5t-27 13.5l8 11q18 -14 54 -14q48 0 84 32t61 96l223 579q28 73 68 107.5t95 34.5zM408 400l-4 -14h-346l4 14h346z" />
    <glyph glyph-name="Ohorn" unicode="&#x1a0;" horiz-adv-x="712" 
d="M479 652l-7 11q57 -9 94 -2t58 23.5t31 38.5t14 44h14q-4 -39 -26 -69.5t-65 -44t-113 -1.5zM344 -10q-74 0 -135.5 33.5t-97.5 98.5t-36 158q0 77 21 147t63 124.5t104.5 86.5t144.5 32q74 0 134.5 -34t96 -98.5t35.5 -157.5q0 -76 -21 -146t-62.5 -125t-103 -87
t-143.5 -32zM345 4q77 0 135.5 31t98 83.5t59.5 120.5t20 141q0 89 -34 150.5t-90.5 93.5t-126.5 32q-78 0 -137 -31t-99 -83.5t-60 -120t-20 -141.5q0 -89 34.5 -150.5t92.5 -93.5t127 -32z" />
    <glyph glyph-name="ohorn" unicode="&#x1a1;" horiz-adv-x="561" 
d="M369 491l-7 10q51 -9 81.5 4.5t46.5 41t22 60.5h16q-7 -43 -27.5 -73t-53.5 -41.5t-78 -1.5zM263 -9q-69 0 -117 30.5t-73 82t-25 112.5q0 86 31.5 152t88 103.5t131.5 37.5q70 0 117.5 -30.5t72 -81t24.5 -112.5q0 -85 -31.5 -151.5t-87.5 -104.5t-131 -38zM263 5
q52 0 95 20t74 57.5t48 89t17 113.5q0 64 -24.5 111t-69 73t-104.5 26q-52 0 -95.5 -20t-74.5 -57.5t-48 -88.5t-17 -113q0 -63 25 -110.5t70 -74t104 -26.5z" />
    <glyph glyph-name="Uhorn" unicode="&#x1af;" horiz-adv-x="656" 
d="M307 -10q-87 0 -143 35t-75.5 99t0.5 152l90 384h16l-91 -389q-20 -84 -0.5 -144t72.5 -91.5t131 -31.5q101 0 161.5 64t88.5 182l95 410h16l-96 -415q-28 -121 -91.5 -188t-173.5 -67zM655 650l-2 10q42 0 69 28.5t37 78.5h15q-7 -43 -24.5 -68.5t-42 -37t-52.5 -11.5z
" />
    <glyph glyph-name="uhorn" unicode="&#x1b0;" horiz-adv-x="572" 
d="M227 -10q-65 0 -106.5 25.5t-55.5 75t2 119.5l67 290h16l-67 -292q-23 -100 17.5 -152t127.5 -52q61 0 106.5 27t74.5 71.5t41 96.5l70 301h16l-116 -500h-16l33 140l4 -1q-26 -65 -80 -107t-134 -42zM521 488l-1 12q49 0 76.5 31.5t34.5 75.5h15q-5 -39 -22.5 -65.5
t-43.5 -40t-59 -13.5z" />
    <glyph glyph-name="uni01C4" unicode="&#x1c4;" horiz-adv-x="1209" 
d="M44 0l153 660h194q85 0 142.5 -35t87.5 -96t30 -139q0 -83 -25 -154t-72.5 -124t-115 -82.5t-151.5 -29.5h-243zM64 14h224q80 0 144 28.5t109.5 79.5t69.5 119.5t24 147.5q0 74 -27.5 132t-82 91.5t-137.5 33.5h-178zM638 0l3 14l590 632h-443l3 14h464l-3 -14
l-590 -632h469l-4 -14h-489zM1031 743l-75 142h16l69 -129l130 129h19l-141 -142h-18z" />
    <glyph glyph-name="uni01C5" unicode="&#x1c5;" horiz-adv-x="1150" 
d="M44 0l153 660h194q85 0 142.5 -35t87.5 -96t30 -139q0 -83 -25 -154t-72.5 -124t-115 -82.5t-151.5 -29.5h-243zM64 14h224q80 0 144 28.5t109.5 79.5t69.5 119.5t24 147.5q0 74 -27.5 132t-82 91.5t-137.5 33.5h-178zM667 0l3 14l425 427l47 45h-65h-301l3 14h387
l-3 -14l-401 -403l-70 -69h80h296l-3 -14h-398zM970 583l-75 142h16l69 -129l130 129h19l-141 -142h-18z" />
    <glyph glyph-name="uni01C6" unicode="&#x1c6;" horiz-adv-x="1046" 
d="M253 -10q-64 0 -110 29.5t-70.5 80.5t-24.5 117q0 62 17.5 115t51 93t81 62.5t106.5 22.5q60 0 104 -24t67 -68.5t21 -106.5l96 419h16l-168 -730h-16l29 126q-27 -57 -76 -96.5t-124 -39.5zM257 4q53 0 95 26t72 69.5t46 96t16 106.5q0 70 -26 112.5t-67.5 62
t-89.5 19.5q-54 0 -97.5 -20.5t-75.5 -58t-49 -88.5t-17 -113q0 -67 25.5 -114.5t69.5 -72.5t98 -25zM563 0l3 14l425 427l47 45h-65h-301l3 14h387l-3 -14l-401 -403l-70 -69h80h296l-3 -14h-398zM866 583l-75 142h16l69 -129l130 129h19l-141 -142h-18z" />
    <glyph glyph-name="uni01C7" unicode="&#x1c7;" horiz-adv-x="1015" 
d="M59 14h407l-4 -14h-423l153 660h16zM709 -10q-48 0 -83 16t-55.5 46t-24 72.5t12.5 94.5l15 1q-19 -68 -8.5 -116.5t48 -74t96.5 -25.5q75 0 122 44.5t69 140.5l108 471h16l-109 -473q-15 -68 -43 -111.5t-68.5 -64.5t-95.5 -21z" />
    <glyph glyph-name="uni01C8" unicode="&#x1c8;" horiz-adv-x="714" 
d="M59 14h407l-4 -14h-423l153 660h16zM707 598q-9 0 -14.5 6t-5.5 14q0 11 6.5 17.5t16.5 6.5q9 0 14.5 -6t5.5 -14q0 -11 -6 -17.5t-17 -6.5zM409 -215q-19 0 -34.5 5t-26.5 12l8 14q11 -8 24.5 -12.5t28.5 -4.5q51 0 84 34t49 102l131 565h16l-133 -573q-15 -66 -50 -104
t-97 -38z" />
    <glyph glyph-name="uni01C9" unicode="&#x1c9;" horiz-adv-x="414" 
d="M114 -9q-48 0 -63.5 33t-1.5 96l141 610h16l-142 -614q-13 -55 -1 -83t53 -28q18 0 30 2.5t23 6.5l-3 -14q-7 -4 -21 -6.5t-31 -2.5zM407 598q-9 0 -14.5 6t-5.5 14q0 11 6.5 17.5t16.5 6.5q9 0 14.5 -6t5.5 -14q0 -11 -6 -17.5t-17 -6.5zM109 -215q-19 0 -34.5 5
t-26.5 12l8 14q11 -8 24.5 -12.5t28.5 -4.5q51 0 84 34t49 102l131 565h16l-133 -573q-15 -66 -50 -104t-97 -38z" />
    <glyph glyph-name="uni01CA" unicode="&#x1ca;" horiz-adv-x="1163" 
d="M39 0l153 660h21l283 -604l18 -40v0l12 57l136 587h16l-153 -660h-21l-283 604l-18 40v0l-12 -57l-136 -587h-16zM857 -10q-48 0 -83 16t-55.5 46t-24 72.5t12.5 94.5l15 1q-19 -68 -8.5 -116.5t48 -74t96.5 -25.5q75 0 122 44.5t69 140.5l108 471h16l-109 -473
q-15 -68 -43 -111.5t-68.5 -64.5t-95.5 -21z" />
    <glyph glyph-name="uni01CB" unicode="&#x1cb;" horiz-adv-x="862" 
d="M39 0l153 660h21l283 -604l18 -40v0l12 57l136 587h16l-153 -660h-21l-283 604l-18 40v0l-12 -57l-136 -587h-16zM855 598q-9 0 -14.5 6t-5.5 14q0 11 6.5 17.5t16.5 6.5q9 0 14.5 -6t5.5 -14q0 -11 -6 -17.5t-17 -6.5zM557 -215q-19 0 -34.5 5t-26.5 12l8 14
q11 -8 24.5 -12.5t28.5 -4.5q51 0 84 34t49 102l131 565h16l-133 -573q-15 -66 -50 -104t-97 -38z" />
    <glyph glyph-name="uni01CC" unicode="&#x1cc;" horiz-adv-x="744" 
d="M26 0l116 500h16l-33 -140l-4 1q23 63 79.5 106t144.5 43q60 0 99 -26t53.5 -74.5t-1.5 -115.5l-68 -294h-16l67 292q23 99 -16 151.5t-119 52.5q-66 0 -113.5 -27t-77 -71.5t-41.5 -96.5l-70 -301h-16zM737 598q-9 0 -14.5 6t-5.5 14q0 11 6.5 17.5t16.5 6.5
q9 0 14.5 -6t5.5 -14q0 -11 -6 -17.5t-17 -6.5zM439 -215q-19 0 -34.5 5t-26.5 12l8 14q11 -8 24.5 -12.5t28.5 -4.5q51 0 84 34t49 102l131 565h16l-133 -573q-15 -66 -50 -104t-97 -38z" />
    <glyph glyph-name="Gcaron" unicode="&#x1e6;" horiz-adv-x="689" 
d="M343 -9q-74 0 -135.5 32.5t-97.5 96t-36 156.5q0 77 21.5 148t65 126.5t108.5 87.5t151 32q57 0 105 -20t84.5 -59t58.5 -96l-15 -4q-32 81 -93 123t-141 42q-82 0 -143.5 -31.5t-103 -85t-62 -121t-20.5 -139.5q0 -87 34.5 -148.5t92.5 -93.5t127 -32q56 0 108.5 21
t93.5 71t60 137l13 56h-236l3 14h252l-70 -304h-16l44 186l8 13q-17 -79 -57 -124t-93 -64.5t-111 -19.5zM430 743l-75 142h16l69 -129l130 129h19l-141 -142h-18z" />
    <glyph glyph-name="gcaron" unicode="&#x1e7;" horiz-adv-x="583" 
d="M209 -215q-42 0 -78.5 11t-64.5 32.5t-46.5 52t-26.5 69.5l15 5q15 -77 71 -116.5t133 -39.5q54 0 95.5 19.5t70.5 62.5t45 111l39 167l-5 -25q-26 -53 -79.5 -88t-125.5 -35q-59 0 -105 25.5t-72 75t-26 121.5q0 55 16.5 105t48 88.5t77.5 61t106 22.5q73 0 120.5 -36.5
t66 -97.5t3.5 -135l-4 12l57 247h16l-118 -513q-16 -71 -47 -116t-76 -65.5t-106 -20.5zM253 25q75 0 125.5 38t76 99.5t25.5 130.5q0 71 -26.5 116t-68.5 66t-89 21q-74 0 -125.5 -38t-78.5 -98.5t-27 -127.5q0 -100 52 -153.5t136 -53.5zM318 583l-75 142h16l69 -129
l130 129h19l-141 -142h-18z" />
    <glyph glyph-name="uni01EA" unicode="&#x1ea;" horiz-adv-x="712" 
d="M344 -10q-74 0 -135.5 33.5t-97.5 98.5t-36 158q0 77 21 147t63 124.5t104.5 86.5t144.5 32q74 0 134.5 -34t96 -98.5t35.5 -157.5q0 -76 -21 -146t-62.5 -125t-103 -87t-143.5 -32zM345 4q77 0 135.5 31t98 83.5t59.5 120.5t20 141q0 89 -34 150.5t-90.5 93.5t-126.5 32
q-78 0 -137 -31t-99 -83.5t-60 -120t-20 -141.5q0 -89 34.5 -150.5t92.5 -93.5t127 -32zM319 -211q-22 0 -39.5 8t-27.5 23.5t-10 38.5q0 32 19 58t50.5 47t69.5 37l13 -7q-37 -16 -68 -36.5t-50 -44.5t-19 -52q0 -29 18 -43.5t44 -14.5q14 0 27.5 3.5t23.5 7.5l-2 -15
q-7 -4 -20.5 -7t-28.5 -3z" />
    <glyph glyph-name="uni01EB" unicode="&#x1eb;" horiz-adv-x="561" 
d="M263 -9q-69 0 -117 30.5t-73 82t-25 112.5q0 86 31.5 152t88 103.5t131.5 37.5q70 0 117.5 -30.5t72 -81t24.5 -112.5q0 -85 -31.5 -151.5t-87.5 -104.5t-131 -38zM263 5q52 0 95 20t74 57.5t48 89t17 113.5q0 64 -24.5 111t-69 73t-104.5 26q-52 0 -95.5 -20
t-74.5 -57.5t-48 -88.5t-17 -113q0 -63 25 -110.5t70 -74t104 -26.5zM241 -208q-22 0 -39.5 8t-27.5 23.5t-10 38.5q0 32 19 58t50.5 47t69.5 37l13 -7q-37 -16 -68 -36.5t-50 -44.5t-19 -52q0 -29 18 -43.5t44 -14.5q14 0 27.5 3.5t23.5 7.5l-2 -15q-7 -4 -20.5 -7
t-28.5 -3z" />
    <glyph glyph-name="uni01F1" unicode="&#x1f1;" horiz-adv-x="1209" 
d="M44 0l153 660h194q85 0 142.5 -35t87.5 -96t30 -139q0 -83 -25 -154t-72.5 -124t-115 -82.5t-151.5 -29.5h-243zM64 14h224q80 0 144 28.5t109.5 79.5t69.5 119.5t24 147.5q0 74 -27.5 132t-82 91.5t-137.5 33.5h-178zM638 0l3 14l590 632h-443l3 14h464l-3 -14
l-590 -632h469l-4 -14h-489z" />
    <glyph glyph-name="uni01F2" unicode="&#x1f2;" horiz-adv-x="1150" 
d="M44 0l153 660h194q85 0 142.5 -35t87.5 -96t30 -139q0 -83 -25 -154t-72.5 -124t-115 -82.5t-151.5 -29.5h-243zM64 14h224q80 0 144 28.5t109.5 79.5t69.5 119.5t24 147.5q0 74 -27.5 132t-82 91.5t-137.5 33.5h-178zM667 0l3 14l425 427l47 45h-65h-301l3 14h387
l-3 -14l-401 -403l-70 -69h80h296l-3 -14h-398z" />
    <glyph glyph-name="uni01F3" unicode="&#x1f3;" horiz-adv-x="1046" 
d="M253 -10q-64 0 -110 29.5t-70.5 80.5t-24.5 117q0 62 17.5 115t51 93t81 62.5t106.5 22.5q60 0 104 -24t67 -68.5t21 -106.5l96 419h16l-168 -730h-16l29 126q-27 -57 -76 -96.5t-124 -39.5zM257 4q53 0 95 26t72 69.5t46 96t16 106.5q0 70 -26 112.5t-67.5 62
t-89.5 19.5q-54 0 -97.5 -20.5t-75.5 -58t-49 -88.5t-17 -113q0 -67 25.5 -114.5t69.5 -72.5t98 -25zM563 0l3 14l425 427l47 45h-65h-301l3 14h387l-3 -14l-401 -403l-70 -69h80h296l-3 -14h-398z" />
    <glyph glyph-name="Aringacute" unicode="&#x1fa;" horiz-adv-x="575" 
d="M-46 0l418 660h21l112 -660h-16l-102 595l-8 47v0l-27 -45l-379 -597h-19zM112 236l4 14h342l-4 -14h-342zM393 806q35 0 57 -20.5t22 -52.5q0 -39 -24.5 -63t-60.5 -24q-35 0 -57.5 21t-22.5 52q0 38 24.5 62.5t61.5 24.5zM393 792q-31 0 -50.5 -21t-19.5 -52
q0 -26 18 -42.5t46 -16.5t48.5 19.5t20.5 53.5q0 26 -17 42.5t-46 16.5zM518 1023h20l-111 -148h-17z" />
    <glyph glyph-name="aringacute" unicode="&#x1fb;" horiz-adv-x="582" 
d="M253 -10q-64 0 -110 29.5t-70.5 80.5t-24.5 117q0 62 17.5 115t51 93t81 62.5t106.5 22.5q62 0 105 -24.5t66 -68.5t22 -101l43 184h16l-116 -500h-16l29 126q-27 -57 -76 -96.5t-124 -39.5zM257 4q53 0 95 26t72 69.5t46 96t16 106.5q0 70 -26 112.5t-67.5 62
t-89.5 19.5q-54 0 -97.5 -20.5t-75.5 -58t-49 -88.5t-17 -113q0 -67 25.5 -114.5t69.5 -72.5t98 -25zM346 735q35 0 57 -20.5t22 -52.5q0 -39 -24.5 -63t-60.5 -24q-35 0 -57.5 21t-22.5 52q0 38 24.5 62.5t61.5 24.5zM346 721q-31 0 -50.5 -21t-19.5 -52q0 -26 18 -42.5
t46 -16.5t48.5 19.5t20.5 53.5q0 26 -17 42.5t-46 16.5zM346 767l95 137h18l-97 -137h-16z" />
    <glyph glyph-name="AEacute" unicode="&#x1fc;" horiz-adv-x="868" 
d="M-66 0l563 660h420l-4 -14h-377l-70 -304h302l-3 -14h-302l-72 -314h393l-4 -14h-409l59 254h-258l-213 -254h-25zM184 268h249l87 378h-15zM647 891h20l-111 -148h-17z" />
    <glyph glyph-name="aeacute" unicode="&#x1fd;" horiz-adv-x="848" 
d="M168 -10q-63 0 -105.5 30t-42.5 90q0 41 23 72t69.5 50.5t115.5 25.5l171 16v-14l-162 -15q-101 -10 -150.5 -44t-49.5 -90q0 -53 37 -80t93 -27q83 0 136 48t78 166l20 94q3 13 5 26t2 24q0 66 -42 99.5t-107 33.5t-104 -28t-65 -82l-12 7q26 55 68 86t113 31
q50 0 86.5 -17.5t56 -50t19.5 -79.5h-4q17 42 46.5 75t70.5 52.5t92 19.5q56 0 95.5 -26.5t61 -72t21.5 -104.5q0 -11 -1 -23t-3 -23h-398v14h385q2 7 2 14.5v14.5q0 54 -19.5 97.5t-55.5 69t-88 25.5q-48 0 -88.5 -20.5t-71 -58t-47 -88t-16.5 -111.5q0 -57 19.5 -105.5
t59.5 -77.5t101 -29q65 0 112 30.5t75 78.5l13 -8q-20 -32 -48 -58.5t-65.5 -41.5t-86.5 -15q-66 0 -108.5 31.5t-63 81t-22.5 103.5l3 3q-18 -85 -50 -132.5t-75.5 -67.5t-98.5 -20zM572 730h20l-122 -147h-17z" />
    <glyph glyph-name="Oslashacute" unicode="&#x1fe;" horiz-adv-x="712" 
d="M161 71l-10 11l451 495l9 -11zM65 -12l86 94l10 -11l-76 -83h-20zM611 566l-9 11l88 97h20zM344 -10q-74 0 -135.5 33.5t-97.5 98.5t-36 158q0 77 21 147t63 124.5t104.5 86.5t144.5 32q74 0 134.5 -34t96 -98.5t35.5 -157.5q0 -76 -21 -146t-62.5 -125t-103 -87
t-143.5 -32zM345 4q77 0 135.5 31t98 83.5t59.5 120.5t20 141q0 89 -34 150.5t-90.5 93.5t-126.5 32q-78 0 -137 -31t-99 -83.5t-60 -120t-20 -141.5q0 -89 34.5 -150.5t92.5 -93.5t127 -32zM535 891h20l-111 -148h-17z" />
    <glyph glyph-name="oslashacute" unicode="&#x1ff;" horiz-adv-x="561" 
d="M263 -9q-69 0 -117 30.5t-73 82t-25 112.5q0 86 31.5 152t88 103.5t131.5 37.5q70 0 117.5 -30.5t72 -81t24.5 -112.5q0 -85 -31.5 -151.5t-87.5 -104.5t-131 -38zM263 5q52 0 95 20t74 57.5t48 89t17 113.5q0 64 -24.5 111t-69 73t-104.5 26q-52 0 -95.5 -20
t-74.5 -57.5t-48 -88.5t-17 -113q0 -63 25 -110.5t70 -74t104 -26.5zM-16 -26l571 553h21l-571 -553h-21zM443 730h20l-122 -147h-17z" />
    <glyph glyph-name="uni0200" unicode="&#x200;" horiz-adv-x="575" 
d="M-46 0l418 660h21l112 -660h-16l-102 595l-8 47v0l-27 -45l-379 -597h-19zM112 236l4 14h342l-4 -14h-342zM306 891l42 -148h-14l-45 148h17zM416 891l42 -148h-14l-45 148h17z" />
    <glyph glyph-name="uni0201" unicode="&#x201;" horiz-adv-x="582" 
d="M253 -10q-64 0 -110 29.5t-70.5 80.5t-24.5 117q0 62 17.5 115t51 93t81 62.5t106.5 22.5q62 0 105 -24.5t66 -68.5t22 -101l43 184h16l-116 -500h-16l29 126q-27 -57 -76 -96.5t-124 -39.5zM257 4q53 0 95 26t72 69.5t46 96t16 106.5q0 70 -26 112.5t-67.5 62
t-89.5 19.5q-54 0 -97.5 -20.5t-75.5 -58t-49 -88.5t-17 -113q0 -67 25.5 -114.5t69.5 -72.5t98 -25zM227 729l52 -147h-14l-55 147h17zM355 729l52 -147h-14l-55 147h17z" />
    <glyph glyph-name="uni0202" unicode="&#x202;" horiz-adv-x="575" 
d="M-46 0l418 660h21l112 -660h-16l-102 595l-8 47v0l-27 -45l-379 -597h-19zM112 236l4 14h342l-4 -14h-342zM270 732q11 63 49 92t88 29t79.5 -26.5t29.5 -69.5q0 -6 -0.5 -12t-2.5 -13h-14q1 6 1.5 12t0.5 11q0 41 -26.5 62.5t-68.5 21.5q-47 0 -79.5 -28t-42.5 -79h-14z
" />
    <glyph glyph-name="uni0203" unicode="&#x203;" horiz-adv-x="582" 
d="M253 -10q-64 0 -110 29.5t-70.5 80.5t-24.5 117q0 62 17.5 115t51 93t81 62.5t106.5 22.5q62 0 105 -24.5t66 -68.5t22 -101l43 184h16l-116 -500h-16l29 126q-27 -57 -76 -96.5t-124 -39.5zM257 4q53 0 95 26t72 69.5t46 96t16 106.5q0 70 -26 112.5t-67.5 62
t-89.5 19.5q-54 0 -97.5 -20.5t-75.5 -58t-49 -88.5t-17 -113q0 -67 25.5 -114.5t69.5 -72.5t98 -25zM205 572q11 63 49 92t88 29t79.5 -26.5t29.5 -69.5q0 -6 -0.5 -12t-2.5 -13h-14q1 6 1.5 12t0.5 11q0 41 -26.5 62.5t-68.5 21.5q-47 0 -79.5 -28t-42.5 -79h-14z" />
    <glyph glyph-name="uni0204" unicode="&#x204;" horiz-adv-x="572" 
d="M39 0l153 660h426l-4 -14h-410l-69 -302h331l-4 -14h-331l-72 -316h428l-3 -14h-445zM322 891l42 -148h-14l-45 148h17zM432 891l42 -148h-14l-45 148h17z" />
    <glyph glyph-name="uni0205" unicode="&#x205;" horiz-adv-x="527" 
d="M260 -9q-68 0 -116 30.5t-72.5 82t-24.5 113.5q0 78 29.5 144.5t85.5 107t135 40.5q58 0 100 -27t64.5 -73t22.5 -104q0 -10 -0.5 -22t-2.5 -23h-423v14h413l-5 -3q1 8 1.5 16t0.5 15q0 53 -20 97t-58.5 70t-94.5 26q-53 0 -96 -21.5t-73.5 -59.5t-46.5 -88.5t-16 -108.5
q0 -61 24 -109t68 -75.5t105 -27.5q63 0 112 30.5t77 78.5l13 -8q-20 -32 -49.5 -58.5t-67.5 -41.5t-85 -15zM211 729l52 -147h-14l-55 147h17zM339 729l52 -147h-14l-55 147h17z" />
    <glyph glyph-name="uni0206" unicode="&#x206;" horiz-adv-x="572" 
d="M39 0l153 660h426l-4 -14h-410l-69 -302h331l-4 -14h-331l-72 -316h428l-3 -14h-445zM286 732q11 63 49 92t88 29t79.5 -26.5t29.5 -69.5q0 -6 -0.5 -12t-2.5 -13h-14q1 6 1.5 12t0.5 11q0 41 -26.5 62.5t-68.5 21.5q-47 0 -79.5 -28t-42.5 -79h-14z" />
    <glyph glyph-name="uni0207" unicode="&#x207;" horiz-adv-x="527" 
d="M260 -9q-68 0 -116 30.5t-72.5 82t-24.5 113.5q0 78 29.5 144.5t85.5 107t135 40.5q58 0 100 -27t64.5 -73t22.5 -104q0 -10 -0.5 -22t-2.5 -23h-423v14h413l-5 -3q1 8 1.5 16t0.5 15q0 53 -20 97t-58.5 70t-94.5 26q-53 0 -96 -21.5t-73.5 -59.5t-46.5 -88.5t-16 -108.5
q0 -61 24 -109t68 -75.5t105 -27.5q63 0 112 30.5t77 78.5l13 -8q-20 -32 -49.5 -58.5t-67.5 -41.5t-85 -15zM189 572q11 63 49 92t88 29t79.5 -26.5t29.5 -69.5q0 -6 -0.5 -12t-2.5 -13h-14q1 6 1.5 12t0.5 11q0 41 -26.5 62.5t-68.5 21.5q-47 0 -79.5 -28t-42.5 -79h-14z
" />
    <glyph glyph-name="uni0208" unicode="&#x208;" horiz-adv-x="210" 
d="M208 660l-153 -660h-16l153 660h16zM126 891l42 -148h-14l-45 148h17zM236 891l42 -148h-14l-45 148h17z" />
    <glyph glyph-name="uni0209" unicode="&#x209;" horiz-adv-x="182" 
d="M157 500l-116 -500h-16l116 500h16zM61 729l52 -147h-14l-55 147h17zM189 729l52 -147h-14l-55 147h17z" />
    <glyph glyph-name="uni020A" unicode="&#x20a;" horiz-adv-x="210" 
d="M208 660l-153 -660h-16l153 660h16zM90 732q11 63 49 92t88 29t79.5 -26.5t29.5 -69.5q0 -6 -0.5 -12t-2.5 -13h-14q1 6 1.5 12t0.5 11q0 41 -26.5 62.5t-68.5 21.5q-47 0 -79.5 -28t-42.5 -79h-14z" />
    <glyph glyph-name="uni020B" unicode="&#x20b;" horiz-adv-x="182" 
d="M157 500l-116 -500h-16l116 500h16zM39 572q11 63 49 92t88 29t79.5 -26.5t29.5 -69.5q0 -6 -0.5 -12t-2.5 -13h-14q1 6 1.5 12t0.5 11q0 41 -26.5 62.5t-68.5 21.5q-47 0 -79.5 -28t-42.5 -79h-14z" />
    <glyph glyph-name="uni020C" unicode="&#x20c;" horiz-adv-x="712" 
d="M344 -10q-74 0 -135.5 33.5t-97.5 98.5t-36 158q0 77 21 147t63 124.5t104.5 86.5t144.5 32q74 0 134.5 -34t96 -98.5t35.5 -157.5q0 -76 -21 -146t-62.5 -125t-103 -87t-143.5 -32zM345 4q77 0 135.5 31t98 83.5t59.5 120.5t20 141q0 89 -34 150.5t-90.5 93.5t-126.5 32
q-78 0 -137 -31t-99 -83.5t-60 -120t-20 -141.5q0 -89 34.5 -150.5t92.5 -93.5t127 -32zM346 891l42 -148h-14l-45 148h17zM456 891l42 -148h-14l-45 148h17z" />
    <glyph glyph-name="uni020D" unicode="&#x20d;" horiz-adv-x="561" 
d="M263 -9q-69 0 -117 30.5t-73 82t-25 112.5q0 86 31.5 152t88 103.5t131.5 37.5q70 0 117.5 -30.5t72 -81t24.5 -112.5q0 -85 -31.5 -151.5t-87.5 -104.5t-131 -38zM263 5q52 0 95 20t74 57.5t48 89t17 113.5q0 64 -24.5 111t-69 73t-104.5 26q-52 0 -95.5 -20
t-74.5 -57.5t-48 -88.5t-17 -113q0 -63 25 -110.5t70 -74t104 -26.5zM225 729l52 -147h-14l-55 147h17zM353 729l52 -147h-14l-55 147h17z" />
    <glyph glyph-name="uni020E" unicode="&#x20e;" horiz-adv-x="712" 
d="M344 -10q-74 0 -135.5 33.5t-97.5 98.5t-36 158q0 77 21 147t63 124.5t104.5 86.5t144.5 32q74 0 134.5 -34t96 -98.5t35.5 -157.5q0 -76 -21 -146t-62.5 -125t-103 -87t-143.5 -32zM345 4q77 0 135.5 31t98 83.5t59.5 120.5t20 141q0 89 -34 150.5t-90.5 93.5t-126.5 32
q-78 0 -137 -31t-99 -83.5t-60 -120t-20 -141.5q0 -89 34.5 -150.5t92.5 -93.5t127 -32zM310 732q11 63 49 92t88 29t79.5 -26.5t29.5 -69.5q0 -6 -0.5 -12t-2.5 -13h-14q1 6 1.5 12t0.5 11q0 41 -26.5 62.5t-68.5 21.5q-47 0 -79.5 -28t-42.5 -79h-14z" />
    <glyph glyph-name="uni020F" unicode="&#x20f;" horiz-adv-x="561" 
d="M263 -9q-69 0 -117 30.5t-73 82t-25 112.5q0 86 31.5 152t88 103.5t131.5 37.5q70 0 117.5 -30.5t72 -81t24.5 -112.5q0 -85 -31.5 -151.5t-87.5 -104.5t-131 -38zM263 5q52 0 95 20t74 57.5t48 89t17 113.5q0 64 -24.5 111t-69 73t-104.5 26q-52 0 -95.5 -20
t-74.5 -57.5t-48 -88.5t-17 -113q0 -63 25 -110.5t70 -74t104 -26.5zM203 572q11 63 49 92t88 29t79.5 -26.5t29.5 -69.5q0 -6 -0.5 -12t-2.5 -13h-14q1 6 1.5 12t0.5 11q0 41 -26.5 62.5t-68.5 21.5q-47 0 -79.5 -28t-42.5 -79h-14z" />
    <glyph glyph-name="uni0210" unicode="&#x210;" horiz-adv-x="606" 
d="M39 0l153 660h202q94 0 143 -43.5t49 -117.5q0 -58 -25 -104t-76 -72.5t-129 -26.5v0h-241v14h243q72 0 119 25t70 67.5t23 94.5q0 66 -43.5 107.5t-132.5 41.5h-189l-150 -646h-16zM492 0l-120 308h17l120 -308h-17zM300 891l42 -148h-14l-45 148h17zM410 891l42 -148
h-14l-45 148h17z" />
    <glyph glyph-name="uni0211" unicode="&#x211;" horiz-adv-x="338" 
d="M26 0l116 500h16l-35 -151l-5 7q19 43 45 78t62 55.5t85 20.5q18 0 34.5 -3.5t27.5 -11.5l-7 -13q-10 8 -25 11t-32 3q-51 0 -91 -27t-66.5 -71.5t-38.5 -97.5l-70 -300h-16zM164 729l52 -147h-14l-55 147h17zM292 729l52 -147h-14l-55 147h17z" />
    <glyph glyph-name="uni0212" unicode="&#x212;" horiz-adv-x="606" 
d="M39 0l153 660h202q94 0 143 -43.5t49 -117.5q0 -58 -25 -104t-76 -72.5t-129 -26.5v0h-241v14h243q72 0 119 25t70 67.5t23 94.5q0 66 -43.5 107.5t-132.5 41.5h-189l-150 -646h-16zM492 0l-120 308h17l120 -308h-17zM264 732q11 63 49 92t88 29t79.5 -26.5t29.5 -69.5
q0 -6 -0.5 -12t-2.5 -13h-14q1 6 1.5 12t0.5 11q0 41 -26.5 62.5t-68.5 21.5q-47 0 -79.5 -28t-42.5 -79h-14z" />
    <glyph glyph-name="uni0213" unicode="&#x213;" horiz-adv-x="338" 
d="M26 0l116 500h16l-35 -151l-5 7q19 43 45 78t62 55.5t85 20.5q18 0 34.5 -3.5t27.5 -11.5l-7 -13q-10 8 -25 11t-32 3q-51 0 -91 -27t-66.5 -71.5t-38.5 -97.5l-70 -300h-16zM142 572q11 63 49 92t88 29t79.5 -26.5t29.5 -69.5q0 -6 -0.5 -12t-2.5 -13h-14q1 6 1.5 12
t0.5 11q0 41 -26.5 62.5t-68.5 21.5q-47 0 -79.5 -28t-42.5 -79h-14z" />
    <glyph glyph-name="uni0214" unicode="&#x214;" horiz-adv-x="656" 
d="M307 -10q-87 0 -143 35t-75.5 99t0.5 152l90 384h16l-91 -389q-20 -84 -0.5 -144t72.5 -91.5t131 -31.5q101 0 161.5 64t88.5 182l95 410h16l-96 -415q-28 -121 -91.5 -188t-173.5 -67zM346 851l42 -148h-14l-45 148h17zM456 851l42 -148h-14l-45 148h17z" />
    <glyph glyph-name="uni0215" unicode="&#x215;" horiz-adv-x="562" 
d="M227 -10q-65 0 -106.5 25.5t-55.5 75t2 119.5l67 290h16l-67 -292q-23 -100 17.5 -152t127.5 -52q61 0 106.5 27t74.5 71.5t41 96.5l70 301h16l-116 -500h-16l33 140l4 -1q-26 -65 -80 -107t-134 -42zM236 709l52 -147h-14l-55 147h17zM364 709l52 -147h-14l-55 147h17z
" />
    <glyph glyph-name="uni0216" unicode="&#x216;" horiz-adv-x="656" 
d="M307 -10q-87 0 -143 35t-75.5 99t0.5 152l90 384h16l-91 -389q-20 -84 -0.5 -144t72.5 -91.5t131 -31.5q101 0 161.5 64t88.5 182l95 410h16l-96 -415q-28 -121 -91.5 -188t-173.5 -67zM310 692q11 63 49 92t88 29t79.5 -26.5t29.5 -69.5q0 -6 -0.5 -12t-2.5 -13h-14
q1 6 1.5 12t0.5 11q0 41 -26.5 62.5t-68.5 21.5q-47 0 -79.5 -28t-42.5 -79h-14z" />
    <glyph glyph-name="uni0217" unicode="&#x217;" horiz-adv-x="562" 
d="M227 -10q-65 0 -106.5 25.5t-55.5 75t2 119.5l67 290h16l-67 -292q-23 -100 17.5 -152t127.5 -52q61 0 106.5 27t74.5 71.5t41 96.5l70 301h16l-116 -500h-16l33 140l4 -1q-26 -65 -80 -107t-134 -42zM214 552q11 63 49 92t88 29t79.5 -26.5t29.5 -69.5q0 -6 -0.5 -12
t-2.5 -13h-14q1 6 1.5 12t0.5 11q0 41 -26.5 62.5t-68.5 21.5q-47 0 -79.5 -28t-42.5 -79h-14z" />
    <glyph glyph-name="uni0218" unicode="&#x218;" horiz-adv-x="596" 
d="M301 -8q-71 0 -128.5 24.5t-93 67.5t-44.5 101l16 5q6 -54 40.5 -95.5t89 -65t120.5 -23.5q57 0 106.5 18t80.5 54.5t31 89.5q0 52 -41.5 87t-118.5 55l-78 21q-50 14 -85 37.5t-53 56.5t-18 74q0 49 26.5 87.5t77 61.5t120.5 23q90 0 154 -39.5t84 -120.5l-15 -5
q-14 52 -45 85.5t-76 49.5t-103 16q-63 0 -109.5 -21t-72 -56.5t-25.5 -79.5q0 -55 36.5 -94.5t108.5 -59.5l74 -20q85 -22 130 -61t45 -95q0 -59 -32.5 -98.5t-85.5 -59.5t-116 -20zM264 -68l-93 -161h-14l87 161h20z" />
    <glyph glyph-name="uni0219" unicode="&#x219;" horiz-adv-x="489" 
d="M234 -10q-62 0 -107.5 19.5t-70.5 55t-27 82.5l15 4q4 -67 52.5 -107t136.5 -40q77 0 120 35.5t43 91.5q0 39 -21.5 63t-71.5 38l-103 29q-54 15 -82 42t-28 73q0 42 22.5 71.5t62.5 45.5t90 16q74 0 126 -34t61 -110l-14 -5q-5 48 -30 78t-63 43.5t-82 13.5
q-70 0 -113.5 -32t-43.5 -85q0 -42 25.5 -65t72.5 -37l105 -30q54 -16 78.5 -42.5t24.5 -71.5q0 -41 -22 -73.5t-62 -50.5t-94 -18zM211 -68l-93 -161h-14l87 161h20z" />
    <glyph glyph-name="uni021A" unicode="&#x21a;" horiz-adv-x="534" 
d="M618 660l-4 -14h-247l-149 -646h-16l149 646h-249l4 14h512zM220 -68l-93 -161h-14l87 161h20z" />
    <glyph glyph-name="uni021B" unicode="&#x21b;" horiz-adv-x="329" 
d="M185 -10q-44 0 -70 17.5t-34 51t2 81.5l114 490l17 5l-115 -497q-14 -63 6.5 -98.5t80.5 -35.5q25 0 46 7t40 20l5 -13q-17 -13 -41.5 -20.5t-50.5 -7.5zM59 486l4 14h287l-4 -14h-287zM169 -68l-93 -161h-14l87 161h20z" />
    <glyph glyph-name="uni022A" unicode="&#x22a;" horiz-adv-x="712" 
d="M344 -10q-74 0 -135.5 33.5t-97.5 98.5t-36 158q0 77 21 147t63 124.5t104.5 86.5t144.5 32q74 0 134.5 -34t96 -98.5t35.5 -157.5q0 -76 -21 -146t-62.5 -125t-103 -87t-143.5 -32zM345 4q77 0 135.5 31t98 83.5t59.5 120.5t20 141q0 89 -34 150.5t-90.5 93.5t-126.5 32
q-78 0 -137 -31t-99 -83.5t-60 -120t-20 -141.5q0 -89 34.5 -150.5t92.5 -93.5t127 -32zM531 758q-9 0 -14.5 5.5t-5.5 14.5q0 10 6 17t16 7t15 -5.5t5 -14.5q0 -10 -6 -17t-16 -7zM347 758q-9 0 -14.5 5.5t-5.5 14.5q0 10 6 17t16 7t15 -5.5t5 -14.5q0 -10 -6 -17t-16 -7z
M595 917l-3 -14h-268l3 14h268z" />
    <glyph glyph-name="uni022B" unicode="&#x22b;" horiz-adv-x="561" 
d="M263 -9q-69 0 -117 30.5t-73 82t-25 112.5q0 86 31.5 152t88 103.5t131.5 37.5q70 0 117.5 -30.5t72 -81t24.5 -112.5q0 -85 -31.5 -151.5t-87.5 -104.5t-131 -38zM263 5q52 0 95 20t74 57.5t48 89t17 113.5q0 64 -24.5 111t-69 73t-104.5 26q-52 0 -95.5 -20
t-74.5 -57.5t-48 -88.5t-17 -113q0 -63 25 -110.5t70 -74t104 -26.5zM424 598q-9 0 -14.5 5.5t-5.5 14.5q0 10 6 17t16 7t15 -5.5t5 -14.5q0 -10 -6 -17t-16 -7zM240 598q-9 0 -14.5 5.5t-5.5 14.5q0 10 6 17t16 7t15 -5.5t5 -14.5q0 -10 -6 -17t-16 -7zM488 757l-3 -14
h-268l3 14h268z" />
    <glyph glyph-name="uni022C" unicode="&#x22c;" horiz-adv-x="712" 
d="M344 -10q-74 0 -135.5 33.5t-97.5 98.5t-36 158q0 77 21 147t63 124.5t104.5 86.5t144.5 32q74 0 134.5 -34t96 -98.5t35.5 -157.5q0 -76 -21 -146t-62.5 -125t-103 -87t-143.5 -32zM345 4q77 0 135.5 31t98 83.5t59.5 120.5t20 141q0 89 -34 150.5t-90.5 93.5t-126.5 32
q-78 0 -137 -31t-99 -83.5t-60 -120t-20 -141.5q0 -89 34.5 -150.5t92.5 -93.5t127 -32zM604 843q-14 -44 -36.5 -64t-48.5 -20q-24 0 -39.5 10.5t-28 24t-26.5 24t-35 10.5q-29 0 -44.5 -18t-29.5 -52h-15q14 44 36 64t55 20q24 0 39.5 -10.5t27.5 -24t26 -24t35 -10.5
q23 0 40 18t30 52h14zM607 938l-3 -14h-268l3 14h268z" />
    <glyph glyph-name="uni022D" unicode="&#x22d;" horiz-adv-x="561" 
d="M263 -9q-69 0 -117 30.5t-73 82t-25 112.5q0 86 31.5 152t88 103.5t131.5 37.5q70 0 117.5 -30.5t72 -81t24.5 -112.5q0 -85 -31.5 -151.5t-87.5 -104.5t-131 -38zM263 5q52 0 95 20t74 57.5t48 89t17 113.5q0 64 -24.5 111t-69 73t-104.5 26q-52 0 -95.5 -20
t-74.5 -57.5t-48 -88.5t-17 -113q0 -63 25 -110.5t70 -74t104 -26.5zM497 683q-14 -44 -36.5 -64t-48.5 -20q-24 0 -39.5 10.5t-28 24t-26.5 24t-35 10.5q-29 0 -44.5 -18t-29.5 -52h-15q14 44 36 64t55 20q24 0 39.5 -10.5t27.5 -24t26 -24t35 -10.5q23 0 40 18t30 52h14z
M500 778l-3 -14h-268l3 14h268z" />
    <glyph glyph-name="uni0230" unicode="&#x230;" horiz-adv-x="712" 
d="M344 -10q-74 0 -135.5 33.5t-97.5 98.5t-36 158q0 77 21 147t63 124.5t104.5 86.5t144.5 32q74 0 134.5 -34t96 -98.5t35.5 -157.5q0 -76 -21 -146t-62.5 -125t-103 -87t-143.5 -32zM345 4q77 0 135.5 31t98 83.5t59.5 120.5t20 141q0 89 -34 150.5t-90.5 93.5t-126.5 32
q-78 0 -137 -31t-99 -83.5t-60 -120t-20 -141.5q0 -89 34.5 -150.5t92.5 -93.5t127 -32zM446 758q-9 0 -14.5 5.5t-5.5 14.5q0 10 6 17t16 7q9 0 14.5 -5.5t5.5 -14.5q0 -10 -6.5 -17t-15.5 -7zM606 917l-3 -14h-268l3 14h268z" />
    <glyph glyph-name="uni0231" unicode="&#x231;" horiz-adv-x="561" 
d="M263 -9q-69 0 -117 30.5t-73 82t-25 112.5q0 86 31.5 152t88 103.5t131.5 37.5q70 0 117.5 -30.5t72 -81t24.5 -112.5q0 -85 -31.5 -151.5t-87.5 -104.5t-131 -38zM263 5q52 0 95 20t74 57.5t48 89t17 113.5q0 64 -24.5 111t-69 73t-104.5 26q-52 0 -95.5 -20
t-74.5 -57.5t-48 -88.5t-17 -113q0 -63 25 -110.5t70 -74t104 -26.5zM339 598q-9 0 -14.5 5.5t-5.5 14.5q0 10 6 17t16 7q9 0 14.5 -5.5t5.5 -14.5q0 -10 -6.5 -17t-15.5 -7zM499 757l-3 -14h-268l3 14h268z" />
    <glyph glyph-name="uni0232" unicode="&#x232;" horiz-adv-x="503" 
d="M185 0l59 255l-133 405h17l79 -241l48 -147l125 159l182 229h20l-322 -405l-59 -255h-16zM489 739l-3 -14h-268l3 14h268z" />
    <glyph glyph-name="uni0233" unicode="&#x233;" horiz-adv-x="472" 
d="M-31 -215q-26 0 -45.5 8t-27.5 24l12 10q18 -28 63 -28q38 0 71 25t70 84l58 92l-91 500h16l81 -444l6 -39l28 45l279 438h19l-383 -601q-26 -42 -50.5 -67t-49.5 -36t-56 -11zM437 599l-3 -14h-268l3 14h268z" />
    <glyph glyph-name="uni0237" unicode="&#x237;" horiz-adv-x="182" 
d="M-123 -215q-19 0 -34.5 5t-26.5 12l8 14q11 -8 24.5 -12.5t28.5 -4.5q51 0 84 34t49 102l131 565h16l-133 -573q-15 -66 -50 -104t-97 -38z" />
    <glyph glyph-name="uni0259" unicode="&#x259;" horiz-adv-x="537" 
d="M250 -9q-63 0 -106.5 27.5t-66 74t-22.5 102.5q0 13 1.5 26.5t3.5 26.5h421v-14h-413l5 10q-2 -12 -3 -23.5t-1 -22.5q0 -53 20.5 -97t61 -70t101.5 -26q49 0 90 21.5t71 59.5t46.5 88.5t16.5 108.5q0 61 -23 109t-65.5 75.5t-102.5 27.5q-64 0 -115 -32t-79 -84l-13 8
q29 53 82.5 87.5t123.5 34.5q67 0 112.5 -30.5t69.5 -82t24 -113.5q0 -78 -29.5 -144.5t-83.5 -107t-127 -40.5z" />
    <glyph glyph-name="uni02B9" unicode="&#x2b9;" horiz-adv-x="600" 
d="M203 680l-78 -159h-18l77 159h19z" />
    <glyph glyph-name="uni02BA" unicode="&#x2ba;" horiz-adv-x="236" 
d="M305 680l-78 -159h-18l77 159h19zM203 680l-78 -159h-18l77 159h19z" />
    <glyph glyph-name="uni02BB" unicode="&#x2bb;" horiz-adv-x="600" 
d="M158 778l-99 -191h-19l104 191h14z" />
    <glyph glyph-name="uni02BC" unicode="&#x2bc;" horiz-adv-x="600" 
d="M188 688q13 0 20 -8.5t7 -22.5q0 -23 -12 -47.5t-32 -43t-45 -24.5l-5 14q26 6 44 23t28 38t10 39h-1q-4 -7 -9.5 -10t-11.5 -3q-9 0 -14 6t-5 15q0 10 7 17t19 7z" />
    <glyph glyph-name="uni02BE" unicode="&#x2be;" horiz-adv-x="253" 
d="M182 730q33 0 55 -12t33.5 -33.5t11.5 -47.5q0 -57 -41 -88t-99 -31h-25l3 14h25q52 0 86.5 27.5t34.5 77.5q0 33 -21.5 56t-65.5 23h-16l3 14h16z" />
    <glyph glyph-name="uni02BF" unicode="&#x2bf;" horiz-adv-x="253" 
d="M244 518q-33 0 -55 12t-33.5 33.5t-11.5 47.5q0 57 41 88t99 31h25l-3 -14h-25q-52 0 -86.5 -27.5t-34.5 -77.5q0 -33 21.5 -56t65.5 -23h16l-3 -14h-16z" />
    <glyph glyph-name="circumflex" unicode="&#x2c6;" horiz-adv-x="550" 
d="M235 583l141 142h18l75 -142h-16l-69 129l-130 -129h-19z" />
    <glyph glyph-name="caron" unicode="&#x2c7;" horiz-adv-x="550" 
d="M343 583l-75 142h16l69 -129l130 129h19l-141 -142h-18z" />
    <glyph glyph-name="uni02C8" unicode="&#x2c8;" horiz-adv-x="186" 
d="M196 730h15l-62 -270h-15z" />
    <glyph glyph-name="uni02C9" unicode="&#x2c9;" horiz-adv-x="550" 
d="M494 619l-3 -14h-268l3 14h268z" />
    <glyph glyph-name="uni02CA" unicode="&#x2ca;" horiz-adv-x="600" 
d="M444 730h20l-122 -147h-17z" />
    <glyph glyph-name="uni02CB" unicode="&#x2cb;" horiz-adv-x="550" 
d="M347 730l52 -147h-14l-55 147h17z" />
    <glyph glyph-name="uni02CC" unicode="&#x2cc;" horiz-adv-x="185" 
d="M41 60h15l-62 -270h-15z" />
    <glyph glyph-name="breve" unicode="&#x2d8;" horiz-adv-x="550" 
d="M501 702q-11 -64 -49.5 -92.5t-92.5 -28.5q-49 0 -76.5 24t-27.5 65q0 8 1 16.5t2 15.5h13q-1 -7 -2 -14.5t-1 -14.5q0 -36 25.5 -57t66.5 -21q51 0 84.5 28.5t42.5 78.5h14z" />
    <glyph glyph-name="dotaccent" unicode="&#x2d9;" horiz-adv-x="550" 
d="M360 598q-9 0 -14.5 5.5t-5.5 14.5q0 10 6 17t16 7q9 0 14.5 -5.5t5.5 -14.5q0 -10 -6.5 -17t-15.5 -7z" />
    <glyph glyph-name="ring" unicode="&#x2da;" horiz-adv-x="600" 
d="M397 735q35 0 57 -20.5t22 -52.5q0 -39 -24.5 -63t-60.5 -24q-35 0 -57.5 21t-22.5 52q0 38 24.5 62.5t61.5 24.5zM397 721q-31 0 -50.5 -21t-19.5 -52q0 -26 18 -42.5t46 -16.5t48.5 19.5t20.5 53.5q0 26 -17 42.5t-46 16.5z" />
    <glyph glyph-name="ogonek" unicode="&#x2db;" horiz-adv-x="600" 
d="M220 -205q-22 0 -39.5 8t-27.5 23.5t-10 38.5q0 32 19 58t50.5 47t69.5 37l13 -7q-37 -16 -68 -36.5t-50 -44.5t-19 -52q0 -29 18 -43.5t44 -14.5q14 0 27.5 3.5t23.5 7.5l-2 -15q-7 -4 -20.5 -7t-28.5 -3z" />
    <glyph glyph-name="tilde" unicode="&#x2dc;" horiz-adv-x="550" 
d="M517 683q-14 -44 -36.5 -64t-48.5 -20q-24 0 -39.5 10.5t-28 24t-26.5 24t-35 10.5q-29 0 -44.5 -18t-29.5 -52h-15q14 44 36 64t55 20q24 0 39.5 -10.5t27.5 -24t26 -24t35 -10.5q23 0 40 18t30 52h14z" />
    <glyph glyph-name="hungarumlaut" unicode="&#x2dd;" horiz-adv-x="600" 
d="M390 583l119 147h20l-122 -147h-17zM259 583l119 147h20l-122 -147h-17z" />
    <glyph glyph-name="gravecomb" unicode="&#x300;" horiz-adv-x="0" 
d="M31 730l52 -147h-14l-55 147h17z" />
    <glyph glyph-name="acutecomb" unicode="&#x301;" horiz-adv-x="0" 
d="M188 730h20l-122 -147h-17z" />
    <glyph glyph-name="uni0302" unicode="&#x302;" horiz-adv-x="0" 
d="M-40 583l141 142h18l75 -142h-16l-69 129l-130 -129h-19z" />
    <glyph glyph-name="tildecomb" unicode="&#x303;" horiz-adv-x="0" 
d="M242 683q-14 -44 -36.5 -64t-48.5 -20q-24 0 -39.5 10.5t-28 24t-26.5 24t-35 10.5q-29 0 -44.5 -18t-29.5 -52h-15q14 44 36 64t55 20q24 0 39.5 -10.5t27.5 -24t26 -24t35 -10.5q23 0 40 18t30 52h14z" />
    <glyph glyph-name="uni0304" unicode="&#x304;" horiz-adv-x="0" 
d="M211 619l-3 -14h-268l3 14h268z" />
    <glyph glyph-name="uni0306" unicode="&#x306;" horiz-adv-x="0" 
d="M225 702q-11 -64 -49.5 -92.5t-92.5 -28.5q-49 0 -76.5 24t-27.5 65q0 8 1 16.5t2 15.5h13q-1 -7 -2 -14.5t-1 -14.5q0 -36 25.5 -57t66.5 -21q51 0 84.5 28.5t42.5 78.5h14z" />
    <glyph glyph-name="uni0307" unicode="&#x307;" horiz-adv-x="0" 
d="M84 598q-9 0 -14.5 5.5t-5.5 14.5q0 10 6 17t16 7q9 0 14.5 -5.5t5.5 -14.5q0 -10 -6.5 -17t-15.5 -7z" />
    <glyph glyph-name="uni0308" unicode="&#x308;" horiz-adv-x="0" 
d="M169 598q-9 0 -14.5 5.5t-5.5 14.5q0 10 6 17t16 7t15 -5.5t5 -14.5q0 -10 -6 -17t-16 -7zM-15 598q-9 0 -14.5 5.5t-5.5 14.5q0 10 6 17t16 7t15 -5.5t5 -14.5q0 -10 -6 -17t-16 -7z" />
    <glyph glyph-name="hookabovecomb" unicode="&#x309;" horiz-adv-x="0" 
d="M340 580l-5 12q34 8 55 26.5t21 49.5q0 20 -11.5 32t-33.5 12q-20 0 -33 -9t-24 -24l-10 11q10 15 27 26.5t41 11.5q29 0 45 -17t16 -42q0 -23 -11 -41.5t-31 -30.5t-46 -17z" />
    <glyph glyph-name="uni030A" unicode="&#x30a;" horiz-adv-x="0" 
d="M95 735q35 0 57 -20.5t22 -52.5q0 -39 -24.5 -63t-60.5 -24q-35 0 -57.5 21t-22.5 52q0 38 24.5 62.5t61.5 24.5zM95 721q-31 0 -50.5 -21t-19.5 -52q0 -26 18 -42.5t46 -16.5t48.5 19.5t20.5 53.5q0 26 -17 42.5t-46 16.5z" />
    <glyph glyph-name="uni030B" unicode="&#x30b;" horiz-adv-x="0" 
d="M124 583l119 147h20l-122 -147h-17zM-7 583l119 147h20l-122 -147h-17z" />
    <glyph glyph-name="uni030C" unicode="&#x30c;" horiz-adv-x="0" 
d="M68 583l-75 142h16l69 -129l130 129h19l-141 -142h-18z" />
    <glyph glyph-name="uni030F" unicode="&#x30f;" horiz-adv-x="0" 
d="M-30 729l52 -147h-14l-55 147h17zM98 729l52 -147h-14l-55 147h17z" />
    <glyph glyph-name="uni0311" unicode="&#x311;" horiz-adv-x="0" 
d="M-52 572q11 63 49 92t88 29t79.5 -26.5t29.5 -69.5q0 -6 -0.5 -12t-2.5 -13h-14q1 6 1.5 12t0.5 11q0 41 -26.5 62.5t-68.5 21.5q-47 0 -79.5 -28t-42.5 -79h-14z" />
    <glyph glyph-name="uni0312" unicode="&#x312;" horiz-adv-x="0" 
d="M449 778l-99 -191h-19l104 191h14z" />
    <glyph glyph-name="uni031B" unicode="&#x31b;" horiz-adv-x="0" 
d="M319 488l-1 12q49 0 76.5 31.5t34.5 75.5h15q-5 -39 -22.5 -65.5t-43.5 -40t-59 -13.5z" />
    <glyph glyph-name="dotbelowcomb" unicode="&#x323;" horiz-adv-x="0" 
d="M-85 -98q9 0 14.5 -5.5t5.5 -14.5q0 -10 -6.5 -17t-15.5 -7t-14.5 5.5t-5.5 14.5q0 10 6 17t16 7z" />
    <glyph glyph-name="uni0324" unicode="&#x324;" horiz-adv-x="0" 
d="M6 -142q-9 0 -14.5 5.5t-5.5 14.5q0 10 6 17t16 7t15 -5.5t5 -14.5q0 -10 -6 -17t-16 -7zM-178 -142q-9 0 -14.5 5.5t-5.5 14.5q0 10 6 17t16 7t15 -5.5t5 -14.5q0 -10 -6 -17t-16 -7z" />
    <glyph glyph-name="uni0326" unicode="&#x326;" horiz-adv-x="0" 
d="M-56 -68l-93 -161h-14l87 161h20z" />
    <glyph glyph-name="uni0327" unicode="&#x327;" horiz-adv-x="0" 
d="M-61 1l16 2q25 -19 40.5 -44t15.5 -57t-13 -55t-36 -35.5t-53 -12.5q-37 0 -56.5 14t-28.5 32l10 11q9 -18 26 -31t49 -13q38 0 62.5 24t24.5 65q0 29 -14.5 54.5t-42.5 45.5z" />
    <glyph glyph-name="uni0328" unicode="&#x328;" horiz-adv-x="0" 
d="M-140 -205q-22 0 -39.5 8t-27.5 23.5t-10 38.5q0 32 19 58t50.5 47t69.5 37l13 -7q-37 -16 -68 -36.5t-50 -44.5t-19 -52q0 -29 18 -43.5t44 -14.5q14 0 27.5 3.5t23.5 7.5l-2 -15q-7 -4 -20.5 -7t-28.5 -3z" />
    <glyph glyph-name="uni032E" unicode="&#x32e;" horiz-adv-x="0" 
d="M42 -72q-11 -64 -49.5 -92.5t-92.5 -28.5q-49 0 -76.5 24t-27.5 65q0 8 1 16.5t2 15.5h13q-1 -7 -2 -14.5t-1 -14.5q0 -36 25.5 -57t66.5 -21q51 0 84.5 28.5t42.5 78.5h14z" />
    <glyph glyph-name="uni0331" unicode="&#x331;" horiz-adv-x="0" 
d="M54 -105l-3 -14h-268l3 14h268z" />
    <glyph glyph-name="uni0335" unicode="&#x335;" horiz-adv-x="0" 
d="M195 336l-3 -12h-351l3 12h351z" />
    <glyph glyph-name="uni0338" unicode="&#x338;" horiz-adv-x="0" 
d="M-12 -26l571 553h21l-571 -553h-21z" />
    <glyph glyph-name="uni03A9" unicode="&#x3a9;" horiz-adv-x="724" 
d="M13 0l3 14h200l3 -4q-39 21 -69.5 62t-48.5 97.5t-18 120.5q0 86 24 156t68 120t105.5 77t136.5 27q85 0 143 -41t88 -108.5t30 -149.5q0 -92 -27.5 -166t-80.5 -124t-132 -70l-7 3h208l-3 -14h-223l3 14q57 15 102.5 45t77.5 75t49 104t17 131q0 78 -28.5 143.5
t-83 104.5t-133.5 39q-75 0 -133.5 -27t-100 -76.5t-63 -117t-21.5 -147.5q0 -64 17.5 -119.5t49 -96t73.5 -58.5l-3 -14h-223z" />
    <glyph glyph-name="uni03BC" unicode="&#x3bc;" horiz-adv-x="570" 
d="M-22 -210l164 710h16l-68 -295q-21 -92 19 -146.5t127 -54.5q61 0 106.5 27t74.5 71.5t41 96.5l70 301h16l-116 -500h-16l28 119q-28 -57 -79.5 -93t-125.5 -36q-70 0 -114.5 36t-48.5 97v0l-78 -333h-16z" />
    <glyph glyph-name="pi" unicode="&#x3c0;" horiz-adv-x="665" 
d="M115 0l112 486h-167l4 14h645l-4 -14h-156l-90 -392q-7 -31 4 -50t35 -26t53 -4l-7 -14q-34 -3 -59.5 6t-37 32t-3.5 61l89 387h-290l-112 -486h-16z" />
    <glyph glyph-name="uni1E08" unicode="&#x1e08;" horiz-adv-x="661" 
d="M343 -10q-74 0 -135.5 33t-97.5 97t-36 157q0 77 21 148t63 126t104.5 87t144.5 32q59 0 107.5 -21t84 -61t52.5 -98l-15 -4q-25 82 -86 126t-144 44q-78 0 -137 -31t-99 -84.5t-60 -121t-20 -139.5q0 -87 34.5 -149t92.5 -94.5t127 -32.5q83 0 143.5 35t96.5 101l13 -10
q-38 -67 -102.5 -103.5t-151.5 -36.5zM316 1l16 2q25 -19 40.5 -44t15.5 -57t-13 -55t-36 -35.5t-53 -12.5q-37 0 -56.5 14t-28.5 32l10 11q9 -18 26 -31t49 -13q38 0 62.5 24t24.5 65q0 29 -14.5 54.5t-42.5 45.5zM536 891h20l-111 -148h-17z" />
    <glyph glyph-name="uni1E09" unicode="&#x1e09;" horiz-adv-x="516" 
d="M259 -10q-60 0 -108 27.5t-76 78t-28 118.5q0 82 30.5 149t87 107t134.5 40q48 0 85.5 -17.5t63 -50t35.5 -79.5l-15 -3q-14 64 -57.5 100t-111.5 36q-56 0 -99.5 -22t-74 -61t-46.5 -89t-16 -107q0 -67 26.5 -114.5t71.5 -73t101 -25.5q63 0 110 34.5t72 86.5l12 -7
q-27 -56 -77.5 -92t-119.5 -36zM225 1l16 2q25 -19 40.5 -44t15.5 -57t-13 -55t-36 -35.5t-53 -12.5q-37 0 -56.5 14t-28.5 32l10 11q9 -18 26 -31t49 -13q38 0 62.5 24t24.5 65q0 29 -14.5 54.5t-42.5 45.5zM436 730h20l-122 -147h-17z" />
    <glyph glyph-name="uni1E0C" unicode="&#x1e0c;" horiz-adv-x="686" 
d="M44 0l153 660h194q85 0 142.5 -35t87.5 -96t30 -139q0 -83 -25 -154t-72.5 -124t-115 -82.5t-151.5 -29.5h-243zM64 14h224q80 0 144 28.5t109.5 79.5t69.5 119.5t24 147.5q0 74 -27.5 132t-82 91.5t-137.5 33.5h-178zM267 -98q9 0 14.5 -5.5t5.5 -14.5q0 -10 -6.5 -17
t-15.5 -7t-14.5 5.5t-5.5 14.5q0 10 6 17t16 7z" />
    <glyph glyph-name="uni1E0D" unicode="&#x1e0d;" horiz-adv-x="582" 
d="M253 -10q-64 0 -110 29.5t-70.5 80.5t-24.5 117q0 62 17.5 115t51 93t81 62.5t106.5 22.5q60 0 104 -24t67 -68.5t21 -106.5l96 419h16l-168 -730h-16l29 126q-27 -57 -76 -96.5t-124 -39.5zM257 4q53 0 95 26t72 69.5t46 96t16 106.5q0 70 -26 112.5t-67.5 62
t-89.5 19.5q-54 0 -97.5 -20.5t-75.5 -58t-49 -88.5t-17 -113q0 -67 25.5 -114.5t69.5 -72.5t98 -25zM225 -98q9 0 14.5 -5.5t5.5 -14.5q0 -10 -6.5 -17t-15.5 -7t-14.5 5.5t-5.5 14.5q0 10 6 17t16 7z" />
    <glyph glyph-name="uni1E0E" unicode="&#x1e0e;" horiz-adv-x="686" 
d="M44 0l153 660h194q85 0 142.5 -35t87.5 -96t30 -139q0 -83 -25 -154t-72.5 -124t-115 -82.5t-151.5 -29.5h-243zM64 14h224q80 0 144 28.5t109.5 79.5t69.5 119.5t24 147.5q0 74 -27.5 132t-82 91.5t-137.5 33.5h-178zM406 -105l-3 -14h-268l3 14h268z" />
    <glyph glyph-name="uni1E0F" unicode="&#x1e0f;" horiz-adv-x="582" 
d="M253 -10q-64 0 -110 29.5t-70.5 80.5t-24.5 117q0 62 17.5 115t51 93t81 62.5t106.5 22.5q60 0 104 -24t67 -68.5t21 -106.5l96 419h16l-168 -730h-16l29 126q-27 -57 -76 -96.5t-124 -39.5zM257 4q53 0 95 26t72 69.5t46 96t16 106.5q0 70 -26 112.5t-67.5 62
t-89.5 19.5q-54 0 -97.5 -20.5t-75.5 -58t-49 -88.5t-17 -113q0 -67 25.5 -114.5t69.5 -72.5t98 -25zM364 -105l-3 -14h-268l3 14h268z" />
    <glyph glyph-name="uni1E14" unicode="&#x1e14;" horiz-adv-x="572" 
d="M39 0l153 660h426l-4 -14h-410l-69 -302h331l-4 -14h-331l-72 -316h428l-3 -14h-445zM549 779l-3 -14h-268l3 14h268zM405 1008l42 -148h-14l-45 148h17z" />
    <glyph glyph-name="uni1E15" unicode="&#x1e15;" horiz-adv-x="527" 
d="M260 -9q-68 0 -116 30.5t-72.5 82t-24.5 113.5q0 78 29.5 144.5t85.5 107t135 40.5q58 0 100 -27t64.5 -73t22.5 -104q0 -10 -0.5 -22t-2.5 -23h-423v14h413l-5 -3q1 8 1.5 16t0.5 15q0 53 -20 97t-58.5 70t-94.5 26q-53 0 -96 -21.5t-73.5 -59.5t-46.5 -88.5t-16 -108.5
q0 -61 24 -109t68 -75.5t105 -27.5q63 0 112 30.5t77 78.5l13 -8q-20 -32 -49.5 -58.5t-67.5 -41.5t-85 -15zM452 619l-3 -14h-268l3 14h268zM308 848l42 -148h-14l-45 148h17z" />
    <glyph glyph-name="uni1E16" unicode="&#x1e16;" horiz-adv-x="572" 
d="M39 0l153 660h426l-4 -14h-410l-69 -302h331l-4 -14h-331l-72 -316h428l-3 -14h-445zM549 779l-3 -14h-268l3 14h268zM538 1008h20l-111 -148h-17z" />
    <glyph glyph-name="uni1E17" unicode="&#x1e17;" horiz-adv-x="527" 
d="M260 -9q-68 0 -116 30.5t-72.5 82t-24.5 113.5q0 78 29.5 144.5t85.5 107t135 40.5q58 0 100 -27t64.5 -73t22.5 -104q0 -10 -0.5 -22t-2.5 -23h-423v14h413l-5 -3q1 8 1.5 16t0.5 15q0 53 -20 97t-58.5 70t-94.5 26q-53 0 -96 -21.5t-73.5 -59.5t-46.5 -88.5t-16 -108.5
q0 -61 24 -109t68 -75.5t105 -27.5q63 0 112 30.5t77 78.5l13 -8q-20 -32 -49.5 -58.5t-67.5 -41.5t-85 -15zM452 619l-3 -14h-268l3 14h268zM441 848h20l-111 -148h-17z" />
    <glyph glyph-name="uni1E1C" unicode="&#x1e1c;" horiz-adv-x="572" 
d="M39 0l153 660h426l-4 -14h-410l-69 -302h331l-4 -14h-331l-72 -316h428l-3 -14h-445zM271 1l16 2q25 -19 40.5 -44t15.5 -57t-13 -55t-36 -35.5t-53 -12.5q-37 0 -56.5 14t-28.5 32l10 11q9 -18 26 -31t49 -13q38 0 62.5 24t24.5 65q0 29 -14.5 54.5t-42.5 45.5zM563 862
q-11 -64 -49.5 -92.5t-92.5 -28.5q-49 0 -76.5 24t-27.5 65q0 8 1 16.5t2 15.5h13q-1 -7 -2 -14.5t-1 -14.5q0 -36 25.5 -57t66.5 -21q51 0 84.5 28.5t42.5 78.5h14z" />
    <glyph glyph-name="uni1E1D" unicode="&#x1e1d;" horiz-adv-x="527" 
d="M260 -9q-68 0 -116 30.5t-72.5 82t-24.5 113.5q0 78 29.5 144.5t85.5 107t135 40.5q58 0 100 -27t64.5 -73t22.5 -104q0 -10 -0.5 -22t-2.5 -23h-423v14h413l-5 -3q1 8 1.5 16t0.5 15q0 53 -20 97t-58.5 70t-94.5 26q-53 0 -96 -21.5t-73.5 -59.5t-46.5 -88.5t-16 -108.5
q0 -61 24 -109t68 -75.5t105 -27.5q63 0 112 30.5t77 78.5l13 -8q-20 -32 -49.5 -58.5t-67.5 -41.5t-85 -15zM241 1l16 2q25 -19 40.5 -44t15.5 -57t-13 -55t-36 -35.5t-53 -12.5q-37 0 -56.5 14t-28.5 32l10 11q9 -18 26 -31t49 -13q38 0 62.5 24t24.5 65q0 29 -14.5 54.5
t-42.5 45.5zM466 702q-11 -64 -49.5 -92.5t-92.5 -28.5q-49 0 -76.5 24t-27.5 65q0 8 1 16.5t2 15.5h13q-1 -7 -2 -14.5t-1 -14.5q0 -36 25.5 -57t66.5 -21q51 0 84.5 28.5t42.5 78.5h14z" />
    <glyph glyph-name="uni1E20" unicode="&#x1e20;" horiz-adv-x="689" 
d="M343 -9q-74 0 -135.5 32.5t-97.5 96t-36 156.5q0 77 21.5 148t65 126.5t108.5 87.5t151 32q57 0 105 -20t84.5 -59t58.5 -96l-15 -4q-32 81 -93 123t-141 42q-82 0 -143.5 -31.5t-103 -85t-62 -121t-20.5 -139.5q0 -87 34.5 -148.5t92.5 -93.5t127 -32q56 0 108.5 21
t93.5 71t60 137l13 56h-236l3 14h252l-70 -304h-16l44 186l8 13q-17 -79 -57 -124t-93 -64.5t-111 -19.5zM573 779l-3 -14h-268l3 14h268z" />
    <glyph glyph-name="uni1E21" unicode="&#x1e21;" horiz-adv-x="583" 
d="M209 -215q-42 0 -78.5 11t-64.5 32.5t-46.5 52t-26.5 69.5l15 5q15 -77 71 -116.5t133 -39.5q54 0 95.5 19.5t70.5 62.5t45 111l39 167l-5 -25q-26 -53 -79.5 -88t-125.5 -35q-59 0 -105 25.5t-72 75t-26 121.5q0 55 16.5 105t48 88.5t77.5 61t106 22.5q73 0 120.5 -36.5
t66 -97.5t3.5 -135l-4 12l57 247h16l-118 -513q-16 -71 -47 -116t-76 -65.5t-106 -20.5zM253 25q75 0 125.5 38t76 99.5t25.5 130.5q0 71 -26.5 116t-68.5 66t-89 21q-74 0 -125.5 -38t-78.5 -98.5t-27 -127.5q0 -100 52 -153.5t136 -53.5zM482 619l-3 -14h-268l3 14h268z
" />
    <glyph glyph-name="uni1E24" unicode="&#x1e24;" horiz-adv-x="682" 
d="M680 660l-153 -660h-16l153 660h16zM208 660l-153 -660h-16l153 660h16zM600 344l-4 -14h-473l4 14h473zM260 -98q9 0 14.5 -5.5t5.5 -14.5q0 -10 -6.5 -17t-15.5 -7t-14.5 5.5t-5.5 14.5q0 10 6 17t16 7z" />
    <glyph glyph-name="uni1E25" unicode="&#x1e25;" horiz-adv-x="562" 
d="M26 0l170 730h16l-87 -370l-4 1q16 42 46 75.5t75 53.5t103 20q59 0 98 -26t54 -74.5t-1 -115.5l-68 -294h-16l67 292q23 99 -16 151.5t-119 52.5q-66 0 -113.5 -27t-77 -71.5t-41.5 -96.5l-70 -301h-16zM208 -98q9 0 14.5 -5.5t5.5 -14.5q0 -10 -6.5 -17t-15.5 -7
t-14.5 5.5t-5.5 14.5q0 10 6 17t16 7z" />
    <glyph glyph-name="uni1E2A" unicode="&#x1e2a;" horiz-adv-x="682" 
d="M680 660l-153 -660h-16l153 660h16zM208 660l-153 -660h-16l153 660h16zM600 344l-4 -14h-473l4 14h473zM387 -72q-11 -64 -49.5 -92.5t-92.5 -28.5q-49 0 -76.5 24t-27.5 65q0 8 1 16.5t2 15.5h13q-1 -7 -2 -14.5t-1 -14.5q0 -36 25.5 -57t66.5 -21q51 0 84.5 28.5
t42.5 78.5h14z" />
    <glyph glyph-name="uni1E2B" unicode="&#x1e2b;" horiz-adv-x="562" 
d="M26 0l170 730h16l-87 -370l-4 1q16 42 46 75.5t75 53.5t103 20q59 0 98 -26t54 -74.5t-1 -115.5l-68 -294h-16l67 292q23 99 -16 151.5t-119 52.5q-66 0 -113.5 -27t-77 -71.5t-41.5 -96.5l-70 -301h-16zM335 -72q-11 -64 -49.5 -92.5t-92.5 -28.5q-49 0 -76.5 24
t-27.5 65q0 8 1 16.5t2 15.5h13q-1 -7 -2 -14.5t-1 -14.5q0 -36 25.5 -57t66.5 -21q51 0 84.5 28.5t42.5 78.5h14z" />
    <glyph glyph-name="uni1E2E" unicode="&#x1e2e;" horiz-adv-x="210" 
d="M208 660l-153 -660h-16l153 660h16zM311 758q-9 0 -14.5 5.5t-5.5 14.5q0 10 6 17t16 7t15 -5.5t5 -14.5q0 -10 -6 -17t-16 -7zM127 758q-9 0 -14.5 5.5t-5.5 14.5q0 10 6 17t16 7t15 -5.5t5 -14.5q0 -10 -6 -17t-16 -7zM337 1029h20l-111 -148h-17z" />
    <glyph glyph-name="uni1E2F" unicode="&#x1e2f;" horiz-adv-x="182" 
d="M157 500l-116 -500h-16l116 500h16zM260 598q-9 0 -14.5 5.5t-5.5 14.5q0 10 6 17t16 7t15 -5.5t5 -14.5q0 -10 -6 -17t-16 -7zM76 598q-9 0 -14.5 5.5t-5.5 14.5q0 10 6 17t16 7t15 -5.5t5 -14.5q0 -10 -6 -17t-16 -7zM286 869h20l-111 -148h-17z" />
    <glyph glyph-name="uni1E36" unicode="&#x1e36;" horiz-adv-x="532" 
d="M59 14h407l-4 -14h-423l153 660h16zM245 -98q9 0 14.5 -5.5t5.5 -14.5q0 -10 -6.5 -17t-15.5 -7t-14.5 5.5t-5.5 14.5q0 10 6 17t16 7z" />
    <glyph glyph-name="uni1E37" unicode="&#x1e37;" horiz-adv-x="232" 
d="M114 -9q-48 0 -63.5 33t-1.5 96l141 610h16l-142 -614q-13 -55 -1 -83t53 -28q18 0 30 2.5t23 6.5l-3 -14q-7 -4 -21 -6.5t-31 -2.5zM66 -98q9 0 14.5 -5.5t5.5 -14.5q0 -10 -6.5 -17t-15.5 -7t-14.5 5.5t-5.5 14.5q0 10 6 17t16 7z" />
    <glyph glyph-name="uni1E3A" unicode="&#x1e3a;" horiz-adv-x="532" 
d="M59 14h407l-4 -14h-423l153 660h16zM384 -105l-3 -14h-268l3 14h268z" />
    <glyph glyph-name="uni1E3B" unicode="&#x1e3b;" horiz-adv-x="232" 
d="M-16 -119l3 14h168l-3 -14h-168zM114 -9q-48 0 -63.5 33t-1.5 96l141 610h16l-142 -614q-13 -55 -1 -83t53 -28q18 0 30 2.5t23 6.5l-3 -14q-7 -4 -21 -6.5t-31 -2.5z" />
    <glyph glyph-name="uni1E42" unicode="&#x1e42;" horiz-adv-x="770" 
d="M39 0l153 660h21l112 -610l5 -33v0l18 30l398 613h22l-153 -660h-16l135 582l14 55v0l-411 -637h-19l-117 637v0l-11 -55l-135 -582h-16zM300 -98q9 0 14.5 -5.5t5.5 -14.5q0 -10 -6.5 -17t-15.5 -7t-14.5 5.5t-5.5 14.5q0 10 6 17t16 7z" />
    <glyph glyph-name="uni1E43" unicode="&#x1e43;" horiz-adv-x="936" 
d="M26 0l116 500h16l-33 -140l-4 1q23 63 79.5 106t144.5 43q60 0 97 -26t49.5 -74t-3.5 -116l-68 -294h-16l67 292q23 99 -12 151.5t-115 52.5q-66 0 -113.5 -27t-77 -71.5t-41.5 -96.5l-70 -301h-16zM782 0l67 292q23 99 -12 151.5t-115 52.5q-67 0 -115 -28t-77.5 -74
t-41.5 -100l6 63q28 69 84.5 111t144.5 42q60 0 97 -26t49.5 -74t-3.5 -116l-68 -294h-16zM392 -98q9 0 14.5 -5.5t5.5 -14.5q0 -10 -6.5 -17t-15.5 -7t-14.5 5.5t-5.5 14.5q0 10 6 17t16 7z" />
    <glyph glyph-name="uni1E44" unicode="&#x1e44;" horiz-adv-x="680" 
d="M39 0l153 660h21l283 -604l18 -40v0l12 57l136 587h16l-153 -660h-21l-283 604l-18 40v0l-12 -57l-136 -587h-16zM457 758q-9 0 -14.5 5.5t-5.5 14.5q0 10 6 17t16 7q9 0 14.5 -5.5t5.5 -14.5q0 -10 -6.5 -17t-15.5 -7z" />
    <glyph glyph-name="uni1E45" unicode="&#x1e45;" horiz-adv-x="562" 
d="M26 0l116 500h16l-33 -140l-4 1q23 63 79.5 106t144.5 43q60 0 99 -26t53.5 -74.5t-1.5 -115.5l-68 -294h-16l67 292q23 99 -16 151.5t-119 52.5q-66 0 -113.5 -27t-77 -71.5t-41.5 -96.5l-70 -301h-16zM358 598q-9 0 -14.5 5.5t-5.5 14.5q0 10 6 17t16 7q9 0 14.5 -5.5
t5.5 -14.5q0 -10 -6.5 -17t-15.5 -7z" />
    <glyph glyph-name="uni1E46" unicode="&#x1e46;" horiz-adv-x="680" 
d="M39 0l153 660h21l283 -604l18 -40v0l12 57l136 587h16l-153 -660h-21l-283 604l-18 40v0l-12 -57l-136 -587h-16zM260 -98q9 0 14.5 -5.5t5.5 -14.5q0 -10 -6.5 -17t-15.5 -7t-14.5 5.5t-5.5 14.5q0 10 6 17t16 7z" />
    <glyph glyph-name="uni1E47" unicode="&#x1e47;" horiz-adv-x="562" 
d="M26 0l116 500h16l-33 -140l-4 1q23 63 79.5 106t144.5 43q60 0 99 -26t53.5 -74.5t-1.5 -115.5l-68 -294h-16l67 292q23 99 -16 151.5t-119 52.5q-66 0 -113.5 -27t-77 -71.5t-41.5 -96.5l-70 -301h-16zM225 -98q9 0 14.5 -5.5t5.5 -14.5q0 -10 -6.5 -17t-15.5 -7
t-14.5 5.5t-5.5 14.5q0 10 6 17t16 7z" />
    <glyph glyph-name="uni1E48" unicode="&#x1e48;" horiz-adv-x="680" 
d="M39 0l153 660h21l283 -604l18 -40v0l12 57l136 587h16l-153 -660h-21l-283 604l-18 40v0l-12 -57l-136 -587h-16zM399 -105l-3 -14h-268l3 14h268z" />
    <glyph glyph-name="uni1E49" unicode="&#x1e49;" horiz-adv-x="562" 
d="M26 0l116 500h16l-33 -140l-4 1q23 63 79.5 106t144.5 43q60 0 99 -26t53.5 -74.5t-1.5 -115.5l-68 -294h-16l67 292q23 99 -16 151.5t-119 52.5q-66 0 -113.5 -27t-77 -71.5t-41.5 -96.5l-70 -301h-16zM364 -105l-3 -14h-268l3 14h268z" />
    <glyph glyph-name="uni1E4C" unicode="&#x1e4c;" horiz-adv-x="712" 
d="M344 -10q-74 0 -135.5 33.5t-97.5 98.5t-36 158q0 77 21 147t63 124.5t104.5 86.5t144.5 32q74 0 134.5 -34t96 -98.5t35.5 -157.5q0 -76 -21 -146t-62.5 -125t-103 -87t-143.5 -32zM345 4q77 0 135.5 31t98 83.5t59.5 120.5t20 141q0 89 -34 150.5t-90.5 93.5t-126.5 32
q-78 0 -137 -31t-99 -83.5t-60 -120t-20 -141.5q0 -89 34.5 -150.5t92.5 -93.5t127 -32zM604 843q-14 -44 -36.5 -64t-48.5 -20q-24 0 -39.5 10.5t-28 24t-26.5 24t-35 10.5q-29 0 -44.5 -18t-29.5 -52h-15q14 44 36 64t55 20q24 0 39.5 -10.5t27.5 -24t26 -24t35 -10.5
q23 0 40 18t30 52h14zM569 1050h20l-111 -148h-17z" />
    <glyph glyph-name="uni1E4D" unicode="&#x1e4d;" horiz-adv-x="561" 
d="M263 -9q-69 0 -117 30.5t-73 82t-25 112.5q0 86 31.5 152t88 103.5t131.5 37.5q70 0 117.5 -30.5t72 -81t24.5 -112.5q0 -85 -31.5 -151.5t-87.5 -104.5t-131 -38zM263 5q52 0 95 20t74 57.5t48 89t17 113.5q0 64 -24.5 111t-69 73t-104.5 26q-52 0 -95.5 -20
t-74.5 -57.5t-48 -88.5t-17 -113q0 -63 25 -110.5t70 -74t104 -26.5zM497 683q-14 -44 -36.5 -64t-48.5 -20q-24 0 -39.5 10.5t-28 24t-26.5 24t-35 10.5q-29 0 -44.5 -18t-29.5 -52h-15q14 44 36 64t55 20q24 0 39.5 -10.5t27.5 -24t26 -24t35 -10.5q23 0 40 18t30 52h14z
M462 890h20l-111 -148h-17z" />
    <glyph glyph-name="uni1E4E" unicode="&#x1e4e;" horiz-adv-x="712" 
d="M344 -10q-74 0 -135.5 33.5t-97.5 98.5t-36 158q0 77 21 147t63 124.5t104.5 86.5t144.5 32q74 0 134.5 -34t96 -98.5t35.5 -157.5q0 -76 -21 -146t-62.5 -125t-103 -87t-143.5 -32zM345 4q77 0 135.5 31t98 83.5t59.5 120.5t20 141q0 89 -34 150.5t-90.5 93.5t-126.5 32
q-78 0 -137 -31t-99 -83.5t-60 -120t-20 -141.5q0 -89 34.5 -150.5t92.5 -93.5t127 -32zM604 843q-14 -44 -36.5 -64t-48.5 -20q-24 0 -39.5 10.5t-28 24t-26.5 24t-35 10.5q-29 0 -44.5 -18t-29.5 -52h-15q14 44 36 64t55 20q24 0 39.5 -10.5t27.5 -24t26 -24t35 -10.5
q23 0 40 18t30 52h14zM565 917q-9 0 -14.5 5.5t-5.5 14.5q0 10 6 17t16 7t15 -5.5t5 -14.5q0 -10 -6 -17t-16 -7zM381 917q-9 0 -14.5 5.5t-5.5 14.5q0 10 6 17t16 7t15 -5.5t5 -14.5q0 -10 -6 -17t-16 -7z" />
    <glyph glyph-name="uni1E4F" unicode="&#x1e4f;" horiz-adv-x="561" 
d="M263 -9q-69 0 -117 30.5t-73 82t-25 112.5q0 86 31.5 152t88 103.5t131.5 37.5q70 0 117.5 -30.5t72 -81t24.5 -112.5q0 -85 -31.5 -151.5t-87.5 -104.5t-131 -38zM263 5q52 0 95 20t74 57.5t48 89t17 113.5q0 64 -24.5 111t-69 73t-104.5 26q-52 0 -95.5 -20
t-74.5 -57.5t-48 -88.5t-17 -113q0 -63 25 -110.5t70 -74t104 -26.5zM497 683q-14 -44 -36.5 -64t-48.5 -20q-24 0 -39.5 10.5t-28 24t-26.5 24t-35 10.5q-29 0 -44.5 -18t-29.5 -52h-15q14 44 36 64t55 20q24 0 39.5 -10.5t27.5 -24t26 -24t35 -10.5q23 0 40 18t30 52h14z
M458 757q-9 0 -14.5 5.5t-5.5 14.5q0 10 6 17t16 7t15 -5.5t5 -14.5q0 -10 -6 -17t-16 -7zM274 757q-9 0 -14.5 5.5t-5.5 14.5q0 10 6 17t16 7t15 -5.5t5 -14.5q0 -10 -6 -17t-16 -7z" />
    <glyph glyph-name="uni1E50" unicode="&#x1e50;" horiz-adv-x="712" 
d="M344 -10q-74 0 -135.5 33.5t-97.5 98.5t-36 158q0 77 21 147t63 124.5t104.5 86.5t144.5 32q74 0 134.5 -34t96 -98.5t35.5 -157.5q0 -76 -21 -146t-62.5 -125t-103 -87t-143.5 -32zM345 4q77 0 135.5 31t98 83.5t59.5 120.5t20 141q0 89 -34 150.5t-90.5 93.5t-126.5 32
q-78 0 -137 -31t-99 -83.5t-60 -120t-20 -141.5q0 -89 34.5 -150.5t92.5 -93.5t127 -32zM573 779l-3 -14h-268l3 14h268zM429 1008l42 -148h-14l-45 148h17z" />
    <glyph glyph-name="uni1E51" unicode="&#x1e51;" horiz-adv-x="561" 
d="M263 -9q-69 0 -117 30.5t-73 82t-25 112.5q0 86 31.5 152t88 103.5t131.5 37.5q70 0 117.5 -30.5t72 -81t24.5 -112.5q0 -85 -31.5 -151.5t-87.5 -104.5t-131 -38zM263 5q52 0 95 20t74 57.5t48 89t17 113.5q0 64 -24.5 111t-69 73t-104.5 26q-52 0 -95.5 -20
t-74.5 -57.5t-48 -88.5t-17 -113q0 -63 25 -110.5t70 -74t104 -26.5zM466 619l-3 -14h-268l3 14h268zM322 848l42 -148h-14l-45 148h17z" />
    <glyph glyph-name="uni1E52" unicode="&#x1e52;" horiz-adv-x="712" 
d="M344 -10q-74 0 -135.5 33.5t-97.5 98.5t-36 158q0 77 21 147t63 124.5t104.5 86.5t144.5 32q74 0 134.5 -34t96 -98.5t35.5 -157.5q0 -76 -21 -146t-62.5 -125t-103 -87t-143.5 -32zM345 4q77 0 135.5 31t98 83.5t59.5 120.5t20 141q0 89 -34 150.5t-90.5 93.5t-126.5 32
q-78 0 -137 -31t-99 -83.5t-60 -120t-20 -141.5q0 -89 34.5 -150.5t92.5 -93.5t127 -32zM573 779l-3 -14h-268l3 14h268zM562 1008h20l-111 -148h-17z" />
    <glyph glyph-name="uni1E53" unicode="&#x1e53;" horiz-adv-x="561" 
d="M263 -9q-69 0 -117 30.5t-73 82t-25 112.5q0 86 31.5 152t88 103.5t131.5 37.5q70 0 117.5 -30.5t72 -81t24.5 -112.5q0 -85 -31.5 -151.5t-87.5 -104.5t-131 -38zM263 5q52 0 95 20t74 57.5t48 89t17 113.5q0 64 -24.5 111t-69 73t-104.5 26q-52 0 -95.5 -20
t-74.5 -57.5t-48 -88.5t-17 -113q0 -63 25 -110.5t70 -74t104 -26.5zM466 619l-3 -14h-268l3 14h268zM455 848h20l-111 -148h-17z" />
    <glyph glyph-name="uni1E5A" unicode="&#x1e5a;" horiz-adv-x="606" 
d="M39 0l153 660h202q94 0 143 -43.5t49 -117.5q0 -58 -25 -104t-76 -72.5t-129 -26.5v0h-241v14h243q72 0 119 25t70 67.5t23 94.5q0 66 -43.5 107.5t-132.5 41.5h-189l-150 -646h-16zM492 0l-120 308h17l120 -308h-17zM254 -98q9 0 14.5 -5.5t5.5 -14.5q0 -10 -6.5 -17
t-15.5 -7t-14.5 5.5t-5.5 14.5q0 10 6 17t16 7z" />
    <glyph glyph-name="uni1E5B" unicode="&#x1e5b;" horiz-adv-x="338" 
d="M26 0l116 500h16l-35 -151l-5 7q19 43 45 78t62 55.5t85 20.5q18 0 34.5 -3.5t27.5 -11.5l-7 -13q-10 8 -25 11t-32 3q-51 0 -91 -27t-66.5 -71.5t-38.5 -97.5l-70 -300h-16zM7 -98q9 0 14.5 -5.5t5.5 -14.5q0 -10 -6.5 -17t-15.5 -7t-14.5 5.5t-5.5 14.5q0 10 6 17t16 7
z" />
    <glyph glyph-name="uni1E5E" unicode="&#x1e5e;" horiz-adv-x="606" 
d="M39 0l153 660h202q94 0 143 -43.5t49 -117.5q0 -58 -25 -104t-76 -72.5t-129 -26.5v0h-241v14h243q72 0 119 25t70 67.5t23 94.5q0 66 -43.5 107.5t-132.5 41.5h-189l-150 -646h-16zM492 0l-120 308h17l120 -308h-17zM393 -105l-3 -14h-268l3 14h268z" />
    <glyph glyph-name="uni1E5F" unicode="&#x1e5f;" horiz-adv-x="338" 
d="M-73 -119l3 14h160l-3 -14h-160zM26 0l116 500h16l-35 -151l-5 7q19 43 45 78t62 55.5t85 20.5q18 0 34.5 -3.5t27.5 -11.5l-7 -13q-10 8 -25 11t-32 3q-51 0 -91 -27t-66.5 -71.5t-38.5 -97.5l-70 -300h-16z" />
    <glyph glyph-name="uni1E60" unicode="&#x1e60;" horiz-adv-x="596" 
d="M301 -8q-71 0 -128.5 24.5t-93 67.5t-44.5 101l16 5q6 -54 40.5 -95.5t89 -65t120.5 -23.5q57 0 106.5 18t80.5 54.5t31 89.5q0 52 -41.5 87t-118.5 55l-78 21q-50 14 -85 37.5t-53 56.5t-18 74q0 49 26.5 87.5t77 61.5t120.5 23q90 0 154 -39.5t84 -120.5l-15 -5
q-14 52 -45 85.5t-76 49.5t-103 16q-63 0 -109.5 -21t-72 -56.5t-25.5 -79.5q0 -55 36.5 -94.5t108.5 -59.5l74 -20q85 -22 130 -61t45 -95q0 -59 -32.5 -98.5t-85.5 -59.5t-116 -20zM391 758q-9 0 -14.5 5.5t-5.5 14.5q0 10 6 17t16 7q9 0 14.5 -5.5t5.5 -14.5
q0 -10 -6.5 -17t-15.5 -7z" />
    <glyph glyph-name="uni1E61" unicode="&#x1e61;" horiz-adv-x="489" 
d="M234 -10q-62 0 -107.5 19.5t-70.5 55t-27 82.5l15 4q4 -67 52.5 -107t136.5 -40q77 0 120 35.5t43 91.5q0 39 -21.5 63t-71.5 38l-103 29q-54 15 -82 42t-28 73q0 42 22.5 71.5t62.5 45.5t90 16q74 0 126 -34t61 -110l-14 -5q-5 48 -30 78t-63 43.5t-82 13.5
q-70 0 -113.5 -32t-43.5 -85q0 -42 25.5 -65t72.5 -37l105 -30q54 -16 78.5 -42.5t24.5 -71.5q0 -41 -22 -73.5t-62 -50.5t-94 -18zM297 598q-9 0 -14.5 5.5t-5.5 14.5q0 10 6 17t16 7q9 0 14.5 -5.5t5.5 -14.5q0 -10 -6.5 -17t-15.5 -7z" />
    <glyph glyph-name="uni1E62" unicode="&#x1e62;" horiz-adv-x="596" 
d="M301 -8q-71 0 -128.5 24.5t-93 67.5t-44.5 101l16 5q6 -54 40.5 -95.5t89 -65t120.5 -23.5q57 0 106.5 18t80.5 54.5t31 89.5q0 52 -41.5 87t-118.5 55l-78 21q-50 14 -85 37.5t-53 56.5t-18 74q0 49 26.5 87.5t77 61.5t120.5 23q90 0 154 -39.5t84 -120.5l-15 -5
q-14 52 -45 85.5t-76 49.5t-103 16q-63 0 -109.5 -21t-72 -56.5t-25.5 -79.5q0 -55 36.5 -94.5t108.5 -59.5l74 -20q85 -22 130 -61t45 -95q0 -59 -32.5 -98.5t-85.5 -59.5t-116 -20zM235 -98q9 0 14.5 -5.5t5.5 -14.5q0 -10 -6.5 -17t-15.5 -7t-14.5 5.5t-5.5 14.5
q0 10 6 17t16 7z" />
    <glyph glyph-name="uni1E63" unicode="&#x1e63;" horiz-adv-x="489" 
d="M234 -10q-62 0 -107.5 19.5t-70.5 55t-27 82.5l15 4q4 -67 52.5 -107t136.5 -40q77 0 120 35.5t43 91.5q0 39 -21.5 63t-71.5 38l-103 29q-54 15 -82 42t-28 73q0 42 22.5 71.5t62.5 45.5t90 16q74 0 126 -34t61 -110l-14 -5q-5 48 -30 78t-63 43.5t-82 13.5
q-70 0 -113.5 -32t-43.5 -85q0 -42 25.5 -65t72.5 -37l105 -30q54 -16 78.5 -42.5t24.5 -71.5q0 -41 -22 -73.5t-62 -50.5t-94 -18zM182 -98q9 0 14.5 -5.5t5.5 -14.5q0 -10 -6.5 -17t-15.5 -7t-14.5 5.5t-5.5 14.5q0 10 6 17t16 7z" />
    <glyph glyph-name="uni1E64" unicode="&#x1e64;" horiz-adv-x="596" 
d="M301 -8q-71 0 -128.5 24.5t-93 67.5t-44.5 101l16 5q6 -54 40.5 -95.5t89 -65t120.5 -23.5q57 0 106.5 18t80.5 54.5t31 89.5q0 52 -41.5 87t-118.5 55l-78 21q-50 14 -85 37.5t-53 56.5t-18 74q0 49 26.5 87.5t77 61.5t120.5 23q90 0 154 -39.5t84 -120.5l-15 -5
q-14 52 -45 85.5t-76 49.5t-103 16q-63 0 -109.5 -21t-72 -56.5t-25.5 -79.5q0 -55 36.5 -94.5t108.5 -59.5l74 -20q85 -22 130 -61t45 -95q0 -59 -32.5 -98.5t-85.5 -59.5t-116 -20zM480 891h20l-111 -148h-17zM430 930q-9 0 -14.5 5.5t-5.5 14.5q0 10 6 17t16 7
q9 0 14.5 -5.5t5.5 -14.5q0 -10 -6.5 -17t-15.5 -7z" />
    <glyph glyph-name="uni1E65" unicode="&#x1e65;" horiz-adv-x="489" 
d="M234 -10q-62 0 -107.5 19.5t-70.5 55t-27 82.5l15 4q4 -67 52.5 -107t136.5 -40q77 0 120 35.5t43 91.5q0 39 -21.5 63t-71.5 38l-103 29q-54 15 -82 42t-28 73q0 42 22.5 71.5t62.5 45.5t90 16q74 0 126 -34t61 -110l-14 -5q-5 48 -30 78t-63 43.5t-82 13.5
q-70 0 -113.5 -32t-43.5 -85q0 -42 25.5 -65t72.5 -37l105 -30q54 -16 78.5 -42.5t24.5 -71.5q0 -41 -22 -73.5t-62 -50.5t-94 -18zM401 730h20l-122 -147h-17zM334 759q-9 0 -14.5 5.5t-5.5 14.5q0 10 6 17t16 7q9 0 14.5 -5.5t5.5 -14.5q0 -10 -6.5 -17t-15.5 -7z" />
    <glyph glyph-name="uni1E66" unicode="&#x1e66;" horiz-adv-x="596" 
d="M301 -8q-71 0 -128.5 24.5t-93 67.5t-44.5 101l16 5q6 -54 40.5 -95.5t89 -65t120.5 -23.5q57 0 106.5 18t80.5 54.5t31 89.5q0 52 -41.5 87t-118.5 55l-78 21q-50 14 -85 37.5t-53 56.5t-18 74q0 49 26.5 87.5t77 61.5t120.5 23q90 0 154 -39.5t84 -120.5l-15 -5
q-14 52 -45 85.5t-76 49.5t-103 16q-63 0 -109.5 -21t-72 -56.5t-25.5 -79.5q0 -55 36.5 -94.5t108.5 -59.5l74 -20q85 -22 130 -61t45 -95q0 -59 -32.5 -98.5t-85.5 -59.5t-116 -20zM375 743l-75 142h16l69 -129l130 129h19l-141 -142h-18zM429 922q-9 0 -14.5 5.5
t-5.5 14.5q0 10 6 17t16 7q9 0 14.5 -5.5t5.5 -14.5q0 -10 -6.5 -17t-15.5 -7z" />
    <glyph glyph-name="uni1E67" unicode="&#x1e67;" horiz-adv-x="489" 
d="M234 -10q-62 0 -107.5 19.5t-70.5 55t-27 82.5l15 4q4 -67 52.5 -107t136.5 -40q77 0 120 35.5t43 91.5q0 39 -21.5 63t-71.5 38l-103 29q-54 15 -82 42t-28 73q0 42 22.5 71.5t62.5 45.5t90 16q74 0 126 -34t61 -110l-14 -5q-5 48 -30 78t-63 43.5t-82 13.5
q-70 0 -113.5 -32t-43.5 -85q0 -42 25.5 -65t72.5 -37l105 -30q54 -16 78.5 -42.5t24.5 -71.5q0 -41 -22 -73.5t-62 -50.5t-94 -18zM281 583l-75 142h16l69 -129l130 129h19l-141 -142h-18zM336 770q-9 0 -14.5 5.5t-5.5 14.5q0 10 6 17t16 7q9 0 14.5 -5.5t5.5 -14.5
q0 -10 -6.5 -17t-15.5 -7z" />
    <glyph glyph-name="uni1E68" unicode="&#x1e68;" horiz-adv-x="596" 
d="M301 -8q-71 0 -128.5 24.5t-93 67.5t-44.5 101l16 5q6 -54 40.5 -95.5t89 -65t120.5 -23.5q57 0 106.5 18t80.5 54.5t31 89.5q0 52 -41.5 87t-118.5 55l-78 21q-50 14 -85 37.5t-53 56.5t-18 74q0 49 26.5 87.5t77 61.5t120.5 23q90 0 154 -39.5t84 -120.5l-15 -5
q-14 52 -45 85.5t-76 49.5t-103 16q-63 0 -109.5 -21t-72 -56.5t-25.5 -79.5q0 -55 36.5 -94.5t108.5 -59.5l74 -20q85 -22 130 -61t45 -95q0 -59 -32.5 -98.5t-85.5 -59.5t-116 -20zM391 758q-9 0 -14.5 5.5t-5.5 14.5q0 10 6 17t16 7q9 0 14.5 -5.5t5.5 -14.5
q0 -10 -6.5 -17t-15.5 -7zM235 -98q9 0 14.5 -5.5t5.5 -14.5q0 -10 -6.5 -17t-15.5 -7t-14.5 5.5t-5.5 14.5q0 10 6 17t16 7z" />
    <glyph glyph-name="uni1E69" unicode="&#x1e69;" horiz-adv-x="489" 
d="M234 -10q-62 0 -107.5 19.5t-70.5 55t-27 82.5l15 4q4 -67 52.5 -107t136.5 -40q77 0 120 35.5t43 91.5q0 39 -21.5 63t-71.5 38l-103 29q-54 15 -82 42t-28 73q0 42 22.5 71.5t62.5 45.5t90 16q74 0 126 -34t61 -110l-14 -5q-5 48 -30 78t-63 43.5t-82 13.5
q-70 0 -113.5 -32t-43.5 -85q0 -42 25.5 -65t72.5 -37l105 -30q54 -16 78.5 -42.5t24.5 -71.5q0 -41 -22 -73.5t-62 -50.5t-94 -18zM297 598q-9 0 -14.5 5.5t-5.5 14.5q0 10 6 17t16 7q9 0 14.5 -5.5t5.5 -14.5q0 -10 -6.5 -17t-15.5 -7zM182 -98q9 0 14.5 -5.5t5.5 -14.5
q0 -10 -6.5 -17t-15.5 -7t-14.5 5.5t-5.5 14.5q0 10 6 17t16 7z" />
    <glyph glyph-name="uni1E6C" unicode="&#x1e6c;" horiz-adv-x="534" 
d="M618 660l-4 -14h-247l-149 -646h-16l149 646h-249l4 14h512zM183 -98q9 0 14.5 -5.5t5.5 -14.5q0 -10 -6.5 -17t-15.5 -7t-14.5 5.5t-5.5 14.5q0 10 6 17t16 7z" />
    <glyph glyph-name="uni1E6D" unicode="&#x1e6d;" horiz-adv-x="329" 
d="M185 -10q-44 0 -70 17.5t-34 51t2 81.5l114 490l17 5l-115 -497q-14 -63 6.5 -98.5t80.5 -35.5q25 0 46 7t40 20l5 -13q-17 -13 -41.5 -20.5t-50.5 -7.5zM59 486l4 14h287l-4 -14h-287zM140 -98q9 0 14.5 -5.5t5.5 -14.5q0 -10 -6.5 -17t-15.5 -7t-14.5 5.5t-5.5 14.5
q0 10 6 17t16 7z" />
    <glyph glyph-name="uni1E6E" unicode="&#x1e6e;" horiz-adv-x="534" 
d="M618 660l-4 -14h-247l-149 -646h-16l149 646h-249l4 14h512zM322 -105l-3 -14h-268l3 14h268z" />
    <glyph glyph-name="uni1E6F" unicode="&#x1e6f;" horiz-adv-x="329" 
d="M185 -10q-44 0 -70 17.5t-34 51t2 81.5l114 490l17 5l-115 -497q-14 -63 6.5 -98.5t80.5 -35.5q25 0 46 7t40 20l5 -13q-17 -13 -41.5 -20.5t-50.5 -7.5zM59 486l4 14h287l-4 -14h-287zM279 -105l-3 -14h-268l3 14h268z" />
    <glyph glyph-name="uni1E78" unicode="&#x1e78;" horiz-adv-x="656" 
d="M307 -10q-87 0 -143 35t-75.5 99t0.5 152l90 384h16l-91 -389q-20 -84 -0.5 -144t72.5 -91.5t131 -31.5q101 0 161.5 64t88.5 182l95 410h16l-96 -415q-28 -121 -91.5 -188t-173.5 -67zM604 803q-14 -44 -36.5 -64t-48.5 -20q-24 0 -39.5 10.5t-28 24t-26.5 24t-35 10.5
q-29 0 -44.5 -18t-29.5 -52h-15q14 44 36 64t55 20q24 0 39.5 -10.5t27.5 -24t26 -24t35 -10.5q23 0 40 18t30 52h14zM569 1010h20l-111 -148h-17z" />
    <glyph glyph-name="uni1E79" unicode="&#x1e79;" horiz-adv-x="562" 
d="M227 -10q-65 0 -106.5 25.5t-55.5 75t2 119.5l67 290h16l-67 -292q-23 -100 17.5 -152t127.5 -52q61 0 106.5 27t74.5 71.5t41 96.5l70 301h16l-116 -500h-16l33 140l4 -1q-26 -65 -80 -107t-134 -42zM508 663q-14 -44 -36.5 -64t-48.5 -20q-24 0 -39.5 10.5t-28 24
t-26.5 24t-35 10.5q-29 0 -44.5 -18t-29.5 -52h-15q14 44 36 64t55 20q24 0 39.5 -10.5t27.5 -24t26 -24t35 -10.5q23 0 40 18t30 52h14zM473 870h20l-111 -148h-17z" />
    <glyph glyph-name="uni1E7A" unicode="&#x1e7a;" horiz-adv-x="656" 
d="M307 -10q-87 0 -143 35t-75.5 99t0.5 152l90 384h16l-91 -389q-20 -84 -0.5 -144t72.5 -91.5t131 -31.5q101 0 161.5 64t88.5 182l95 410h16l-96 -415q-28 -121 -91.5 -188t-173.5 -67zM573 739l-3 -14h-268l3 14h268zM558 835q-9 0 -14.5 5.5t-5.5 14.5q0 10 6 17t16 7
t15 -5.5t5 -14.5q0 -10 -6 -17t-16 -7zM374 835q-9 0 -14.5 5.5t-5.5 14.5q0 10 6 17t16 7t15 -5.5t5 -14.5q0 -10 -6 -17t-16 -7z" />
    <glyph glyph-name="uni1E7B" unicode="&#x1e7b;" horiz-adv-x="562" 
d="M227 -10q-65 0 -106.5 25.5t-55.5 75t2 119.5l67 290h16l-67 -292q-23 -100 17.5 -152t127.5 -52q61 0 106.5 27t74.5 71.5t41 96.5l70 301h16l-116 -500h-16l33 140l4 -1q-26 -65 -80 -107t-134 -42zM477 599l-3 -14h-268l3 14h268zM462 695q-9 0 -14.5 5.5t-5.5 14.5
q0 10 6 17t16 7t15 -5.5t5 -14.5q0 -10 -6 -17t-16 -7zM278 695q-9 0 -14.5 5.5t-5.5 14.5q0 10 6 17t16 7t15 -5.5t5 -14.5q0 -10 -6 -17t-16 -7z" />
    <glyph glyph-name="Wgrave" unicode="&#x1e80;" horiz-adv-x="892" 
d="M179 0l-61 660h16l59 -641l335 641h23l38 -642l357 642h18l-367 -660h-22l-31 514l-8 127h-1l-71 -139l-265 -502h-20zM523 891l42 -148h-14l-45 148h17z" />
    <glyph glyph-name="wgrave" unicode="&#x1e81;" horiz-adv-x="763" 
d="M133 0l-47 500h16l44 -476l285 476h16l64 -475l264 475h18l-279 -500h-16l-64 474l-284 -474h-17zM413 730l52 -147h-14l-55 147h17z" />
    <glyph glyph-name="Wacute" unicode="&#x1e82;" horiz-adv-x="892" 
d="M179 0l-61 660h16l59 -641l335 641h23l38 -642l357 642h18l-367 -660h-22l-31 514l-8 127h-1l-71 -139l-265 -502h-20zM656 891h20l-111 -148h-17z" />
    <glyph glyph-name="wacute" unicode="&#x1e83;" horiz-adv-x="763" 
d="M133 0l-47 500h16l44 -476l285 476h16l64 -475l264 475h18l-279 -500h-16l-64 474l-284 -474h-17zM570 730h20l-122 -147h-17z" />
    <glyph glyph-name="Wdieresis" unicode="&#x1e84;" horiz-adv-x="892" 
d="M179 0l-61 660h16l59 -641l335 641h23l38 -642l357 642h18l-367 -660h-22l-31 514l-8 127h-1l-71 -139l-265 -502h-20zM652 758q-9 0 -14.5 5.5t-5.5 14.5q0 10 6 17t16 7t15 -5.5t5 -14.5q0 -10 -6 -17t-16 -7zM468 758q-9 0 -14.5 5.5t-5.5 14.5q0 10 6 17t16 7
t15 -5.5t5 -14.5q0 -10 -6 -17t-16 -7z" />
    <glyph glyph-name="wdieresis" unicode="&#x1e85;" horiz-adv-x="763" 
d="M133 0l-47 500h16l44 -476l285 476h16l64 -475l264 475h18l-279 -500h-16l-64 474l-284 -474h-17zM551 598q-9 0 -14.5 5.5t-5.5 14.5q0 10 6 17t16 7t15 -5.5t5 -14.5q0 -10 -6 -17t-16 -7zM367 598q-9 0 -14.5 5.5t-5.5 14.5q0 10 6 17t16 7t15 -5.5t5 -14.5
q0 -10 -6 -17t-16 -7z" />
    <glyph glyph-name="uni1E8E" unicode="&#x1e8e;" horiz-adv-x="503" 
d="M185 0l59 255l-133 405h17l79 -241l48 -147l125 159l182 229h20l-322 -405l-59 -255h-16zM362 718q-9 0 -14.5 5.5t-5.5 14.5q0 10 6 17t16 7q9 0 14.5 -5.5t5.5 -14.5q0 -10 -6.5 -17t-15.5 -7z" />
    <glyph glyph-name="uni1E8F" unicode="&#x1e8f;" horiz-adv-x="472" 
d="M-31 -215q-26 0 -45.5 8t-27.5 24l12 10q18 -28 63 -28q38 0 71 25t70 84l58 92l-91 500h16l81 -444l6 -39l28 45l279 438h19l-383 -601q-26 -42 -50.5 -67t-49.5 -36t-56 -11zM310 578q-9 0 -14.5 5.5t-5.5 14.5q0 10 6 17t16 7q9 0 14.5 -5.5t5.5 -14.5q0 -10 -6.5 -17
t-15.5 -7z" />
    <glyph glyph-name="uni1E92" unicode="&#x1e92;" horiz-adv-x="542" 
d="M-29 0l3 14l590 632h-443l3 14h464l-3 -14l-590 -632h469l-4 -14h-489zM215 -98q9 0 14.5 -5.5t5.5 -14.5q0 -10 -6.5 -17t-15.5 -7t-14.5 5.5t-5.5 14.5q0 10 6 17t16 7z" />
    <glyph glyph-name="uni1E93" unicode="&#x1e93;" horiz-adv-x="464" 
d="M-19 0l3 14l425 427l47 45h-65h-301l3 14h387l-3 -14l-401 -403l-70 -69h80h296l-3 -14h-398zM177 -98q9 0 14.5 -5.5t5.5 -14.5q0 -10 -6.5 -17t-15.5 -7t-14.5 5.5t-5.5 14.5q0 10 6 17t16 7z" />
    <glyph glyph-name="uni1E97" unicode="&#x1e97;" horiz-adv-x="329" 
d="M185 -10q-44 0 -70 17.5t-34 51t2 81.5l114 490l17 5l-115 -497q-14 -63 6.5 -98.5t80.5 -35.5q25 0 46 7t40 20l5 -13q-17 -13 -41.5 -20.5t-50.5 -7.5zM59 486l4 14h287l-4 -14h-287zM309 700q-9 0 -14.5 5.5t-5.5 14.5q0 10 6 17t16 7t15 -5.5t5 -14.5q0 -10 -6 -17
t-16 -7zM125 700q-9 0 -14.5 5.5t-5.5 14.5q0 10 6 17t16 7t15 -5.5t5 -14.5q0 -10 -6 -17t-16 -7z" />
    <glyph glyph-name="uni1E9E" unicode="&#x1e9e;" horiz-adv-x="626" 
d="M370 -5q-49 0 -88 18t-62 49l12 11q21 -30 58 -47t80 -17q60 0 103 23.5t66 63.5t23 90q0 80 -47 117t-132 37h-61l3 13l307 293h-271q-64 0 -106 -23.5t-66.5 -64.5t-37.5 -95l-107 -463h-16l108 469q13 56 40 99t72.5 67.5t113.5 24.5h294l-3 -15l-306 -291h38
q60 0 103.5 -18t66.5 -55t23 -95q0 -55 -25 -98t-71.5 -68t-111.5 -25z" />
    <glyph glyph-name="uni1EA0" unicode="&#x1ea0;" horiz-adv-x="575" 
d="M-46 0l418 660h21l112 -660h-16l-102 595l-8 47v0l-27 -45l-379 -597h-19zM112 236l4 14h342l-4 -14h-342zM224 -98q9 0 14.5 -5.5t5.5 -14.5q0 -10 -6.5 -17t-15.5 -7t-14.5 5.5t-5.5 14.5q0 10 6 17t16 7z" />
    <glyph glyph-name="uni1EA1" unicode="&#x1ea1;" horiz-adv-x="582" 
d="M253 -10q-64 0 -110 29.5t-70.5 80.5t-24.5 117q0 62 17.5 115t51 93t81 62.5t106.5 22.5q62 0 105 -24.5t66 -68.5t22 -101l43 184h16l-116 -500h-16l29 126q-27 -57 -76 -96.5t-124 -39.5zM257 4q53 0 95 26t72 69.5t46 96t16 106.5q0 70 -26 112.5t-67.5 62
t-89.5 19.5q-54 0 -97.5 -20.5t-75.5 -58t-49 -88.5t-17 -113q0 -67 25.5 -114.5t69.5 -72.5t98 -25zM215 -98q9 0 14.5 -5.5t5.5 -14.5q0 -10 -6.5 -17t-15.5 -7t-14.5 5.5t-5.5 14.5q0 10 6 17t16 7z" />
    <glyph glyph-name="uni1EA2" unicode="&#x1ea2;" horiz-adv-x="575" 
d="M-46 0l418 660h21l112 -660h-16l-102 595l-8 47v0l-27 -45l-379 -597h-19zM112 236l4 14h342l-4 -14h-342zM383 715l-4 12q35 6 54.5 24.5t19.5 44.5q0 25 -13.5 36.5t-33.5 11.5t-33.5 -8.5t-23.5 -27.5l-12 10q11 20 28 31t42 11q23 0 42.5 -14.5t19.5 -46.5
q0 -21 -10.5 -39t-30 -29.5t-45.5 -15.5z" />
    <glyph glyph-name="uni1EA3" unicode="&#x1ea3;" horiz-adv-x="582" 
d="M253 -10q-64 0 -110 29.5t-70.5 80.5t-24.5 117q0 62 17.5 115t51 93t81 62.5t106.5 22.5q62 0 105 -24.5t66 -68.5t22 -101l43 184h16l-116 -500h-16l29 126q-27 -57 -76 -96.5t-124 -39.5zM257 4q53 0 95 26t72 69.5t46 96t16 106.5q0 70 -26 112.5t-67.5 62
t-89.5 19.5q-54 0 -97.5 -20.5t-75.5 -58t-49 -88.5t-17 -113q0 -67 25.5 -114.5t69.5 -72.5t98 -25zM324 580l-5 12q34 8 55 26.5t21 49.5q0 20 -11.5 32t-33.5 12q-20 0 -33 -9t-24 -24l-10 11q10 15 27 26.5t41 11.5q29 0 45 -17t16 -42q0 -23 -11 -41.5t-31 -30.5
t-46 -17z" />
    <glyph glyph-name="uni1EA4" unicode="&#x1ea4;" horiz-adv-x="575" 
d="M280 743l141 142h18l75 -142h-16l-69 129l-130 -129h-19zM609 988h18l-100 -133h-15zM-46 0l418 660h21l112 -660h-16l-102 595l-8 47v0l-27 -45l-379 -597h-19zM112 236l4 14h342l-4 -14h-342z" />
    <glyph glyph-name="uni1EA5" unicode="&#x1ea5;" horiz-adv-x="582" 
d="M217 583l141 142h18l75 -142h-16l-69 129l-130 -129h-19zM546 828h18l-100 -133h-15zM253 -10q-64 0 -110 29.5t-70.5 80.5t-24.5 117q0 62 17.5 115t51 93t81 62.5t106.5 22.5q62 0 105 -24.5t66 -68.5t22 -101l43 184h16l-116 -500h-16l29 126q-27 -57 -76 -96.5
t-124 -39.5zM257 4q53 0 95 26t72 69.5t46 96t16 106.5q0 70 -26 112.5t-67.5 62t-89.5 19.5q-54 0 -97.5 -20.5t-75.5 -58t-49 -88.5t-17 -113q0 -67 25.5 -114.5t69.5 -72.5t98 -25z" />
    <glyph glyph-name="uni1EA6" unicode="&#x1ea6;" horiz-adv-x="575" 
d="M281 743l141 142h18l75 -142h-16l-69 129l-130 -129h-19zM497 988l38 -133h-12l-41 133h15zM-46 0l418 660h21l112 -660h-16l-102 595l-8 47v0l-27 -45l-379 -597h-19zM112 236l4 14h342l-4 -14h-342z" />
    <glyph glyph-name="uni1EA7" unicode="&#x1ea7;" horiz-adv-x="582" 
d="M217 583l141 142h18l75 -142h-16l-69 129l-130 -129h-19zM433 828l38 -133h-12l-41 133h15zM253 -10q-64 0 -110 29.5t-70.5 80.5t-24.5 117q0 62 17.5 115t51 93t81 62.5t106.5 22.5q62 0 105 -24.5t66 -68.5t22 -101l43 184h16l-116 -500h-16l29 126q-27 -57 -76 -96.5
t-124 -39.5zM257 4q53 0 95 26t72 69.5t46 96t16 106.5q0 70 -26 112.5t-67.5 62t-89.5 19.5q-54 0 -97.5 -20.5t-75.5 -58t-49 -88.5t-17 -113q0 -67 25.5 -114.5t69.5 -72.5t98 -25z" />
    <glyph glyph-name="uni1EA8" unicode="&#x1ea8;" horiz-adv-x="575" 
d="M281 743l141 142h18l75 -142h-16l-69 129l-130 -129h-19zM505 835l-4 12q35 6 54.5 24.5t19.5 44.5q0 25 -13.5 36.5t-33.5 11.5t-33.5 -8.5t-23.5 -27.5l-12 10q11 20 28 31t42 11q23 0 42.5 -14.5t19.5 -46.5q0 -21 -10.5 -39t-30 -29.5t-45.5 -15.5zM-46 0l418 660h21
l112 -660h-16l-102 595l-8 47v0l-27 -45l-379 -597h-19zM112 236l4 14h342l-4 -14h-342z" />
    <glyph glyph-name="uni1EA9" unicode="&#x1ea9;" horiz-adv-x="582" 
d="M217 583l141 142h18l75 -142h-16l-69 129l-130 -129h-19zM441 675l-4 12q35 6 54.5 24.5t19.5 44.5q0 25 -13.5 36.5t-33.5 11.5t-33.5 -8.5t-23.5 -27.5l-12 10q11 20 28 31t42 11q23 0 42.5 -14.5t19.5 -46.5q0 -21 -10.5 -39t-30 -29.5t-45.5 -15.5zM253 -10
q-64 0 -110 29.5t-70.5 80.5t-24.5 117q0 62 17.5 115t51 93t81 62.5t106.5 22.5q62 0 105 -24.5t66 -68.5t22 -101l43 184h16l-116 -500h-16l29 126q-27 -57 -76 -96.5t-124 -39.5zM257 4q53 0 95 26t72 69.5t46 96t16 106.5q0 70 -26 112.5t-67.5 62t-89.5 19.5
q-54 0 -97.5 -20.5t-75.5 -58t-49 -88.5t-17 -113q0 -67 25.5 -114.5t69.5 -72.5t98 -25z" />
    <glyph glyph-name="uni1EAA" unicode="&#x1eaa;" horiz-adv-x="575" 
d="M282 743l141 142h18l75 -142h-16l-69 129l-130 -129h-19zM595 994q-12 -47 -34.5 -65t-49.5 -18q-24 0 -40 10.5t-28.5 24t-26.5 24t-35 10.5q-25 0 -43.5 -17t-28.5 -52h-16q14 44 36.5 63.5t53.5 19.5q24 0 40 -10.5t28 -24t26 -24t35 -10.5q23 0 40.5 16t27.5 53h15z
M-46 0l418 660h21l112 -660h-16l-102 595l-8 47v0l-27 -45l-379 -597h-19zM112 236l4 14h342l-4 -14h-342z" />
    <glyph glyph-name="uni1EAB" unicode="&#x1eab;" horiz-adv-x="582" 
d="M216 583l141 142h18l75 -142h-16l-69 129l-130 -129h-19zM529 834q-12 -47 -34.5 -65t-49.5 -18q-24 0 -40 10.5t-28.5 24t-26.5 24t-35 10.5q-25 0 -43.5 -17t-28.5 -52h-16q14 44 36.5 63.5t53.5 19.5q24 0 40 -10.5t28 -24t26 -24t35 -10.5q23 0 40.5 16t27.5 53h15z
M253 -10q-64 0 -110 29.5t-70.5 80.5t-24.5 117q0 62 17.5 115t51 93t81 62.5t106.5 22.5q62 0 105 -24.5t66 -68.5t22 -101l43 184h16l-116 -500h-16l29 126q-27 -57 -76 -96.5t-124 -39.5zM257 4q53 0 95 26t72 69.5t46 96t16 106.5q0 70 -26 112.5t-67.5 62t-89.5 19.5
q-54 0 -97.5 -20.5t-75.5 -58t-49 -88.5t-17 -113q0 -67 25.5 -114.5t69.5 -72.5t98 -25z" />
    <glyph glyph-name="uni1EAC" unicode="&#x1eac;" horiz-adv-x="575" 
d="M-46 0l418 660h21l112 -660h-16l-102 595l-8 47v0l-27 -45l-379 -597h-19zM112 236l4 14h342l-4 -14h-342zM224 -98q9 0 14.5 -5.5t5.5 -14.5q0 -10 -6.5 -17t-15.5 -7t-14.5 5.5t-5.5 14.5q0 10 6 17t16 7zM440 885l75 -142h-16l-69 129l-130 -129h-19l141 142h18z" />
    <glyph glyph-name="uni1EAD" unicode="&#x1ead;" horiz-adv-x="582" 
d="M253 -10q-64 0 -110 29.5t-70.5 80.5t-24.5 117q0 62 17.5 115t51 93t81 62.5t106.5 22.5q62 0 105 -24.5t66 -68.5t22 -101l43 184h16l-116 -500h-16l29 126q-27 -57 -76 -96.5t-124 -39.5zM257 4q53 0 95 26t72 69.5t46 96t16 106.5q0 70 -26 112.5t-67.5 62
t-89.5 19.5q-54 0 -97.5 -20.5t-75.5 -58t-49 -88.5t-17 -113q0 -67 25.5 -114.5t69.5 -72.5t98 -25zM215 -98q9 0 14.5 -5.5t5.5 -14.5q0 -10 -6.5 -17t-15.5 -7t-14.5 5.5t-5.5 14.5q0 10 6 17t16 7zM217 583l141 142h18l75 -142h-16l-69 129l-130 -129h-19z" />
    <glyph glyph-name="uni1EAE" unicode="&#x1eae;" horiz-adv-x="575" 
d="M547 862q-11 -64 -49.5 -92.5t-92.5 -28.5q-49 0 -76.5 24t-27.5 65q0 19 3 32h13q-1 -7 -2 -14.5t-1 -14.5q0 -36 25.5 -57t66.5 -21q51 0 84.5 28.5t42.5 78.5h14zM418 863l95 137h18l-97 -137h-16zM-46 0l418 660h21l112 -660h-16l-102 595l-8 47v0l-27 -45l-379 -597
h-19zM112 236l4 14h342l-4 -14h-342z" />
    <glyph glyph-name="uni1EAF" unicode="&#x1eaf;" horiz-adv-x="582" 
d="M482 702q-11 -64 -49.5 -92.5t-92.5 -28.5q-49 0 -76.5 24t-27.5 65q0 19 3 32h13q-1 -7 -2 -14.5t-1 -14.5q0 -36 25.5 -57t66.5 -21q51 0 84.5 28.5t42.5 78.5h14zM353 703l95 137h18l-97 -137h-16zM253 -10q-64 0 -110 29.5t-70.5 80.5t-24.5 117q0 62 17.5 115t51 93
t81 62.5t106.5 22.5q62 0 105 -24.5t66 -68.5t22 -101l43 184h16l-116 -500h-16l29 126q-27 -57 -76 -96.5t-124 -39.5zM257 4q53 0 95 26t72 69.5t46 96t16 106.5q0 70 -26 112.5t-67.5 62t-89.5 19.5q-54 0 -97.5 -20.5t-75.5 -58t-49 -88.5t-17 -113q0 -67 25.5 -114.5
t69.5 -72.5t98 -25z" />
    <glyph glyph-name="uni1EB0" unicode="&#x1eb0;" horiz-adv-x="575" 
d="M547 862q-11 -64 -49.5 -92.5t-92.5 -28.5q-49 0 -76.5 24t-27.5 65q0 19 3 32h13q-1 -7 -2 -14.5t-1 -14.5q0 -36 25.5 -57t66.5 -21q51 0 84.5 28.5t42.5 78.5h14zM423 863l-51 137h17l48 -137h-14zM-46 0l418 660h21l112 -660h-16l-102 595l-8 47v0l-27 -45l-379 -597
h-19zM112 236l4 14h342l-4 -14h-342z" />
    <glyph glyph-name="uni1EB1" unicode="&#x1eb1;" horiz-adv-x="582" 
d="M482 702q-11 -64 -49.5 -92.5t-92.5 -28.5q-49 0 -76.5 24t-27.5 65q0 19 3 32h13q-1 -7 -2 -14.5t-1 -14.5q0 -36 25.5 -57t66.5 -21q51 0 84.5 28.5t42.5 78.5h14zM358 703l-51 137h17l48 -137h-14zM253 -10q-64 0 -110 29.5t-70.5 80.5t-24.5 117q0 62 17.5 115t51 93
t81 62.5t106.5 22.5q62 0 105 -24.5t66 -68.5t22 -101l43 184h16l-116 -500h-16l29 126q-27 -57 -76 -96.5t-124 -39.5zM257 4q53 0 95 26t72 69.5t46 96t16 106.5q0 70 -26 112.5t-67.5 62t-89.5 19.5q-54 0 -97.5 -20.5t-75.5 -58t-49 -88.5t-17 -113q0 -67 25.5 -114.5
t69.5 -72.5t98 -25z" />
    <glyph glyph-name="uni1EB2" unicode="&#x1eb2;" horiz-adv-x="575" 
d="M547 862q-11 -64 -49.5 -92.5t-92.5 -28.5q-49 0 -76.5 24t-27.5 65q0 19 3 32h13q-1 -7 -2 -14.5t-1 -14.5q0 -36 25.5 -57t66.5 -21q51 0 84.5 28.5t42.5 78.5h14zM416 857l-4 12q35 6 54.5 24.5t19.5 44.5q0 25 -13.5 36.5t-33.5 11.5t-33.5 -8.5t-23.5 -27.5l-12 10
q11 20 28 31t42 11q23 0 42.5 -14.5t19.5 -46.5q0 -21 -10.5 -39t-30 -29.5t-45.5 -15.5zM-46 0l418 660h21l112 -660h-16l-102 595l-8 47v0l-27 -45l-379 -597h-19zM112 236l4 14h342l-4 -14h-342z" />
    <glyph glyph-name="uni1EB3" unicode="&#x1eb3;" horiz-adv-x="582" 
d="M482 702q-11 -64 -49.5 -92.5t-92.5 -28.5q-49 0 -76.5 24t-27.5 65q0 19 3 32h13q-1 -7 -2 -14.5t-1 -14.5q0 -36 25.5 -57t66.5 -21q51 0 84.5 28.5t42.5 78.5h14zM351 697l-4 12q35 6 54.5 24.5t19.5 44.5q0 25 -13.5 36.5t-33.5 11.5t-33.5 -8.5t-23.5 -27.5l-12 10
q11 20 28 31t42 11q23 0 42.5 -14.5t19.5 -46.5q0 -21 -10.5 -39t-30 -29.5t-45.5 -15.5zM253 -10q-64 0 -110 29.5t-70.5 80.5t-24.5 117q0 62 17.5 115t51 93t81 62.5t106.5 22.5q62 0 105 -24.5t66 -68.5t22 -101l43 184h16l-116 -500h-16l29 126q-27 -57 -76 -96.5
t-124 -39.5zM257 4q53 0 95 26t72 69.5t46 96t16 106.5q0 70 -26 112.5t-67.5 62t-89.5 19.5q-54 0 -97.5 -20.5t-75.5 -58t-49 -88.5t-17 -113q0 -67 25.5 -114.5t69.5 -72.5t98 -25z" />
    <glyph glyph-name="uni1EB4" unicode="&#x1eb4;" horiz-adv-x="575" 
d="M547 862q-11 -64 -49.5 -92.5t-92.5 -28.5q-49 0 -76.5 24t-27.5 65q0 19 3 32h13q-1 -7 -2 -14.5t-1 -14.5q0 -36 25.5 -57t66.5 -21q51 0 84.5 28.5t42.5 78.5h14zM593 984q-12 -47 -34.5 -65t-49.5 -18q-24 0 -40 10.5t-28.5 24t-26.5 24t-35 10.5q-25 0 -43.5 -17
t-28.5 -52h-16q14 44 36.5 63.5t53.5 19.5q24 0 40 -10.5t28 -24t26 -24t35 -10.5q23 0 40.5 16t27.5 53h15zM-46 0l418 660h21l112 -660h-16l-102 595l-8 47v0l-27 -45l-379 -597h-19zM112 236l4 14h342l-4 -14h-342z" />
    <glyph glyph-name="uni1EB5" unicode="&#x1eb5;" horiz-adv-x="582" 
d="M481 702q-11 -64 -49.5 -92.5t-92.5 -28.5q-49 0 -76.5 24t-27.5 65q0 19 3 32h13q-1 -7 -2 -14.5t-1 -14.5q0 -36 25.5 -57t66.5 -21q51 0 84.5 28.5t42.5 78.5h14zM527 824q-12 -47 -34.5 -65t-49.5 -18q-24 0 -40 10.5t-28.5 24t-26.5 24t-35 10.5q-25 0 -43.5 -17
t-28.5 -52h-16q14 44 36.5 63.5t53.5 19.5q24 0 40 -10.5t28 -24t26 -24t35 -10.5q23 0 40.5 16t27.5 53h15zM253 -10q-64 0 -110 29.5t-70.5 80.5t-24.5 117q0 62 17.5 115t51 93t81 62.5t106.5 22.5q62 0 105 -24.5t66 -68.5t22 -101l43 184h16l-116 -500h-16l29 126
q-27 -57 -76 -96.5t-124 -39.5zM257 4q53 0 95 26t72 69.5t46 96t16 106.5q0 70 -26 112.5t-67.5 62t-89.5 19.5q-54 0 -97.5 -20.5t-75.5 -58t-49 -88.5t-17 -113q0 -67 25.5 -114.5t69.5 -72.5t98 -25z" />
    <glyph glyph-name="uni1EB6" unicode="&#x1eb6;" horiz-adv-x="575" 
d="M-46 0l418 660h21l112 -660h-16l-102 595l-8 47v0l-27 -45l-379 -597h-19zM112 236l4 14h342l-4 -14h-342zM224 -98q9 0 14.5 -5.5t5.5 -14.5q0 -10 -6.5 -17t-15.5 -7t-14.5 5.5t-5.5 14.5q0 10 6 17t16 7zM547 862q-11 -64 -49.5 -92.5t-92.5 -28.5q-49 0 -76.5 24
t-27.5 65q0 8 1 16.5t2 15.5h13q-1 -7 -2 -14.5t-1 -14.5q0 -36 25.5 -57t66.5 -21q51 0 84.5 28.5t42.5 78.5h14z" />
    <glyph glyph-name="uni1EB7" unicode="&#x1eb7;" horiz-adv-x="582" 
d="M253 -10q-64 0 -110 29.5t-70.5 80.5t-24.5 117q0 62 17.5 115t51 93t81 62.5t106.5 22.5q62 0 105 -24.5t66 -68.5t22 -101l43 184h16l-116 -500h-16l29 126q-27 -57 -76 -96.5t-124 -39.5zM257 4q53 0 95 26t72 69.5t46 96t16 106.5q0 70 -26 112.5t-67.5 62
t-89.5 19.5q-54 0 -97.5 -20.5t-75.5 -58t-49 -88.5t-17 -113q0 -67 25.5 -114.5t69.5 -72.5t98 -25zM215 -98q9 0 14.5 -5.5t5.5 -14.5q0 -10 -6.5 -17t-15.5 -7t-14.5 5.5t-5.5 14.5q0 10 6 17t16 7zM482 702q-11 -64 -49.5 -92.5t-92.5 -28.5q-49 0 -76.5 24t-27.5 65
q0 8 1 16.5t2 15.5h13q-1 -7 -2 -14.5t-1 -14.5q0 -36 25.5 -57t66.5 -21q51 0 84.5 28.5t42.5 78.5h14z" />
    <glyph glyph-name="uni1EB8" unicode="&#x1eb8;" horiz-adv-x="572" 
d="M39 0l153 660h426l-4 -14h-410l-69 -302h331l-4 -14h-331l-72 -316h428l-3 -14h-445zM256 -98q9 0 14.5 -5.5t5.5 -14.5q0 -10 -6.5 -17t-15.5 -7t-14.5 5.5t-5.5 14.5q0 10 6 17t16 7z" />
    <glyph glyph-name="uni1EB9" unicode="&#x1eb9;" horiz-adv-x="527" 
d="M260 -9q-68 0 -116 30.5t-72.5 82t-24.5 113.5q0 78 29.5 144.5t85.5 107t135 40.5q58 0 100 -27t64.5 -73t22.5 -104q0 -10 -0.5 -22t-2.5 -23h-423v14h413l-5 -3q1 8 1.5 16t0.5 15q0 53 -20 97t-58.5 70t-94.5 26q-53 0 -96 -21.5t-73.5 -59.5t-46.5 -88.5t-16 -108.5
q0 -61 24 -109t68 -75.5t105 -27.5q63 0 112 30.5t77 78.5l13 -8q-20 -32 -49.5 -58.5t-67.5 -41.5t-85 -15zM226 -98q9 0 14.5 -5.5t5.5 -14.5q0 -10 -6.5 -17t-15.5 -7t-14.5 5.5t-5.5 14.5q0 10 6 17t16 7z" />
    <glyph glyph-name="uni1EBA" unicode="&#x1eba;" horiz-adv-x="572" 
d="M39 0l153 660h426l-4 -14h-410l-69 -302h331l-4 -14h-331l-72 -316h428l-3 -14h-445zM399 715l-4 12q35 6 54.5 24.5t19.5 44.5q0 25 -13.5 36.5t-33.5 11.5t-33.5 -8.5t-23.5 -27.5l-12 10q11 20 28 31t42 11q23 0 42.5 -14.5t19.5 -46.5q0 -21 -10.5 -39t-30 -29.5
t-45.5 -15.5z" />
    <glyph glyph-name="uni1EBB" unicode="&#x1ebb;" horiz-adv-x="527" 
d="M260 -9q-68 0 -116 30.5t-72.5 82t-24.5 113.5q0 78 29.5 144.5t85.5 107t135 40.5q58 0 100 -27t64.5 -73t22.5 -104q0 -10 -0.5 -22t-2.5 -23h-423v14h413l-5 -3q1 8 1.5 16t0.5 15q0 53 -20 97t-58.5 70t-94.5 26q-53 0 -96 -21.5t-73.5 -59.5t-46.5 -88.5t-16 -108.5
q0 -61 24 -109t68 -75.5t105 -27.5q63 0 112 30.5t77 78.5l13 -8q-20 -32 -49.5 -58.5t-67.5 -41.5t-85 -15zM308 580l-5 12q34 8 55 26.5t21 49.5q0 20 -11.5 32t-33.5 12q-20 0 -33 -9t-24 -24l-10 11q10 15 27 26.5t41 11.5q29 0 45 -17t16 -42q0 -23 -11 -41.5
t-31 -30.5t-46 -17z" />
    <glyph glyph-name="uni1EBC" unicode="&#x1ebc;" horiz-adv-x="572" 
d="M39 0l153 660h426l-4 -14h-410l-69 -302h331l-4 -14h-331l-72 -316h428l-3 -14h-445zM580 843q-14 -44 -36.5 -64t-48.5 -20q-24 0 -39.5 10.5t-28 24t-26.5 24t-35 10.5q-29 0 -44.5 -18t-29.5 -52h-15q14 44 36 64t55 20q24 0 39.5 -10.5t27.5 -24t26 -24t35 -10.5
q23 0 40 18t30 52h14z" />
    <glyph glyph-name="uni1EBD" unicode="&#x1ebd;" horiz-adv-x="527" 
d="M260 -9q-68 0 -116 30.5t-72.5 82t-24.5 113.5q0 78 29.5 144.5t85.5 107t135 40.5q58 0 100 -27t64.5 -73t22.5 -104q0 -10 -0.5 -22t-2.5 -23h-423v14h413l-5 -3q1 8 1.5 16t0.5 15q0 53 -20 97t-58.5 70t-94.5 26q-53 0 -96 -21.5t-73.5 -59.5t-46.5 -88.5t-16 -108.5
q0 -61 24 -109t68 -75.5t105 -27.5q63 0 112 30.5t77 78.5l13 -8q-20 -32 -49.5 -58.5t-67.5 -41.5t-85 -15zM483 683q-14 -44 -36.5 -64t-48.5 -20q-24 0 -39.5 10.5t-28 24t-26.5 24t-35 10.5q-29 0 -44.5 -18t-29.5 -52h-15q14 44 36 64t55 20q24 0 39.5 -10.5t27.5 -24
t26 -24t35 -10.5q23 0 40 18t30 52h14z" />
    <glyph glyph-name="uni1EBE" unicode="&#x1ebe;" horiz-adv-x="572" 
d="M296 743l141 142h18l75 -142h-16l-69 129l-130 -129h-19zM625 988h18l-100 -133h-15zM39 0l153 660h426l-4 -14h-410l-69 -302h331l-4 -14h-331l-72 -316h428l-3 -14h-445z" />
    <glyph glyph-name="uni1EBF" unicode="&#x1ebf;" horiz-adv-x="527" 
d="M530 828h18l-100 -133h-15zM201 583l141 142h18l75 -142h-16l-69 129l-130 -129h-19zM260 -9q-68 0 -116 30.5t-72.5 82t-24.5 113.5q0 78 29.5 144.5t85.5 107t135 40.5q58 0 100 -27t64.5 -73t22.5 -104q0 -10 -0.5 -22t-2.5 -23h-423v14h413l-5 -3q1 8 1.5 16t0.5 15
q0 53 -20 97t-58.5 70t-94.5 26q-53 0 -96 -21.5t-73.5 -59.5t-46.5 -88.5t-16 -108.5q0 -61 24 -109t68 -75.5t105 -27.5q63 0 112 30.5t77 78.5l13 -8q-20 -32 -49.5 -58.5t-67.5 -41.5t-85 -15z" />
    <glyph glyph-name="uni1EC0" unicode="&#x1ec0;" horiz-adv-x="572" 
d="M297 743l141 142h18l75 -142h-16l-69 129l-130 -129h-19zM513 988l38 -133h-12l-41 133h15zM39 0l153 660h426l-4 -14h-410l-69 -302h331l-4 -14h-331l-72 -316h428l-3 -14h-445z" />
    <glyph glyph-name="uni1EC1" unicode="&#x1ec1;" horiz-adv-x="527" 
d="M417 828l38 -133h-12l-41 133h15zM201 583l141 142h18l75 -142h-16l-69 129l-130 -129h-19zM260 -9q-68 0 -116 30.5t-72.5 82t-24.5 113.5q0 78 29.5 144.5t85.5 107t135 40.5q58 0 100 -27t64.5 -73t22.5 -104q0 -10 -0.5 -22t-2.5 -23h-423v14h413l-5 -3q1 8 1.5 16
t0.5 15q0 53 -20 97t-58.5 70t-94.5 26q-53 0 -96 -21.5t-73.5 -59.5t-46.5 -88.5t-16 -108.5q0 -61 24 -109t68 -75.5t105 -27.5q63 0 112 30.5t77 78.5l13 -8q-20 -32 -49.5 -58.5t-67.5 -41.5t-85 -15z" />
    <glyph glyph-name="uni1EC2" unicode="&#x1ec2;" horiz-adv-x="572" 
d="M297 743l141 142h18l75 -142h-16l-69 129l-130 -129h-19zM521 835l-4 12q35 6 54.5 24.5t19.5 44.5q0 25 -13.5 36.5t-33.5 11.5t-33.5 -8.5t-23.5 -27.5l-12 10q11 20 28 31t42 11q23 0 42.5 -14.5t19.5 -46.5q0 -21 -10.5 -39t-30 -29.5t-45.5 -15.5zM39 0l153 660h426
l-4 -14h-410l-69 -302h331l-4 -14h-331l-72 -316h428l-3 -14h-445z" />
    <glyph glyph-name="uni1EC3" unicode="&#x1ec3;" horiz-adv-x="527" 
d="M425 675l-4 12q35 6 54.5 24.5t19.5 44.5q0 25 -13.5 36.5t-33.5 11.5t-33.5 -8.5t-23.5 -27.5l-12 10q11 20 28 31t42 11q23 0 42.5 -14.5t19.5 -46.5q0 -21 -10.5 -39t-30 -29.5t-45.5 -15.5zM201 583l141 142h18l75 -142h-16l-69 129l-130 -129h-19zM260 -9
q-68 0 -116 30.5t-72.5 82t-24.5 113.5q0 78 29.5 144.5t85.5 107t135 40.5q58 0 100 -27t64.5 -73t22.5 -104q0 -10 -0.5 -22t-2.5 -23h-423v14h413l-5 -3q1 8 1.5 16t0.5 15q0 53 -20 97t-58.5 70t-94.5 26q-53 0 -96 -21.5t-73.5 -59.5t-46.5 -88.5t-16 -108.5
q0 -61 24 -109t68 -75.5t105 -27.5q63 0 112 30.5t77 78.5l13 -8q-20 -32 -49.5 -58.5t-67.5 -41.5t-85 -15z" />
    <glyph glyph-name="uni1EC4" unicode="&#x1ec4;" horiz-adv-x="572" 
d="M298 743l141 142h18l75 -142h-16l-69 129l-130 -129h-19zM611 994q-12 -47 -34.5 -65t-49.5 -18q-24 0 -40 10.5t-28.5 24t-26.5 24t-35 10.5q-25 0 -43.5 -17t-28.5 -52h-16q14 44 36.5 63.5t53.5 19.5q24 0 40 -10.5t28 -24t26 -24t35 -10.5q23 0 40.5 16t27.5 53h15z
M39 0l153 660h426l-4 -14h-410l-69 -302h331l-4 -14h-331l-72 -316h428l-3 -14h-445z" />
    <glyph glyph-name="uni1EC5" unicode="&#x1ec5;" horiz-adv-x="527" 
d="M200 583l141 142h18l75 -142h-16l-69 129l-130 -129h-19zM513 834q-12 -47 -34.5 -65t-49.5 -18q-24 0 -40 10.5t-28.5 24t-26.5 24t-35 10.5q-25 0 -43.5 -17t-28.5 -52h-16q14 44 36.5 63.5t53.5 19.5q24 0 40 -10.5t28 -24t26 -24t35 -10.5q23 0 40.5 16t27.5 53h15z
M260 -9q-68 0 -116 30.5t-72.5 82t-24.5 113.5q0 78 29.5 144.5t85.5 107t135 40.5q58 0 100 -27t64.5 -73t22.5 -104q0 -10 -0.5 -22t-2.5 -23h-423v14h413l-5 -3q1 8 1.5 16t0.5 15q0 53 -20 97t-58.5 70t-94.5 26q-53 0 -96 -21.5t-73.5 -59.5t-46.5 -88.5t-16 -108.5
q0 -61 24 -109t68 -75.5t105 -27.5q63 0 112 30.5t77 78.5l13 -8q-20 -32 -49.5 -58.5t-67.5 -41.5t-85 -15z" />
    <glyph glyph-name="uni1EC6" unicode="&#x1ec6;" horiz-adv-x="572" 
d="M39 0l153 660h426l-4 -14h-410l-69 -302h331l-4 -14h-331l-72 -316h428l-3 -14h-445zM256 -98q9 0 14.5 -5.5t5.5 -14.5q0 -10 -6.5 -17t-15.5 -7t-14.5 5.5t-5.5 14.5q0 10 6 17t16 7zM456 885l75 -142h-16l-69 129l-130 -129h-19l141 142h18z" />
    <glyph glyph-name="uni1EC7" unicode="&#x1ec7;" horiz-adv-x="527" 
d="M260 -9q-68 0 -116 30.5t-72.5 82t-24.5 113.5q0 78 29.5 144.5t85.5 107t135 40.5q58 0 100 -27t64.5 -73t22.5 -104q0 -10 -0.5 -22t-2.5 -23h-423v14h413l-5 -3q1 8 1.5 16t0.5 15q0 53 -20 97t-58.5 70t-94.5 26q-53 0 -96 -21.5t-73.5 -59.5t-46.5 -88.5t-16 -108.5
q0 -61 24 -109t68 -75.5t105 -27.5q63 0 112 30.5t77 78.5l13 -8q-20 -32 -49.5 -58.5t-67.5 -41.5t-85 -15zM226 -98q9 0 14.5 -5.5t5.5 -14.5q0 -10 -6.5 -17t-15.5 -7t-14.5 5.5t-5.5 14.5q0 10 6 17t16 7zM201 583l141 142h18l75 -142h-16l-69 129l-130 -129h-19z" />
    <glyph glyph-name="uni1EC8" unicode="&#x1ec8;" horiz-adv-x="210" 
d="M208 660l-153 -660h-16l153 660h16zM203 715l-4 12q35 6 54.5 24.5t19.5 44.5q0 25 -13.5 36.5t-33.5 11.5t-33.5 -8.5t-23.5 -27.5l-12 10q11 20 28 31t42 11q23 0 42.5 -14.5t19.5 -46.5q0 -21 -10.5 -39t-30 -29.5t-45.5 -15.5z" />
    <glyph glyph-name="uni1EC9" unicode="&#x1ec9;" horiz-adv-x="182" 
d="M157 500l-116 -500h-16l116 500h16zM158 580l-5 12q34 8 55 26.5t21 49.5q0 20 -11.5 32t-33.5 12q-20 0 -33 -9t-24 -24l-10 11q10 15 27 26.5t41 11.5q29 0 45 -17t16 -42q0 -23 -11 -41.5t-31 -30.5t-46 -17z" />
    <glyph glyph-name="uni1ECA" unicode="&#x1eca;" horiz-adv-x="210" 
d="M208 660l-153 -660h-16l153 660h16zM20 -98q9 0 14.5 -5.5t5.5 -14.5q0 -10 -6.5 -17t-15.5 -7t-14.5 5.5t-5.5 14.5q0 10 6 17t16 7z" />
    <glyph glyph-name="uni1ECB" unicode="&#x1ecb;" horiz-adv-x="184" 
d="M175 598q-9 0 -14.5 6t-5.5 14q0 11 6.5 17.5t16.5 6.5q9 0 14.5 -6t5.5 -14q0 -11 -6 -17.5t-17 -6.5zM157 500l-116 -500h-16l116 500h16zM6 -98q9 0 14.5 -5.5t5.5 -14.5q0 -10 -6.5 -17t-15.5 -7t-14.5 5.5t-5.5 14.5q0 10 6 17t16 7z" />
    <glyph glyph-name="uni1ECC" unicode="&#x1ecc;" horiz-adv-x="712" 
d="M344 -10q-74 0 -135.5 33.5t-97.5 98.5t-36 158q0 77 21 147t63 124.5t104.5 86.5t144.5 32q74 0 134.5 -34t96 -98.5t35.5 -157.5q0 -76 -21 -146t-62.5 -125t-103 -87t-143.5 -32zM345 4q77 0 135.5 31t98 83.5t59.5 120.5t20 141q0 89 -34 150.5t-90.5 93.5t-126.5 32
q-78 0 -137 -31t-99 -83.5t-60 -120t-20 -141.5q0 -89 34.5 -150.5t92.5 -93.5t127 -32zM301 -98q9 0 14.5 -5.5t5.5 -14.5q0 -10 -6.5 -17t-15.5 -7t-14.5 5.5t-5.5 14.5q0 10 6 17t16 7z" />
    <glyph glyph-name="uni1ECD" unicode="&#x1ecd;" horiz-adv-x="561" 
d="M263 -9q-69 0 -117 30.5t-73 82t-25 112.5q0 86 31.5 152t88 103.5t131.5 37.5q70 0 117.5 -30.5t72 -81t24.5 -112.5q0 -85 -31.5 -151.5t-87.5 -104.5t-131 -38zM263 5q52 0 95 20t74 57.5t48 89t17 113.5q0 64 -24.5 111t-69 73t-104.5 26q-52 0 -95.5 -20
t-74.5 -57.5t-48 -88.5t-17 -113q0 -63 25 -110.5t70 -74t104 -26.5zM233 -98q9 0 14.5 -5.5t5.5 -14.5q0 -10 -6.5 -17t-15.5 -7t-14.5 5.5t-5.5 14.5q0 10 6 17t16 7z" />
    <glyph glyph-name="uni1ECE" unicode="&#x1ece;" horiz-adv-x="712" 
d="M344 -10q-74 0 -135.5 33.5t-97.5 98.5t-36 158q0 77 21 147t63 124.5t104.5 86.5t144.5 32q74 0 134.5 -34t96 -98.5t35.5 -157.5q0 -76 -21 -146t-62.5 -125t-103 -87t-143.5 -32zM345 4q77 0 135.5 31t98 83.5t59.5 120.5t20 141q0 89 -34 150.5t-90.5 93.5t-126.5 32
q-78 0 -137 -31t-99 -83.5t-60 -120t-20 -141.5q0 -89 34.5 -150.5t92.5 -93.5t127 -32zM423 715l-4 12q35 6 54.5 24.5t19.5 44.5q0 25 -13.5 36.5t-33.5 11.5t-33.5 -8.5t-23.5 -27.5l-12 10q11 20 28 31t42 11q23 0 42.5 -14.5t19.5 -46.5q0 -21 -10.5 -39t-30 -29.5
t-45.5 -15.5z" />
    <glyph glyph-name="uni1ECF" unicode="&#x1ecf;" horiz-adv-x="561" 
d="M263 -9q-69 0 -117 30.5t-73 82t-25 112.5q0 86 31.5 152t88 103.5t131.5 37.5q70 0 117.5 -30.5t72 -81t24.5 -112.5q0 -85 -31.5 -151.5t-87.5 -104.5t-131 -38zM263 5q52 0 95 20t74 57.5t48 89t17 113.5q0 64 -24.5 111t-69 73t-104.5 26q-52 0 -95.5 -20
t-74.5 -57.5t-48 -88.5t-17 -113q0 -63 25 -110.5t70 -74t104 -26.5zM322 580l-5 12q34 8 55 26.5t21 49.5q0 20 -11.5 32t-33.5 12q-20 0 -33 -9t-24 -24l-10 11q10 15 27 26.5t41 11.5q29 0 45 -17t16 -42q0 -23 -11 -41.5t-31 -30.5t-46 -17z" />
    <glyph glyph-name="uni1ED0" unicode="&#x1ed0;" horiz-adv-x="712" 
d="M320 743l141 142h18l75 -142h-16l-69 129l-130 -129h-19zM649 988h18l-100 -133h-15zM344 -10q-74 0 -135.5 33.5t-97.5 98.5t-36 158q0 77 21 147t63 124.5t104.5 86.5t144.5 32q74 0 134.5 -34t96 -98.5t35.5 -157.5q0 -76 -21 -146t-62.5 -125t-103 -87t-143.5 -32z
M345 4q77 0 135.5 31t98 83.5t59.5 120.5t20 141q0 89 -34 150.5t-90.5 93.5t-126.5 32q-78 0 -137 -31t-99 -83.5t-60 -120t-20 -141.5q0 -89 34.5 -150.5t92.5 -93.5t127 -32z" />
    <glyph glyph-name="uni1ED1" unicode="&#x1ed1;" horiz-adv-x="561" 
d="M544 828h18l-100 -133h-15zM215 583l141 142h18l75 -142h-16l-69 129l-130 -129h-19zM263 -9q-69 0 -117 30.5t-73 82t-25 112.5q0 86 31.5 152t88 103.5t131.5 37.5q70 0 117.5 -30.5t72 -81t24.5 -112.5q0 -85 -31.5 -151.5t-87.5 -104.5t-131 -38zM263 5q52 0 95 20
t74 57.5t48 89t17 113.5q0 64 -24.5 111t-69 73t-104.5 26q-52 0 -95.5 -20t-74.5 -57.5t-48 -88.5t-17 -113q0 -63 25 -110.5t70 -74t104 -26.5z" />
    <glyph glyph-name="uni1ED2" unicode="&#x1ed2;" horiz-adv-x="712" 
d="M321 743l141 142h18l75 -142h-16l-69 129l-130 -129h-19zM537 988l38 -133h-12l-41 133h15zM344 -10q-74 0 -135.5 33.5t-97.5 98.5t-36 158q0 77 21 147t63 124.5t104.5 86.5t144.5 32q74 0 134.5 -34t96 -98.5t35.5 -157.5q0 -76 -21 -146t-62.5 -125t-103 -87
t-143.5 -32zM345 4q77 0 135.5 31t98 83.5t59.5 120.5t20 141q0 89 -34 150.5t-90.5 93.5t-126.5 32q-78 0 -137 -31t-99 -83.5t-60 -120t-20 -141.5q0 -89 34.5 -150.5t92.5 -93.5t127 -32z" />
    <glyph glyph-name="uni1ED3" unicode="&#x1ed3;" horiz-adv-x="561" 
d="M431 828l38 -133h-12l-41 133h15zM215 583l141 142h18l75 -142h-16l-69 129l-130 -129h-19zM263 -9q-69 0 -117 30.5t-73 82t-25 112.5q0 86 31.5 152t88 103.5t131.5 37.5q70 0 117.5 -30.5t72 -81t24.5 -112.5q0 -85 -31.5 -151.5t-87.5 -104.5t-131 -38zM263 5
q52 0 95 20t74 57.5t48 89t17 113.5q0 64 -24.5 111t-69 73t-104.5 26q-52 0 -95.5 -20t-74.5 -57.5t-48 -88.5t-17 -113q0 -63 25 -110.5t70 -74t104 -26.5z" />
    <glyph glyph-name="uni1ED4" unicode="&#x1ed4;" horiz-adv-x="712" 
d="M321 743l141 142h18l75 -142h-16l-69 129l-130 -129h-19zM545 835l-4 12q35 6 54.5 24.5t19.5 44.5q0 25 -13.5 36.5t-33.5 11.5t-33.5 -8.5t-23.5 -27.5l-12 10q11 20 28 31t42 11q23 0 42.5 -14.5t19.5 -46.5q0 -21 -10.5 -39t-30 -29.5t-45.5 -15.5zM344 -10
q-74 0 -135.5 33.5t-97.5 98.5t-36 158q0 77 21 147t63 124.5t104.5 86.5t144.5 32q74 0 134.5 -34t96 -98.5t35.5 -157.5q0 -76 -21 -146t-62.5 -125t-103 -87t-143.5 -32zM345 4q77 0 135.5 31t98 83.5t59.5 120.5t20 141q0 89 -34 150.5t-90.5 93.5t-126.5 32
q-78 0 -137 -31t-99 -83.5t-60 -120t-20 -141.5q0 -89 34.5 -150.5t92.5 -93.5t127 -32z" />
    <glyph glyph-name="uni1ED5" unicode="&#x1ed5;" horiz-adv-x="561" 
d="M439 675l-4 12q35 6 54.5 24.5t19.5 44.5q0 25 -13.5 36.5t-33.5 11.5t-33.5 -8.5t-23.5 -27.5l-12 10q11 20 28 31t42 11q23 0 42.5 -14.5t19.5 -46.5q0 -21 -10.5 -39t-30 -29.5t-45.5 -15.5zM215 583l141 142h18l75 -142h-16l-69 129l-130 -129h-19zM263 -9
q-69 0 -117 30.5t-73 82t-25 112.5q0 86 31.5 152t88 103.5t131.5 37.5q70 0 117.5 -30.5t72 -81t24.5 -112.5q0 -85 -31.5 -151.5t-87.5 -104.5t-131 -38zM263 5q52 0 95 20t74 57.5t48 89t17 113.5q0 64 -24.5 111t-69 73t-104.5 26q-52 0 -95.5 -20t-74.5 -57.5
t-48 -88.5t-17 -113q0 -63 25 -110.5t70 -74t104 -26.5z" />
    </font>
</defs>
</svg>
