<?xml version="1.0" standalone="no"?>
<!DOCTYPE svg PUBLIC "-//W3C//DTD SVG 1.1//EN" "http://www.w3.org/Graphics/SVG/1.1/DTD/svg11.dtd" >
<svg xmlns="http://www.w3.org/2000/svg" xmlns:xlink="http://www.w3.org/1999/xlink" version="1.1">
<metadata>
Created by FontForge 20170731 at Wed Feb 26 09:24:02 2020
 By Aleksey,,,
Copyright 2019 The Work Sans Project Authors (https://github.com/weiweihuanghuang/Work-Sans)
</metadata>
<defs>
<font id="WorkSans-SemiBoldItalic" horiz-adv-x="604" >
  <font-face 
    font-family="Work Sans SemiBold"
    font-weight="600"
    font-style="italic"
    font-stretch="normal"
    units-per-em="1000"
    panose-1="0 0 0 0 0 0 0 0 0 0"
    ascent="800"
    descent="-200"
    x-height="500"
    cap-height="660"
    bbox="-286 -303 1354 1095"
    underline-thickness="50"
    underline-position="-175"
    slope="-13"
    unicode-range="U+000D-FB02"
  />
<missing-glyph horiz-adv-x="500" 
d="M50 -210h400v940h-400v-940zM100 -160v840h300v-840h-300z" />
    <glyph glyph-name="fi" unicode="fi" horiz-adv-x="682" 
d="M53 0l130 565q14 61 43 96.5t70.5 51.5t94.5 16q34 0 62 -6.5t45 -17.5l-34 -93q-9 6 -24.5 10t-36.5 4q-40 0 -61 -16.5t-30 -59.5l-16 -69l-1 -27l-105 -454h-137zM51 398l24 102h370l-24 -102h-370zM627 572q-36 0 -57 17t-18 50q3 41 26.5 60.5t62.5 19.5
q37 0 58 -17t18 -49q-3 -43 -27 -62t-63 -19zM670 500l-116 -500h-137l116 500h137z" />
    <glyph glyph-name="fl" unicode="fl" horiz-adv-x="728" 
d="M53 0l130 565q14 61 43 96.5t70.5 51.5t94.5 16q34 0 62 -6.5t45 -17.5l-34 -93q-9 6 -24.5 10t-36.5 4q-40 0 -61 -16.5t-30 -59.5l-16 -69l-1 -27l-105 -454h-137zM51 398l24 102h370l-24 -102h-370zM586 -8q-82 0 -115 46.5t-15 123.5l129 557h137l-129 -557
q-9 -36 4.5 -53t47.5 -17q13 0 23 1t18 3l-27 -93q-16 -6 -33 -8.5t-40 -2.5z" />
    <glyph glyph-name="f_f" unicode="ff" horiz-adv-x="755" 
d="M53 0l130 565q14 61 43 96.5t70.5 51.5t94.5 16q34 0 62 -6.5t45 -17.5l-34 -93q-9 6 -24.5 10t-36.5 4q-40 0 -61 -16.5t-30 -59.5l-16 -69l-1 -27l-105 -454h-137zM51 398l24 102h370l-24 -102h-370zM404 0l130 565q14 61 43 96.5t70.5 51.5t94.5 16q34 0 62 -6.5
t45 -17.5l-34 -93q-9 6 -24.5 10t-36.5 4q-40 0 -61 -16.5t-30 -59.5l-16 -69l-1 -27l-105 -454h-137zM402 398l24 102h370l-24 -102h-370z" />
    <glyph glyph-name="f_f_i" unicode="ffi" horiz-adv-x="1034" 
d="M53 0l130 565q14 61 43 96.5t70.5 51.5t94.5 16q34 0 62 -6.5t45 -17.5l-34 -93q-9 6 -24.5 10t-36.5 4q-40 0 -61 -16.5t-30 -59.5l-16 -69l-1 -27l-105 -454h-137zM51 398l24 102h370l-24 -102h-370zM404 0l130 565q14 61 43 96.5t70.5 51.5t94.5 16q34 0 62 -6.5
t45 -17.5l-34 -93q-9 6 -24.5 10t-36.5 4q-40 0 -61 -16.5t-30 -59.5l-16 -69l-1 -27l-105 -454h-137zM402 398l24 102h370l-24 -102h-370zM979 572q-36 0 -57 17t-18 50q3 41 26.5 60.5t62.5 19.5q37 0 58 -17t18 -49q-3 -43 -27 -62t-63 -19zM1022 500l-116 -500h-137
l116 500h137z" />
    <glyph glyph-name="f_f_l" unicode="ffl" horiz-adv-x="1079" 
d="M53 0l130 565q14 61 43 96.5t70.5 51.5t94.5 16q34 0 62 -6.5t45 -17.5l-34 -93q-9 6 -24.5 10t-36.5 4q-40 0 -61 -16.5t-30 -59.5l-16 -69l-1 -27l-105 -454h-137zM51 398l24 102h370l-24 -102h-370zM404 0l130 565q14 61 43 96.5t70.5 51.5t94.5 16q34 0 62 -6.5
t45 -17.5l-34 -93q-9 6 -24.5 10t-36.5 4q-40 0 -61 -16.5t-30 -59.5l-16 -69l-1 -27l-105 -454h-137zM402 398l24 102h370l-24 -102h-370zM937 -8q-82 0 -115 46.5t-15 123.5l129 557h137l-129 -557q-9 -36 4.5 -53t47.5 -17q13 0 23 1t18 3l-27 -93q-16 -6 -33 -8.5
t-40 -2.5z" />
    <glyph glyph-name=".notdef" horiz-adv-x="500" 
d="M50 -210h400v940h-400v-940zM100 -160v840h300v-840h-300z" />
    <glyph glyph-name=".null" horiz-adv-x="0" 
 />
    <glyph glyph-name="nonmarkingreturn" horiz-adv-x="333" 
 />
    <glyph glyph-name="NULL" horiz-adv-x="0" 
 />
    <glyph glyph-name="NULL" horiz-adv-x="0" 
 />
    <glyph glyph-name="CR" unicode="&#xd;" horiz-adv-x="303" 
 />
    <glyph glyph-name="space" unicode=" " horiz-adv-x="303" 
 />
    <glyph glyph-name="exclam" unicode="!" horiz-adv-x="288" 
d="M79 213l30 207l55 240h145l-56 -240l-65 -207h-109zM98 -9q-35 0 -56.5 17.5t-21.5 48.5q0 40 24.5 64t63.5 24q35 0 57 -17.5t22 -48.5q0 -40 -24.5 -64t-64.5 -24z" />
    <glyph glyph-name="quotedbl" unicode="&#x22;" horiz-adv-x="431" 
d="M483 682l-91 -266h-97l61 266h127zM295 682l-91 -266h-97l61 266h127z" />
    <glyph glyph-name="numbersign" unicode="#" horiz-adv-x="670" 
d="M312 0l217 660h101l-217 -660h-101zM30 169v87h579v-87h-579zM71 0l216 660h102l-217 -660h-101zM98 404v87h579v-87h-579z" />
    <glyph glyph-name="dollar" unicode="$" horiz-adv-x="629" 
d="M326 -1q-71 0 -132 19t-107.5 57t-76.5 95l92 73q21 -49 56.5 -80t81 -46.5t93.5 -15.5q38 0 64 12t39 32t13 42q0 27 -19 44t-61 29l-107 30q-47 15 -82 38.5t-54 57t-19 74.5q0 61 32 106t89.5 69.5t132.5 24.5q60 0 113 -15.5t94.5 -48.5t67.5 -83l-90 -68
q-20 45 -49.5 69.5t-65 35t-76.5 10.5q-60 0 -92 -25.5t-32 -57.5q0 -17 9 -31.5t26 -26t40 -19.5l127 -37q67 -19 103.5 -58.5t36.5 -95.5q0 -67 -33.5 -114t-89.5 -71.5t-124 -24.5zM194 -92l196 844h92l-196 -844h-92z" />
    <glyph glyph-name="percent" unicode="%" horiz-adv-x="960" 
d="M132 0l611 660h121l-610 -660h-122zM249 298q-49 0 -85.5 20.5t-56.5 56.5t-20 84q0 58 25 105.5t69 76.5t100 29q50 0 86 -20t56 -56.5t20 -84.5q0 -57 -25 -105t-68.5 -77t-100.5 -29zM254 394q27 0 45.5 16.5t28.5 42.5t10 53q0 31 -16.5 50t-45.5 19q-26 0 -45 -16.5
t-28.5 -42.5t-9.5 -54q0 -31 16 -49.5t45 -18.5zM715 -10q-49 0 -85.5 20.5t-56 56.5t-19.5 84q0 58 25 105.5t68.5 76.5t100.5 29q50 0 86 -20t55.5 -56.5t19.5 -84.5q0 -57 -24.5 -105t-68.5 -77t-101 -29zM721 86q26 0 44.5 16.5t28.5 42.5t10 53q0 31 -16 50t-46 19
q-26 0 -44.5 -16.5t-28.5 -42.5t-10 -54q0 -31 16 -49.5t46 -18.5z" />
    <glyph glyph-name="ampersand" unicode="&#x26;" horiz-adv-x="630" 
d="M230 -9q-67 0 -115.5 23t-73.5 64t-25 95q0 63 27.5 106t77 70.5t115.5 40.5l44 19q39 9 71 22t50.5 34.5t18.5 53.5q0 29 -15 43.5t-39 14.5q-35 0 -55.5 -24.5t-20.5 -64.5q0 -19 5 -43t15 -52.5t27 -62t39 -74.5q29 -50 62 -90.5t71.5 -63.5t80.5 -20l-23 -93h-11
q-55 0 -101.5 25t-87 70t-77.5 107q-38 62 -62.5 113.5t-36 96t-11.5 83.5q0 56 24.5 98t67.5 65.5t101 23.5q72 0 113.5 -36t41.5 -94t-29.5 -99t-81.5 -66.5t-120 -41.5l-7 -12q-45 -12 -79.5 -28.5t-53.5 -42t-19 -65.5q0 -49 32.5 -75t84.5 -26q44 0 74.5 16.5
t61.5 43.5l18 12q31 27 53 67t32 92l98 -3q-16 -67 -50 -126.5t-80 -97.5l-21 -15q-28 -23 -59.5 -42t-68.5 -30t-83 -11z" />
    <glyph glyph-name="quotesingle" unicode="'" horiz-adv-x="244" 
d="M295 682l-91 -266h-97l61 266h127z" />
    <glyph glyph-name="parenleft" unicode="(" horiz-adv-x="374" 
d="M188 -191q-59 77 -91 174t-32 203q0 87 23 169t66.5 154.5t105.5 131.5t141 100l51 -68q-87 -58 -146 -136.5t-88.5 -172.5t-29.5 -199q0 -83 21 -159t57 -137z" />
    <glyph glyph-name="parenright" unicode=")" horiz-adv-x="374" 
d="M198 742q59 -77 91 -174t32 -203q0 -87 -23 -169t-66.5 -154.5t-105.5 -131.5t-141 -100l-51 68q87 58 146 136.5t88.5 172.5t29.5 199q0 83 -21 159t-57 137z" />
    <glyph glyph-name="asterisk" unicode="*" horiz-adv-x="577" 
d="M394 252l-51 115l-15 51l-37 -48l-99 -98l-68 70l100 96l50 36l-51 17l-115 53l49 89l113 -57l46 -30l5 59l26 125h104l-34 -136l-22 -56l57 19l132 28l8 -97l-131 -25l-60 -4l30 -48l53 -113z" />
    <glyph glyph-name="plus" unicode="+" 
d="M435 580l-119 -517h-113l119 517h113zM579 374l-24 -105h-497l24 105h497z" />
    <glyph glyph-name="comma" unicode="," horiz-adv-x="271" 
d="M102 153q44 0 65.5 -26.5t21.5 -66.5q0 -46 -23.5 -90.5t-67 -78t-102.5 -46.5l-34 59q38 7 66.5 21.5t48 34t28.5 40.5l-2 2q-6 -3 -11.5 -4.5t-16.5 -1.5q-28 0 -46 20.5t-18 48.5q0 40 26 64t65 24z" />
    <glyph glyph-name="hyphen" unicode="-" horiz-adv-x="521" 
d="M454 324l-27 -118h-353l27 118h353z" />
    <glyph glyph-name="period" unicode="." horiz-adv-x="277" 
d="M92 -9q-36 0 -58 18t-22 51q0 42 25 67.5t66 25.5q36 0 58 -18.5t22 -50.5q0 -43 -24.5 -68t-66.5 -25z" />
    <glyph glyph-name="slash" unicode="/" horiz-adv-x="446" 
d="M538 719l-460 -789h-136l460 789h136z" />
    <glyph glyph-name="zero" unicode="0" horiz-adv-x="637" 
d="M303 -9q-76 0 -129.5 31.5t-81 89.5t-27.5 135q0 32 3.5 64t9.5 64q14 60 38 114t60.5 94.5t86.5 63.5t115 23q74 0 125.5 -31.5t79 -89t27.5 -135.5q0 -31 -3.5 -62.5t-10.5 -62.5q-13 -61 -37 -115t-60 -95t-84.5 -64.5t-111.5 -23.5zM307 102q40 0 69 25t50 70.5
t35 103.5q9 34 13 65t4 58q0 71 -28 103t-77 32q-41 0 -72 -25t-52.5 -70t-36.5 -105q-8 -33 -12 -64t-4 -58q0 -48 14 -78t39.5 -43.5t57.5 -13.5z" />
    <glyph glyph-name="one" unicode="1" horiz-adv-x="409" 
d="M126 0l94 407q7 30 14.5 56.5t15.5 53.5q-21 -19 -52.5 -36t-65 -29.5t-64.5 -17.5l13 121q35 7 77 24.5t81 39t62 41.5h112l-153 -660h-134z" />
    <glyph glyph-name="two" unicode="2" horiz-adv-x="574" 
d="M11 0l24 100q73 47 141 92.5t122 91.5t86 92t32 95q0 41 -25.5 63t-66.5 22q-55 0 -88.5 -36t-45.5 -97l-114 54q15 57 49 101t87 68t124 24t120 -24.5t74 -65t25 -89.5q0 -53 -21.5 -99.5t-58 -86t-82.5 -74t-95 -65t-94 -58.5v-1q16 1 45 2.5t52 1.5h213l-26 -111h-477
z" />
    <glyph glyph-name="three" unicode="3" horiz-adv-x="576" 
d="M279 -10q-107 0 -171.5 53t-78.5 139l133 30q5 -53 34.5 -82t83.5 -29q33 0 56.5 14t36 37.5t12.5 50.5q0 48 -31 65t-73 17q-7 0 -13 -0.5t-13 -1.5l23 100q9 -2 19 -3t20 -1q35 0 59.5 11.5t37.5 33.5t13 53q0 29 -13.5 46.5t-35 26t-46.5 8.5q-48 0 -74 -23t-39 -63
l-117 50q27 72 89.5 110.5t150.5 38.5q66 0 115 -21t76 -59t27 -91q0 -48 -19.5 -86t-53.5 -60.5t-78 -25.5l-1 -2q32 -5 57.5 -21t40 -42.5t14.5 -64.5q0 -66 -34 -112.5t-88.5 -71t-118.5 -24.5z" />
    <glyph glyph-name="four" unicode="4" horiz-adv-x="606" 
d="M283 0l36 155h-304l23 100q18 24 37.5 48t40.5 48l272 309h173l-94 -405h119l-23 -100h-119l-36 -155h-125zM149 255h193l70 298l-186 -214q-18 -22 -37.5 -42t-39.5 -42z" />
    <glyph glyph-name="five" unicode="5" horiz-adv-x="571" 
d="M271 -10q-63 0 -113 22.5t-82.5 60.5t-44.5 85l130 42q5 -26 16.5 -49t36.5 -37t65 -14t65.5 18t38.5 47.5t13 62.5q0 35 -15 57t-40 33t-56 11q-32 0 -54.5 -9t-45.5 -26l-101 27l110 339h385l-26 -111h-277l-55 -166q22 20 53 30.5t69 10.5q52 0 93.5 -21.5t65.5 -62
t24 -97.5q0 -75 -32 -132.5t-89 -89t-134 -31.5z" />
    <glyph glyph-name="six" unicode="6" horiz-adv-x="597" 
d="M318 -11q-80 0 -136 32.5t-85.5 91t-29.5 139.5t20 155.5t60 133.5t101.5 93t143.5 34q83 0 141.5 -39t73.5 -117l-122 -46q-5 42 -33.5 65.5t-69.5 23.5q-43 0 -75.5 -21t-54.5 -56.5t-35.5 -78t-17.5 -85.5q18 45 65.5 69.5t102.5 24.5q85 0 136.5 -49t51.5 -131
q0 -69 -29.5 -123t-82.5 -85t-125 -31zM316 97q36 0 60.5 16t36.5 43t12 59q0 43 -28.5 69.5t-78.5 26.5q-36 0 -61 -15.5t-38 -41.5t-13 -56q0 -23 8 -42t23 -32t35.5 -20t43.5 -7z" />
    <glyph glyph-name="seven" unicode="7" horiz-adv-x="576" 
d="M125 660h507l-25 -107q-86 -74 -148 -158.5t-102.5 -183t-63.5 -211.5h-140q21 109 67.5 213t121 198.5t178.5 173.5l13 -38h-435z" />
    <glyph glyph-name="eight" unicode="8" horiz-adv-x="621" 
d="M309 -11q-54 0 -103 12.5t-87 36.5t-60 59.5t-22 82.5q0 53 22.5 89.5t63 59t93.5 30.5l-2 -9q-26 12 -45 31t-29 44t-10 53q0 60 30.5 103t82 66t116.5 23q66 0 120.5 -20.5t87.5 -59t33 -94.5q0 -67 -41 -113.5t-111 -61.5v10q33 -14 56 -35t36 -47.5t13 -59.5
q0 -63 -32 -108t-87.5 -68.5t-124.5 -23.5zM306 97q35 0 60 12t39 34t14 52t-18 51.5t-47 33t-63 11.5q-35 0 -61.5 -13t-41 -35t-14.5 -51q0 -31 18 -52t48 -32t66 -11zM363 385q32 0 55 12.5t36.5 34t13.5 48.5q0 37 -28 60.5t-76 23.5q-32 0 -56 -13t-36.5 -34t-12.5 -48
q0 -23 13 -42t36.5 -30.5t54.5 -11.5z" />
    <glyph glyph-name="nine" unicode="9" horiz-adv-x="608" 
d="M260 -10q-61 0 -108.5 21.5t-77.5 61t-39 93.5l130 35q3 -26 15 -49t35 -37.5t56 -14.5q42 0 72.5 19t51.5 52t33.5 75.5t17.5 88.5q-11 -29 -34.5 -49t-53.5 -30t-63 -10q-61 0 -106.5 24.5t-70.5 68t-25 98.5q0 67 32 120t87.5 83t126.5 30q79 0 132.5 -30.5t80 -88.5
t26.5 -140q0 -80 -19 -155t-58 -135t-99 -95.5t-142 -35.5zM330 346q36 0 61 15t38.5 41.5t13.5 56.5q0 33 -14 55t-37.5 34t-54.5 12q-36 0 -61.5 -14.5t-39 -39.5t-13.5 -58q0 -27 12.5 -50.5t36.5 -37.5t58 -14z" />
    <glyph glyph-name="colon" unicode=":" horiz-adv-x="298" 
d="M103 -9q-36 0 -58 18t-22 51q0 42 25 67.5t66 25.5q36 0 58 -18.5t22 -50.5q0 -43 -24.5 -68t-66.5 -25zM185 348q-36 0 -58 18t-22 51q0 42 25 67.5t66 25.5q36 0 58 -18.5t22 -50.5q0 -43 -24.5 -68t-66.5 -25z" />
    <glyph glyph-name="semicolon" unicode=";" horiz-adv-x="298" 
d="M111 153q44 0 65.5 -26.5t21.5 -66.5q0 -46 -23.5 -90.5t-67 -78t-102.5 -46.5l-34 59q38 7 66.5 21.5t48 34t28.5 40.5l-2 2q-6 -3 -11.5 -4.5t-16.5 -1.5q-28 0 -46 20.5t-18 48.5q0 40 26 64t65 24zM196 510q36 0 58 -18t22 -51q0 -42 -25 -67.5t-66 -25.5
q-36 0 -58 18.5t-22 50.5q0 43 24.5 68t66.5 25z" />
    <glyph glyph-name="less" unicode="&#x3c;" 
d="M627 582l-32 -136l-410 -150l339 -161l-28 -121l-434 220l29 127z" />
    <glyph glyph-name="equal" unicode="=" 
d="M590 468l-23 -102h-476l23 102h476zM541 257l-23 -101h-475l23 101h475z" />
    <glyph glyph-name="greater" unicode="&#x3e;" 
d="M-1 13l32 136l410 150l-339 161l28 121l434 -220l-29 -127z" />
    <glyph glyph-name="question" unicode="?" horiz-adv-x="576" 
d="M199 212l34 150q61 0 107 10.5t72 36.5t26 71q0 38 -27.5 56.5t-69.5 18.5q-52 0 -84.5 -26t-47.5 -73l-123 56q17 44 52 79.5t88.5 56.5t126.5 21q67 0 118.5 -21t81 -60t29.5 -93q0 -63 -29 -107t-82.5 -68.5t-125.5 -30.5l-21 -77h-125zM228 -8q-35 0 -56.5 17
t-21.5 48q0 40 24.5 64t63.5 24q35 0 56.5 -17.5t21.5 -48.5q0 -40 -24 -63.5t-64 -23.5z" />
    <glyph glyph-name="at" unicode="@" horiz-adv-x="940" 
d="M463 -190q-118 0 -211 46.5t-146 133.5t-53 209q0 103 33 188t94 147t144 95.5t182 33.5q88 0 159.5 -26t122 -74t77 -115t26.5 -149q0 -77 -19 -133.5t-50.5 -94.5t-70 -57t-78.5 -19q-39 0 -67 14t-41.5 40t-11.5 59q-22 -47 -65 -74t-91 -27q-47 0 -83 23.5
t-56.5 66.5t-20.5 102q0 53 15.5 101t44.5 85.5t70 59t90 21.5q33 0 61 -11.5t48 -34.5t28 -58l22 95h119l-70 -300q-2 -12 -3.5 -22t-1.5 -19q0 -27 12 -37t33 -10q23 0 43.5 14.5t37 43t26 71t9.5 97.5q0 72 -22.5 127.5t-64.5 94t-100.5 58.5t-131.5 20q-81 0 -149 -28
t-117.5 -80t-77 -125t-27.5 -163q0 -78 27 -138t73.5 -100.5t107.5 -61t129 -20.5q60 0 103.5 12t73.5 28l24 -62q-26 -12 -54.5 -23t-65 -17.5t-86.5 -6.5zM447 98q35 0 62 25.5t42.5 66t15.5 85.5q0 31 -10.5 53t-30 34t-45.5 12q-30 0 -53 -15t-39.5 -39.5t-25 -55
t-8.5 -62.5q0 -33 10.5 -56.5t31.5 -35.5t50 -12z" />
    <glyph glyph-name="A" unicode="A" horiz-adv-x="660" 
d="M-48 0l390 660h168l82 -660h-132l-46 438l-9 107h-2l-55 -105l-249 -440h-147zM134 167l23 102h358l-24 -102h-357z" />
    <glyph glyph-name="B" unicode="B" horiz-adv-x="669" 
d="M26 0l153 660h281q89 0 139 -41t50 -111q0 -49 -20 -87t-53.5 -61.5t-76.5 -32.5v-1q52 -6 84 -40.5t32 -85.5q0 -66 -32 -110.5t-89.5 -67t-132.5 -22.5h-335zM185 104h157q64 0 98 26t34 73q0 24 -10.5 40t-31.5 24t-52 8h-155zM249 381h138q39 0 65.5 13t40.5 36
t14 54q0 37 -25 53t-64 16h-129z" />
    <glyph glyph-name="C" unicode="C" horiz-adv-x="683" 
d="M359 -10q-83 0 -148.5 33.5t-104 97t-38.5 153.5q0 81 23 152t68 126t110.5 86.5t149.5 31.5q71 0 125.5 -23t90.5 -68.5t50 -112.5l-136 -34q-10 65 -43.5 95t-91.5 30q-52 0 -90.5 -25.5t-64 -66.5t-38.5 -90.5t-13 -97.5q0 -55 20 -93.5t56 -59.5t83 -21q57 0 89.5 27
t54.5 71l126 -51q-43 -74 -109.5 -117t-168.5 -43z" />
    <glyph glyph-name="D" unicode="D" horiz-adv-x="707" 
d="M26 0l153 660h218q90 0 152.5 -34.5t95 -95t32.5 -140.5q0 -85 -25.5 -156.5t-74 -124t-116.5 -81t-154 -28.5h-281zM190 110h118q55 0 97.5 23t71.5 62t44 88.5t15 101.5q0 49 -17 86t-51 58t-87 21h-89z" />
    <glyph glyph-name="E" unicode="E" horiz-adv-x="625" 
d="M26 0l153 660h491l-26 -111h-353l-38 -164h278l-24 -106h-278l-38 -168h365l-26 -111h-504z" />
    <glyph glyph-name="F" unicode="F" horiz-adv-x="594" 
d="M631 549h-339l-39 -167h280l-26 -112h-280l-63 -270h-138l153 660h478z" />
    <glyph glyph-name="G" unicode="G" horiz-adv-x="712" 
d="M330 -9q-73 0 -132 34t-94.5 98t-35.5 153q0 79 23.5 149.5t68.5 126t111.5 87t152.5 31.5q69 0 124.5 -21t94 -64t51.5 -111l-132 -29q-11 57 -47.5 85t-94.5 28q-49 0 -88.5 -22t-67 -60t-42 -86.5t-14.5 -101.5q0 -58 19 -100t55 -64t88 -22q45 0 77.5 14.5t53.5 41
t30 60.5l8 25h-176l23 100h288l-85 -343h-96l32 147l12 -15q-18 -45 -46.5 -76.5t-68 -48t-92.5 -16.5z" />
    <glyph glyph-name="H" unicode="H" horiz-adv-x="730" 
d="M741 660l-153 -660h-139l153 660h139zM317 660l-153 -660h-138l153 660h138zM612 389l-26 -111h-427l26 111h427z" />
    <glyph glyph-name="I" unicode="I" horiz-adv-x="306" 
d="M317 660l-153 -660h-138l153 660h138z" />
    <glyph glyph-name="J" unicode="J" horiz-adv-x="587" 
d="M244 -9q-65 0 -112.5 22t-74.5 60t-31 88t17 106l136 6q-19 -54 -16.5 -92t26.5 -58.5t65 -20.5q54 0 80 34.5t43 114.5l95 409h138l-100 -436q-16 -68 -47 -120.5t-83.5 -82.5t-135.5 -30z" />
    <glyph glyph-name="K" unicode="K" horiz-adv-x="667" 
d="M26 0l153 660h138l-68 -293l328 293h165l-304 -276l156 -384h-145l-118 295l-124 -109l-43 -186h-138z" />
    <glyph glyph-name="L" unicode="L" horiz-adv-x="597" 
d="M190 111h347l-26 -111h-485l153 660h138z" />
    <glyph glyph-name="M" unicode="M" horiz-adv-x="879" 
d="M26 0l153 660h180l38 -353l11 -159h1l80 158l198 354h203l-153 -660h-124l80 344l46 187h-1l-303 -531h-109l-60 529h-2l-34 -185l-80 -344h-124z" />
    <glyph glyph-name="N" unicode="N" horiz-adv-x="729" 
d="M26 0l153 660h152l135 -391l35 -117h2l25 126l88 382h124l-153 -660h-150l-138 388l-35 116h-2l-23 -122l-89 -382h-124z" />
    <glyph glyph-name="O" unicode="O" horiz-adv-x="736" 
d="M356 -10q-79 0 -144.5 34t-104 99t-38.5 157q0 81 23 151.5t67.5 124t110 84t148.5 30.5q80 0 144.5 -34t103 -99t38.5 -157q0 -80 -23 -150.5t-67.5 -124.5t-109.5 -84.5t-148 -30.5zM363 104q50 0 87.5 24.5t62.5 66t37.5 91t12.5 99.5q0 55 -18.5 93t-52.5 58t-81 20
q-50 0 -87.5 -24.5t-63 -65.5t-38.5 -91t-13 -100q0 -54 19 -92.5t53.5 -58.5t81.5 -20z" />
    <glyph glyph-name="P" unicode="P" horiz-adv-x="644" 
d="M26 0l153 660h227q112 0 175 -51.5t63 -140.5q0 -69 -34 -123t-95.5 -84.5t-146.5 -30.5h-213l25 109h192q45 0 74 16.5t44 43.5t15 59q0 42 -27.5 67.5t-85.5 25.5h-100l-128 -551h-138z" />
    <glyph glyph-name="Q" unicode="Q" horiz-adv-x="736" 
d="M471 -200q-40 0 -76 10t-64.5 30.5t-45 50.5t-16.5 69q0 13 2 27.5t7 31.5l100 10q-5 -12 -7 -23.5t-2 -21.5q0 -38 31 -56t82 -18q34 0 60 6.5t49 19.5l4 -107q-26 -15 -58 -22t-66 -7zM356 -10q-79 0 -144.5 34t-104 99t-38.5 157q0 81 23 151.5t67.5 124t110 84
t148.5 30.5q80 0 144.5 -34t103 -99t38.5 -157q0 -80 -23 -150.5t-67.5 -124.5t-109.5 -84.5t-148 -30.5zM363 104q50 0 87.5 24.5t62.5 66t37.5 91t12.5 99.5q0 55 -18.5 93t-52.5 58t-81 20q-50 0 -87.5 -24.5t-63 -65.5t-38.5 -91t-13 -100q0 -54 19 -92.5t53.5 -58.5
t81.5 -20z" />
    <glyph glyph-name="R" unicode="R" horiz-adv-x="662" 
d="M26 0l153 660h259q97 0 153.5 -49t56.5 -136q0 -66 -30 -114t-81.5 -75t-114.5 -33l-42 -8h-176l24 105h149q44 0 73.5 15.5t45 42t15.5 59.5q0 42 -29 62.5t-77 20.5h-115l-128 -550h-136zM452 0l-110 284l128 19l123 -303h-141z" />
    <glyph glyph-name="S" unicode="S" horiz-adv-x="639" 
d="M334 -10q-72 0 -133 20t-107.5 58.5t-76.5 97.5l93 77q21 -48 56.5 -79.5t79.5 -46.5t90 -15q38 0 62.5 11.5t36.5 31t12 41.5q0 27 -18.5 43t-55.5 27l-102 31q-47 15 -83 39t-56.5 59t-20.5 79q0 63 33 109.5t90.5 72t133.5 25.5q102 0 170.5 -38t108.5 -110l-97 -75
q-17 41 -46.5 65.5t-64.5 34.5t-73 10q-37 0 -62 -10.5t-37 -28t-12 -39.5q0 -26 22 -46t58 -32l107 -32q74 -24 111.5 -64t37.5 -103q0 -66 -34.5 -114t-93 -73.5t-129.5 -25.5z" />
    <glyph glyph-name="T" unicode="T" horiz-adv-x="628" 
d="M696 660l-26 -111h-217l-127 -549h-138l127 549h-220l27 111h574z" />
    <glyph glyph-name="U" unicode="U" horiz-adv-x="700" 
d="M328 -10q-95 0 -158.5 36t-87.5 103t-3 161l87 370h139l-90 -392q-12 -54 0.5 -91t44.5 -55.5t79 -18.5q64 0 100.5 39.5t52.5 110.5l94 407h138l-97 -419q-28 -120 -101 -185.5t-198 -65.5z" />
    <glyph glyph-name="V" unicode="V" horiz-adv-x="650" 
d="M735 660l-387 -660h-161l-80 660h134l40 -418l8 -130l62 129l240 419h144z" />
    <glyph glyph-name="W" unicode="W" horiz-adv-x="970" 
d="M149 0l-37 660h136l10 -537l243 537h136l12 -541l248 541h150l-342 -660h-158l-10 360l5 159h-2l-67 -159l-168 -360h-156z" />
    <glyph glyph-name="X" unicode="X" horiz-adv-x="634" 
d="M-45 0l307 345l-135 315h150l85 -218l180 218h157l-287 -326l147 -334h-148l-93 232l-196 -232h-167z" />
    <glyph glyph-name="Y" unicode="Y" horiz-adv-x="619" 
d="M183 0l58 250l-133 410h136l60 -199l27 -106l72 109l147 196h152l-325 -420l-56 -240h-138z" />
    <glyph glyph-name="Z" unicode="Z" horiz-adv-x="611" 
d="M-12 0l26 109l456 441h-360l26 110h519l-26 -109l-457 -441h379l-26 -110h-537z" />
    <glyph glyph-name="bracketleft" unicode="[" horiz-adv-x="373" 
d="M431 618h-141l-159 -685h142l-24 -101h-261l205 887h261z" />
    <glyph glyph-name="backslash" unicode="\" horiz-adv-x="467" 
d="M124 719h121l132 -789h-120z" />
    <glyph glyph-name="bracketright" unicode="]" horiz-adv-x="374" 
d="M-46 -67h141l159 685h-142l24 101h261l-205 -887h-261z" />
    <glyph glyph-name="asciicircum" unicode="^" horiz-adv-x="593" 
d="M49 355l298 371h119l126 -371h-119l-86 276l-207 -276h-131z" />
    <glyph glyph-name="underscore" unicode="_" horiz-adv-x="539" 
d="M464 -77l-27 -113h-539l27 113h539z" />
    <glyph glyph-name="grave" unicode="`" horiz-adv-x="500" 
d="M391 742l35 -170h-97l-67 170h129z" />
    <glyph glyph-name="a" unicode="a" horiz-adv-x="617" 
d="M222 -9q-53 0 -94 25.5t-64.5 71.5t-23.5 111q0 61 18 117t50.5 99.5t79 69t102.5 25.5q37 0 69 -13t54 -39t31 -66l25 108h137l-116 -500h-124l17 94q-24 -47 -67 -75t-94 -28zM277 95q28 0 53 16.5t43.5 45t29 64t10.5 73.5q0 34 -12 59t-33.5 38.5t-50.5 13.5
q-33 0 -59 -16.5t-44.5 -44.5t-28.5 -62.5t-10 -70.5t11.5 -62t34 -40t56.5 -14z" />
    <glyph glyph-name="b" unicode="b" horiz-adv-x="617" 
d="M404 509q51 0 90 -24t61 -70.5t22 -113.5q0 -61 -18 -117t-50 -99.5t-77 -69t-99 -25.5q-40 0 -74 14t-56.5 40t-30.5 63l-26 -107h-134l166 719h137l-69 -299q24 40 66 64.5t92 24.5zM303 95q30 0 55.5 16.5t44 44t29 62t10.5 71.5q0 39 -12.5 64.5t-34.5 38t-51 12.5
q-32 0 -58 -16t-44 -44t-28 -64t-10 -75q0 -50 25 -80t74 -30z" />
    <glyph glyph-name="c" unicode="c" horiz-adv-x="554" 
d="M283 -9q-75 0 -129.5 29.5t-82.5 81t-28 115.5q0 83 33 149t95.5 104.5t149.5 38.5q64 0 112.5 -21.5t76.5 -60.5t33 -90l-134 -24q0 41 -21.5 67.5t-69.5 26.5q-31 0 -57 -16t-45 -44t-28.5 -64t-9.5 -75q0 -34 12.5 -60.5t36.5 -41t59 -14.5q32 0 59 19t39 53l125 -42
q-28 -62 -87.5 -96.5t-138.5 -34.5z" />
    <glyph glyph-name="d" unicode="d" horiz-adv-x="617" 
d="M222 -9q-53 0 -94 25.5t-64.5 71.5t-23.5 111q0 61 18 117t50.5 99.5t79 69t102.5 25.5q37 0 69 -13t54 -39t31 -66l75 327h137l-166 -719h-124l17 94q-24 -47 -67 -75t-94 -28zM276 95q29 0 54 16.5t43.5 45t29 64t10.5 73.5q0 34 -12 59t-33.5 38.5t-50.5 13.5
q-33 0 -59 -16.5t-44.5 -44.5t-28.5 -62.5t-10 -70.5t11.5 -62t34 -40t55.5 -14z" />
    <glyph glyph-name="e" unicode="e" horiz-adv-x="578" 
d="M280 -9q-72 0 -125.5 29t-83 80t-29.5 117q0 82 33 148t95 105t149 39q69 0 117.5 -27t74 -77t25.5 -119q0 -20 -2 -40.5t-8 -40.5h-400v95h316l-43 -28q4 13 5 23.5t1 20.5q0 30 -11 50.5t-31 31.5t-48 11q-41 0 -68.5 -18t-44 -47.5t-23.5 -64.5t-7 -69
q0 -37 14.5 -63.5t40.5 -41t61 -14.5q41 0 67 18.5t41 46.5l112 -50q-19 -36 -52.5 -61.5t-78 -39.5t-97.5 -14z" />
    <glyph glyph-name="f" unicode="f" horiz-adv-x="403" 
d="M53 0l130 565q14 61 43 96.5t70.5 51.5t94.5 16q34 0 62 -6.5t45 -17.5l-34 -93q-9 6 -24.5 10t-36.5 4q-40 0 -61 -16.5t-30 -59.5l-16 -69l-1 -27l-105 -454h-137zM51 398l24 102h370l-24 -102h-370z" />
    <glyph glyph-name="g" unicode="g" horiz-adv-x="615" 
d="M211 -215q-44 0 -84 11.5t-71 33.5t-49.5 54.5t-22.5 75.5l138 22q5 -48 27.5 -75t76.5 -27q29 0 54.5 12t45 40t30.5 78l32 143l11 4q-16 -68 -62 -106.5t-112 -38.5q-52 0 -94.5 25.5t-66.5 72t-24 106.5q0 61 18 114t51 93.5t78.5 63.5t100.5 23q43 0 78.5 -18
t57.5 -53.5t22 -87.5l-18 -19l39 168h137l-113 -484q-20 -85 -58.5 -135.5t-94 -73t-127.5 -22.5zM281 115q38 0 67 25t46 66t17 89q0 34 -12 58.5t-34 38t-52 13.5q-42 0 -72.5 -24.5t-47.5 -64.5t-17 -87q0 -50 27 -82t78 -32z" />
    <glyph glyph-name="h" unicode="h" horiz-adv-x="607" 
d="M12 0l166 719h137l-76 -328l-16 -17q13 40 40 70.5t65.5 48t85.5 17.5q52 0 89.5 -24t52.5 -67.5t2 -104.5l-73 -314h-137l69 297q11 49 -9.5 77t-64.5 28q-34 0 -60 -15.5t-44 -45.5t-29 -74l-61 -267h-137z" />
    <glyph glyph-name="i" unicode="i" horiz-adv-x="277" 
d="M222 572q-36 0 -57 17t-18 50q3 41 26.5 60.5t62.5 19.5q37 0 58 -17t18 -49q-3 -43 -27 -62t-63 -19zM265 500l-116 -500h-137l116 500h137z" />
    <glyph glyph-name="j" unicode="j" horiz-adv-x="277" 
d="M222 572q-36 0 -57 17t-18 50q3 41 26.5 60.5t62.5 19.5q37 0 58 -17t18 -49q-3 -43 -27 -62t-63 -19zM-39 -215q-34 0 -68.5 8t-55.5 27l34 96q13 -10 29.5 -16t32.5 -6q29 0 45 15.5t25 58.5l125 532h137l-128 -553q-20 -85 -65 -123.5t-111 -38.5z" />
    <glyph glyph-name="k" unicode="k" horiz-adv-x="588" 
d="M621 500l-277 -238l-19 -10l-186 -159l15 140l301 267h166zM315 719l-166 -719h-137l166 719h137zM376 341l147 -341h-138l-109 264z" />
    <glyph glyph-name="l" unicode="l" horiz-adv-x="319" 
d="M177 -8q-82 0 -115 46.5t-15 123.5l129 557h137l-129 -557q-9 -36 4.5 -53t47.5 -17q13 0 23 1t18 3l-27 -93q-16 -6 -33 -8.5t-40 -2.5z" />
    <glyph glyph-name="m" unicode="m" horiz-adv-x="933" 
d="M12 0l116 500h121l-23 -142l-9 11q20 69 72.5 105t119.5 36q53 0 89.5 -24t51.5 -69t0 -108l-72 -309h-137l69 296q12 50 -7 78t-61 28q-34 0 -60 -15.5t-43.5 -45.5t-28.5 -74l-61 -267h-137zM671 0l68 296q12 50 -7 78t-60 28q-34 0 -60 -15.5t-44 -45.5t-28 -74
l-10 87q26 76 81.5 116t124.5 40q54 0 91 -24t52 -69t1 -108l-72 -309h-137z" />
    <glyph glyph-name="n" unicode="n" horiz-adv-x="607" 
d="M12 0l116 500h121l-23 -142l-9 11q20 69 73 105t120 36q55 0 93 -24t53 -68.5t1 -106.5l-72 -311h-137l69 297q11 49 -9.5 77t-64.5 28q-34 0 -60 -15.5t-44 -45.5t-29 -74l-61 -267h-137z" />
    <glyph glyph-name="o" unicode="o" horiz-adv-x="598" 
d="M281 -9q-74 0 -128 29.5t-82.5 81t-28.5 115.5q0 83 33.5 149t95 104.5t146.5 38.5q76 0 129 -29.5t81.5 -80.5t28.5 -115q0 -82 -33 -148.5t-94.5 -105.5t-147.5 -39zM284 92q29 0 54 16t44 44.5t29 64.5t10 75q0 34 -12 60t-35.5 41t-59.5 15q-29 0 -54.5 -16t-44 -44
t-28.5 -64t-10 -75q0 -33 12 -60t36 -42t59 -15z" />
    <glyph glyph-name="p" unicode="p" horiz-adv-x="617" 
d="M-36 -210l164 710h123l-27 -153h-12q12 50 39.5 86.5t68 56t86.5 19.5q50 0 88.5 -24t60.5 -70t22 -112q0 -61 -17.5 -118t-50.5 -100.5t-77.5 -69t-98.5 -25.5q-43 0 -80 17t-59.5 51.5t-24.5 85.5l18 24l-86 -378h-137zM303 95q30 0 55.5 16.5t44 44.5t29 63t10.5 71
q0 37 -12 62.5t-34 38.5t-53 13t-56.5 -16t-44 -44t-28.5 -64t-10 -75q0 -50 25 -80t74 -30z" />
    <glyph glyph-name="q" unicode="q" horiz-adv-x="617" 
d="M307 -210l82 355l8 -5q-19 -68 -66.5 -108.5t-108.5 -40.5q-52 0 -93.5 25t-65 71.5t-23.5 111.5q0 62 18 118t51 99.5t79 68.5t102 25q43 0 78 -17.5t56.5 -51.5t22.5 -84l-16 -19l38 162h137l-165 -710h-134zM276 95q30 0 55 16.5t43.5 45t28.5 64t10 73.5q0 34 -12 59
t-33.5 38.5t-50.5 13.5q-33 0 -59 -16.5t-44.5 -44.5t-28.5 -62.5t-10 -70.5t12 -62t34.5 -40t54.5 -14z" />
    <glyph glyph-name="r" unicode="r" horiz-adv-x="410" 
d="M12 0l116 500h119l-24 -157l-9 13q16 47 43 81.5t64 53.5t80 19q17 0 28.5 -2t20.5 -7l-35 -119q-10 5 -23 8t-32 3q-34 0 -65 -15.5t-54 -47.5t-35 -84l-57 -246h-137z" />
    <glyph glyph-name="s" unicode="s" horiz-adv-x="519" 
d="M254 -11q-55 0 -104 16t-87 46.5t-60 71.5l85 67q23 -46 64 -73.5t93 -27.5q39 0 61 12t22 36q0 18 -13 30.5t-38 19.5l-71 21q-70 21 -102 57t-32 85q0 48 25.5 84t72 56t109.5 20q76 0 134 -28t89 -81l-83 -71q-12 24 -33 42t-47.5 28.5t-57.5 10.5q-41 0 -62.5 -12.5
t-21.5 -35.5q0 -20 18.5 -30t40.5 -17l97 -30q53 -16 81 -49.5t28 -78.5q0 -52 -25.5 -90t-72.5 -58.5t-110 -20.5z" />
    <glyph glyph-name="t" unicode="t" horiz-adv-x="423" 
d="M248 -9q-56 0 -96 21t-56 61t-3 99l100 436l147 40l-111 -475q-10 -42 11 -61.5t57 -19.5q24 0 40 5t29 13l-1 -93q-26 -14 -55.5 -20t-61.5 -6zM49 398l24 102h376l-24 -102h-376z" />
    <glyph glyph-name="u" unicode="u" horiz-adv-x="606" 
d="M199 -9q-53 0 -91.5 23.5t-55 67.5t-2.5 106l72 312h137l-68 -296q-12 -51 9.5 -78t64.5 -27q35 0 60 15.5t42.5 45.5t27.5 73l62 267h137l-116 -500h-121l23 142l9 -11q-21 -69 -72 -104.5t-118 -35.5z" />
    <glyph glyph-name="v" unicode="v" horiz-adv-x="529" 
d="M434 500h153l-299 -500h-159l-71 500h135l39 -454l-29 5z" />
    <glyph glyph-name="w" unicode="w" horiz-adv-x="852" 
d="M103 0l-37 500h133l16 -375l187 375h135l32 -379l183 379h145l-266 -500h-157l-34 340l-176 -340h-161z" />
    <glyph glyph-name="x" unicode="x" horiz-adv-x="561" 
d="M-45 0l260 279l41 -1l180 222h162l-250 -272l-47 -3l-180 -225h-166zM342 0l-94 231l-41 4l-128 265h150l84 -226l41 3l136 -277h-148z" />
    <glyph glyph-name="y" unicode="y" horiz-adv-x="538" 
d="M33 -215q-42 0 -75 9.5t-52 24.5l41 101q34 -30 82 -30q29 0 52 13.5t41 42.5l30 48l-88 506h138l26 -275l11 -123l61 118l149 280h147l-342 -562q-32 -55 -66 -89t-72 -49t-83 -15z" />
    <glyph glyph-name="z" unicode="z" horiz-adv-x="512" 
d="M-11 0l21 90l274 263l56 49l-82 -3h-181l24 101h419l-21 -93l-257 -245l-71 -63l98 2h177l-23 -101h-434z" />
    <glyph glyph-name="braceleft" unicode="{" horiz-adv-x="384" 
d="M245 -191q-98 0 -142 41t-27 120l35 150q13 58 -7 83t-67 25h-7l22 95h21q41 0 67.5 18.5t36.5 66.5l45 194q16 69 62.5 104t131.5 35h48l-21 -90h-15q-44 0 -67 -18.5t-33 -60.5l-42 -186q-10 -47 -41 -77t-78 -38q43 -11 59 -42.5t5 -79.5l-39 -171q-10 -41 8 -60
t61 -20h8l-20 -89h-4z" />
    <glyph glyph-name="bar" unicode="|" horiz-adv-x="290" 
d="M313 719l-205 -887h-120l205 887h120z" />
    <glyph glyph-name="braceright" unicode="}" horiz-adv-x="384" 
d="M-69 -191l21 89h14q47 0 69.5 20t31.5 61l43 186q11 47 41 77.5t77 37.5q-42 12 -58 43t-6 79l39 169q10 41 -8 60.5t-58 19.5h-12l22 90h22q56 0 94 -17.5t53.5 -51.5t4.5 -83l-37 -158q-13 -58 7.5 -83t67.5 -25h6l-22 -95h-20q-42 0 -68 -18.5t-37 -66.5l-45 -194
q-15 -69 -61 -104.5t-129 -35.5h-52z" />
    <glyph glyph-name="asciitilde" unicode="~" horiz-adv-x="573" 
d="M566 410q-14 -66 -41.5 -105t-63.5 -56t-72 -17q-34 0 -56.5 10.5t-40.5 24.5t-35 24t-40 10q-22 0 -39.5 -16.5t-26.5 -49.5h-110q13 64 40.5 103t64.5 57t76 18q31 0 53 -10.5t39.5 -24t35.5 -24t40 -10.5t39.5 16.5t27.5 49.5h109z" />
    <glyph glyph-name="uni00A0" unicode="&#xa0;" horiz-adv-x="303" 
 />
    <glyph glyph-name="exclamdown" unicode="&#xa1;" horiz-adv-x="286" 
d="M203 287l-30 -207l-55 -240h-145l56 240l65 207h109zM184 509q35 0 56.5 -17.5t21.5 -48.5q0 -40 -24.5 -64t-63.5 -24q-35 0 -57 17.5t-22 48.5q0 40 24.5 64t64.5 24z" />
    <glyph glyph-name="cent" unicode="&#xa2;" horiz-adv-x="571" 
d="M282 -9q-72 0 -125 29.5t-82 81t-29 116.5q0 87 34 152t95.5 102t143.5 37q67 0 115.5 -22.5t76.5 -61.5t34 -87l-120 -21q-1 43 -28 72t-79 29q-46 0 -80 -27t-53.5 -73t-19.5 -103q0 -38 14.5 -68t42 -47.5t67.5 -17.5q36 0 66 20.5t43 60.5l114 -38q-26 -63 -87 -98.5
t-143 -35.5zM171 -100l161 700h91l-161 -700h-91z" />
    <glyph glyph-name="sterling" unicode="&#xa3;" horiz-adv-x="615" 
d="M75 274l17 72h392l-17 -72h-392zM415 -10q-44 0 -77 12t-60 29.5t-50.5 35t-47 30t-51.5 12.5q-16 0 -26 -8t-10 -22q0 -13 9 -21t26 -8q26 0 44.5 21t28.5 54.5t10 71.5q0 35 -6.5 67t-14.5 61.5t-14.5 60.5t-6.5 64q0 65 30.5 114.5t83 78t116.5 28.5q59 0 105.5 -22
t74 -63t28.5 -99l-117 -27q-2 45 -24.5 75.5t-68.5 30.5q-34 0 -58.5 -16.5t-37.5 -43.5t-13 -60q0 -35 5.5 -67t11 -66t5.5 -76q0 -46 -13.5 -90.5t-38.5 -80t-59.5 -56t-76.5 -20.5q-45 0 -74.5 24t-29.5 62q0 42 32.5 68t83.5 26q32 0 60.5 -8.5t54.5 -21t50.5 -25.5
t50.5 -21.5t54 -8.5q34 0 52.5 21.5t26.5 69.5l92 -21q-5 -55 -28 -91.5t-57.5 -55t-74.5 -18.5z" />
    <glyph glyph-name="currency" unicode="&#xa4;" horiz-adv-x="661" 
d="M349 538q62 0 110 -26.5t75 -73.5t27 -109q0 -61 -27 -108t-75 -74t-110 -27t-110 27t-75.5 74t-27.5 108q0 62 27.5 109t75.5 73.5t110 26.5zM349 435q-45 0 -73 -29.5t-28 -76.5t28 -76.5t73 -29.5q44 0 72 29.5t28 76.5t-28 76.5t-72 29.5zM151 607l127 -136l-71 -70
l-136 125zM206 258l70 -70l-125 -137l-80 81zM492 255l134 -123l-81 -81l-124 133zM545 607l81 -81l-132 -125l-72 71z" />
    <glyph glyph-name="yen" unicode="&#xa5;" horiz-adv-x="637" 
d="M194 0l28 116h-172l13 57h172l16 69h-172l14 60h102l56 -4l-136 362h130l70 -220l26 -99h2l59 101l147 218h154l-292 -363l53 5h103l-14 -60h-173l-16 -69h173l-13 -57h-173l-27 -116h-130z" />
    <glyph glyph-name="brokenbar" unicode="&#xa6;" horiz-adv-x="290" 
d="M313 719l-86 -374h-120l86 374h120zM195 206l-87 -374h-120l86 374h121z" />
    <glyph glyph-name="section" unicode="&#xa7;" horiz-adv-x="611" 
d="M268 -110q-56 0 -107 15t-90.5 45.5t-61.5 74.5l92 58q21 -45 66.5 -73.5t111.5 -28.5q49 0 76.5 19t27.5 50q0 24 -16.5 38.5t-58.5 26.5l-120 37q-77 22 -115 56.5t-38 96.5q0 43 22.5 73.5t61.5 46.5t88 17l35 -54q-55 -3 -79 -21t-24 -46q0 -26 19.5 -43.5
t67.5 -31.5l128 -37q70 -19 105.5 -50.5t35.5 -82.5q0 -53 -26.5 -95t-76.5 -66.5t-124 -24.5zM406 116l-27 60q30 -1 53.5 5.5t37 21.5t13.5 37q0 24 -17.5 39t-56.5 26l-144 44q-40 12 -67 31t-40.5 46.5t-13.5 64.5q0 51 26 91.5t76 64t119 23.5q48 0 94.5 -12.5t86 -40
t67.5 -73.5l-90 -59q-28 47 -68.5 68t-95.5 21q-33 0 -55 -9.5t-32.5 -25t-10.5 -35.5q0 -27 15.5 -43t66.5 -30l104 -29q68 -19 103.5 -53t35.5 -86q0 -43 -21 -77t-61.5 -52.5t-97.5 -17.5z" />
    <glyph glyph-name="dieresis" unicode="&#xa8;" horiz-adv-x="500" 
d="M438 565q-30 0 -49 15t-19 43q0 41 23 61t60 20q31 0 49.5 -15t18.5 -42q0 -42 -23 -62t-60 -20zM226 565q-30 0 -49 15t-19 43q0 41 23 61t60 20q31 0 49.5 -15t18.5 -42q0 -42 -23 -62t-60 -20z" />
    <glyph glyph-name="copyright" unicode="&#xa9;" horiz-adv-x="789" 
d="M413 -10q-101 0 -178.5 44t-121.5 121t-44 175q0 99 44 175.5t121.5 120.5t178.5 44t178.5 -43.5t121 -120.5t43.5 -176q0 -98 -43.5 -175t-121 -121t-178.5 -44zM413 67q78 0 137 34t92 94t33 135q0 76 -33 135.5t-92 93.5t-137 34t-137 -34t-92 -93.5t-33 -135.5
q0 -75 33 -135t92 -94t137 -34zM419 140q-88 0 -138 51t-50 138t50 138t138 51q65 0 107 -28.5t60 -76.5l-84 -41q-11 27 -30.5 38.5t-49.5 11.5q-41 0 -65 -24.5t-24 -68.5q0 -45 24 -69.5t65 -24.5q31 0 52.5 12t32.5 41l80 -36q-22 -56 -62.5 -84t-105.5 -28z" />
    <glyph glyph-name="ordfeminine" unicode="&#xaa;" horiz-adv-x="401" 
d="M183 314q-49 0 -82 36.5t-33 100.5q0 43 12.5 81t35 68t54 47t69.5 17q25 0 47 -11.5t35 -36.5t11 -66l-16 -24l32 131h102l-79 -335h-92l33 156v-43q-15 -59 -50.5 -90t-78.5 -31zM19 169l17 76h326l-18 -76h-325zM228 392q26 0 44 19.5t27 49.5t9 58q0 30 -14 48.5
t-39 18.5q-28 0 -46.5 -20t-27.5 -49.5t-9 -57.5q0 -30 14 -48.5t42 -18.5z" />
    <glyph glyph-name="guillemotleft" unicode="&#xab;" horiz-adv-x="546" 
d="M340 461l-200 -230l3 82l99 -244h-119l-81 196l171 196h127zM555 461l-200 -230l3 82l99 -244h-119l-81 196l171 196h127z" />
    <glyph glyph-name="logicalnot" unicode="&#xac;" 
d="M560 316l-47 -206h-116l47 206h116zM573 374l-24 -105h-485l24 105h485z" />
    <glyph glyph-name="uni00AD" unicode="&#xad;" horiz-adv-x="521" 
d="M454 324l-27 -118h-353l27 118h353z" />
    <glyph glyph-name="registered" unicode="&#xae;" horiz-adv-x="791" 
d="M414 670q104 0 181.5 -42t119.5 -118.5t42 -179.5t-42 -179.5t-119.5 -118.5t-181.5 -42t-181.5 42t-120 118.5t-42.5 179.5t42.5 179.5t120 118.5t181.5 42zM365 515v-367h-89v367h89zM472 318l114 -170h-105l-84 147zM414 593q-79 0 -138 -32.5t-91 -91.5t-32 -139
t32 -139t91 -91.5t138 -32.5t137.5 32.5t91 91.5t32.5 139t-32.5 139t-91 91.5t-137.5 32.5zM443 515q39 0 69.5 -15.5t47.5 -41.5t17 -63q0 -56 -39 -87.5t-103 -31.5h-107v63h100q28 0 43.5 12.5t15.5 39.5t-15.5 39.5t-43.5 12.5h-100v72h115z" />
    <glyph glyph-name="macron" unicode="&#xaf;" horiz-adv-x="500" 
d="M518 670l-21 -91h-342l21 91h342z" />
    <glyph glyph-name="degree" unicode="&#xb0;" horiz-adv-x="465" 
d="M289 313q-57 0 -100 22.5t-67 62.5t-24 94q0 53 24 93.5t67 62.5t100 22t99.5 -22t66.5 -62.5t24 -93.5q0 -54 -24 -94t-66.5 -62.5t-99.5 -22.5zM289 406q38 0 62 24.5t24 61.5q0 38 -24 62t-62 24t-62.5 -24t-24.5 -62q0 -37 24.5 -61.5t62.5 -24.5z" />
    <glyph glyph-name="plusminus" unicode="&#xb1;" 
d="M447 648l-109 -474h-106l110 474h105zM599 461l-24 -102h-496l23 102h497zM516 100l-23 -100h-497l23 100h497z" />
    <glyph glyph-name="uni00B2" unicode="&#xb2;" horiz-adv-x="379" 
d="M63 333l17 73q43 24 85 48t76.5 48.5t55 50t20.5 52.5t-13.5 38t-34.5 11q-30 0 -48.5 -20.5t-24.5 -55.5l-94 32q13 58 56 91.5t117 33.5q71 0 108.5 -32t37.5 -79q0 -41 -19.5 -72.5t-50.5 -56t-67.5 -44t-71.5 -37.5v-1q14 1 33 1.5t34 0.5h117l-19 -82h-314z" />
    <glyph glyph-name="uni00B3" unicode="&#xb3;" horiz-adv-x="365" 
d="M226 327q-72 0 -115.5 32.5t-51.5 86.5l98 19q3 -28 20 -44t47 -16q27 0 42.5 15.5t15.5 37.5q0 21 -15 32t-42 11q-6 0 -10.5 -0.5t-9.5 -1.5l15 64q6 -1 12.5 -1.5t13.5 -0.5q30 0 45 13.5t15 36.5t-15 33t-37 10q-24 0 -40 -11.5t-24 -35.5l-89 34q15 43 56 69t106 26
q62 0 103.5 -27.5t41.5 -77.5q0 -41 -25 -70.5t-69 -31.5l-1 -2q31 -3 51.5 -21.5t20.5 -53.5q0 -40 -22 -68t-58 -42.5t-79 -14.5z" />
    <glyph glyph-name="acute" unicode="&#xb4;" horiz-adv-x="600" 
d="M382 742h139l-146 -170h-108z" />
    <glyph glyph-name="uni00B5" unicode="&#xb5;" horiz-adv-x="611" 
d="M-36 -210l164 710h137l-69 -296q-11 -49 9.5 -77t65.5 -28q34 0 59.5 15.5t43 45.5t27.5 73l61 267h137l-116 -500h-121l14 87q-26 -46 -69 -70.5t-96 -24.5q-29 0 -59 9.5t-52 32.5l66 34l-65 -278h-137z" />
    <glyph glyph-name="paragraph" unicode="&#xb6;" horiz-adv-x="716" 
d="M216 -100l64 280q-38 1 -75 15.5t-67 41.5t-47 66t-17 91q0 85 37.5 144.5t106 90.5t160.5 31h357l-176 -760h-112l150 653h-115l-151 -653h-115zM303 289l61 264h-28q-43 0 -77 -17t-53.5 -50t-19.5 -84q0 -48 31 -80.5t86 -32.5z" />
    <glyph glyph-name="periodcentered" unicode="&#xb7;" horiz-adv-x="253" 
d="M145 273q-36 0 -58 18t-22 51q0 42 25 67.5t66 25.5q36 0 58 -18.5t22 -50.5q0 -43 -24.5 -68t-66.5 -25z" />
    <glyph glyph-name="cedilla" unicode="&#xb8;" horiz-adv-x="500" 
d="M132 6l46 23q52 -14 79.5 -43t27.5 -73q0 -41 -18.5 -70t-49.5 -44t-70 -15q-37 0 -65 12.5t-44 29.5l39 65q13 -13 31.5 -19.5t35.5 -6.5q27 0 44 17.5t17 42.5q0 27 -18 46t-55 35z" />
    <glyph glyph-name="uni00B9" unicode="&#xb9;" horiz-adv-x="274" 
d="M140 333l53 227q3 11 7 25.5t7.5 25.5t3.5 12q-22 -15 -56.5 -27.5t-61.5 -15.5l13 86q24 5 51.5 15t53 23t40.5 25h84l-92 -396h-103z" />
    <glyph glyph-name="ordmasculine" unicode="&#xba;" horiz-adv-x="396" 
d="M238 314q-74 0 -116 41t-42 107q0 54 22.5 100t65 74t102.5 28q73 0 115 -41t42 -107q0 -52 -22 -98.5t-64.5 -75t-102.5 -28.5zM17 169l18 76h324l-17 -76h-325zM240 389q28 0 46.5 21t28 52t9.5 60q0 31 -15 48.5t-42 17.5q-28 0 -47 -20.5t-28.5 -51.5t-9.5 -61
t15 -48t43 -18z" />
    <glyph glyph-name="guillemotright" unicode="&#xbb;" horiz-adv-x="546" 
d="M-2 69l195 226l2 -80l-99 246h117l82 -196l-169 -196h-128zM213 69l195 226l2 -80l-99 246h117l82 -196l-169 -196h-128z" />
    <glyph glyph-name="onequarter" unicode="&#xbc;" horiz-adv-x="843" 
d="M125 268l53 227q3 11 7 25.5t7.5 25.5t3.5 12q-22 -15 -56.5 -27.5t-61.5 -15.5l13 86q24 5 51.5 15t53 23t40.5 25h84l-92 -396h-103zM61 0l621 660h113l-622 -660h-112zM614 -4l21 90h-181l16 67q10 13 17.5 22.5t16 19.5t20.5 24l148 174h123l-56 -237h73l-15 -70h-73
l-20 -90h-90zM559 156h91l39 160l-104 -130q-7 -9 -14 -16.5t-12 -13.5z" />
    <glyph glyph-name="onehalf" unicode="&#xbd;" horiz-adv-x="923" 
d="M125 268l53 227q3 11 7 25.5t7.5 25.5t3.5 12q-22 -15 -56.5 -27.5t-61.5 -15.5l13 86q24 5 51.5 15t53 23t40.5 25h84l-92 -396h-103zM61 0l621 660h113l-622 -660h-112zM529 -4l17 73q43 24 85 48t76.5 48.5t55 50t20.5 52.5t-13.5 38t-34.5 11q-30 0 -48.5 -20.5
t-24.5 -55.5l-94 32q13 58 56 91.5t117 33.5q71 0 108.5 -32t37.5 -79q0 -41 -19.5 -72.5t-50.5 -56t-67.5 -44t-71.5 -37.5v-1q14 1 33 1.5t34 0.5h117l-19 -82h-314z" />
    <glyph glyph-name="threequarters" unicode="&#xbe;" horiz-adv-x="934" 
d="M211 262q-72 0 -115.5 32.5t-51.5 86.5l98 19q3 -28 20 -44t47 -16q27 0 42.5 15.5t15.5 37.5q0 21 -15 32t-42 11q-6 0 -10.5 -0.5t-9.5 -1.5l15 64q6 -1 12.5 -1.5t13.5 -0.5q30 0 45 13.5t15 36.5t-15 33t-37 10q-24 0 -40 -11.5t-24 -35.5l-89 34q15 43 56 69t106 26
q62 0 103.5 -27.5t41.5 -77.5q0 -41 -25 -70.5t-69 -31.5l-1 -2q31 -3 51.5 -21.5t20.5 -53.5q0 -40 -22 -68t-58 -42.5t-79 -14.5zM152 0l621 660h113l-622 -660h-112zM705 -4l21 90h-181l16 67q10 13 17.5 22.5t16 19.5t20.5 24l148 174h123l-56 -237h73l-15 -70h-73
l-20 -90h-90zM650 156h91l39 160l-104 -130q-7 -9 -14 -16.5t-12 -13.5z" />
    <glyph glyph-name="questiondown" unicode="&#xbf;" horiz-adv-x="571" 
d="M377 288l-34 -150q-61 0 -107 -10.5t-72 -36.5t-26 -71q0 -38 27.5 -56.5t69.5 -18.5q52 0 84.5 26t47.5 73l123 -56q-17 -44 -52 -79.5t-88.5 -56.5t-126.5 -21q-67 0 -118.5 21t-81 60t-29.5 93q0 63 29 107t82.5 68.5t125.5 30.5l21 77h125zM348 508q35 0 56.5 -17
t21.5 -48q0 -40 -24.5 -64t-63.5 -24q-35 0 -56.5 17.5t-21.5 48.5q0 40 24 63.5t64 23.5z" />
    <glyph glyph-name="Agrave" unicode="&#xc0;" horiz-adv-x="660" 
d="M-48 0l390 660h168l82 -660h-132l-46 438l-9 107h-2l-55 -105l-249 -440h-147zM134 167l23 102h358l-24 -102h-357zM460 892l35 -162h-91l-67 162h123z" />
    <glyph glyph-name="Aacute" unicode="&#xc1;" horiz-adv-x="660" 
d="M-48 0l390 660h168l82 -660h-132l-46 438l-9 107h-2l-55 -105l-249 -440h-147zM134 167l23 102h358l-24 -102h-357zM470 892h133l-124 -162h-106z" />
    <glyph glyph-name="Acircumflex" unicode="&#xc2;" horiz-adv-x="660" 
d="M-48 0l390 660h168l82 -660h-132l-46 438l-9 107h-2l-55 -105l-249 -440h-147zM134 167l23 102h358l-24 -102h-357zM541 892l67 -162h-97l-49 97l-92 -97h-108l142 162h137z" />
    <glyph glyph-name="Atilde" unicode="&#xc3;" horiz-adv-x="660" 
d="M-48 0l390 660h168l82 -660h-132l-46 438l-9 107h-2l-55 -105l-249 -440h-147zM134 167l23 102h358l-24 -102h-357zM647 878q-12 -75 -50 -112.5t-86 -37.5q-26 0 -44.5 9.5t-31.5 21.5t-25.5 21.5t-26.5 9.5q-17 0 -29.5 -16.5t-19.5 -45.5h-83q12 74 49 112t86 38
q24 0 42 -9.5t32 -22t27 -22t27 -9.5q17 0 29.5 16.5t19.5 46.5h84z" />
    <glyph glyph-name="Adieresis" unicode="&#xc4;" horiz-adv-x="660" 
d="M-48 0l390 660h168l82 -660h-132l-46 438l-9 107h-2l-55 -105l-249 -440h-147zM134 167l23 102h358l-24 -102h-357zM547 725q-30 0 -49 15t-19 43q0 41 23 61t60 20q31 0 49.5 -15t18.5 -42q0 -42 -23 -62t-60 -20zM335 725q-30 0 -49 15t-19 43q0 41 23 61t60 20
q31 0 49.5 -15t18.5 -42q0 -42 -23 -62t-60 -20z" />
    <glyph glyph-name="Aring" unicode="&#xc5;" horiz-adv-x="660" 
d="M-48 0l390 660h168l82 -660h-132l-46 438l-9 107h-2l-55 -105l-249 -440h-147zM134 167l23 102h358l-24 -102h-357zM439 844q57 0 92 -32t35 -80q0 -59 -39 -97t-99 -38q-57 0 -92 31.5t-35 79.5q0 59 39 97.5t99 38.5zM437 779q-25 0 -43.5 -17.5t-18.5 -46.5
q0 -23 16 -38t40 -15q25 0 42.5 17.5t17.5 46.5q0 23 -14.5 38t-39.5 15z" />
    <glyph glyph-name="AE" unicode="&#xc6;" horiz-adv-x="923" 
d="M-58 0l461 660h564l-26 -108h-314l-39 -168h240l-24 -103h-239l-41 -173h329l-25 -108h-460l47 202h-185l-137 -202h-151zM290 301h148l59 254h-29z" />
    <glyph glyph-name="Ccedilla" unicode="&#xc7;" horiz-adv-x="683" 
d="M359 -10q-83 0 -148.5 33.5t-104 97t-38.5 153.5q0 81 23 152t68 126t110.5 86.5t149.5 31.5q71 0 125.5 -23t90.5 -68.5t50 -112.5l-136 -34q-10 65 -43.5 95t-91.5 30q-52 0 -90.5 -25.5t-64 -66.5t-38.5 -90.5t-13 -97.5q0 -55 20 -93.5t56 -59.5t83 -21q57 0 89.5 27
t54.5 71l126 -51q-43 -74 -109.5 -117t-168.5 -43zM275 6l46 23q52 -14 79.5 -43t27.5 -73q0 -41 -18.5 -70t-49.5 -44t-70 -15q-37 0 -65 12.5t-44 29.5l39 65q13 -13 31.5 -19.5t35.5 -6.5q27 0 44 17.5t17 42.5q0 27 -18 46t-55 35z" />
    <glyph glyph-name="Egrave" unicode="&#xc8;" horiz-adv-x="625" 
d="M26 0l153 660h491l-26 -111h-353l-38 -164h278l-24 -106h-278l-38 -168h365l-26 -111h-504zM452 892l35 -162h-91l-67 162h123z" />
    <glyph glyph-name="Eacute" unicode="&#xc9;" horiz-adv-x="625" 
d="M26 0l153 660h491l-26 -111h-353l-38 -164h278l-24 -106h-278l-38 -168h365l-26 -111h-504zM464 892h133l-124 -162h-106z" />
    <glyph glyph-name="Ecircumflex" unicode="&#xca;" horiz-adv-x="625" 
d="M26 0l153 660h491l-26 -111h-353l-38 -164h278l-24 -106h-278l-38 -168h365l-26 -111h-504zM540 892l67 -162h-97l-49 97l-92 -97h-108l142 162h137z" />
    <glyph glyph-name="Edieresis" unicode="&#xcb;" horiz-adv-x="625" 
d="M26 0l153 660h491l-26 -111h-353l-38 -164h278l-24 -106h-278l-38 -168h365l-26 -111h-504zM546 725q-30 0 -49 15t-19 43q0 41 23 61t60 20q31 0 49.5 -15t18.5 -42q0 -42 -23 -62t-60 -20zM334 725q-30 0 -49 15t-19 43q0 41 23 61t60 20q31 0 49.5 -15t18.5 -42
q0 -42 -23 -62t-60 -20z" />
    <glyph glyph-name="Igrave" unicode="&#xcc;" horiz-adv-x="306" 
d="M317 660l-153 -660h-138l153 660h138zM276 892l35 -162h-91l-67 162h123z" />
    <glyph glyph-name="Iacute" unicode="&#xcd;" horiz-adv-x="306" 
d="M317 660l-153 -660h-138l153 660h138zM305 892h133l-124 -162h-106z" />
    <glyph glyph-name="Icircumflex" unicode="&#xce;" horiz-adv-x="306" 
d="M317 660l-153 -660h-138l153 660h138zM369 892l67 -162h-97l-49 97l-92 -97h-108l142 162h137z" />
    <glyph glyph-name="Idieresis" unicode="&#xcf;" horiz-adv-x="306" 
d="M368 725q-30 0 -49 15t-19 43q0 41 23 61t60 20q30 0 48.5 -15t18.5 -42q0 -42 -22.5 -62t-59.5 -20zM168 725q-30 0 -49 15t-19 43q0 41 23.5 61t60.5 20q30 0 48.5 -15t18.5 -42q0 -42 -23 -62t-60 -20zM317 660l-153 -660h-138l153 660h138z" />
    <glyph glyph-name="Eth" unicode="&#xd0;" horiz-adv-x="730" 
d="M19 280l23 103h382l-24 -103h-381zM49 0l153 660h217q91 0 153 -34.5t95 -95t33 -140.5q0 -85 -25.5 -156.5t-74 -124t-117 -81t-153.5 -28.5h-281zM212 110h119q55 0 97.5 23t71 62t43.5 88.5t15 101.5q0 49 -16.5 86t-51 58t-87.5 21h-89z" />
    <glyph glyph-name="Ntilde" unicode="&#xd1;" horiz-adv-x="729" 
d="M26 0l153 660h152l135 -391l35 -117h2l25 126l88 382h124l-153 -660h-150l-138 388l-35 116h-2l-23 -122l-89 -382h-124zM681 878q-12 -75 -50 -112.5t-86 -37.5q-26 0 -44.5 9.5t-31.5 21.5t-25.5 21.5t-26.5 9.5q-17 0 -29.5 -16.5t-19.5 -45.5h-83q12 74 49 112t86 38
q24 0 42 -9.5t32 -22t27 -22t27 -9.5q17 0 29.5 16.5t19.5 46.5h84z" />
    <glyph glyph-name="Ograve" unicode="&#xd2;" horiz-adv-x="736" 
d="M356 -10q-79 0 -144.5 34t-104 99t-38.5 157q0 81 23 151.5t67.5 124t110 84t148.5 30.5q80 0 144.5 -34t103 -99t38.5 -157q0 -80 -23 -150.5t-67.5 -124.5t-109.5 -84.5t-148 -30.5zM363 104q50 0 87.5 24.5t62.5 66t37.5 91t12.5 99.5q0 55 -18.5 93t-52.5 58t-81 20
q-50 0 -87.5 -24.5t-63 -65.5t-38.5 -91t-13 -100q0 -54 19 -92.5t53.5 -58.5t81.5 -20zM469 892l35 -162h-91l-67 162h123z" />
    <glyph glyph-name="Oacute" unicode="&#xd3;" horiz-adv-x="736" 
d="M356 -10q-79 0 -144.5 34t-104 99t-38.5 157q0 81 23 151.5t67.5 124t110 84t148.5 30.5q80 0 144.5 -34t103 -99t38.5 -157q0 -80 -23 -150.5t-67.5 -124.5t-109.5 -84.5t-148 -30.5zM363 104q50 0 87.5 24.5t62.5 66t37.5 91t12.5 99.5q0 55 -18.5 93t-52.5 58t-81 20
q-50 0 -87.5 -24.5t-63 -65.5t-38.5 -91t-13 -100q0 -54 19 -92.5t53.5 -58.5t81.5 -20zM486 892h133l-124 -162h-106z" />
    <glyph glyph-name="Ocircumflex" unicode="&#xd4;" horiz-adv-x="736" 
d="M356 -10q-79 0 -144.5 34t-104 99t-38.5 157q0 81 23 151.5t67.5 124t110 84t148.5 30.5q80 0 144.5 -34t103 -99t38.5 -157q0 -80 -23 -150.5t-67.5 -124.5t-109.5 -84.5t-148 -30.5zM363 104q50 0 87.5 24.5t62.5 66t37.5 91t12.5 99.5q0 55 -18.5 93t-52.5 58t-81 20
q-50 0 -87.5 -24.5t-63 -65.5t-38.5 -91t-13 -100q0 -54 19 -92.5t53.5 -58.5t81.5 -20zM558 892l67 -162h-97l-49 97l-92 -97h-108l142 162h137z" />
    <glyph glyph-name="Otilde" unicode="&#xd5;" horiz-adv-x="736" 
d="M356 -10q-79 0 -144.5 34t-104 99t-38.5 157q0 81 23 151.5t67.5 124t110 84t148.5 30.5q80 0 144.5 -34t103 -99t38.5 -157q0 -80 -23 -150.5t-67.5 -124.5t-109.5 -84.5t-148 -30.5zM363 104q50 0 87.5 24.5t62.5 66t37.5 91t12.5 99.5q0 55 -18.5 93t-52.5 58t-81 20
q-50 0 -87.5 -24.5t-63 -65.5t-38.5 -91t-13 -100q0 -54 19 -92.5t53.5 -58.5t81.5 -20zM663 878q-12 -75 -50 -112.5t-86 -37.5q-26 0 -44.5 9.5t-31.5 21.5t-25.5 21.5t-26.5 9.5q-17 0 -29.5 -16.5t-19.5 -45.5h-83q12 74 49 112t86 38q24 0 42 -9.5t32 -22t27 -22
t27 -9.5q17 0 29.5 16.5t19.5 46.5h84z" />
    <glyph glyph-name="Odieresis" unicode="&#xd6;" horiz-adv-x="736" 
d="M356 -10q-79 0 -144.5 34t-104 99t-38.5 157q0 81 23 151.5t67.5 124t110 84t148.5 30.5q80 0 144.5 -34t103 -99t38.5 -157q0 -80 -23 -150.5t-67.5 -124.5t-109.5 -84.5t-148 -30.5zM363 104q50 0 87.5 24.5t62.5 66t37.5 91t12.5 99.5q0 55 -18.5 93t-52.5 58t-81 20
q-50 0 -87.5 -24.5t-63 -65.5t-38.5 -91t-13 -100q0 -54 19 -92.5t53.5 -58.5t81.5 -20zM563 725q-30 0 -49 15t-19 43q0 41 23 61t60 20q31 0 49.5 -15t18.5 -42q0 -42 -23 -62t-60 -20zM351 725q-30 0 -49 15t-19 43q0 41 23 61t60 20q31 0 49.5 -15t18.5 -42
q0 -42 -23 -62t-60 -20z" />
    <glyph glyph-name="multiply" unicode="&#xd7;" 
d="M102 85l-66 87l479 389l67 -87zM422 85l-312 408l86 68l311 -408z" />
    <glyph glyph-name="Oslash" unicode="&#xd8;" horiz-adv-x="736" 
d="M234 115l-41 47l346 390l37 -51zM33 -15l134 150l42 -45l-96 -105h-80zM588 512l-28 60l94 104h81zM356 -10q-79 0 -144.5 34t-104 99t-38.5 157q0 81 23 151.5t67.5 124t110 84t148.5 30.5q80 0 144.5 -34t103 -99t38.5 -157q0 -80 -23 -150.5t-67.5 -124.5
t-109.5 -84.5t-148 -30.5zM363 104q50 0 87.5 24.5t62.5 66t37.5 91t12.5 99.5q0 55 -18.5 93t-52.5 58t-81 20q-50 0 -87.5 -24.5t-63 -65.5t-38.5 -91t-13 -100q0 -54 19 -92.5t53.5 -58.5t81.5 -20z" />
    <glyph glyph-name="Ugrave" unicode="&#xd9;" horiz-adv-x="700" 
d="M328 -10q-95 0 -158.5 36t-87.5 103t-3 161l87 370h139l-90 -392q-12 -54 0.5 -91t44.5 -55.5t79 -18.5q64 0 100.5 39.5t52.5 110.5l94 407h138l-97 -419q-28 -120 -101 -185.5t-198 -65.5zM470 880l35 -162h-91l-67 162h123z" />
    <glyph glyph-name="Uacute" unicode="&#xda;" horiz-adv-x="700" 
d="M328 -10q-95 0 -158.5 36t-87.5 103t-3 161l87 370h139l-90 -392q-12 -54 0.5 -91t44.5 -55.5t79 -18.5q64 0 100.5 39.5t52.5 110.5l94 407h138l-97 -419q-28 -120 -101 -185.5t-198 -65.5zM487 880h133l-124 -162h-106z" />
    <glyph glyph-name="Ucircumflex" unicode="&#xdb;" horiz-adv-x="700" 
d="M328 -10q-95 0 -158.5 36t-87.5 103t-3 161l87 370h139l-90 -392q-12 -54 0.5 -91t44.5 -55.5t79 -18.5q64 0 100.5 39.5t52.5 110.5l94 407h138l-97 -419q-28 -120 -101 -185.5t-198 -65.5zM559 880l67 -162h-97l-49 97l-92 -97h-108l142 162h137z" />
    <glyph glyph-name="Udieresis" unicode="&#xdc;" horiz-adv-x="700" 
d="M328 -10q-95 0 -158.5 36t-87.5 103t-3 161l87 370h139l-90 -392q-12 -54 0.5 -91t44.5 -55.5t79 -18.5q64 0 100.5 39.5t52.5 110.5l94 407h138l-97 -419q-28 -120 -101 -185.5t-198 -65.5zM564 713q-30 0 -49 15t-19 43q0 41 23 61t60 20q31 0 49.5 -15t18.5 -42
q0 -42 -23 -62t-60 -20zM352 713q-30 0 -49 15t-19 43q0 41 23 61t60 20q31 0 49.5 -15t18.5 -42q0 -42 -23 -62t-60 -20z" />
    <glyph glyph-name="Yacute" unicode="&#xdd;" horiz-adv-x="619" 
d="M183 0l58 250l-133 410h136l60 -199l27 -106l72 109l147 196h152l-325 -420l-56 -240h-138zM436 880h133l-124 -162h-106z" />
    <glyph glyph-name="Thorn" unicode="&#xde;" horiz-adv-x="648" 
d="M138 121l24 109h194q45 0 74.5 17t44 45.5t14.5 61.5q0 40 -28.5 63.5t-84.5 23.5h-168l27 110h155q111 0 174 -51.5t63 -140.5q0 -69 -33.5 -123t-94 -84.5t-141.5 -30.5h-220zM26 0l153 660h138l-153 -660h-138z" />
    <glyph glyph-name="germandbls" unicode="&#xdf;" horiz-adv-x="622" 
d="M349 -10q-44 0 -80 9t-57 23l38 98q15 -11 37 -18t49 -7q36 0 60.5 17t37 44.5t12.5 58.5q0 47 -30.5 75t-88.5 28q-8 0 -14.5 -0.5t-14.5 -1.5l29 103q9 -1 18 -1.5t16 -0.5q42 0 70 15t42 41.5t14 59.5q0 29 -12.5 47.5t-33 28t-48.5 9.5q-52 0 -84 -31.5t-49 -107.5
l-111 -479h-137l116 505q26 112 96 165.5t180 53.5q69 0 117 -21.5t73 -59.5t25 -88q0 -55 -23.5 -97t-63.5 -66t-91 -26v-2q34 -3 64.5 -21.5t49.5 -50.5t19 -78q0 -68 -29 -118.5t-79.5 -78t-116.5 -27.5z" />
    <glyph glyph-name="agrave" unicode="&#xe0;" horiz-adv-x="617" 
d="M222 -9q-53 0 -94 25.5t-64.5 71.5t-23.5 111q0 61 18 117t50.5 99.5t79 69t102.5 25.5q37 0 69 -13t54 -39t31 -66l25 108h137l-116 -500h-124l17 94q-24 -47 -67 -75t-94 -28zM277 95q28 0 53 16.5t43.5 45t29 64t10.5 73.5q0 34 -12 59t-33.5 38.5t-50.5 13.5
q-33 0 -59 -16.5t-44.5 -44.5t-28.5 -62.5t-10 -70.5t11.5 -62t34 -40t56.5 -14zM372 742l35 -170h-97l-67 170h129z" />
    <glyph glyph-name="aacute" unicode="&#xe1;" horiz-adv-x="617" 
d="M222 -9q-53 0 -94 25.5t-64.5 71.5t-23.5 111q0 61 18 117t50.5 99.5t79 69t102.5 25.5q37 0 69 -13t54 -39t31 -66l25 108h137l-116 -500h-124l17 94q-24 -47 -67 -75t-94 -28zM277 95q28 0 53 16.5t43.5 45t29 64t10.5 73.5q0 34 -12 59t-33.5 38.5t-50.5 13.5
q-33 0 -59 -16.5t-44.5 -44.5t-28.5 -62.5t-10 -70.5t11.5 -62t34 -40t56.5 -14zM398 742h139l-146 -170h-108z" />
    <glyph glyph-name="acircumflex" unicode="&#xe2;" horiz-adv-x="617" 
d="M222 -9q-53 0 -94 25.5t-64.5 71.5t-23.5 111q0 61 18 117t50.5 99.5t79 69t102.5 25.5q37 0 69 -13t54 -39t31 -66l25 108h137l-116 -500h-124l17 94q-24 -47 -67 -75t-94 -28zM277 95q28 0 53 16.5t43.5 45t29 64t10.5 73.5q0 34 -12 59t-33.5 38.5t-50.5 13.5
q-33 0 -59 -16.5t-44.5 -44.5t-28.5 -62.5t-10 -70.5t11.5 -62t34 -40t56.5 -14zM170 565l150 171h137l72 -171h-100l-52 98l-97 -98h-110z" />
    <glyph glyph-name="atilde" unicode="&#xe3;" horiz-adv-x="617" 
d="M222 -9q-53 0 -94 25.5t-64.5 71.5t-23.5 111q0 61 18 117t50.5 99.5t79 69t102.5 25.5q37 0 69 -13t54 -39t31 -66l25 108h137l-116 -500h-124l17 94q-24 -47 -67 -75t-94 -28zM277 95q28 0 53 16.5t43.5 45t29 64t10.5 73.5q0 34 -12 59t-33.5 38.5t-50.5 13.5
q-33 0 -59 -16.5t-44.5 -44.5t-28.5 -62.5t-10 -70.5t11.5 -62t34 -40t56.5 -14zM565 718q-12 -75 -50 -112.5t-86 -37.5q-26 0 -44.5 9.5t-31.5 21.5t-25.5 21.5t-26.5 9.5q-17 0 -29.5 -16.5t-19.5 -45.5h-83q12 74 49 112t86 38q24 0 42 -9.5t32 -22t27 -22t27 -9.5
q17 0 29.5 16.5t19.5 46.5h84z" />
    <glyph glyph-name="adieresis" unicode="&#xe4;" horiz-adv-x="617" 
d="M222 -9q-53 0 -94 25.5t-64.5 71.5t-23.5 111q0 61 18 117t50.5 99.5t79 69t102.5 25.5q37 0 69 -13t54 -39t31 -66l25 108h137l-116 -500h-124l17 94q-24 -47 -67 -75t-94 -28zM277 95q28 0 53 16.5t43.5 45t29 64t10.5 73.5q0 34 -12 59t-33.5 38.5t-50.5 13.5
q-33 0 -59 -16.5t-44.5 -44.5t-28.5 -62.5t-10 -70.5t11.5 -62t34 -40t56.5 -14zM465 565q-30 0 -49 15t-19 43q0 41 23 61t60 20q31 0 49.5 -15t18.5 -42q0 -42 -23 -62t-60 -20zM253 565q-30 0 -49 15t-19 43q0 41 23 61t60 20q31 0 49.5 -15t18.5 -42q0 -42 -23 -62
t-60 -20z" />
    <glyph glyph-name="aring" unicode="&#xe5;" horiz-adv-x="617" 
d="M222 -9q-53 0 -94 25.5t-64.5 71.5t-23.5 111q0 61 18 117t50.5 99.5t79 69t102.5 25.5q37 0 69 -13t54 -39t31 -66l25 108h137l-116 -500h-124l17 94q-24 -47 -67 -75t-94 -28zM277 95q28 0 53 16.5t43.5 45t29 64t10.5 73.5q0 34 -12 59t-33.5 38.5t-50.5 13.5
q-33 0 -59 -16.5t-44.5 -44.5t-28.5 -62.5t-10 -70.5t11.5 -62t34 -40t56.5 -14zM377 807q57 0 92 -32t35 -80q0 -59 -39 -97t-99 -38q-57 0 -92 31.5t-35 79.5q0 59 39 97.5t99 38.5zM375 742q-25 0 -43.5 -17.5t-18.5 -46.5q0 -23 16 -38t40 -15q25 0 42.5 17.5t17.5 46.5
q0 23 -14.5 38t-39.5 15z" />
    <glyph glyph-name="ae" unicode="&#xe6;" horiz-adv-x="884" 
d="M193 -10q-81 0 -124 39t-43 100q0 47 23.5 77.5t63.5 47.5t88 23l185 23l-9 -82l-124 -17q-46 -6 -72.5 -16t-26.5 -44q0 -24 18 -39t52 -15q47 0 76 23.5t39 69.5l28 123q2 8 2.5 15.5t0.5 14.5q0 35 -22.5 56.5t-63.5 21.5q-43 0 -70 -20.5t-44 -61.5l-109 37
q23 67 80.5 105t149.5 38q48 0 84 -15t57.5 -40.5t23.5 -57.5l-24 9q22 31 52 54.5t69.5 36.5t88.5 13q61 0 105.5 -26t69 -72t24.5 -105q0 -23 -2.5 -48t-9.5 -52h-361l10 94h231q1 4 1 8v8q0 30 -10.5 50.5t-29 31.5t-42.5 11q-41 0 -69 -18.5t-44.5 -48t-24 -65
t-7.5 -70.5q0 -36 14 -62t39.5 -40t58.5 -14q40 0 65.5 18t41.5 47l112 -50q-19 -36 -52.5 -61.5t-76.5 -39.5t-92 -14q-59 0 -105 22t-72.5 59.5t-29.5 82.5l28 -1q-6 -42 -34 -79.5t-75 -61t-112 -23.5z" />
    <glyph glyph-name="ccedilla" unicode="&#xe7;" horiz-adv-x="554" 
d="M283 -9q-75 0 -129.5 29.5t-82.5 81t-28 115.5q0 83 33 149t95.5 104.5t149.5 38.5q64 0 112.5 -21.5t76.5 -60.5t33 -90l-134 -24q0 41 -21.5 67.5t-69.5 26.5q-31 0 -57 -16t-45 -44t-28.5 -64t-9.5 -75q0 -34 12.5 -60.5t36.5 -41t59 -14.5q32 0 59 19t39 53l125 -42
q-28 -62 -87.5 -96.5t-138.5 -34.5zM196 7l46 23q52 -14 79.5 -43t27.5 -73q0 -41 -18.5 -70t-49.5 -44t-70 -15q-37 0 -65 12.5t-44 29.5l39 65q13 -13 31.5 -19.5t35.5 -6.5q27 0 44 17.5t17 42.5q0 27 -18 46t-55 35z" />
    <glyph glyph-name="egrave" unicode="&#xe8;" horiz-adv-x="578" 
d="M280 -9q-72 0 -125.5 29t-83 80t-29.5 117q0 82 33 148t95 105t149 39q69 0 117.5 -27t74 -77t25.5 -119q0 -20 -2 -40.5t-8 -40.5h-400v95h316l-43 -28q4 13 5 23.5t1 20.5q0 30 -11 50.5t-31 31.5t-48 11q-41 0 -68.5 -18t-44 -47.5t-23.5 -64.5t-7 -69
q0 -37 14.5 -63.5t40.5 -41t61 -14.5q41 0 67 18.5t41 46.5l112 -50q-19 -36 -52.5 -61.5t-78 -39.5t-97.5 -14zM360 742l35 -170h-97l-67 170h129z" />
    <glyph glyph-name="eacute" unicode="&#xe9;" horiz-adv-x="578" 
d="M280 -9q-72 0 -125.5 29t-83 80t-29.5 117q0 82 33 148t95 105t149 39q69 0 117.5 -27t74 -77t25.5 -119q0 -20 -2 -40.5t-8 -40.5h-400v95h316l-43 -28q4 13 5 23.5t1 20.5q0 30 -11 50.5t-31 31.5t-48 11q-41 0 -68.5 -18t-44 -47.5t-23.5 -64.5t-7 -69
q0 -37 14.5 -63.5t40.5 -41t61 -14.5q41 0 67 18.5t41 46.5l112 -50q-19 -36 -52.5 -61.5t-78 -39.5t-97.5 -14zM386 742h139l-146 -170h-108z" />
    <glyph glyph-name="ecircumflex" unicode="&#xea;" horiz-adv-x="578" 
d="M280 -9q-72 0 -125.5 29t-83 80t-29.5 117q0 82 33 148t95 105t149 39q69 0 117.5 -27t74 -77t25.5 -119q0 -20 -2 -40.5t-8 -40.5h-400v95h316l-43 -28q4 13 5 23.5t1 20.5q0 30 -11 50.5t-31 31.5t-48 11q-41 0 -68.5 -18t-44 -47.5t-23.5 -64.5t-7 -69
q0 -37 14.5 -63.5t40.5 -41t61 -14.5q41 0 67 18.5t41 46.5l112 -50q-19 -36 -52.5 -61.5t-78 -39.5t-97.5 -14zM158 565l150 171h137l72 -171h-100l-52 98l-97 -98h-110z" />
    <glyph glyph-name="edieresis" unicode="&#xeb;" horiz-adv-x="578" 
d="M280 -9q-72 0 -125.5 29t-83 80t-29.5 117q0 82 33 148t95 105t149 39q69 0 117.5 -27t74 -77t25.5 -119q0 -20 -2 -40.5t-8 -40.5h-400v95h316l-43 -28q4 13 5 23.5t1 20.5q0 30 -11 50.5t-31 31.5t-48 11q-41 0 -68.5 -18t-44 -47.5t-23.5 -64.5t-7 -69
q0 -37 14.5 -63.5t40.5 -41t61 -14.5q41 0 67 18.5t41 46.5l112 -50q-19 -36 -52.5 -61.5t-78 -39.5t-97.5 -14zM453 565q-30 0 -49 15t-19 43q0 41 23 61t60 20q31 0 49.5 -15t18.5 -42q0 -42 -23 -62t-60 -20zM241 565q-30 0 -49 15t-19 43q0 41 23 61t60 20
q31 0 49.5 -15t18.5 -42q0 -42 -23 -62t-60 -20z" />
    <glyph glyph-name="igrave" unicode="&#xec;" horiz-adv-x="277" 
d="M265 500l-116 -500h-137l116 500h137zM230 742l35 -170h-97l-67 170h129z" />
    <glyph glyph-name="iacute" unicode="&#xed;" horiz-adv-x="277" 
d="M265 500l-116 -500h-137l116 500h137zM256 742h139l-146 -170h-108z" />
    <glyph glyph-name="icircumflex" unicode="&#xee;" horiz-adv-x="277" 
d="M265 500l-116 -500h-137l116 500h137zM28 565l150 171h137l72 -171h-100l-52 98l-97 -98h-110z" />
    <glyph glyph-name="idieresis" unicode="&#xef;" horiz-adv-x="277" 
d="M316 565q-30 0 -49 15t-19 43q0 41 23.5 61t60.5 20q30 0 48.5 -15t18.5 -42q0 -42 -23 -62t-60 -20zM117 565q-30 0 -49 15t-19 43q0 41 23 61t60 20q30 0 49 -15t19 -42q0 -42 -23 -62t-60 -20zM265 500l-116 -500h-137l116 500h137z" />
    <glyph glyph-name="eth" unicode="&#xf0;" horiz-adv-x="598" 
d="M270 -10q-69 0 -120.5 29.5t-79.5 81t-28 117.5q0 78 32.5 140.5t90 99t130.5 36.5q51 0 88 -17t57 -48t20 -74l-13 -9q2 12 2.5 24t0.5 25q0 68 -21 126.5t-63.5 109t-107.5 94.5h129q41 -22 73 -57.5t55 -81t35 -97.5t12 -106q0 -81 -19 -152.5t-55.5 -125.5t-91 -84.5
t-126.5 -30.5zM284 92q31 0 56 17t42.5 45.5t27 62.5t9.5 68q0 37 -14 61.5t-38 36.5t-55 12t-56.5 -17t-43 -45.5t-27 -61.5t-9.5 -65q0 -34 13 -59.5t37.5 -40t57.5 -14.5zM251 540l-10 58l174 33l31 -50zM474 585l-26 51l163 35l13 -57z" />
    <glyph glyph-name="ntilde" unicode="&#xf1;" horiz-adv-x="607" 
d="M12 0l116 500h121l-23 -142l-9 11q20 69 73 105t120 36q55 0 93 -24t53 -68.5t1 -106.5l-72 -311h-137l69 297q11 49 -9.5 77t-64.5 28q-34 0 -60 -15.5t-44 -45.5t-29 -74l-61 -267h-137zM588 718q-12 -75 -50 -112.5t-86 -37.5q-26 0 -44.5 9.5t-31.5 21.5t-25.5 21.5
t-26.5 9.5q-17 0 -29.5 -16.5t-19.5 -45.5h-83q12 74 49 112t86 38q24 0 42 -9.5t32 -22t27 -22t27 -9.5q17 0 29.5 16.5t19.5 46.5h84z" />
    <glyph glyph-name="ograve" unicode="&#xf2;" horiz-adv-x="598" 
d="M281 -9q-74 0 -128 29.5t-82.5 81t-28.5 115.5q0 83 33.5 149t95 104.5t146.5 38.5q76 0 129 -29.5t81.5 -80.5t28.5 -115q0 -82 -33 -148.5t-94.5 -105.5t-147.5 -39zM284 92q29 0 54 16t44 44.5t29 64.5t10 75q0 34 -12 60t-35.5 41t-59.5 15q-29 0 -54.5 -16t-44 -44
t-28.5 -64t-10 -75q0 -33 12 -60t36 -42t59 -15zM368 742l35 -170h-97l-67 170h129z" />
    <glyph glyph-name="oacute" unicode="&#xf3;" horiz-adv-x="598" 
d="M281 -9q-74 0 -128 29.5t-82.5 81t-28.5 115.5q0 83 33.5 149t95 104.5t146.5 38.5q76 0 129 -29.5t81.5 -80.5t28.5 -115q0 -82 -33 -148.5t-94.5 -105.5t-147.5 -39zM284 92q29 0 54 16t44 44.5t29 64.5t10 75q0 34 -12 60t-35.5 41t-59.5 15q-29 0 -54.5 -16t-44 -44
t-28.5 -64t-10 -75q0 -33 12 -60t36 -42t59 -15zM394 742h139l-146 -170h-108z" />
    <glyph glyph-name="ocircumflex" unicode="&#xf4;" horiz-adv-x="598" 
d="M281 -9q-74 0 -128 29.5t-82.5 81t-28.5 115.5q0 83 33.5 149t95 104.5t146.5 38.5q76 0 129 -29.5t81.5 -80.5t28.5 -115q0 -82 -33 -148.5t-94.5 -105.5t-147.5 -39zM284 92q29 0 54 16t44 44.5t29 64.5t10 75q0 34 -12 60t-35.5 41t-59.5 15q-29 0 -54.5 -16t-44 -44
t-28.5 -64t-10 -75q0 -33 12 -60t36 -42t59 -15zM166 565l150 171h137l72 -171h-100l-52 98l-97 -98h-110z" />
    <glyph glyph-name="otilde" unicode="&#xf5;" horiz-adv-x="598" 
d="M281 -9q-74 0 -128 29.5t-82.5 81t-28.5 115.5q0 83 33.5 149t95 104.5t146.5 38.5q76 0 129 -29.5t81.5 -80.5t28.5 -115q0 -82 -33 -148.5t-94.5 -105.5t-147.5 -39zM284 92q29 0 54 16t44 44.5t29 64.5t10 75q0 34 -12 60t-35.5 41t-59.5 15q-29 0 -54.5 -16t-44 -44
t-28.5 -64t-10 -75q0 -33 12 -60t36 -42t59 -15zM561 718q-12 -75 -50 -112.5t-86 -37.5q-26 0 -44.5 9.5t-31.5 21.5t-25.5 21.5t-26.5 9.5q-17 0 -29.5 -16.5t-19.5 -45.5h-83q12 74 49 112t86 38q24 0 42 -9.5t32 -22t27 -22t27 -9.5q17 0 29.5 16.5t19.5 46.5h84z" />
    <glyph glyph-name="odieresis" unicode="&#xf6;" horiz-adv-x="598" 
d="M281 -9q-74 0 -128 29.5t-82.5 81t-28.5 115.5q0 83 33.5 149t95 104.5t146.5 38.5q76 0 129 -29.5t81.5 -80.5t28.5 -115q0 -82 -33 -148.5t-94.5 -105.5t-147.5 -39zM284 92q29 0 54 16t44 44.5t29 64.5t10 75q0 34 -12 60t-35.5 41t-59.5 15q-29 0 -54.5 -16t-44 -44
t-28.5 -64t-10 -75q0 -33 12 -60t36 -42t59 -15zM461 565q-30 0 -49 15t-19 43q0 41 23 61t60 20q31 0 49.5 -15t18.5 -42q0 -42 -23 -62t-60 -20zM249 565q-30 0 -49 15t-19 43q0 41 23 61t60 20q31 0 49.5 -15t18.5 -42q0 -42 -23 -62t-60 -20z" />
    <glyph glyph-name="divide" unicode="&#xf7;" horiz-adv-x="616" 
d="M585 374l-23 -105h-498l24 105h497zM272 38q-32 0 -51.5 17t-19.5 48q0 39 22.5 62.5t57.5 23.5q32 0 51.5 -17t19.5 -48q0 -39 -22 -62.5t-58 -23.5zM368 454q-32 0 -51.5 17t-19.5 47q0 40 22.5 63.5t57.5 23.5q32 0 51.5 -17.5t19.5 -47.5q0 -39 -22 -62.5t-58 -23.5z
" />
    <glyph glyph-name="oslash" unicode="&#xf8;" horiz-adv-x="598" 
d="M281 -9q-74 0 -128 29.5t-82.5 81t-28.5 115.5q0 83 33.5 149t95 104.5t146.5 38.5q76 0 129 -29.5t81.5 -80.5t28.5 -115q0 -82 -33 -148.5t-94.5 -105.5t-147.5 -39zM284 92q29 0 54 16t44 44.5t29 64.5t10 75q0 34 -12 60t-35.5 41t-59.5 15q-29 0 -54.5 -16t-44 -44
t-28.5 -64t-10 -75q0 -33 12 -60t36 -42t59 -15zM-1 -24l524 548h73l-523 -548h-74z" />
    <glyph glyph-name="ugrave" unicode="&#xf9;" horiz-adv-x="606" 
d="M199 -9q-53 0 -91.5 23.5t-55 67.5t-2.5 106l72 312h137l-68 -296q-12 -51 9.5 -78t64.5 -27q35 0 60 15.5t42.5 45.5t27.5 73l62 267h137l-116 -500h-121l23 142l9 -11q-21 -69 -72 -104.5t-118 -35.5zM383 736l35 -170h-97l-67 170h129z" />
    <glyph glyph-name="uacute" unicode="&#xfa;" horiz-adv-x="606" 
d="M199 -9q-53 0 -91.5 23.5t-55 67.5t-2.5 106l72 312h137l-68 -296q-12 -51 9.5 -78t64.5 -27q35 0 60 15.5t42.5 45.5t27.5 73l62 267h137l-116 -500h-121l23 142l9 -11q-21 -69 -72 -104.5t-118 -35.5zM409 736h139l-146 -170h-108z" />
    <glyph glyph-name="ucircumflex" unicode="&#xfb;" horiz-adv-x="606" 
d="M199 -9q-53 0 -91.5 23.5t-55 67.5t-2.5 106l72 312h137l-68 -296q-12 -51 9.5 -78t64.5 -27q35 0 60 15.5t42.5 45.5t27.5 73l62 267h137l-116 -500h-121l23 142l9 -11q-21 -69 -72 -104.5t-118 -35.5zM181 559l150 171h137l72 -171h-100l-52 98l-97 -98h-110z" />
    <glyph glyph-name="udieresis" unicode="&#xfc;" horiz-adv-x="606" 
d="M199 -9q-53 0 -91.5 23.5t-55 67.5t-2.5 106l72 312h137l-68 -296q-12 -51 9.5 -78t64.5 -27q35 0 60 15.5t42.5 45.5t27.5 73l62 267h137l-116 -500h-121l23 142l9 -11q-21 -69 -72 -104.5t-118 -35.5zM476 559q-30 0 -49 15t-19 43q0 41 23 61t60 20q31 0 49.5 -15
t18.5 -42q0 -42 -23 -62t-60 -20zM264 559q-30 0 -49 15t-19 43q0 41 23 61t60 20q31 0 49.5 -15t18.5 -42q0 -42 -23 -62t-60 -20z" />
    <glyph glyph-name="yacute" unicode="&#xfd;" horiz-adv-x="538" 
d="M33 -215q-42 0 -75 9.5t-52 24.5l41 101q34 -30 82 -30q29 0 52 13.5t41 42.5l30 48l-88 506h138l26 -275l11 -123l61 118l149 280h147l-342 -562q-32 -55 -66 -89t-72 -49t-83 -15zM391 736h139l-146 -170h-108z" />
    <glyph glyph-name="thorn" unicode="&#xfe;" horiz-adv-x="617" 
d="M-36 -210l214 929h137l-83 -358l-14 -14q16 75 67 118.5t123 43.5q48 0 86 -24t60.5 -70t22.5 -112q0 -61 -17.5 -118t-50.5 -100.5t-77.5 -69t-98.5 -25.5q-43 0 -80 17t-59.5 51.5t-24.5 85.5l18 24l-86 -378h-137zM303 95q30 0 55.5 16.5t44 44.5t29 63t10.5 71
q0 37 -12 62.5t-34 38.5t-53 13t-56.5 -16t-44 -44t-28.5 -64t-10 -75q0 -50 25 -80t74 -30z" />
    <glyph glyph-name="ydieresis" unicode="&#xff;" horiz-adv-x="538" 
d="M33 -215q-42 0 -75 9.5t-52 24.5l41 101q34 -30 82 -30q29 0 52 13.5t41 42.5l30 48l-88 506h138l26 -275l11 -123l61 118l149 280h147l-342 -562q-32 -55 -66 -89t-72 -49t-83 -15zM458 559q-30 0 -49 15t-19 43q0 41 23 61t60 20q31 0 49.5 -15t18.5 -42q0 -42 -23 -62
t-60 -20zM246 559q-30 0 -49 15t-19 43q0 41 23 61t60 20q31 0 49.5 -15t18.5 -42q0 -42 -23 -62t-60 -20z" />
    <glyph glyph-name="Amacron" unicode="&#x100;" horiz-adv-x="660" 
d="M-48 0l390 660h168l82 -660h-132l-46 438l-9 107h-2l-55 -105l-249 -440h-147zM134 167l23 102h358l-24 -102h-357zM630 830l-21 -91h-342l21 91h342z" />
    <glyph glyph-name="amacron" unicode="&#x101;" horiz-adv-x="617" 
d="M222 -9q-53 0 -94 25.5t-64.5 71.5t-23.5 111q0 61 18 117t50.5 99.5t79 69t102.5 25.5q37 0 69 -13t54 -39t31 -66l25 108h137l-116 -500h-124l17 94q-24 -47 -67 -75t-94 -28zM277 95q28 0 53 16.5t43.5 45t29 64t10.5 73.5q0 34 -12 59t-33.5 38.5t-50.5 13.5
q-33 0 -59 -16.5t-44.5 -44.5t-28.5 -62.5t-10 -70.5t11.5 -62t34 -40t56.5 -14zM548 670l-21 -91h-342l21 91h342z" />
    <glyph glyph-name="Abreve" unicode="&#x102;" horiz-adv-x="660" 
d="M-48 0l390 660h168l82 -660h-132l-46 438l-9 107h-2l-55 -105l-249 -440h-147zM134 167l23 102h358l-24 -102h-357zM624 880q-12 -71 -62 -114t-125 -43q-65 0 -102.5 34t-37.5 87q0 9 1 18t3 18h90q-1 -4 -1.5 -9.5t-0.5 -9.5q0 -26 16.5 -41t44.5 -15q30 0 52.5 19
t28.5 56h93z" />
    <glyph glyph-name="abreve" unicode="&#x103;" horiz-adv-x="617" 
d="M222 -9q-53 0 -94 25.5t-64.5 71.5t-23.5 111q0 61 18 117t50.5 99.5t79 69t102.5 25.5q37 0 69 -13t54 -39t31 -66l25 108h137l-116 -500h-124l17 94q-24 -47 -67 -75t-94 -28zM277 95q28 0 53 16.5t43.5 45t29 64t10.5 73.5q0 34 -12 59t-33.5 38.5t-50.5 13.5
q-33 0 -59 -16.5t-44.5 -44.5t-28.5 -62.5t-10 -70.5t11.5 -62t34 -40t56.5 -14zM544 720q-12 -71 -62 -114t-125 -43q-65 0 -102.5 34t-37.5 87q0 9 1 18t3 18h90q-1 -4 -1.5 -9.5t-0.5 -9.5q0 -26 16.5 -41t44.5 -15q30 0 52.5 19t28.5 56h93z" />
    <glyph glyph-name="Aogonek" unicode="&#x104;" horiz-adv-x="660" 
d="M490 -218q-33 0 -62.5 11t-48 34t-18.5 60t20.5 65.5t60.5 48.5t99 33l51 -34q-34 -8 -64.5 -20t-49 -29.5t-18.5 -44.5q0 -25 18.5 -35t39.5 -10q11 0 19 2t17 4l-6 -75q-13 -5 -28.5 -7.5t-29.5 -2.5zM-48 0l390 660h168l82 -660h-132l-46 438l-9 107h-2l-55 -105
l-249 -440h-147zM134 167l23 102h358l-24 -102h-357z" />
    <glyph glyph-name="aogonek" unicode="&#x105;" horiz-adv-x="617" 
d="M390 -218q-33 0 -62 10t-46.5 31.5t-17.5 56.5t20.5 64t59.5 51.5t93 38.5l53 -34q-62 -27 -94 -48.5t-32 -51.5q0 -24 16.5 -31.5t37.5 -7.5q10 0 18.5 2t17.5 4l-6 -75q-14 -5 -29 -7.5t-29 -2.5zM222 -9q-53 0 -94 25.5t-64.5 71.5t-23.5 111q0 61 18 117t50.5 99.5
t79 69t102.5 25.5q37 0 69 -13t54 -39t31 -66l25 108h137l-116 -500h-124l17 94q-24 -47 -67 -75t-94 -28zM277 95q28 0 53 16.5t43.5 45t29 64t10.5 73.5q0 34 -12 59t-33.5 38.5t-50.5 13.5q-33 0 -59 -16.5t-44.5 -44.5t-28.5 -62.5t-10 -70.5t11.5 -62t34 -40t56.5 -14z
" />
    <glyph glyph-name="Cacute" unicode="&#x106;" horiz-adv-x="683" 
d="M359 -10q-83 0 -148.5 33.5t-104 97t-38.5 153.5q0 81 23 152t68 126t110.5 86.5t149.5 31.5q71 0 125.5 -23t90.5 -68.5t50 -112.5l-136 -34q-10 65 -43.5 95t-91.5 30q-52 0 -90.5 -25.5t-64 -66.5t-38.5 -90.5t-13 -97.5q0 -55 20 -93.5t56 -59.5t83 -21q57 0 89.5 27
t54.5 71l126 -51q-43 -74 -109.5 -117t-168.5 -43zM485 892h133l-124 -162h-106z" />
    <glyph glyph-name="cacute" unicode="&#x107;" horiz-adv-x="554" 
d="M283 -9q-75 0 -129.5 29.5t-82.5 81t-28 115.5q0 83 33 149t95.5 104.5t149.5 38.5q64 0 112.5 -21.5t76.5 -60.5t33 -90l-134 -24q0 41 -21.5 67.5t-69.5 26.5q-31 0 -57 -16t-45 -44t-28.5 -64t-9.5 -75q0 -34 12.5 -60.5t36.5 -41t59 -14.5q32 0 59 19t39 53l125 -42
q-28 -62 -87.5 -96.5t-138.5 -34.5zM395 742h139l-146 -170h-108z" />
    <glyph glyph-name="Ccircumflex" unicode="&#x108;" horiz-adv-x="683" 
d="M359 -10q-83 0 -148.5 33.5t-104 97t-38.5 153.5q0 81 23 152t68 126t110.5 86.5t149.5 31.5q71 0 125.5 -23t90.5 -68.5t50 -112.5l-136 -34q-10 65 -43.5 95t-91.5 30q-52 0 -90.5 -25.5t-64 -66.5t-38.5 -90.5t-13 -97.5q0 -55 20 -93.5t56 -59.5t83 -21q57 0 89.5 27
t54.5 71l126 -51q-43 -74 -109.5 -117t-168.5 -43zM557 892l67 -162h-97l-49 97l-92 -97h-108l142 162h137z" />
    <glyph glyph-name="ccircumflex" unicode="&#x109;" horiz-adv-x="554" 
d="M283 -9q-75 0 -129.5 29.5t-82.5 81t-28 115.5q0 83 33 149t95.5 104.5t149.5 38.5q64 0 112.5 -21.5t76.5 -60.5t33 -90l-134 -24q0 41 -21.5 67.5t-69.5 26.5q-31 0 -57 -16t-45 -44t-28.5 -64t-9.5 -75q0 -34 12.5 -60.5t36.5 -41t59 -14.5q32 0 59 19t39 53l125 -42
q-28 -62 -87.5 -96.5t-138.5 -34.5zM167 565l150 171h137l72 -171h-100l-52 98l-97 -98h-110z" />
    <glyph glyph-name="Cdotaccent" unicode="&#x10a;" horiz-adv-x="683" 
d="M359 -10q-83 0 -148.5 33.5t-104 97t-38.5 153.5q0 81 23 152t68 126t110.5 86.5t149.5 31.5q71 0 125.5 -23t90.5 -68.5t50 -112.5l-136 -34q-10 65 -43.5 95t-91.5 30q-52 0 -90.5 -25.5t-64 -66.5t-38.5 -90.5t-13 -97.5q0 -55 20 -93.5t56 -59.5t83 -21q57 0 89.5 27
t54.5 71l126 -51q-43 -74 -109.5 -117t-168.5 -43zM459 734q-33 0 -53 15.5t-20 44.5q0 43 24.5 64.5t62.5 21.5q34 0 54 -15.5t20 -44.5q0 -44 -24.5 -65t-63.5 -21z" />
    <glyph glyph-name="cdotaccent" unicode="&#x10b;" horiz-adv-x="554" 
d="M283 -9q-75 0 -129.5 29.5t-82.5 81t-28 115.5q0 83 33 149t95.5 104.5t149.5 38.5q64 0 112.5 -21.5t76.5 -60.5t33 -90l-134 -24q0 41 -21.5 67.5t-69.5 26.5q-31 0 -57 -16t-45 -44t-28.5 -64t-9.5 -75q0 -34 12.5 -60.5t36.5 -41t59 -14.5q32 0 59 19t39 53l125 -42
q-28 -62 -87.5 -96.5t-138.5 -34.5zM359 574q-33 0 -53 15.5t-20 44.5q0 43 24.5 64.5t62.5 21.5q34 0 54 -15.5t20 -44.5q0 -44 -24.5 -65t-63.5 -21z" />
    <glyph glyph-name="Ccaron" unicode="&#x10c;" horiz-adv-x="683" 
d="M359 -10q-83 0 -148.5 33.5t-104 97t-38.5 153.5q0 81 23 152t68 126t110.5 86.5t149.5 31.5q71 0 125.5 -23t90.5 -68.5t50 -112.5l-136 -34q-10 65 -43.5 95t-91.5 30q-52 0 -90.5 -25.5t-64 -66.5t-38.5 -90.5t-13 -97.5q0 -55 20 -93.5t56 -59.5t83 -21q57 0 89.5 27
t54.5 71l126 -51q-43 -74 -109.5 -117t-168.5 -43zM379 730l-66 162h96l49 -97l92 97h108l-142 -162h-137z" />
    <glyph glyph-name="ccaron" unicode="&#x10d;" horiz-adv-x="554" 
d="M283 -9q-75 0 -129.5 29.5t-82.5 81t-28 115.5q0 83 33 149t95.5 104.5t149.5 38.5q64 0 112.5 -21.5t76.5 -60.5t33 -90l-134 -24q0 41 -21.5 67.5t-69.5 26.5q-31 0 -57 -16t-45 -44t-28.5 -64t-9.5 -75q0 -34 12.5 -60.5t36.5 -41t59 -14.5q32 0 59 19t39 53l125 -42
q-28 -62 -87.5 -96.5t-138.5 -34.5zM274 572l-72 170h98l53 -98l98 98h110l-150 -170h-137z" />
    <glyph glyph-name="Dcaron" unicode="&#x10e;" horiz-adv-x="707" 
d="M26 0l153 660h218q90 0 152.5 -34.5t95 -95t32.5 -140.5q0 -85 -25.5 -156.5t-74 -124t-116.5 -81t-154 -28.5h-281zM190 110h118q55 0 97.5 23t71.5 62t44 88.5t15 101.5q0 49 -17 86t-51 58t-87 21h-89zM362 730l-66 162h96l49 -97l92 97h108l-142 -162h-137z" />
    <glyph glyph-name="dcaron" unicode="&#x10f;" horiz-adv-x="674" 
d="M833 719l-99 -224h-87l73 224h113zM222 -9q-52 0 -93 25.5t-64.5 71.5t-23.5 111q0 61 17.5 117t50.5 99.5t79 69t103 25.5q37 0 69 -13t54 -39t30 -66l76 327h137l-167 -719h-123l17 94q-24 -47 -67 -75t-95 -28zM277 95q29 0 54 16.5t43.5 45t29 64t10.5 73.5
q0 34 -12 59t-33.5 38.5t-51.5 13.5q-32 0 -58 -16.5t-44.5 -44.5t-28.5 -62.5t-10 -70.5t11.5 -62t34 -40t55.5 -14z" />
    <glyph glyph-name="Dcroat" unicode="&#x110;" horiz-adv-x="730" 
d="M19 280l23 103h382l-24 -103h-381zM49 0l153 660h217q91 0 153 -34.5t95 -95t33 -140.5q0 -85 -25.5 -156.5t-74 -124t-117 -81t-153.5 -28.5h-281zM212 110h119q55 0 97.5 23t71 62t43.5 88.5t15 101.5q0 49 -16.5 86t-51 58t-87.5 21h-89z" />
    <glyph glyph-name="dcroat" unicode="&#x111;" horiz-adv-x="628" 
d="M719 632l-20 -84h-369l19 84h370zM222 -9q-53 0 -94 25.5t-64.5 71.5t-23.5 111q0 61 18 117t50.5 99.5t79 69t102.5 25.5q37 0 69 -13t54 -39t31 -66l75 327h137l-166 -719h-124l17 94q-24 -47 -67 -75t-94 -28zM276 95q29 0 54 16.5t43.5 45t29 64t10.5 73.5
q0 34 -12 59t-33.5 38.5t-50.5 13.5q-33 0 -59 -16.5t-44.5 -44.5t-28.5 -62.5t-10 -70.5t11.5 -62t34 -40t55.5 -14z" />
    <glyph glyph-name="Emacron" unicode="&#x112;" horiz-adv-x="625" 
d="M26 0l153 660h491l-26 -111h-353l-38 -164h278l-24 -106h-278l-38 -168h365l-26 -111h-504zM629 830l-21 -91h-342l21 91h342z" />
    <glyph glyph-name="emacron" unicode="&#x113;" horiz-adv-x="578" 
d="M280 -9q-72 0 -125.5 29t-83 80t-29.5 117q0 82 33 148t95 105t149 39q69 0 117.5 -27t74 -77t25.5 -119q0 -20 -2 -40.5t-8 -40.5h-400v95h316l-43 -28q4 13 5 23.5t1 20.5q0 30 -11 50.5t-31 31.5t-48 11q-41 0 -68.5 -18t-44 -47.5t-23.5 -64.5t-7 -69
q0 -37 14.5 -63.5t40.5 -41t61 -14.5q41 0 67 18.5t41 46.5l112 -50q-19 -36 -52.5 -61.5t-78 -39.5t-97.5 -14zM536 670l-21 -91h-342l21 91h342z" />
    <glyph glyph-name="Ebreve" unicode="&#x114;" horiz-adv-x="625" 
d="M26 0l153 660h491l-26 -111h-353l-38 -164h278l-24 -106h-278l-38 -168h365l-26 -111h-504zM623 880q-12 -71 -62 -114t-125 -43q-65 0 -102.5 34t-37.5 87q0 9 1 18t3 18h90q-1 -4 -1.5 -9.5t-0.5 -9.5q0 -26 16.5 -41t44.5 -15q30 0 52.5 19t28.5 56h93z" />
    <glyph glyph-name="ebreve" unicode="&#x115;" horiz-adv-x="578" 
d="M280 -9q-72 0 -125.5 29t-83 80t-29.5 117q0 82 33 148t95 105t149 39q69 0 117.5 -27t74 -77t25.5 -119q0 -20 -2 -40.5t-8 -40.5h-400v95h316l-43 -28q4 13 5 23.5t1 20.5q0 30 -11 50.5t-31 31.5t-48 11q-41 0 -68.5 -18t-44 -47.5t-23.5 -64.5t-7 -69
q0 -37 14.5 -63.5t40.5 -41t61 -14.5q41 0 67 18.5t41 46.5l112 -50q-19 -36 -52.5 -61.5t-78 -39.5t-97.5 -14zM533 720q-12 -71 -62 -114t-125 -43q-65 0 -102.5 34t-37.5 87q0 9 1 18t3 18h90q-1 -4 -1.5 -9.5t-0.5 -9.5q0 -26 16.5 -41t44.5 -15q30 0 52.5 19t28.5 56
h93z" />
    <glyph glyph-name="Edotaccent" unicode="&#x116;" horiz-adv-x="625" 
d="M26 0l153 660h491l-26 -111h-353l-38 -164h278l-24 -106h-278l-38 -168h365l-26 -111h-504zM443 734q-33 0 -53 15.5t-20 44.5q0 43 24.5 64.5t62.5 21.5q34 0 54 -15.5t20 -44.5q0 -44 -24.5 -65t-63.5 -21z" />
    <glyph glyph-name="edotaccent" unicode="&#x117;" horiz-adv-x="578" 
d="M280 -9q-72 0 -125.5 29t-83 80t-29.5 117q0 82 33 148t95 105t149 39q69 0 117.5 -27t74 -77t25.5 -119q0 -20 -2 -40.5t-8 -40.5h-400v95h316l-43 -28q4 13 5 23.5t1 20.5q0 30 -11 50.5t-31 31.5t-48 11q-41 0 -68.5 -18t-44 -47.5t-23.5 -64.5t-7 -69
q0 -37 14.5 -63.5t40.5 -41t61 -14.5q41 0 67 18.5t41 46.5l112 -50q-19 -36 -52.5 -61.5t-78 -39.5t-97.5 -14zM350 574q-33 0 -53 15.5t-20 44.5q0 43 24.5 64.5t62.5 21.5q34 0 54 -15.5t20 -44.5q0 -44 -24.5 -65t-63.5 -21z" />
    <glyph glyph-name="Eogonek" unicode="&#x118;" horiz-adv-x="625" 
d="M428 -218q-33 0 -62.5 10.5t-48 32.5t-18.5 56q0 35 18 62t59 47t110 32l44 -22q-36 -8 -66 -20t-48 -29.5t-18 -44.5q0 -25 18.5 -35t39.5 -10q10 0 18.5 2t16.5 4l-6 -75q-14 -5 -28.5 -7.5t-28.5 -2.5zM26 0l153 660h491l-26 -111h-353l-38 -164h278l-24 -106h-278
l-38 -168h365l-26 -111h-504z" />
    <glyph glyph-name="eogonek" unicode="&#x119;" horiz-adv-x="578" 
d="M280 -9q-72 0 -125.5 29t-83 80t-29.5 117q0 82 33 148t95 105t149 39q69 0 117.5 -27t74 -77t25.5 -119q0 -20 -2 -40.5t-8 -40.5h-400v95h316l-43 -28q4 13 5 23.5t1 20.5q0 30 -11 50.5t-31 31.5t-48 11q-41 0 -68.5 -18t-44 -47.5t-23.5 -64.5t-7 -69
q0 -37 14.5 -63.5t40.5 -41t61 -14.5q41 0 67 18.5t41 46.5l112 -50q-19 -36 -52.5 -61.5t-78 -39.5t-97.5 -14zM279 -215q-33 0 -62 11.5t-46.5 35t-17.5 59.5q0 38 20 65.5t59.5 47t98.5 32.5l50 -28q-34 -12 -64.5 -25t-48 -30.5t-17.5 -43.5q0 -25 17.5 -34.5t38.5 -9.5
q11 0 19.5 2t16.5 4l-6 -76q-13 -5 -28 -7.5t-30 -2.5z" />
    <glyph glyph-name="Ecaron" unicode="&#x11a;" horiz-adv-x="625" 
d="M26 0l153 660h491l-26 -111h-353l-38 -164h278l-24 -106h-278l-38 -168h365l-26 -111h-504zM363 730l-66 162h96l49 -97l92 97h108l-142 -162h-137z" />
    <glyph glyph-name="ecaron" unicode="&#x11b;" horiz-adv-x="578" 
d="M280 -9q-72 0 -125.5 29t-83 80t-29.5 117q0 82 33 148t95 105t149 39q69 0 117.5 -27t74 -77t25.5 -119q0 -20 -2 -40.5t-8 -40.5h-400v95h316l-43 -28q4 13 5 23.5t1 20.5q0 30 -11 50.5t-31 31.5t-48 11q-41 0 -68.5 -18t-44 -47.5t-23.5 -64.5t-7 -69
q0 -37 14.5 -63.5t40.5 -41t61 -14.5q41 0 67 18.5t41 46.5l112 -50q-19 -36 -52.5 -61.5t-78 -39.5t-97.5 -14zM265 572l-72 170h98l53 -98l98 98h110l-150 -170h-137z" />
    <glyph glyph-name="Gcircumflex" unicode="&#x11c;" horiz-adv-x="712" 
d="M330 -9q-73 0 -132 34t-94.5 98t-35.5 153q0 79 23.5 149.5t68.5 126t111.5 87t152.5 31.5q69 0 124.5 -21t94 -64t51.5 -111l-132 -29q-11 57 -47.5 85t-94.5 28q-49 0 -88.5 -22t-67 -60t-42 -86.5t-14.5 -101.5q0 -58 19 -100t55 -64t88 -22q45 0 77.5 14.5t53.5 41
t30 60.5l8 25h-176l23 100h288l-85 -343h-96l32 147l12 -15q-18 -45 -46.5 -76.5t-68 -48t-92.5 -16.5zM564 892l67 -162h-97l-49 97l-92 -97h-108l142 162h137z" />
    <glyph glyph-name="gcircumflex" unicode="&#x11d;" horiz-adv-x="615" 
d="M211 -215q-44 0 -84 11.5t-71 33.5t-49.5 54.5t-22.5 75.5l138 22q5 -48 27.5 -75t76.5 -27q29 0 54.5 12t45 40t30.5 78l32 143l11 4q-16 -68 -62 -106.5t-112 -38.5q-52 0 -94.5 25.5t-66.5 72t-24 106.5q0 61 18 114t51 93.5t78.5 63.5t100.5 23q43 0 78.5 -18
t57.5 -53.5t22 -87.5l-18 -19l39 168h137l-113 -484q-20 -85 -58.5 -135.5t-94 -73t-127.5 -22.5zM281 115q38 0 67 25t46 66t17 89q0 34 -12 58.5t-34 38t-52 13.5q-42 0 -72.5 -24.5t-47.5 -64.5t-17 -87q0 -50 27 -82t78 -32zM173 565l150 171h137l72 -171h-100l-52 98
l-97 -98h-110z" />
    <glyph glyph-name="Gbreve" unicode="&#x11e;" horiz-adv-x="712" 
d="M330 -9q-73 0 -132 34t-94.5 98t-35.5 153q0 79 23.5 149.5t68.5 126t111.5 87t152.5 31.5q69 0 124.5 -21t94 -64t51.5 -111l-132 -29q-11 57 -47.5 85t-94.5 28q-49 0 -88.5 -22t-67 -60t-42 -86.5t-14.5 -101.5q0 -58 19 -100t55 -64t88 -22q45 0 77.5 14.5t53.5 41
t30 60.5l8 25h-176l23 100h288l-85 -343h-96l32 147l12 -15q-18 -45 -46.5 -76.5t-68 -48t-92.5 -16.5zM646 880q-12 -71 -62 -114t-125 -43q-65 0 -102.5 34t-37.5 87q0 9 1 18t3 18h90q-1 -4 -1.5 -9.5t-0.5 -9.5q0 -26 16.5 -41t44.5 -15q30 0 52.5 19t28.5 56h93z" />
    <glyph glyph-name="gbreve" unicode="&#x11f;" horiz-adv-x="615" 
d="M211 -215q-44 0 -84 11.5t-71 33.5t-49.5 54.5t-22.5 75.5l138 22q5 -48 27.5 -75t76.5 -27q29 0 54.5 12t45 40t30.5 78l32 143l11 4q-16 -68 -62 -106.5t-112 -38.5q-52 0 -94.5 25.5t-66.5 72t-24 106.5q0 61 18 114t51 93.5t78.5 63.5t100.5 23q43 0 78.5 -18
t57.5 -53.5t22 -87.5l-18 -19l39 168h137l-113 -484q-20 -85 -58.5 -135.5t-94 -73t-127.5 -22.5zM281 115q38 0 67 25t46 66t17 89q0 34 -12 58.5t-34 38t-52 13.5q-42 0 -72.5 -24.5t-47.5 -64.5t-17 -87q0 -50 27 -82t78 -32zM548 720q-12 -71 -62 -114t-125 -43
q-65 0 -102.5 34t-37.5 87q0 9 1 18t3 18h90q-1 -4 -1.5 -9.5t-0.5 -9.5q0 -26 16.5 -41t44.5 -15q30 0 52.5 19t28.5 56h93z" />
    <glyph glyph-name="Gdotaccent" unicode="&#x120;" horiz-adv-x="712" 
d="M330 -9q-73 0 -132 34t-94.5 98t-35.5 153q0 79 23.5 149.5t68.5 126t111.5 87t152.5 31.5q69 0 124.5 -21t94 -64t51.5 -111l-132 -29q-11 57 -47.5 85t-94.5 28q-49 0 -88.5 -22t-67 -60t-42 -86.5t-14.5 -101.5q0 -58 19 -100t55 -64t88 -22q45 0 77.5 14.5t53.5 41
t30 60.5l8 25h-176l23 100h288l-85 -343h-96l32 147l12 -15q-18 -45 -46.5 -76.5t-68 -48t-92.5 -16.5zM466 734q-33 0 -53 15.5t-20 44.5q0 43 24.5 64.5t62.5 21.5q34 0 54 -15.5t20 -44.5q0 -44 -24.5 -65t-63.5 -21z" />
    <glyph glyph-name="gdotaccent" unicode="&#x121;" horiz-adv-x="615" 
d="M211 -215q-44 0 -84 11.5t-71 33.5t-49.5 54.5t-22.5 75.5l138 22q5 -48 27.5 -75t76.5 -27q29 0 54.5 12t45 40t30.5 78l32 143l11 4q-16 -68 -62 -106.5t-112 -38.5q-52 0 -94.5 25.5t-66.5 72t-24 106.5q0 61 18 114t51 93.5t78.5 63.5t100.5 23q43 0 78.5 -18
t57.5 -53.5t22 -87.5l-18 -19l39 168h137l-113 -484q-20 -85 -58.5 -135.5t-94 -73t-127.5 -22.5zM281 115q38 0 67 25t46 66t17 89q0 34 -12 58.5t-34 38t-52 13.5q-42 0 -72.5 -24.5t-47.5 -64.5t-17 -87q0 -50 27 -82t78 -32zM365 574q-33 0 -53 15.5t-20 44.5
q0 43 24.5 64.5t62.5 21.5q34 0 54 -15.5t20 -44.5q0 -44 -24.5 -65t-63.5 -21z" />
    <glyph glyph-name="uni0122" unicode="&#x122;" horiz-adv-x="712" 
d="M330 -9q-73 0 -132 34t-94.5 98t-35.5 153q0 79 23.5 149.5t68.5 126t111.5 87t152.5 31.5q69 0 124.5 -21t94 -64t51.5 -111l-132 -29q-11 57 -47.5 85t-94.5 28q-49 0 -88.5 -22t-67 -60t-42 -86.5t-14.5 -101.5q0 -58 19 -100t55 -64t88 -22q45 0 77.5 14.5t53.5 41
t30 60.5l8 25h-176l23 100h288l-85 -343h-96l32 147l12 -15q-18 -45 -46.5 -76.5t-68 -48t-92.5 -16.5zM410 -66l-109 -173h-98l76 173h131z" />
    <glyph glyph-name="uni0123" unicode="&#x123;" horiz-adv-x="615" 
d="M211 -215q-44 0 -84 11.5t-71 33.5t-49.5 54.5t-22.5 75.5l138 22q5 -48 27.5 -75t76.5 -27q29 0 54.5 12t45 40t30.5 78l32 143l11 4q-16 -68 -62 -106.5t-112 -38.5q-52 0 -94.5 25.5t-66.5 72t-24 106.5q0 61 18 114t51 93.5t78.5 63.5t100.5 23q43 0 78.5 -18
t57.5 -53.5t22 -87.5l-18 -19l39 168h137l-113 -484q-20 -85 -58.5 -135.5t-94 -73t-127.5 -22.5zM281 115q38 0 67 25t46 66t17 89q0 34 -12 58.5t-34 38t-52 13.5q-42 0 -72.5 -24.5t-47.5 -64.5t-17 -87q0 -50 27 -82t78 -32zM502 774l-84 -202h-128l119 202h93z" />
    <glyph glyph-name="Hcircumflex" unicode="&#x124;" horiz-adv-x="730" 
d="M741 660l-153 -660h-139l153 660h139zM317 660l-153 -660h-138l153 660h138zM612 389l-26 -111h-427l26 111h427zM581 892l67 -162h-97l-49 97l-92 -97h-108l142 162h137z" />
    <glyph glyph-name="hcircumflex" unicode="&#x125;" horiz-adv-x="607" 
d="M12 0l166 719h137l-76 -328l-16 -17q13 40 40 70.5t65.5 48t85.5 17.5q52 0 89.5 -24t52.5 -67.5t2 -104.5l-73 -314h-137l69 297q11 49 -9.5 77t-64.5 28q-34 0 -60 -15.5t-44 -45.5t-29 -74l-61 -267h-137zM364 938l67 -162h-97l-49 97l-92 -97h-108l142 162h137z" />
    <glyph glyph-name="Hbar" unicode="&#x126;" horiz-adv-x="730" 
d="M741 660l-153 -660h-139l153 660h139zM317 660l-153 -660h-138l153 660h138zM612 389l-26 -111h-427l26 111h427zM795 565l-20 -86h-715l20 86h715z" />
    <glyph glyph-name="hbar" unicode="&#x127;" horiz-adv-x="607" 
d="M84 632h346l-19 -84h-346zM12 0l166 719h137l-76 -328l-16 -17q13 40 40 70.5t65.5 48t85.5 17.5q52 0 89.5 -24t52.5 -67.5t2 -104.5l-73 -314h-137l69 297q11 49 -9.5 77t-64.5 28q-34 0 -60 -15.5t-44 -45.5t-29 -74l-61 -267h-137z" />
    <glyph glyph-name="Itilde" unicode="&#x128;" horiz-adv-x="306" 
d="M317 660l-153 -660h-138l153 660h138zM474 878q-12 -75 -50 -112.5t-86 -37.5q-26 0 -44.5 9.5t-31.5 21.5t-25.5 21.5t-26.5 9.5q-17 0 -29.5 -16.5t-19.5 -45.5h-83q12 74 49 112t86 38q24 0 42 -9.5t32 -22t27 -22t27 -9.5q17 0 29.5 16.5t19.5 46.5h84z" />
    <glyph glyph-name="itilde" unicode="&#x129;" horiz-adv-x="277" 
d="M265 500l-116 -500h-137l116 500h137zM423 718q-12 -75 -50 -112.5t-86 -37.5q-26 0 -44.5 9.5t-31.5 21.5t-25.5 21.5t-26.5 9.5q-17 0 -29.5 -16.5t-19.5 -45.5h-83q12 74 49 112t86 38q24 0 42 -9.5t32 -22t27 -22t27 -9.5q17 0 29.5 16.5t19.5 46.5h84z" />
    <glyph glyph-name="Imacron" unicode="&#x12a;" horiz-adv-x="310" 
d="M418 830l-21 -91h-259l21 91h259zM317 660l-153 -660h-138l153 660h138z" />
    <glyph glyph-name="imacron" unicode="&#x12b;" horiz-adv-x="277" 
d="M353 670l-21 -91h-244l21 91h244zM265 500l-116 -500h-137l116 500h137z" />
    <glyph glyph-name="Ibreve" unicode="&#x12c;" horiz-adv-x="306" 
d="M317 660l-153 -660h-138l153 660h138zM451 880q-12 -71 -62 -114t-125 -43q-65 0 -102.5 34t-37.5 87q0 9 1 18t3 18h90q-1 -4 -1.5 -9.5t-0.5 -9.5q0 -26 16.5 -41t44.5 -15q30 0 52.5 19t28.5 56h93z" />
    <glyph glyph-name="ibreve" unicode="&#x12d;" horiz-adv-x="277" 
d="M265 500l-116 -500h-137l116 500h137zM402 720q-12 -71 -62 -114t-125 -43q-65 0 -102.5 34t-37.5 87q0 9 1 18t3 18h90q-1 -4 -1.5 -9.5t-0.5 -9.5q0 -26 16.5 -41t44.5 -15q30 0 52.5 19t28.5 56h93z" />
    <glyph glyph-name="Iogonek" unicode="&#x12e;" horiz-adv-x="306" 
d="M70 -223q-33 0 -61.5 11t-46 33.5t-17.5 57.5q0 36 18.5 65t55.5 50.5t94 34.5l51 -29q-34 -12 -61.5 -25.5t-42.5 -32t-15 -44.5q0 -25 16 -33.5t37 -8.5q11 0 19.5 2t16.5 4l-6 -75q-13 -5 -28 -7.5t-30 -2.5zM317 660l-153 -660h-138l153 660h138z" />
    <glyph glyph-name="iogonek" unicode="&#x12f;" horiz-adv-x="277" 
d="M55 -223q-33 0 -61.5 11t-46 33.5t-17.5 57.5q0 36 18.5 65t55.5 50.5t94 34.5l51 -29q-35 -12 -62 -25.5t-42.5 -32t-15.5 -44.5q0 -25 16.5 -33.5t37.5 -8.5q11 0 19 2t17 4l-6 -75q-13 -5 -28.5 -7.5t-29.5 -2.5zM222 572q-36 0 -57 17t-18 50q3 41 26.5 60.5
t62.5 19.5q37 0 58 -17t18 -49q-3 -43 -27 -62t-63 -19zM265 500l-116 -500h-137l116 500h137z" />
    <glyph glyph-name="Idotaccent" unicode="&#x130;" horiz-adv-x="306" 
d="M317 660l-153 -660h-138l153 660h138zM271 734q-33 0 -53 15.5t-20 44.5q0 43 24.5 64.5t62.5 21.5q34 0 54 -15.5t20 -44.5q0 -44 -24.5 -65t-63.5 -21z" />
    <glyph glyph-name="dotlessi" unicode="&#x131;" horiz-adv-x="277" 
d="M265 500l-116 -500h-137l116 500h137z" />
    <glyph glyph-name="IJ" unicode="&#x132;" horiz-adv-x="893" 
d="M317 660l-153 -660h-138l153 660h138zM550 -9q-65 0 -112.5 22t-74.5 60t-31 88t17 106l136 6q-19 -54 -16.5 -92t26.5 -58.5t65 -20.5q54 0 80 34.5t43 114.5l95 409h138l-100 -436q-16 -68 -47 -120.5t-83.5 -82.5t-135.5 -30z" />
    <glyph glyph-name="ij" unicode="&#x133;" horiz-adv-x="554" 
d="M222 572q-36 0 -57 17t-18 50q3 41 26.5 60.5t62.5 19.5q37 0 58 -17t18 -49q-3 -43 -27 -62t-63 -19zM265 500l-116 -500h-137l116 500h137zM499 572q-36 0 -57 17t-18 50q3 41 26.5 60.5t62.5 19.5q37 0 58 -17t18 -49q-3 -43 -27 -62t-63 -19zM238 -215q-34 0 -68.5 8
t-55.5 27l34 96q13 -10 29.5 -16t32.5 -6q29 0 45 15.5t25 58.5l125 532h137l-128 -553q-20 -85 -65 -123.5t-111 -38.5z" />
    <glyph glyph-name="Jcircumflex" unicode="&#x134;" horiz-adv-x="587" 
d="M244 -9q-65 0 -112.5 22t-74.5 60t-31 88t17 106l136 6q-19 -54 -16.5 -92t26.5 -58.5t65 -20.5q54 0 80 34.5t43 114.5l95 409h138l-100 -436q-16 -68 -47 -120.5t-83.5 -82.5t-135.5 -30zM662 892l67 -162h-97l-49 97l-92 -97h-108l142 162h137z" />
    <glyph glyph-name="jcircumflex" unicode="&#x135;" horiz-adv-x="277" 
d="M-39 -215q-34 0 -68.5 8t-55.5 27l34 96q13 -10 29.5 -16t32.5 -6q29 0 45 15.5t25 58.5l125 532h137l-128 -553q-20 -85 -65 -123.5t-111 -38.5zM28 565l150 171h137l72 -171h-100l-52 98l-97 -98h-110z" />
    <glyph glyph-name="uni0136" unicode="&#x136;" horiz-adv-x="667" 
d="M26 0l153 660h138l-68 -293l328 293h165l-304 -276l156 -384h-145l-118 295l-124 -109l-43 -186h-138zM364 -66l-109 -173h-98l76 173h131z" />
    <glyph glyph-name="uni0137" unicode="&#x137;" horiz-adv-x="588" 
d="M621 500l-277 -238l-19 -10l-186 -159l15 140l301 267h166zM315 719l-166 -719h-137l166 719h137zM376 341l147 -341h-138l-109 264zM317 -66l-109 -173h-98l76 173h131z" />
    <glyph glyph-name="kgreenlandic" unicode="&#x138;" horiz-adv-x="588" 
d="M621 500l-277 -239l-19 -10l-186 -158l15 146l301 261h166zM265 500l-116 -500h-137l116 500h137zM376 340l147 -340h-138l-109 263z" />
    <glyph glyph-name="Lacute" unicode="&#x139;" horiz-adv-x="597" 
d="M190 111h347l-26 -111h-485l153 660h138zM297 892h133l-124 -162h-106z" />
    <glyph glyph-name="lacute" unicode="&#x13a;" horiz-adv-x="319" 
d="M177 -8q-82 0 -115 46.5t-15 123.5l129 557h137l-129 -557q-9 -36 4.5 -53t47.5 -17q13 0 23 1t18 3l-27 -93q-16 -6 -33 -8.5t-40 -2.5zM195 779l87 145h128l-113 -145h-102z" />
    <glyph glyph-name="uni013B" unicode="&#x13b;" horiz-adv-x="597" 
d="M190 111h347l-26 -111h-485l153 660h138zM345 -66l-109 -173h-98l76 173h131z" />
    <glyph glyph-name="uni013C" unicode="&#x13c;" horiz-adv-x="319" 
d="M177 -8q-82 0 -115 46.5t-15 123.5l129 557h137l-129 -557q-9 -36 4.5 -53t47.5 -17q13 0 23 1t18 3l-27 -93q-16 -6 -33 -8.5t-40 -2.5zM200 -66l-109 -173h-98l76 173h131z" />
    <glyph glyph-name="Lcaron" unicode="&#x13d;" horiz-adv-x="597" 
d="M580 660l-108 -224h-96l79 224h125zM190 111h347l-26 -111h-485l153 660h138z" />
    <glyph glyph-name="lcaron" unicode="&#x13e;" horiz-adv-x="361" 
d="M494 719l-98 -224h-87l73 224h112zM177 -8q-82 0 -115 46.5t-15 123.5l129 557h137l-129 -557q-9 -36 4.5 -53t47.5 -17q13 0 23 1t18 3l-27 -93q-16 -6 -33 -8.5t-40 -2.5z" />
    <glyph glyph-name="Ldot" unicode="&#x13f;" horiz-adv-x="634" 
d="M190 111h347l-26 -111h-485l153 660h138zM490 287q-36 0 -58 18t-22 51q0 42 25 67.5t66 25.5q36 0 58 -18.5t22 -50.5q0 -43 -24.5 -68t-66.5 -25z" />
    <glyph glyph-name="ldot" unicode="&#x140;" horiz-adv-x="453" 
d="M177 -8q-82 0 -115 46.5t-15 123.5l129 557h137l-129 -557q-9 -36 4.5 -53t47.5 -17q13 0 23 1t18 3l-27 -93q-16 -6 -33 -8.5t-40 -2.5zM384 280q-36 0 -58 18t-22 51q0 42 25 67.5t66 25.5q36 0 58 -18.5t22 -50.5q0 -43 -24.5 -68t-66.5 -25z" />
    <glyph glyph-name="Lslash" unicode="&#x141;" horiz-adv-x="642" 
d="M477 499l-28 -117l-441 -204l27 117zM235 111h347l-26 -111h-485l153 660h138z" />
    <glyph glyph-name="lslash" unicode="&#x142;" horiz-adv-x="387" 
d="M18 206l26 111l131 69l61 20l174 97l-26 -111l-148 -83l-51 -15zM226 -8q-82 0 -115 46.5t-15 123.5l129 557h137l-129 -557q-9 -36 4.5 -53t47.5 -17q14 0 23.5 1t17.5 3l-27 -93q-16 -6 -32.5 -8.5t-40.5 -2.5z" />
    <glyph glyph-name="Nacute" unicode="&#x143;" horiz-adv-x="729" 
d="M26 0l153 660h152l135 -391l35 -117h2l25 126l88 382h124l-153 -660h-150l-138 388l-35 116h-2l-23 -122l-89 -382h-124zM504 892h133l-124 -162h-106z" />
    <glyph glyph-name="nacute" unicode="&#x144;" horiz-adv-x="607" 
d="M12 0l116 500h121l-23 -142l-9 11q20 69 73 105t120 36q55 0 93 -24t53 -68.5t1 -106.5l-72 -311h-137l69 297q11 49 -9.5 77t-64.5 28q-34 0 -60 -15.5t-44 -45.5t-29 -74l-61 -267h-137zM421 742h139l-146 -170h-108z" />
    <glyph glyph-name="uni0145" unicode="&#x145;" horiz-adv-x="729" 
d="M26 0l153 660h152l135 -391l35 -117h2l25 126l88 382h124l-153 -660h-150l-138 388l-35 116h-2l-23 -122l-89 -382h-124zM385 -66l-109 -173h-98l76 173h131z" />
    <glyph glyph-name="uni0146" unicode="&#x146;" horiz-adv-x="607" 
d="M12 0l116 500h121l-23 -142l-9 11q20 69 73 105t120 36q55 0 93 -24t53 -68.5t1 -106.5l-72 -311h-137l69 297q11 49 -9.5 77t-64.5 28q-34 0 -60 -15.5t-44 -45.5t-29 -74l-61 -267h-137zM318 -66l-109 -173h-98l76 173h131z" />
    <glyph glyph-name="Ncaron" unicode="&#x147;" horiz-adv-x="729" 
d="M26 0l153 660h152l135 -391l35 -117h2l25 126l88 382h124l-153 -660h-150l-138 388l-35 116h-2l-23 -122l-89 -382h-124zM398 730l-66 162h96l49 -97l92 97h108l-142 -162h-137z" />
    <glyph glyph-name="ncaron" unicode="&#x148;" horiz-adv-x="607" 
d="M12 0l116 500h121l-23 -142l-9 11q20 69 73 105t120 36q55 0 93 -24t53 -68.5t1 -106.5l-72 -311h-137l69 297q11 49 -9.5 77t-64.5 28q-34 0 -60 -15.5t-44 -45.5t-29 -74l-61 -267h-137zM300 572l-72 170h98l53 -98l98 98h110l-150 -170h-137z" />
    <glyph glyph-name="Eng" unicode="&#x14a;" horiz-adv-x="729" 
d="M392 -215q-36 0 -66.5 7.5t-50.5 23.5l39 101q12 -10 29.5 -16.5t37.5 -6.5q28 0 46.5 15.5t29.5 57.5l8 36l-155 373l-47 123h-1l-23 -117l-89 -382h-124l153 660h144l138 -352l48 -125h1l24 122l82 355h124l-165 -713q-20 -85 -68 -123.5t-115 -38.5z" />
    <glyph glyph-name="eng" unicode="&#x14b;" horiz-adv-x="607" 
d="M284 -215q-40 0 -71.5 8.5t-52.5 25.5l40 95q11 -9 28 -15t35 -6q28 0 48 15t29 57l77 332q11 49 -9.5 77t-64.5 28q-34 0 -60 -15.5t-44 -45.5t-29 -74l-61 -267h-137l116 500h121l-14 -87q26 47 72.5 72t102.5 25q55 0 93 -24t53 -68.5t1 -106.5l-82 -357
q-21 -90 -71 -129.5t-120 -39.5z" />
    <glyph glyph-name="Omacron" unicode="&#x14c;" horiz-adv-x="736" 
d="M356 -10q-79 0 -144.5 34t-104 99t-38.5 157q0 81 23 151.5t67.5 124t110 84t148.5 30.5q80 0 144.5 -34t103 -99t38.5 -157q0 -80 -23 -150.5t-67.5 -124.5t-109.5 -84.5t-148 -30.5zM363 104q50 0 87.5 24.5t62.5 66t37.5 91t12.5 99.5q0 55 -18.5 93t-52.5 58t-81 20
q-50 0 -87.5 -24.5t-63 -65.5t-38.5 -91t-13 -100q0 -54 19 -92.5t53.5 -58.5t81.5 -20zM646 830l-21 -91h-342l21 91h342z" />
    <glyph glyph-name="omacron" unicode="&#x14d;" horiz-adv-x="598" 
d="M281 -9q-74 0 -128 29.5t-82.5 81t-28.5 115.5q0 83 33.5 149t95 104.5t146.5 38.5q76 0 129 -29.5t81.5 -80.5t28.5 -115q0 -82 -33 -148.5t-94.5 -105.5t-147.5 -39zM284 92q29 0 54 16t44 44.5t29 64.5t10 75q0 34 -12 60t-35.5 41t-59.5 15q-29 0 -54.5 -16t-44 -44
t-28.5 -64t-10 -75q0 -33 12 -60t36 -42t59 -15zM544 670l-21 -91h-342l21 91h342z" />
    <glyph glyph-name="Obreve" unicode="&#x14e;" horiz-adv-x="736" 
d="M356 -10q-79 0 -144.5 34t-104 99t-38.5 157q0 81 23 151.5t67.5 124t110 84t148.5 30.5q80 0 144.5 -34t103 -99t38.5 -157q0 -80 -23 -150.5t-67.5 -124.5t-109.5 -84.5t-148 -30.5zM363 104q50 0 87.5 24.5t62.5 66t37.5 91t12.5 99.5q0 55 -18.5 93t-52.5 58t-81 20
q-50 0 -87.5 -24.5t-63 -65.5t-38.5 -91t-13 -100q0 -54 19 -92.5t53.5 -58.5t81.5 -20zM640 880q-12 -71 -62 -114t-125 -43q-65 0 -102.5 34t-37.5 87q0 9 1 18t3 18h90q-1 -4 -1.5 -9.5t-0.5 -9.5q0 -26 16.5 -41t44.5 -15q30 0 52.5 19t28.5 56h93z" />
    <glyph glyph-name="obreve" unicode="&#x14f;" horiz-adv-x="598" 
d="M281 -9q-74 0 -128 29.5t-82.5 81t-28.5 115.5q0 83 33.5 149t95 104.5t146.5 38.5q76 0 129 -29.5t81.5 -80.5t28.5 -115q0 -82 -33 -148.5t-94.5 -105.5t-147.5 -39zM284 92q29 0 54 16t44 44.5t29 64.5t10 75q0 34 -12 60t-35.5 41t-59.5 15q-29 0 -54.5 -16t-44 -44
t-28.5 -64t-10 -75q0 -33 12 -60t36 -42t59 -15zM541 720q-12 -71 -62 -114t-125 -43q-65 0 -102.5 34t-37.5 87q0 9 1 18t3 18h90q-1 -4 -1.5 -9.5t-0.5 -9.5q0 -26 16.5 -41t44.5 -15q30 0 52.5 19t28.5 56h93z" />
    <glyph glyph-name="Ohungarumlaut" unicode="&#x150;" horiz-adv-x="736" 
d="M356 -10q-79 0 -144.5 34t-104 99t-38.5 157q0 81 23 151.5t67.5 124t110 84t148.5 30.5q80 0 144.5 -34t103 -99t38.5 -157q0 -80 -23 -150.5t-67.5 -124.5t-109.5 -84.5t-148 -30.5zM363 104q50 0 87.5 24.5t62.5 66t37.5 91t12.5 99.5q0 55 -18.5 93t-52.5 58t-81 20
q-50 0 -87.5 -24.5t-63 -65.5t-38.5 -91t-13 -100q0 -54 19 -92.5t53.5 -58.5t81.5 -20zM493 730l99 162h129l-129 -162h-99zM297 730l99 162h129l-128 -162h-100z" />
    <glyph glyph-name="ohungarumlaut" unicode="&#x151;" horiz-adv-x="598" 
d="M281 -9q-74 0 -128 29.5t-82.5 81t-28.5 115.5q0 83 33.5 149t95 104.5t146.5 38.5q76 0 129 -29.5t81.5 -80.5t28.5 -115q0 -82 -33 -148.5t-94.5 -105.5t-147.5 -39zM284 92q29 0 54 16t44 44.5t29 64.5t10 75q0 34 -12 60t-35.5 41t-59.5 15q-29 0 -54.5 -16t-44 -44
t-28.5 -64t-10 -75q0 -33 12 -60t36 -42t59 -15zM394 572l118 170h131l-145 -170h-104zM192 572l119 170h130l-145 -170h-104z" />
    <glyph glyph-name="OE" unicode="&#x152;" horiz-adv-x="1052" 
d="M340 -10q-71 0 -132.5 33.5t-99.5 96.5t-39 152q-1 80 21 152t66 127.5t108.5 87t146.5 31.5q53 0 97 -15t75.5 -44.5t46.5 -70.5l28 120h439l-26 -111h-328l-38 -164h252l-25 -106h-252l-39 -168h341l-26 -111h-443l19 79q-40 -45 -87.5 -67t-104.5 -22zM360 104
q48 0 85 24t63 64.5t39 90.5t13 102q0 55 -18.5 93t-52 58t-79.5 20q-49 0 -86.5 -24.5t-63 -65.5t-38.5 -91t-13 -100q0 -54 19 -92.5t52.5 -58.5t79.5 -20z" />
    <glyph glyph-name="oe" unicode="&#x153;" horiz-adv-x="954" 
d="M279 -9q-74 0 -127.5 29.5t-81.5 80.5t-28 115q0 83 33.5 149t95.5 105t148 39q42 0 76.5 -10.5t61 -31t44.5 -51.5q35 45 85 69t112 24q67 0 115.5 -26t74 -72t25.5 -105q0 -20 -3 -41.5t-10 -43.5h-351q-1 -3 -1 -6.5v-7.5q0 -36 14.5 -62.5t40.5 -40t60 -13.5
q42 0 68 18t42 47l112 -50q-29 -54 -89 -84.5t-139 -30.5q-40 0 -74.5 10.5t-61.5 31t-47 51.5q-34 -46 -83 -69.5t-112 -23.5zM282 92q31 0 56 16.5t44 44.5t29 64t10 75q0 34 -12 60.5t-35.5 41t-57.5 14.5q-31 0 -56.5 -16.5t-44 -44.5t-28.5 -64t-10 -75q0 -51 27 -83.5
t78 -32.5zM560 297h220q1 5 1 10v9q0 29 -11 50t-31 32t-48 11q-36 0 -62.5 -15t-43 -40.5t-25.5 -56.5z" />
    <glyph glyph-name="Racute" unicode="&#x154;" horiz-adv-x="662" 
d="M26 0l153 660h259q97 0 153.5 -49t56.5 -136q0 -66 -30 -114t-81.5 -75t-114.5 -33l-42 -8h-176l24 105h149q44 0 73.5 15.5t45 42t15.5 59.5q0 42 -29 62.5t-77 20.5h-115l-128 -550h-136zM452 0l-110 284l128 19l123 -303h-141zM462 892h133l-124 -162h-106z" />
    <glyph glyph-name="racute" unicode="&#x155;" horiz-adv-x="410" 
d="M12 0l116 500h119l-24 -157l-9 13q16 47 43 81.5t64 53.5t80 19q17 0 28.5 -2t20.5 -7l-35 -119q-10 5 -23 8t-32 3q-34 0 -65 -15.5t-54 -47.5t-35 -84l-57 -246h-137zM347 742h139l-146 -170h-108z" />
    <glyph glyph-name="uni0156" unicode="&#x156;" horiz-adv-x="662" 
d="M26 0l153 660h259q97 0 153.5 -49t56.5 -136q0 -66 -30 -114t-81.5 -75t-114.5 -33l-42 -8h-176l24 105h149q44 0 73.5 15.5t45 42t15.5 59.5q0 42 -29 62.5t-77 20.5h-115l-128 -550h-136zM452 0l-110 284l128 19l123 -303h-141zM373 -66l-109 -173h-98l76 173h131z" />
    <glyph glyph-name="uni0157" unicode="&#x157;" horiz-adv-x="410" 
d="M12 0l116 500h119l-24 -157l-9 13q16 47 43 81.5t64 53.5t80 19q17 0 28.5 -2t20.5 -7l-35 -119q-10 5 -23 8t-32 3q-34 0 -65 -15.5t-54 -47.5t-35 -84l-57 -246h-137zM144 -66l-109 -173h-98l76 173h131z" />
    <glyph glyph-name="Rcaron" unicode="&#x158;" horiz-adv-x="662" 
d="M26 0l153 660h259q97 0 153.5 -49t56.5 -136q0 -66 -30 -114t-81.5 -75t-114.5 -33l-42 -8h-176l24 105h149q44 0 73.5 15.5t45 42t15.5 59.5q0 42 -29 62.5t-77 20.5h-115l-128 -550h-136zM452 0l-110 284l128 19l123 -303h-141zM356 730l-66 162h96l49 -97l92 97h108
l-142 -162h-137z" />
    <glyph glyph-name="rcaron" unicode="&#x159;" horiz-adv-x="410" 
d="M12 0l116 500h119l-24 -157l-9 13q16 47 43 81.5t64 53.5t80 19q17 0 28.5 -2t20.5 -7l-35 -119q-10 5 -23 8t-32 3q-34 0 -65 -15.5t-54 -47.5t-35 -84l-57 -246h-137zM226 572l-72 170h98l53 -98l98 98h110l-150 -170h-137z" />
    <glyph glyph-name="Sacute" unicode="&#x15a;" horiz-adv-x="639" 
d="M334 -10q-72 0 -133 20t-107.5 58.5t-76.5 97.5l93 77q21 -48 56.5 -79.5t79.5 -46.5t90 -15q38 0 62.5 11.5t36.5 31t12 41.5q0 27 -18.5 43t-55.5 27l-102 31q-47 15 -83 39t-56.5 59t-20.5 79q0 63 33 109.5t90.5 72t133.5 25.5q102 0 170.5 -38t108.5 -110l-97 -75
q-17 41 -46.5 65.5t-64.5 34.5t-73 10q-37 0 -62 -10.5t-37 -28t-12 -39.5q0 -26 22 -46t58 -32l107 -32q74 -24 111.5 -64t37.5 -103q0 -66 -34.5 -114t-93 -73.5t-129.5 -25.5zM447 892h133l-124 -162h-106z" />
    <glyph glyph-name="sacute" unicode="&#x15b;" horiz-adv-x="518" 
d="M254 -11q-55 0 -104 16t-87 46.5t-60 71.5l85 67q23 -46 64 -73.5t93 -27.5q39 0 61 12t22 36q0 18 -13 30.5t-38 19.5l-71 21q-70 21 -102 57t-32 85q0 48 25.5 84t72 56t109.5 20q76 0 134 -28t89 -81l-83 -71q-12 24 -33 42t-47.5 28.5t-57.5 10.5q-41 0 -62.5 -12.5
t-21.5 -35.5q0 -20 18.5 -30t40.5 -17l97 -30q53 -16 81 -49.5t28 -78.5q0 -52 -25.5 -90t-72.5 -58.5t-110 -20.5zM365 742h139l-146 -170h-108z" />
    <glyph glyph-name="Scircumflex" unicode="&#x15c;" horiz-adv-x="639" 
d="M334 -10q-72 0 -133 20t-107.5 58.5t-76.5 97.5l93 77q21 -48 56.5 -79.5t79.5 -46.5t90 -15q38 0 62.5 11.5t36.5 31t12 41.5q0 27 -18.5 43t-55.5 27l-102 31q-47 15 -83 39t-56.5 59t-20.5 79q0 63 33 109.5t90.5 72t133.5 25.5q102 0 170.5 -38t108.5 -110l-97 -75
q-17 41 -46.5 65.5t-64.5 34.5t-73 10q-37 0 -62 -10.5t-37 -28t-12 -39.5q0 -26 22 -46t58 -32l107 -32q74 -24 111.5 -64t37.5 -103q0 -66 -34.5 -114t-93 -73.5t-129.5 -25.5zM519 892l67 -162h-97l-49 97l-92 -97h-108l142 162h137z" />
    <glyph glyph-name="scircumflex" unicode="&#x15d;" horiz-adv-x="518" 
d="M254 -11q-55 0 -104 16t-87 46.5t-60 71.5l85 67q23 -46 64 -73.5t93 -27.5q39 0 61 12t22 36q0 18 -13 30.5t-38 19.5l-71 21q-70 21 -102 57t-32 85q0 48 25.5 84t72 56t109.5 20q76 0 134 -28t89 -81l-83 -71q-12 24 -33 42t-47.5 28.5t-57.5 10.5q-41 0 -62.5 -12.5
t-21.5 -35.5q0 -20 18.5 -30t40.5 -17l97 -30q53 -16 81 -49.5t28 -78.5q0 -52 -25.5 -90t-72.5 -58.5t-110 -20.5zM137 565l150 171h137l72 -171h-100l-52 98l-97 -98h-110z" />
    <glyph glyph-name="Scedilla" unicode="&#x15e;" horiz-adv-x="639" 
d="M334 -10q-72 0 -133 20t-107.5 58.5t-76.5 97.5l93 77q21 -48 56.5 -79.5t79.5 -46.5t90 -15q38 0 62.5 11.5t36.5 31t12 41.5q0 27 -18.5 43t-55.5 27l-102 31q-47 15 -83 39t-56.5 59t-20.5 79q0 63 33 109.5t90.5 72t133.5 25.5q102 0 170.5 -38t108.5 -110l-97 -75
q-17 41 -46.5 65.5t-64.5 34.5t-73 10q-37 0 -62 -10.5t-37 -28t-12 -39.5q0 -26 22 -46t58 -32l107 -32q74 -24 111.5 -64t37.5 -103q0 -66 -34.5 -114t-93 -73.5t-129.5 -25.5zM232 6l46 23q52 -14 79.5 -43t27.5 -73q0 -41 -18.5 -70t-49.5 -44t-70 -15q-37 0 -65 12.5
t-44 29.5l39 65q13 -13 31.5 -19.5t35.5 -6.5q27 0 44 17.5t17 42.5q0 27 -18 46t-55 35z" />
    <glyph glyph-name="scedilla" unicode="&#x15f;" horiz-adv-x="518" 
d="M254 -11q-55 0 -104 16t-87 46.5t-60 71.5l85 67q23 -46 64 -73.5t93 -27.5q39 0 61 12t22 36q0 18 -13 30.5t-38 19.5l-71 21q-70 21 -102 57t-32 85q0 48 25.5 84t72 56t109.5 20q76 0 134 -28t89 -81l-83 -71q-12 24 -33 42t-47.5 28.5t-57.5 10.5q-41 0 -62.5 -12.5
t-21.5 -35.5q0 -20 18.5 -30t40.5 -17l97 -30q53 -16 81 -49.5t28 -78.5q0 -52 -25.5 -90t-72.5 -58.5t-110 -20.5zM170 6l46 23q52 -14 79.5 -43t27.5 -73q0 -41 -18.5 -70t-49.5 -44t-70 -15q-37 0 -65 12.5t-44 29.5l39 65q13 -13 31.5 -19.5t35.5 -6.5q27 0 44 17.5
t17 42.5q0 27 -18 46t-55 35z" />
    <glyph glyph-name="Scaron" unicode="&#x160;" horiz-adv-x="639" 
d="M334 -10q-72 0 -133 20t-107.5 58.5t-76.5 97.5l93 77q21 -48 56.5 -79.5t79.5 -46.5t90 -15q38 0 62.5 11.5t36.5 31t12 41.5q0 27 -18.5 43t-55.5 27l-102 31q-47 15 -83 39t-56.5 59t-20.5 79q0 63 33 109.5t90.5 72t133.5 25.5q102 0 170.5 -38t108.5 -110l-97 -75
q-17 41 -46.5 65.5t-64.5 34.5t-73 10q-37 0 -62 -10.5t-37 -28t-12 -39.5q0 -26 22 -46t58 -32l107 -32q74 -24 111.5 -64t37.5 -103q0 -66 -34.5 -114t-93 -73.5t-129.5 -25.5zM341 730l-66 162h96l49 -97l92 97h108l-142 -162h-137z" />
    <glyph glyph-name="scaron" unicode="&#x161;" horiz-adv-x="518" 
d="M254 -11q-55 0 -104 16t-87 46.5t-60 71.5l85 67q23 -46 64 -73.5t93 -27.5q39 0 61 12t22 36q0 18 -13 30.5t-38 19.5l-71 21q-70 21 -102 57t-32 85q0 48 25.5 84t72 56t109.5 20q76 0 134 -28t89 -81l-83 -71q-12 24 -33 42t-47.5 28.5t-57.5 10.5q-41 0 -62.5 -12.5
t-21.5 -35.5q0 -20 18.5 -30t40.5 -17l97 -30q53 -16 81 -49.5t28 -78.5q0 -52 -25.5 -90t-72.5 -58.5t-110 -20.5zM244 572l-72 170h98l53 -98l98 98h110l-150 -170h-137z" />
    <glyph glyph-name="uni0162" unicode="&#x162;" horiz-adv-x="628" 
d="M222 -216q-36 0 -64.5 12.5t-44.5 29.5l39 65q13 -13 31.5 -19.5t35.5 -6.5q27 0 44 17.5t17 42.5q0 27 -18 46t-53 31l45 27q51 -14 78.5 -43t27.5 -73q0 -41 -18.5 -70t-49.5 -44t-70 -15zM696 660l-26 -111h-217l-127 -549h-138l127 549h-220l27 111h574z" />
    <glyph glyph-name="uni0163" unicode="&#x163;" horiz-adv-x="423" 
d="M248 -9q-56 0 -96 21t-56 61t-3 99l100 436l147 40l-111 -475q-10 -42 11 -61.5t57 -19.5q24 0 40 5t29 13l-1 -93q-26 -14 -55.5 -20t-61.5 -6zM49 398l24 102h376l-24 -102h-376zM165 6l46 23q52 -14 79.5 -43t27.5 -73q0 -41 -18.5 -70t-49.5 -44t-70 -15
q-37 0 -65 12.5t-44 29.5l39 65q13 -13 31.5 -19.5t35.5 -6.5q27 0 44 17.5t17 42.5q0 27 -18 46t-55 35z" />
    <glyph glyph-name="Tcaron" unicode="&#x164;" horiz-adv-x="628" 
d="M696 660l-26 -111h-217l-127 -549h-138l127 549h-220l27 111h574zM352 730l-66 162h96l49 -97l92 97h108l-142 -162h-137z" />
    <glyph glyph-name="tcaron" unicode="&#x165;" horiz-adv-x="423" 
d="M551 767l-99 -208h-87l73 208h113zM248 -9q-56 0 -96 21t-56 61t-3 99l100 436l147 40l-111 -475q-10 -42 11 -61.5t57 -19.5q24 0 40 5t29 13l-1 -93q-26 -14 -55.5 -20t-61.5 -6zM49 398l24 102h376l-24 -102h-376z" />
    <glyph glyph-name="Tbar" unicode="&#x166;" horiz-adv-x="628" 
d="M696 660l-26 -111h-217l-127 -549h-138l127 549h-220l27 111h574zM563 364l-25 -111h-443l25 111h443z" />
    <glyph glyph-name="tbar" unicode="&#x167;" horiz-adv-x="423" 
d="M410 329l-20 -84h-373l19 84h374zM248 -9q-56 0 -96 21t-56 61t-3 99l100 436l147 40l-111 -475q-10 -42 11 -61.5t57 -19.5q24 0 40 5t29 13l-1 -93q-26 -14 -55.5 -20t-61.5 -6zM49 398l24 102h376l-24 -102h-376z" />
    <glyph glyph-name="Utilde" unicode="&#x168;" horiz-adv-x="700" 
d="M328 -10q-95 0 -158.5 36t-87.5 103t-3 161l87 370h139l-90 -392q-12 -54 0.5 -91t44.5 -55.5t79 -18.5q64 0 100.5 39.5t52.5 110.5l94 407h138l-97 -419q-28 -120 -101 -185.5t-198 -65.5zM664 866q-12 -75 -50 -112.5t-86 -37.5q-26 0 -44.5 9.5t-31.5 21.5
t-25.5 21.5t-26.5 9.5q-17 0 -29.5 -16.5t-19.5 -45.5h-83q12 74 49 112t86 38q24 0 42 -9.5t32 -22t27 -22t27 -9.5q17 0 29.5 16.5t19.5 46.5h84z" />
    <glyph glyph-name="utilde" unicode="&#x169;" horiz-adv-x="606" 
d="M199 -9q-53 0 -91.5 23.5t-55 67.5t-2.5 106l72 312h137l-68 -296q-12 -51 9.5 -78t64.5 -27q35 0 60 15.5t42.5 45.5t27.5 73l62 267h137l-116 -500h-121l23 142l9 -11q-21 -69 -72 -104.5t-118 -35.5zM576 712q-12 -75 -50 -112.5t-86 -37.5q-26 0 -44.5 9.5
t-31.5 21.5t-25.5 21.5t-26.5 9.5q-17 0 -29.5 -16.5t-19.5 -45.5h-83q12 74 49 112t86 38q24 0 42 -9.5t32 -22t27 -22t27 -9.5q17 0 29.5 16.5t19.5 46.5h84z" />
    <glyph glyph-name="Umacron" unicode="&#x16a;" horiz-adv-x="700" 
d="M328 -10q-95 0 -158.5 36t-87.5 103t-3 161l87 370h139l-90 -392q-12 -54 0.5 -91t44.5 -55.5t79 -18.5q64 0 100.5 39.5t52.5 110.5l94 407h138l-97 -419q-28 -120 -101 -185.5t-198 -65.5zM647 818l-21 -91h-342l21 91h342z" />
    <glyph glyph-name="umacron" unicode="&#x16b;" horiz-adv-x="606" 
d="M199 -9q-53 0 -91.5 23.5t-55 67.5t-2.5 106l72 312h137l-68 -296q-12 -51 9.5 -78t64.5 -27q35 0 60 15.5t42.5 45.5t27.5 73l62 267h137l-116 -500h-121l23 142l9 -11q-21 -69 -72 -104.5t-118 -35.5zM559 664l-21 -91h-342l21 91h342z" />
    <glyph glyph-name="Ubreve" unicode="&#x16c;" horiz-adv-x="700" 
d="M328 -10q-95 0 -158.5 36t-87.5 103t-3 161l87 370h139l-90 -392q-12 -54 0.5 -91t44.5 -55.5t79 -18.5q64 0 100.5 39.5t52.5 110.5l94 407h138l-97 -419q-28 -120 -101 -185.5t-198 -65.5zM641 868q-12 -71 -62 -114t-125 -43q-65 0 -102.5 34t-37.5 87q0 9 1 18t3 18
h90q-1 -4 -1.5 -9.5t-0.5 -9.5q0 -26 16.5 -41t44.5 -15q30 0 52.5 19t28.5 56h93z" />
    <glyph glyph-name="ubreve" unicode="&#x16d;" horiz-adv-x="606" 
d="M199 -9q-53 0 -91.5 23.5t-55 67.5t-2.5 106l72 312h137l-68 -296q-12 -51 9.5 -78t64.5 -27q35 0 60 15.5t42.5 45.5t27.5 73l62 267h137l-116 -500h-121l23 142l9 -11q-21 -69 -72 -104.5t-118 -35.5zM556 714q-12 -71 -62 -114t-125 -43q-65 0 -102.5 34t-37.5 87
q0 9 1 18t3 18h90q-1 -4 -1.5 -9.5t-0.5 -9.5q0 -26 16.5 -41t44.5 -15q30 0 52.5 19t28.5 56h93z" />
    <glyph glyph-name="Uring" unicode="&#x16e;" horiz-adv-x="700" 
d="M328 -10q-95 0 -158.5 36t-87.5 103t-3 161l87 370h139l-90 -392q-12 -54 0.5 -91t44.5 -55.5t79 -18.5q64 0 100.5 39.5t52.5 110.5l94 407h138l-97 -419q-28 -120 -101 -185.5t-198 -65.5zM465 932q57 0 92 -32t35 -80q0 -59 -39 -97t-99 -38q-57 0 -92 31.5t-35 79.5
q0 59 39 97.5t99 38.5zM463 867q-25 0 -43.5 -17.5t-18.5 -46.5q0 -23 16 -38t40 -15q25 0 42.5 17.5t17.5 46.5q0 23 -14.5 38t-39.5 15z" />
    <glyph glyph-name="uring" unicode="&#x16f;" horiz-adv-x="606" 
d="M199 -9q-53 0 -91.5 23.5t-55 67.5t-2.5 106l72 312h137l-68 -296q-12 -51 9.5 -78t64.5 -27q35 0 60 15.5t42.5 45.5t27.5 73l62 267h137l-116 -500h-121l23 142l9 -11q-21 -69 -72 -104.5t-118 -35.5zM388 801q57 0 92 -32t35 -80q0 -59 -39 -97t-99 -38
q-57 0 -92 31.5t-35 79.5q0 59 39 97.5t99 38.5zM386 736q-25 0 -43.5 -17.5t-18.5 -46.5q0 -23 16 -38t40 -15q25 0 42.5 17.5t17.5 46.5q0 23 -14.5 38t-39.5 15z" />
    <glyph glyph-name="Uhungarumlaut" unicode="&#x170;" horiz-adv-x="700" 
d="M328 -10q-95 0 -158.5 36t-87.5 103t-3 161l87 370h139l-90 -392q-12 -54 0.5 -91t44.5 -55.5t79 -18.5q64 0 100.5 39.5t52.5 110.5l94 407h138l-97 -419q-28 -120 -101 -185.5t-198 -65.5zM494 718l99 162h129l-129 -162h-99zM298 718l99 162h129l-128 -162h-100z" />
    <glyph glyph-name="uhungarumlaut" unicode="&#x171;" horiz-adv-x="606" 
d="M199 -9q-53 0 -91.5 23.5t-55 67.5t-2.5 106l72 312h137l-68 -296q-12 -51 9.5 -78t64.5 -27q35 0 60 15.5t42.5 45.5t27.5 73l62 267h137l-116 -500h-121l23 142l9 -11q-21 -69 -72 -104.5t-118 -35.5zM409 566l118 170h131l-145 -170h-104zM207 566l119 170h130
l-145 -170h-104z" />
    <glyph glyph-name="Uogonek" unicode="&#x172;" horiz-adv-x="700" 
d="M328 -10q-95 0 -158.5 36t-87.5 103t-3 161l87 370h139l-90 -392q-12 -54 0.5 -91t44.5 -55.5t79 -18.5q64 0 100.5 39.5t52.5 110.5l94 407h138l-97 -419q-28 -120 -101 -185.5t-198 -65.5zM314 -221q-33 0 -62 11.5t-46.5 35t-17.5 59.5q0 38 20 65.5t59.5 47
t98.5 32.5l50 -28q-34 -12 -64.5 -25t-48 -30.5t-17.5 -43.5q0 -25 17.5 -34.5t38.5 -9.5q11 0 19.5 2t16.5 4l-6 -76q-13 -5 -28 -7.5t-30 -2.5z" />
    <glyph glyph-name="uogonek" unicode="&#x173;" horiz-adv-x="606" 
d="M378 -218q-33 0 -61.5 10t-46 31.5t-17.5 56.5t20.5 64t59 51.5t93.5 38.5l52 -34q-62 -27 -93.5 -48.5t-31.5 -51.5q0 -24 16 -31.5t37 -7.5q11 0 19.5 2t16.5 4l-6 -75q-13 -5 -28 -7.5t-30 -2.5zM199 -9q-53 0 -91.5 23.5t-55 67.5t-2.5 106l72 312h137l-68 -296
q-12 -51 9.5 -78t64.5 -27q35 0 60 15.5t42.5 45.5t27.5 73l62 267h137l-116 -500h-121l23 142l9 -11q-21 -69 -72 -104.5t-118 -35.5z" />
    <glyph glyph-name="Wcircumflex" unicode="&#x174;" horiz-adv-x="970" 
d="M149 0l-37 660h136l10 -537l243 537h136l12 -541l248 541h150l-342 -660h-158l-10 360l5 159h-2l-67 -159l-168 -360h-156zM693 892l67 -162h-97l-49 97l-92 -97h-108l142 162h137z" />
    <glyph glyph-name="wcircumflex" unicode="&#x175;" horiz-adv-x="852" 
d="M103 0l-37 500h133l16 -375l187 375h135l32 -379l183 379h145l-266 -500h-157l-34 340l-176 -340h-161zM297 565l150 171h137l72 -171h-100l-52 98l-97 -98h-110z" />
    <glyph glyph-name="Ycircumflex" unicode="&#x176;" horiz-adv-x="619" 
d="M183 0l58 250l-133 410h136l60 -199l27 -106l72 109l147 196h152l-325 -420l-56 -240h-138zM508 880l67 -162h-97l-49 97l-92 -97h-108l142 162h137z" />
    <glyph glyph-name="ycircumflex" unicode="&#x177;" horiz-adv-x="538" 
d="M33 -215q-42 0 -75 9.5t-52 24.5l41 101q34 -30 82 -30q29 0 52 13.5t41 42.5l30 48l-88 506h138l26 -275l11 -123l61 118l149 280h147l-342 -562q-32 -55 -66 -89t-72 -49t-83 -15zM163 559l150 171h137l72 -171h-100l-52 98l-97 -98h-110z" />
    <glyph glyph-name="Ydieresis" unicode="&#x178;" horiz-adv-x="619" 
d="M183 0l58 250l-133 410h136l60 -199l27 -106l72 109l147 196h152l-325 -420l-56 -240h-138zM513 713q-30 0 -49 15t-19 43q0 41 23 61t60 20q31 0 49.5 -15t18.5 -42q0 -42 -23 -62t-60 -20zM301 713q-30 0 -49 15t-19 43q0 41 23 61t60 20q31 0 49.5 -15t18.5 -42
q0 -42 -23 -62t-60 -20z" />
    <glyph glyph-name="Zacute" unicode="&#x179;" horiz-adv-x="611" 
d="M-12 0l26 109l456 441h-360l26 110h519l-26 -109l-457 -441h379l-26 -110h-537zM431 892h133l-124 -162h-106z" />
    <glyph glyph-name="zacute" unicode="&#x17a;" horiz-adv-x="512" 
d="M-11 0l21 90l274 263l56 49l-82 -3h-181l24 101h419l-21 -93l-257 -245l-71 -63l98 2h177l-23 -101h-434zM359 742h139l-146 -170h-108z" />
    <glyph glyph-name="Zdotaccent" unicode="&#x17b;" horiz-adv-x="611" 
d="M-12 0l26 109l456 441h-360l26 110h519l-26 -109l-457 -441h379l-26 -110h-537zM405 734q-33 0 -53 15.5t-20 44.5q0 43 24.5 64.5t62.5 21.5q34 0 54 -15.5t20 -44.5q0 -44 -24.5 -65t-63.5 -21z" />
    <glyph glyph-name="zdotaccent" unicode="&#x17c;" horiz-adv-x="512" 
d="M-11 0l21 90l274 263l56 49l-82 -3h-181l24 101h419l-21 -93l-257 -245l-71 -63l98 2h177l-23 -101h-434zM323 574q-33 0 -53 15.5t-20 44.5q0 43 24.5 64.5t62.5 21.5q34 0 54 -15.5t20 -44.5q0 -44 -24.5 -65t-63.5 -21z" />
    <glyph glyph-name="Zcaron" unicode="&#x17d;" horiz-adv-x="611" 
d="M-12 0l26 109l456 441h-360l26 110h519l-26 -109l-457 -441h379l-26 -110h-537zM325 730l-66 162h96l49 -97l92 97h108l-142 -162h-137z" />
    <glyph glyph-name="zcaron" unicode="&#x17e;" horiz-adv-x="512" 
d="M-11 0l21 90l274 263l56 49l-82 -3h-181l24 101h419l-21 -93l-257 -245l-71 -63l98 2h177l-23 -101h-434zM238 572l-72 170h98l53 -98l98 98h110l-150 -170h-137z" />
    <glyph glyph-name="longs" unicode="&#x17f;" horiz-adv-x="299" 
d="M9 0l130 560q13 56 42 93.5t72 56.5t94 19q33 0 52.5 -6t31.5 -18l-33 -91q-15 13 -40 13q-31 0 -54.5 -18.5t-33.5 -59.5l-127 -549h-134z" />
    <glyph glyph-name="uni018F" unicode="&#x18f;" horiz-adv-x="719" 
d="M344 -10q-85 0 -146.5 35t-94.5 97.5t-33 144.5q0 24 2.5 45.5t7.5 44.5h466q1 6 1 12v12q0 57 -19 96t-53 59t-81 20q-55 0 -96.5 -24t-66.5 -76l-122 49q40 83 115 124t180 41q79 0 142.5 -33.5t101.5 -96.5t38 -153q1 -81 -20.5 -153t-65 -127t-108 -86t-148.5 -31z
M350 104q51 0 87.5 21.5t59.5 58t35 79.5h-326q0 -47 15 -83t48 -56t81 -20z" />
    <glyph glyph-name="florin" unicode="&#x192;" horiz-adv-x="506" 
d="M510 730q29 0 54 -5.5t45 -20.5l-39 -94q-11 9 -24.5 14t-31.5 5q-33 0 -59.5 -20.5t-41.5 -60.5l-198 -510q-32 -81 -89 -123.5t-127 -42.5q-35 0 -58.5 5.5t-44.5 20.5l40 94q25 -18 62 -18q32 0 56 20t39 59l199 510q32 82 88 124.5t130 42.5zM499 411l-24 -101h-417
l23 101h418z" />
    <glyph glyph-name="Ohorn" unicode="&#x1a0;" horiz-adv-x="736" 
d="M550 592l-53 69q42 -7 71.5 -2t48 20t28 37.5t12.5 49.5h107q-8 -62 -36 -104.5t-73.5 -61t-104.5 -8.5zM356 -10q-79 0 -144.5 34t-104 99t-38.5 157q0 81 23 151.5t67.5 124t110 84t148.5 30.5q80 0 144.5 -34t103 -99t38.5 -157q0 -80 -23 -150.5t-67.5 -124.5
t-109.5 -84.5t-148 -30.5zM363 104q50 0 87.5 24.5t62.5 66t37.5 91t12.5 99.5q0 55 -18.5 93t-52.5 58t-81 20q-50 0 -87.5 -24.5t-63 -65.5t-38.5 -91t-13 -100q0 -54 19 -92.5t53.5 -58.5t81.5 -20z" />
    <glyph glyph-name="ohorn" unicode="&#x1a1;" horiz-adv-x="598" 
d="M417 433l-25 67q39 -8 64.5 4t40.5 40.5t21 68.5h99q-10 -72 -38 -115t-69 -58.5t-93 -6.5zM281 -9q-74 0 -128 29.5t-82.5 81t-28.5 115.5q0 83 33.5 149t95 104.5t146.5 38.5q76 0 129 -29.5t81.5 -80.5t28.5 -115q0 -82 -33 -148.5t-94.5 -105.5t-147.5 -39zM284 92
q29 0 54 16t44 44.5t29 64.5t10 75q0 34 -12 60t-35.5 41t-59.5 15q-29 0 -54.5 -16t-44 -44t-28.5 -64t-10 -75q0 -33 12 -60t36 -42t59 -15z" />
    <glyph glyph-name="Uhorn" unicode="&#x1af;" horiz-adv-x="700" 
d="M328 -10q-95 0 -158.5 36t-87.5 103t-3 161l87 370h139l-90 -392q-12 -54 0.5 -91t44.5 -55.5t79 -18.5q64 0 100.5 39.5t52.5 110.5l94 407h138l-97 -419q-28 -120 -101 -185.5t-198 -65.5zM625 586l18 74q31 0 54.5 25t31.5 81h107q-9 -65 -37.5 -107.5t-73 -60.5
t-100.5 -12z" />
    <glyph glyph-name="uhorn" unicode="&#x1b0;" horiz-adv-x="613" 
d="M199 -9q-53 0 -91.5 23.5t-55 67.5t-2.5 106l72 312h137l-68 -296q-12 -51 9.5 -78t64.5 -27q35 0 60 15.5t42.5 45.5t27.5 73l62 267h137l-116 -500h-121l23 142l9 -11q-21 -69 -72 -104.5t-118 -35.5zM549 433l-25 67q29 0 52.5 25t35.5 88h98q-9 -69 -33.5 -108.5
t-57.5 -55.5t-70 -16z" />
    <glyph glyph-name="uni01C4" unicode="&#x1c4;" horiz-adv-x="1310" 
d="M26 0l153 660h218q90 0 152.5 -34.5t95 -95t32.5 -140.5q0 -85 -25.5 -156.5t-74 -124t-116.5 -81t-154 -28.5h-281zM190 110h118q55 0 97.5 23t71.5 62t44 88.5t15 101.5q0 49 -17 86t-51 58t-87 21h-89zM687 0l26 109l456 441h-360l26 110h519l-26 -109l-457 -441h379
l-26 -110h-537zM1024 730l-66 162h96l49 -97l92 97h108l-142 -162h-137z" />
    <glyph glyph-name="uni01C5" unicode="&#x1c5;" horiz-adv-x="1216" 
d="M26 0l153 660h218q90 0 152.5 -34.5t95 -95t32.5 -140.5q0 -85 -25.5 -156.5t-74 -124t-116.5 -81t-154 -28.5h-281zM190 110h118q55 0 97.5 23t71.5 62t44 88.5t15 101.5q0 49 -17 86t-51 58t-87 21h-89zM692 0l21 90l274 263l56 49l-82 -3h-181l24 101h419l-21 -93
l-257 -245l-71 -63l98 2h177l-23 -101h-434zM941 572l-72 170h98l53 -98l98 98h110l-150 -170h-137z" />
    <glyph glyph-name="uni01C6" unicode="&#x1c6;" horiz-adv-x="1129" 
d="M222 -9q-53 0 -94 25.5t-64.5 71.5t-23.5 111q0 61 18 117t50.5 99.5t79 69t102.5 25.5q37 0 69 -13t54 -39t31 -66l75 327h137l-166 -719h-124l17 94q-24 -47 -67 -75t-94 -28zM276 95q29 0 54 16.5t43.5 45t29 64t10.5 73.5q0 34 -12 59t-33.5 38.5t-50.5 13.5
q-33 0 -59 -16.5t-44.5 -44.5t-28.5 -62.5t-10 -70.5t11.5 -62t34 -40t55.5 -14zM606 0l21 90l274 263l56 49l-82 -3h-181l24 101h419l-21 -93l-257 -245l-71 -63l98 2h177l-23 -101h-434zM855 572l-72 170h98l53 -98l98 98h110l-150 -170h-137z" />
    <glyph glyph-name="uni01C7" unicode="&#x1c7;" horiz-adv-x="1184" 
d="M190 111h347l-26 -111h-485l153 660h138zM841 -9q-65 0 -112.5 22t-74.5 60t-31 88t17 106l136 6q-19 -54 -16.5 -92t26.5 -58.5t65 -20.5q54 0 80 34.5t43 114.5l95 409h138l-100 -436q-16 -68 -47 -120.5t-83.5 -82.5t-135.5 -30z" />
    <glyph glyph-name="uni01C8" unicode="&#x1c8;" horiz-adv-x="874" 
d="M190 111h347l-26 -111h-485l153 660h138zM819 572q-36 0 -57 17t-18 50q3 41 26.5 60.5t62.5 19.5q37 0 58 -17t18 -49q-3 -43 -27 -62t-63 -19zM558 -215q-34 0 -68.5 8t-55.5 27l34 96q13 -10 29.5 -16t32.5 -6q29 0 45 15.5t25 58.5l125 532h137l-128 -553
q-20 -85 -65 -123.5t-111 -38.5z" />
    <glyph glyph-name="uni01C9" unicode="&#x1c9;" horiz-adv-x="596" 
d="M177 -8q-82 0 -115 46.5t-15 123.5l129 557h137l-129 -557q-9 -36 4.5 -53t47.5 -17q13 0 23 1t18 3l-27 -93q-16 -6 -33 -8.5t-40 -2.5zM541 572q-36 0 -57 17t-18 50q3 41 26.5 60.5t62.5 19.5q37 0 58 -17t18 -49q-3 -43 -27 -62t-63 -19zM280 -215q-34 0 -68.5 8
t-55.5 27l34 96q13 -10 29.5 -16t32.5 -6q29 0 45 15.5t25 58.5l125 532h137l-128 -553q-20 -85 -65 -123.5t-111 -38.5z" />
    <glyph glyph-name="uni01CA" unicode="&#x1ca;" horiz-adv-x="1316" 
d="M26 0l153 660h152l135 -391l35 -117h2l25 126l88 382h124l-153 -660h-150l-138 388l-35 116h-2l-23 -122l-89 -382h-124zM973 -9q-65 0 -112.5 22t-74.5 60t-31 88t17 106l136 6q-19 -54 -16.5 -92t26.5 -58.5t65 -20.5q54 0 80 34.5t43 114.5l95 409h138l-100 -436
q-16 -68 -47 -120.5t-83.5 -82.5t-135.5 -30z" />
    <glyph glyph-name="uni01CB" unicode="&#x1cb;" horiz-adv-x="1006" 
d="M26 0l153 660h152l135 -391l35 -117h2l25 126l88 382h124l-153 -660h-150l-138 388l-35 116h-2l-23 -122l-89 -382h-124zM951 572q-36 0 -57 17t-18 50q3 41 26.5 60.5t62.5 19.5q37 0 58 -17t18 -49q-3 -43 -27 -62t-63 -19zM690 -215q-34 0 -68.5 8t-55.5 27l34 96
q13 -10 29.5 -16t32.5 -6q29 0 45 15.5t25 58.5l125 532h137l-128 -553q-20 -85 -65 -123.5t-111 -38.5z" />
    <glyph glyph-name="uni01CC" unicode="&#x1cc;" horiz-adv-x="884" 
d="M12 0l116 500h121l-23 -142l-9 11q20 69 73 105t120 36q55 0 93 -24t53 -68.5t1 -106.5l-72 -311h-137l69 297q11 49 -9.5 77t-64.5 28q-34 0 -60 -15.5t-44 -45.5t-29 -74l-61 -267h-137zM829 572q-36 0 -57 17t-18 50q3 41 26.5 60.5t62.5 19.5q37 0 58 -17t18 -49
q-3 -43 -27 -62t-63 -19zM568 -215q-34 0 -68.5 8t-55.5 27l34 96q13 -10 29.5 -16t32.5 -6q29 0 45 15.5t25 58.5l125 532h137l-128 -553q-20 -85 -65 -123.5t-111 -38.5z" />
    <glyph glyph-name="Gcaron" unicode="&#x1e6;" horiz-adv-x="712" 
d="M330 -9q-73 0 -132 34t-94.5 98t-35.5 153q0 79 23.5 149.5t68.5 126t111.5 87t152.5 31.5q69 0 124.5 -21t94 -64t51.5 -111l-132 -29q-11 57 -47.5 85t-94.5 28q-49 0 -88.5 -22t-67 -60t-42 -86.5t-14.5 -101.5q0 -58 19 -100t55 -64t88 -22q45 0 77.5 14.5t53.5 41
t30 60.5l8 25h-176l23 100h288l-85 -343h-96l32 147l12 -15q-18 -45 -46.5 -76.5t-68 -48t-92.5 -16.5zM386 730l-66 162h96l49 -97l92 97h108l-142 -162h-137z" />
    <glyph glyph-name="gcaron" unicode="&#x1e7;" horiz-adv-x="615" 
d="M211 -215q-44 0 -84 11.5t-71 33.5t-49.5 54.5t-22.5 75.5l138 22q5 -48 27.5 -75t76.5 -27q29 0 54.5 12t45 40t30.5 78l32 143l11 4q-16 -68 -62 -106.5t-112 -38.5q-52 0 -94.5 25.5t-66.5 72t-24 106.5q0 61 18 114t51 93.5t78.5 63.5t100.5 23q43 0 78.5 -18
t57.5 -53.5t22 -87.5l-18 -19l39 168h137l-113 -484q-20 -85 -58.5 -135.5t-94 -73t-127.5 -22.5zM281 115q38 0 67 25t46 66t17 89q0 34 -12 58.5t-34 38t-52 13.5q-42 0 -72.5 -24.5t-47.5 -64.5t-17 -87q0 -50 27 -82t78 -32zM280 572l-72 170h98l53 -98l98 98h110
l-150 -170h-137z" />
    <glyph glyph-name="uni01EA" unicode="&#x1ea;" horiz-adv-x="736" 
d="M356 -10q-79 0 -144.5 34t-104 99t-38.5 157q0 81 23 151.5t67.5 124t110 84t148.5 30.5q80 0 144.5 -34t103 -99t38.5 -157q0 -80 -23 -150.5t-67.5 -124.5t-109.5 -84.5t-148 -30.5zM363 104q50 0 87.5 24.5t62.5 66t37.5 91t12.5 99.5q0 55 -18.5 93t-52.5 58t-81 20
q-50 0 -87.5 -24.5t-63 -65.5t-38.5 -91t-13 -100q0 -54 19 -92.5t53.5 -58.5t81.5 -20zM348 -220q-33 0 -62 11.5t-46.5 35t-17.5 59.5q0 38 20 65.5t59.5 47t98.5 32.5l50 -28q-34 -12 -64.5 -25t-48 -30.5t-17.5 -43.5q0 -25 17.5 -34.5t38.5 -9.5q11 0 19.5 2t16.5 4
l-6 -76q-13 -5 -28 -7.5t-30 -2.5z" />
    <glyph glyph-name="uni01EB" unicode="&#x1eb;" horiz-adv-x="598" 
d="M281 -9q-74 0 -128 29.5t-82.5 81t-28.5 115.5q0 83 33.5 149t95 104.5t146.5 38.5q76 0 129 -29.5t81.5 -80.5t28.5 -115q0 -82 -33 -148.5t-94.5 -105.5t-147.5 -39zM284 92q29 0 54 16t44 44.5t29 64.5t10 75q0 34 -12 60t-35.5 41t-59.5 15q-29 0 -54.5 -16t-44 -44
t-28.5 -64t-10 -75q0 -33 12 -60t36 -42t59 -15zM269 -219q-33 0 -62 11.5t-46.5 35t-17.5 59.5q0 38 20 65.5t59.5 47t98.5 32.5l50 -28q-34 -12 -64.5 -25t-48 -30.5t-17.5 -43.5q0 -25 17.5 -34.5t38.5 -9.5q11 0 19.5 2t16.5 4l-6 -76q-13 -5 -28 -7.5t-30 -2.5z" />
    <glyph glyph-name="uni01F1" unicode="&#x1f1;" horiz-adv-x="1310" 
d="M26 0l153 660h218q90 0 152.5 -34.5t95 -95t32.5 -140.5q0 -85 -25.5 -156.5t-74 -124t-116.5 -81t-154 -28.5h-281zM190 110h118q55 0 97.5 23t71.5 62t44 88.5t15 101.5q0 49 -17 86t-51 58t-87 21h-89zM687 0l26 109l456 441h-360l26 110h519l-26 -109l-457 -441h379
l-26 -110h-537z" />
    <glyph glyph-name="uni01F2" unicode="&#x1f2;" horiz-adv-x="1216" 
d="M26 0l153 660h218q90 0 152.5 -34.5t95 -95t32.5 -140.5q0 -85 -25.5 -156.5t-74 -124t-116.5 -81t-154 -28.5h-281zM190 110h118q55 0 97.5 23t71.5 62t44 88.5t15 101.5q0 49 -17 86t-51 58t-87 21h-89zM692 0l21 90l274 263l56 49l-82 -3h-181l24 101h419l-21 -93
l-257 -245l-71 -63l98 2h177l-23 -101h-434z" />
    <glyph glyph-name="uni01F3" unicode="&#x1f3;" horiz-adv-x="1129" 
d="M222 -9q-53 0 -94 25.5t-64.5 71.5t-23.5 111q0 61 18 117t50.5 99.5t79 69t102.5 25.5q37 0 69 -13t54 -39t31 -66l75 327h137l-166 -719h-124l17 94q-24 -47 -67 -75t-94 -28zM276 95q29 0 54 16.5t43.5 45t29 64t10.5 73.5q0 34 -12 59t-33.5 38.5t-50.5 13.5
q-33 0 -59 -16.5t-44.5 -44.5t-28.5 -62.5t-10 -70.5t11.5 -62t34 -40t55.5 -14zM606 0l21 90l274 263l56 49l-82 -3h-181l24 101h419l-21 -93l-257 -245l-71 -63l98 2h177l-23 -101h-434z" />
    <glyph glyph-name="Aringacute" unicode="&#x1fa;" horiz-adv-x="660" 
d="M-48 0l390 660h168l82 -660h-132l-46 438l-9 107h-2l-55 -105l-249 -440h-147zM134 167l23 102h358l-24 -102h-357zM439 844q57 0 92 -32t35 -80q0 -59 -39 -97t-99 -38q-57 0 -92 31.5t-35 79.5q0 59 39 97.5t99 38.5zM437 779q-25 0 -43.5 -17.5t-18.5 -46.5
q0 -23 16 -38t40 -15q25 0 42.5 17.5t17.5 46.5q0 23 -14.5 38t-39.5 15zM490 1049h133l-124 -162h-106z" />
    <glyph glyph-name="aringacute" unicode="&#x1fb;" horiz-adv-x="617" 
d="M222 -9q-53 0 -94 25.5t-64.5 71.5t-23.5 111q0 61 18 117t50.5 99.5t79 69t102.5 25.5q37 0 69 -13t54 -39t31 -66l25 108h137l-116 -500h-124l17 94q-24 -47 -67 -75t-94 -28zM277 95q28 0 53 16.5t43.5 45t29 64t10.5 73.5q0 34 -12 59t-33.5 38.5t-50.5 13.5
q-33 0 -59 -16.5t-44.5 -44.5t-28.5 -62.5t-10 -70.5t11.5 -62t34 -40t56.5 -14zM377 807q57 0 92 -32t35 -80q0 -59 -39 -97t-99 -38q-57 0 -92 31.5t-35 79.5q0 59 39 97.5t99 38.5zM375 742q-25 0 -43.5 -17.5t-18.5 -46.5q0 -23 16 -38t40 -15q25 0 42.5 17.5t17.5 46.5
q0 23 -14.5 38t-39.5 15zM345 842l87 145h128l-113 -145h-102z" />
    <glyph glyph-name="AEacute" unicode="&#x1fc;" horiz-adv-x="923" 
d="M-58 0l461 660h564l-26 -108h-314l-39 -168h240l-24 -103h-239l-41 -173h329l-25 -108h-460l47 202h-185l-137 -202h-151zM290 301h148l59 254h-29zM636 892h133l-124 -162h-106z" />
    <glyph glyph-name="aeacute" unicode="&#x1fd;" horiz-adv-x="883" 
d="M193 -10q-81 0 -124 39t-43 100q0 47 23.5 77.5t63.5 47.5t88 23l185 23l-9 -82l-124 -17q-46 -6 -72.5 -16t-26.5 -44q0 -24 18 -39t52 -15q47 0 76 23.5t39 69.5l28 123q2 8 2.5 15.5t0.5 14.5q0 35 -22.5 56.5t-63.5 21.5q-43 0 -70 -20.5t-44 -61.5l-109 37
q23 67 80.5 105t149.5 38q48 0 84 -15t57.5 -40.5t23.5 -57.5l-24 9q22 31 52 54.5t69.5 36.5t88.5 13q61 0 105.5 -26t69 -72t24.5 -105q0 -23 -2.5 -48t-9.5 -52h-361l10 94h231q1 4 1 8v8q0 30 -10.5 50.5t-29 31.5t-42.5 11q-41 0 -69 -18.5t-44.5 -48t-24 -65
t-7.5 -70.5q0 -36 14 -62t39.5 -40t58.5 -14q40 0 65.5 18t41.5 47l112 -50q-19 -36 -52.5 -61.5t-76.5 -39.5t-92 -14q-59 0 -105 22t-72.5 59.5t-29.5 82.5l28 -1q-6 -42 -34 -79.5t-75 -61t-112 -23.5zM524 742h139l-146 -170h-108z" />
    <glyph glyph-name="Oslashacute" unicode="&#x1fe;" horiz-adv-x="736" 
d="M234 115l-41 47l346 390l37 -51zM33 -15l134 150l42 -45l-96 -105h-80zM588 512l-28 60l94 104h81zM356 -10q-79 0 -144.5 34t-104 99t-38.5 157q0 81 23 151.5t67.5 124t110 84t148.5 30.5q80 0 144.5 -34t103 -99t38.5 -157q0 -80 -23 -150.5t-67.5 -124.5
t-109.5 -84.5t-148 -30.5zM363 104q50 0 87.5 24.5t62.5 66t37.5 91t12.5 99.5q0 55 -18.5 93t-52.5 58t-81 20q-50 0 -87.5 -24.5t-63 -65.5t-38.5 -91t-13 -100q0 -54 19 -92.5t53.5 -58.5t81.5 -20zM486 892h133l-124 -162h-106z" />
    <glyph glyph-name="oslashacute" unicode="&#x1ff;" horiz-adv-x="598" 
d="M281 -9q-74 0 -128 29.5t-82.5 81t-28.5 115.5q0 83 33.5 149t95 104.5t146.5 38.5q76 0 129 -29.5t81.5 -80.5t28.5 -115q0 -82 -33 -148.5t-94.5 -105.5t-147.5 -39zM284 92q29 0 54 16t44 44.5t29 64.5t10 75q0 34 -12 60t-35.5 41t-59.5 15q-29 0 -54.5 -16t-44 -44
t-28.5 -64t-10 -75q0 -33 12 -60t36 -42t59 -15zM-1 -24l524 548h73l-523 -548h-74zM394 742h139l-146 -170h-108z" />
    <glyph glyph-name="uni0200" unicode="&#x200;" horiz-adv-x="660" 
d="M-48 0l390 660h168l82 -660h-132l-46 438l-9 107h-2l-55 -105l-249 -440h-147zM134 167l23 102h358l-24 -102h-357zM356 892l35 -162h-91l-67 162h123zM541 892l35 -162h-91l-67 162h123z" />
    <glyph glyph-name="uni0201" unicode="&#x201;" horiz-adv-x="617" 
d="M222 -9q-53 0 -94 25.5t-64.5 71.5t-23.5 111q0 61 18 117t50.5 99.5t79 69t102.5 25.5q37 0 69 -13t54 -39t31 -66l25 108h137l-116 -500h-124l17 94q-24 -47 -67 -75t-94 -28zM277 95q28 0 53 16.5t43.5 45t29 64t10.5 73.5q0 34 -12 59t-33.5 38.5t-50.5 13.5
q-33 0 -59 -16.5t-44.5 -44.5t-28.5 -62.5t-10 -70.5t11.5 -62t34 -40t56.5 -14zM274 742l44 -170h-95l-67 170h118zM459 742l43 -170h-95l-67 170h119z" />
    <glyph glyph-name="uni0202" unicode="&#x202;" horiz-adv-x="660" 
d="M-48 0l390 660h168l82 -660h-132l-46 438l-9 107h-2l-55 -105l-249 -440h-147zM134 167l23 102h358l-24 -102h-357zM269 723q10 70 56.5 113.5t124.5 43.5q68 0 106.5 -34.5t38.5 -88.5q0 -9 -1 -17t-3 -17h-90q1 5 1.5 10t0.5 9q0 28 -18.5 42t-42.5 14
q-37 0 -56.5 -20.5t-23.5 -54.5h-93z" />
    <glyph glyph-name="uni0203" unicode="&#x203;" horiz-adv-x="617" 
d="M222 -9q-53 0 -94 25.5t-64.5 71.5t-23.5 111q0 61 18 117t50.5 99.5t79 69t102.5 25.5q37 0 69 -13t54 -39t31 -66l25 108h137l-116 -500h-124l17 94q-24 -47 -67 -75t-94 -28zM277 95q28 0 53 16.5t43.5 45t29 64t10.5 73.5q0 34 -12 59t-33.5 38.5t-50.5 13.5
q-33 0 -59 -16.5t-44.5 -44.5t-28.5 -62.5t-10 -70.5t11.5 -62t34 -40t56.5 -14zM187 563q10 70 56.5 113.5t124.5 43.5q68 0 106.5 -34.5t38.5 -88.5q0 -9 -1 -17t-3 -17h-90q1 5 1.5 10t0.5 9q0 28 -18.5 42t-42.5 14q-37 0 -56.5 -20.5t-23.5 -54.5h-93z" />
    <glyph glyph-name="uni0204" unicode="&#x204;" horiz-adv-x="625" 
d="M26 0l153 660h491l-26 -111h-353l-38 -164h278l-24 -106h-278l-38 -168h365l-26 -111h-504zM355 892l35 -162h-91l-67 162h123zM540 892l35 -162h-91l-67 162h123z" />
    <glyph glyph-name="uni0205" unicode="&#x205;" horiz-adv-x="578" 
d="M280 -9q-72 0 -125.5 29t-83 80t-29.5 117q0 82 33 148t95 105t149 39q69 0 117.5 -27t74 -77t25.5 -119q0 -20 -2 -40.5t-8 -40.5h-400v95h316l-43 -28q4 13 5 23.5t1 20.5q0 30 -11 50.5t-31 31.5t-48 11q-41 0 -68.5 -18t-44 -47.5t-23.5 -64.5t-7 -69
q0 -37 14.5 -63.5t40.5 -41t61 -14.5q41 0 67 18.5t41 46.5l112 -50q-19 -36 -52.5 -61.5t-78 -39.5t-97.5 -14zM262 742l44 -170h-95l-67 170h118zM447 742l43 -170h-95l-67 170h119z" />
    <glyph glyph-name="uni0206" unicode="&#x206;" horiz-adv-x="625" 
d="M26 0l153 660h491l-26 -111h-353l-38 -164h278l-24 -106h-278l-38 -168h365l-26 -111h-504zM268 723q10 70 56.5 113.5t124.5 43.5q68 0 106.5 -34.5t38.5 -88.5q0 -9 -1 -17t-3 -17h-90q1 5 1.5 10t0.5 9q0 28 -18.5 42t-42.5 14q-37 0 -56.5 -20.5t-23.5 -54.5h-93z
" />
    <glyph glyph-name="uni0207" unicode="&#x207;" horiz-adv-x="578" 
d="M280 -9q-72 0 -125.5 29t-83 80t-29.5 117q0 82 33 148t95 105t149 39q69 0 117.5 -27t74 -77t25.5 -119q0 -20 -2 -40.5t-8 -40.5h-400v95h316l-43 -28q4 13 5 23.5t1 20.5q0 30 -11 50.5t-31 31.5t-48 11q-41 0 -68.5 -18t-44 -47.5t-23.5 -64.5t-7 -69
q0 -37 14.5 -63.5t40.5 -41t61 -14.5q41 0 67 18.5t41 46.5l112 -50q-19 -36 -52.5 -61.5t-78 -39.5t-97.5 -14zM175 563q10 70 56.5 113.5t124.5 43.5q68 0 106.5 -34.5t38.5 -88.5q0 -9 -1 -17t-3 -17h-90q1 5 1.5 10t0.5 9q0 28 -18.5 42t-42.5 14q-37 0 -56.5 -20.5
t-23.5 -54.5h-93z" />
    <glyph glyph-name="uni0208" unicode="&#x208;" horiz-adv-x="306" 
d="M317 660l-153 -660h-138l153 660h138zM183 892l35 -162h-91l-67 162h123zM368 892l35 -162h-91l-67 162h123z" />
    <glyph glyph-name="uni0209" unicode="&#x209;" horiz-adv-x="277" 
d="M265 500l-116 -500h-137l116 500h137zM132 742l44 -170h-95l-67 170h118zM317 742l43 -170h-95l-67 170h119z" />
    <glyph glyph-name="uni020A" unicode="&#x20a;" horiz-adv-x="306" 
d="M317 660l-153 -660h-138l153 660h138zM96 723q10 70 56.5 113.5t124.5 43.5q68 0 106.5 -34.5t38.5 -88.5q0 -9 -1 -17t-3 -17h-90q1 5 1.5 10t0.5 9q0 28 -18.5 42t-42.5 14q-37 0 -56.5 -20.5t-23.5 -54.5h-93z" />
    <glyph glyph-name="uni020B" unicode="&#x20b;" horiz-adv-x="277" 
d="M265 500l-116 -500h-137l116 500h137zM45 563q10 70 56.5 113.5t124.5 43.5q68 0 106.5 -34.5t38.5 -88.5q0 -9 -1 -17t-3 -17h-90q1 5 1.5 10t0.5 9q0 28 -18.5 42t-42.5 14q-37 0 -56.5 -20.5t-23.5 -54.5h-93z" />
    <glyph glyph-name="uni020C" unicode="&#x20c;" horiz-adv-x="736" 
d="M356 -10q-79 0 -144.5 34t-104 99t-38.5 157q0 81 23 151.5t67.5 124t110 84t148.5 30.5q80 0 144.5 -34t103 -99t38.5 -157q0 -80 -23 -150.5t-67.5 -124.5t-109.5 -84.5t-148 -30.5zM363 104q50 0 87.5 24.5t62.5 66t37.5 91t12.5 99.5q0 55 -18.5 93t-52.5 58t-81 20
q-50 0 -87.5 -24.5t-63 -65.5t-38.5 -91t-13 -100q0 -54 19 -92.5t53.5 -58.5t81.5 -20zM372 892l35 -162h-91l-67 162h123zM557 892l35 -162h-91l-67 162h123z" />
    <glyph glyph-name="uni020D" unicode="&#x20d;" horiz-adv-x="598" 
d="M281 -9q-74 0 -128 29.5t-82.5 81t-28.5 115.5q0 83 33.5 149t95 104.5t146.5 38.5q76 0 129 -29.5t81.5 -80.5t28.5 -115q0 -82 -33 -148.5t-94.5 -105.5t-147.5 -39zM284 92q29 0 54 16t44 44.5t29 64.5t10 75q0 34 -12 60t-35.5 41t-59.5 15q-29 0 -54.5 -16t-44 -44
t-28.5 -64t-10 -75q0 -33 12 -60t36 -42t59 -15zM270 742l44 -170h-95l-67 170h118zM455 742l43 -170h-95l-67 170h119z" />
    <glyph glyph-name="uni020E" unicode="&#x20e;" horiz-adv-x="736" 
d="M356 -10q-79 0 -144.5 34t-104 99t-38.5 157q0 81 23 151.5t67.5 124t110 84t148.5 30.5q80 0 144.5 -34t103 -99t38.5 -157q0 -80 -23 -150.5t-67.5 -124.5t-109.5 -84.5t-148 -30.5zM363 104q50 0 87.5 24.5t62.5 66t37.5 91t12.5 99.5q0 55 -18.5 93t-52.5 58t-81 20
q-50 0 -87.5 -24.5t-63 -65.5t-38.5 -91t-13 -100q0 -54 19 -92.5t53.5 -58.5t81.5 -20zM285 723q10 70 56.5 113.5t124.5 43.5q68 0 106.5 -34.5t38.5 -88.5q0 -9 -1 -17t-3 -17h-90q1 5 1.5 10t0.5 9q0 28 -18.5 42t-42.5 14q-37 0 -56.5 -20.5t-23.5 -54.5h-93z" />
    <glyph glyph-name="uni020F" unicode="&#x20f;" horiz-adv-x="598" 
d="M281 -9q-74 0 -128 29.5t-82.5 81t-28.5 115.5q0 83 33.5 149t95 104.5t146.5 38.5q76 0 129 -29.5t81.5 -80.5t28.5 -115q0 -82 -33 -148.5t-94.5 -105.5t-147.5 -39zM284 92q29 0 54 16t44 44.5t29 64.5t10 75q0 34 -12 60t-35.5 41t-59.5 15q-29 0 -54.5 -16t-44 -44
t-28.5 -64t-10 -75q0 -33 12 -60t36 -42t59 -15zM183 563q10 70 56.5 113.5t124.5 43.5q68 0 106.5 -34.5t38.5 -88.5q0 -9 -1 -17t-3 -17h-90q1 5 1.5 10t0.5 9q0 28 -18.5 42t-42.5 14q-37 0 -56.5 -20.5t-23.5 -54.5h-93z" />
    <glyph glyph-name="uni0210" unicode="&#x210;" horiz-adv-x="662" 
d="M26 0l153 660h259q97 0 153.5 -49t56.5 -136q0 -66 -30 -114t-81.5 -75t-114.5 -33l-42 -8h-176l24 105h149q44 0 73.5 15.5t45 42t15.5 59.5q0 42 -29 62.5t-77 20.5h-115l-128 -550h-136zM452 0l-110 284l128 19l123 -303h-141zM348 892l35 -162h-91l-67 162h123z
M533 892l35 -162h-91l-67 162h123z" />
    <glyph glyph-name="uni0211" unicode="&#x211;" horiz-adv-x="410" 
d="M12 0l116 500h119l-24 -157l-9 13q16 47 43 81.5t64 53.5t80 19q17 0 28.5 -2t20.5 -7l-35 -119q-10 5 -23 8t-32 3q-34 0 -65 -15.5t-54 -47.5t-35 -84l-57 -246h-137zM223 742l44 -170h-95l-67 170h118zM408 742l43 -170h-95l-67 170h119z" />
    <glyph glyph-name="uni0212" unicode="&#x212;" horiz-adv-x="662" 
d="M26 0l153 660h259q97 0 153.5 -49t56.5 -136q0 -66 -30 -114t-81.5 -75t-114.5 -33l-42 -8h-176l24 105h149q44 0 73.5 15.5t45 42t15.5 59.5q0 42 -29 62.5t-77 20.5h-115l-128 -550h-136zM452 0l-110 284l128 19l123 -303h-141zM261 723q10 70 56.5 113.5t124.5 43.5
q68 0 106.5 -34.5t38.5 -88.5q0 -9 -1 -17t-3 -17h-90q1 5 1.5 10t0.5 9q0 28 -18.5 42t-42.5 14q-37 0 -56.5 -20.5t-23.5 -54.5h-93z" />
    <glyph glyph-name="uni0213" unicode="&#x213;" horiz-adv-x="410" 
d="M12 0l116 500h119l-24 -157l-9 13q16 47 43 81.5t64 53.5t80 19q17 0 28.5 -2t20.5 -7l-35 -119q-10 5 -23 8t-32 3q-34 0 -65 -15.5t-54 -47.5t-35 -84l-57 -246h-137zM136 563q10 70 56.5 113.5t124.5 43.5q68 0 106.5 -34.5t38.5 -88.5q0 -9 -1 -17t-3 -17h-90
q1 5 1.5 10t0.5 9q0 28 -18.5 42t-42.5 14q-37 0 -56.5 -20.5t-23.5 -54.5h-93z" />
    <glyph glyph-name="uni0214" unicode="&#x214;" horiz-adv-x="700" 
d="M328 -10q-95 0 -158.5 36t-87.5 103t-3 161l87 370h139l-90 -392q-12 -54 0.5 -91t44.5 -55.5t79 -18.5q64 0 100.5 39.5t52.5 110.5l94 407h138l-97 -419q-28 -120 -101 -185.5t-198 -65.5zM373 880l35 -162h-91l-67 162h123zM558 880l35 -162h-91l-67 162h123z" />
    <glyph glyph-name="uni0215" unicode="&#x215;" horiz-adv-x="606" 
d="M199 -9q-53 0 -91.5 23.5t-55 67.5t-2.5 106l72 312h137l-68 -296q-12 -51 9.5 -78t64.5 -27q35 0 60 15.5t42.5 45.5t27.5 73l62 267h137l-116 -500h-121l23 142l9 -11q-21 -69 -72 -104.5t-118 -35.5zM285 736l44 -170h-95l-67 170h118zM470 736l43 -170h-95l-67 170
h119z" />
    <glyph glyph-name="uni0216" unicode="&#x216;" horiz-adv-x="700" 
d="M328 -10q-95 0 -158.5 36t-87.5 103t-3 161l87 370h139l-90 -392q-12 -54 0.5 -91t44.5 -55.5t79 -18.5q64 0 100.5 39.5t52.5 110.5l94 407h138l-97 -419q-28 -120 -101 -185.5t-198 -65.5zM286 711q10 70 56.5 113.5t124.5 43.5q68 0 106.5 -34.5t38.5 -88.5
q0 -9 -1 -17t-3 -17h-90q1 5 1.5 10t0.5 9q0 28 -18.5 42t-42.5 14q-37 0 -56.5 -20.5t-23.5 -54.5h-93z" />
    <glyph glyph-name="uni0217" unicode="&#x217;" horiz-adv-x="606" 
d="M199 -9q-53 0 -91.5 23.5t-55 67.5t-2.5 106l72 312h137l-68 -296q-12 -51 9.5 -78t64.5 -27q35 0 60 15.5t42.5 45.5t27.5 73l62 267h137l-116 -500h-121l23 142l9 -11q-21 -69 -72 -104.5t-118 -35.5zM198 557q10 70 56.5 113.5t124.5 43.5q68 0 106.5 -34.5
t38.5 -88.5q0 -9 -1 -17t-3 -17h-90q1 5 1.5 10t0.5 9q0 28 -18.5 42t-42.5 14q-37 0 -56.5 -20.5t-23.5 -54.5h-93z" />
    <glyph glyph-name="uni0218" unicode="&#x218;" horiz-adv-x="639" 
d="M334 -10q-72 0 -133 20t-107.5 58.5t-76.5 97.5l93 77q21 -48 56.5 -79.5t79.5 -46.5t90 -15q38 0 62.5 11.5t36.5 31t12 41.5q0 27 -18.5 43t-55.5 27l-102 31q-47 15 -83 39t-56.5 59t-20.5 79q0 63 33 109.5t90.5 72t133.5 25.5q102 0 170.5 -38t108.5 -110l-97 -75
q-17 41 -46.5 65.5t-64.5 34.5t-73 10q-37 0 -62 -10.5t-37 -28t-12 -39.5q0 -26 22 -46t58 -32l107 -32q74 -24 111.5 -64t37.5 -103q0 -66 -34.5 -114t-93 -73.5t-129.5 -25.5zM342 -66l-109 -173h-98l76 173h131z" />
    <glyph glyph-name="uni0219" unicode="&#x219;" horiz-adv-x="518" 
d="M254 -11q-55 0 -104 16t-87 46.5t-60 71.5l85 67q23 -46 64 -73.5t93 -27.5q39 0 61 12t22 36q0 18 -13 30.5t-38 19.5l-71 21q-70 21 -102 57t-32 85q0 48 25.5 84t72 56t109.5 20q76 0 134 -28t89 -81l-83 -71q-12 24 -33 42t-47.5 28.5t-57.5 10.5q-41 0 -62.5 -12.5
t-21.5 -35.5q0 -20 18.5 -30t40.5 -17l97 -30q53 -16 81 -49.5t28 -78.5q0 -52 -25.5 -90t-72.5 -58.5t-110 -20.5zM280 -66l-109 -173h-98l76 173h131z" />
    <glyph glyph-name="uni021A" unicode="&#x21a;" horiz-adv-x="628" 
d="M696 660l-26 -111h-217l-127 -549h-138l127 549h-220l27 111h574zM311 -66l-109 -173h-98l76 173h131z" />
    <glyph glyph-name="uni021B" unicode="&#x21b;" horiz-adv-x="423" 
d="M248 -9q-56 0 -96 21t-56 61t-3 99l100 436l147 40l-111 -475q-10 -42 11 -61.5t57 -19.5q24 0 40 5t29 13l-1 -93q-26 -14 -55.5 -20t-61.5 -6zM49 398l24 102h376l-24 -102h-376zM275 -66l-109 -173h-98l76 173h131z" />
    <glyph glyph-name="uni022A" unicode="&#x22a;" horiz-adv-x="736" 
d="M356 -10q-79 0 -144.5 34t-104 99t-38.5 157q0 81 23 151.5t67.5 124t110 84t148.5 30.5q80 0 144.5 -34t103 -99t38.5 -157q0 -80 -23 -150.5t-67.5 -124.5t-109.5 -84.5t-148 -30.5zM363 104q50 0 87.5 24.5t62.5 66t37.5 91t12.5 99.5q0 55 -18.5 93t-52.5 58t-81 20
q-50 0 -87.5 -24.5t-63 -65.5t-38.5 -91t-13 -100q0 -54 19 -92.5t53.5 -58.5t81.5 -20zM563 725q-30 0 -49 15t-19 43q0 41 23 61t60 20q31 0 49.5 -15t18.5 -42q0 -42 -23 -62t-60 -20zM351 725q-30 0 -49 15t-19 43q0 41 23 61t60 20q31 0 49.5 -15t18.5 -42
q0 -42 -23 -62t-60 -20zM688 1012l-21 -91h-342l21 91h342z" />
    <glyph glyph-name="uni022B" unicode="&#x22b;" horiz-adv-x="598" 
d="M281 -9q-74 0 -128 29.5t-82.5 81t-28.5 115.5q0 83 33.5 149t95 104.5t146.5 38.5q76 0 129 -29.5t81.5 -80.5t28.5 -115q0 -82 -33 -148.5t-94.5 -105.5t-147.5 -39zM284 92q29 0 54 16t44 44.5t29 64.5t10 75q0 34 -12 60t-35.5 41t-59.5 15q-29 0 -54.5 -16t-44 -44
t-28.5 -64t-10 -75q0 -33 12 -60t36 -42t59 -15zM461 565q-30 0 -49 15t-19 43q0 41 23 61t60 20q31 0 49.5 -15t18.5 -42q0 -42 -23 -62t-60 -20zM249 565q-30 0 -49 15t-19 43q0 41 23 61t60 20q31 0 49.5 -15t18.5 -42q0 -42 -23 -62t-60 -20zM586 852l-21 -91h-342
l21 91h342z" />
    <glyph glyph-name="uni022C" unicode="&#x22c;" horiz-adv-x="736" 
d="M356 -10q-79 0 -144.5 34t-104 99t-38.5 157q0 81 23 151.5t67.5 124t110 84t148.5 30.5q80 0 144.5 -34t103 -99t38.5 -157q0 -80 -23 -150.5t-67.5 -124.5t-109.5 -84.5t-148 -30.5zM363 104q50 0 87.5 24.5t62.5 66t37.5 91t12.5 99.5q0 55 -18.5 93t-52.5 58t-81 20
q-50 0 -87.5 -24.5t-63 -65.5t-38.5 -91t-13 -100q0 -54 19 -92.5t53.5 -58.5t81.5 -20zM663 878q-12 -75 -50 -112.5t-86 -37.5q-26 0 -44.5 9.5t-31.5 21.5t-25.5 21.5t-26.5 9.5q-17 0 -29.5 -16.5t-19.5 -45.5h-83q12 74 49 112t86 38q24 0 42 -9.5t32 -22t27 -22
t27 -9.5q17 0 29.5 16.5t19.5 46.5h84zM687 1033l-21 -91h-342l21 91h342z" />
    <glyph glyph-name="uni022D" unicode="&#x22d;" horiz-adv-x="598" 
d="M281 -9q-74 0 -128 29.5t-82.5 81t-28.5 115.5q0 83 33.5 149t95 104.5t146.5 38.5q76 0 129 -29.5t81.5 -80.5t28.5 -115q0 -82 -33 -148.5t-94.5 -105.5t-147.5 -39zM284 92q29 0 54 16t44 44.5t29 64.5t10 75q0 34 -12 60t-35.5 41t-59.5 15q-29 0 -54.5 -16t-44 -44
t-28.5 -64t-10 -75q0 -33 12 -60t36 -42t59 -15zM561 718q-12 -75 -50 -112.5t-86 -37.5q-26 0 -44.5 9.5t-31.5 21.5t-25.5 21.5t-26.5 9.5q-17 0 -29.5 -16.5t-19.5 -45.5h-83q12 74 49 112t86 38q24 0 42 -9.5t32 -22t27 -22t27 -9.5q17 0 29.5 16.5t19.5 46.5h84z
M585 873l-21 -91h-342l21 91h342z" />
    <glyph glyph-name="uni0230" unicode="&#x230;" horiz-adv-x="736" 
d="M356 -10q-79 0 -144.5 34t-104 99t-38.5 157q0 81 23 151.5t67.5 124t110 84t148.5 30.5q80 0 144.5 -34t103 -99t38.5 -157q0 -80 -23 -150.5t-67.5 -124.5t-109.5 -84.5t-148 -30.5zM363 104q50 0 87.5 24.5t62.5 66t37.5 91t12.5 99.5q0 55 -18.5 93t-52.5 58t-81 20
q-50 0 -87.5 -24.5t-63 -65.5t-38.5 -91t-13 -100q0 -54 19 -92.5t53.5 -58.5t81.5 -20zM460 734q-33 0 -53 15.5t-20 44.5q0 43 24.5 64.5t62.5 21.5q34 0 54 -15.5t20 -44.5q0 -44 -24.5 -65t-63.5 -21zM687 1025l-21 -91h-342l21 91h342z" />
    <glyph glyph-name="uni0231" unicode="&#x231;" horiz-adv-x="598" 
d="M281 -9q-74 0 -128 29.5t-82.5 81t-28.5 115.5q0 83 33.5 149t95 104.5t146.5 38.5q76 0 129 -29.5t81.5 -80.5t28.5 -115q0 -82 -33 -148.5t-94.5 -105.5t-147.5 -39zM284 92q29 0 54 16t44 44.5t29 64.5t10 75q0 34 -12 60t-35.5 41t-59.5 15q-29 0 -54.5 -16t-44 -44
t-28.5 -64t-10 -75q0 -33 12 -60t36 -42t59 -15zM358 574q-33 0 -53 15.5t-20 44.5q0 43 24.5 64.5t62.5 21.5q34 0 54 -15.5t20 -44.5q0 -44 -24.5 -65t-63.5 -21zM585 865l-21 -91h-342l21 91h342z" />
    <glyph glyph-name="uni0232" unicode="&#x232;" horiz-adv-x="619" 
d="M183 0l58 250l-133 410h136l60 -199l27 -106l72 109l147 196h152l-325 -420l-56 -240h-138zM596 818l-21 -91h-342l21 91h342z" />
    <glyph glyph-name="uni0233" unicode="&#x233;" horiz-adv-x="538" 
d="M33 -215q-42 0 -75 9.5t-52 24.5l41 101q34 -30 82 -30q29 0 52 13.5t41 42.5l30 48l-88 506h138l26 -275l11 -123l61 118l149 280h147l-342 -562q-32 -55 -66 -89t-72 -49t-83 -15zM541 664l-21 -91h-342l21 91h342z" />
    <glyph glyph-name="uni0237" unicode="&#x237;" horiz-adv-x="277" 
d="M-39 -215q-34 0 -68.5 8t-55.5 27l34 96q13 -10 29.5 -16t32.5 -6q29 0 45 15.5t25 58.5l125 532h137l-128 -553q-20 -85 -65 -123.5t-111 -38.5z" />
    <glyph glyph-name="uni0259" unicode="&#x259;" horiz-adv-x="578" 
d="M261 -9q-69 0 -118 26.5t-75 71.5t-26 101q0 20 3 42t11 49h396v-75h-315l42 22q-3 -12 -4.5 -23t-1.5 -21q0 -29 11.5 -49.5t32 -32t49.5 -11.5q40 0 67 17.5t43.5 47.5t24 65t7.5 69q0 36 -13.5 63t-37.5 41.5t-55 14.5q-46 0 -74.5 -22.5t-43.5 -51.5l-111 46
q31 54 88.5 91t148.5 37q66 0 117 -28.5t80 -79.5t29 -118q0 -82 -33.5 -148.5t-95 -105t-146.5 -38.5z" />
    <glyph glyph-name="uni02B9" unicode="&#x2b9;" horiz-adv-x="538" 
d="M401 682l-139 -266h-100l108 266h131z" />
    <glyph glyph-name="uni02BA" unicode="&#x2ba;" horiz-adv-x="443" 
d="M513 682l-139 -266h-100l108 266h131zM319 682l-139 -266h-100l108 266h131z" />
    <glyph glyph-name="uni02BB" unicode="&#x2bb;" horiz-adv-x="536" 
d="M337 774l-84 -202h-128l119 202h93z" />
    <glyph glyph-name="uni02BC" unicode="&#x2bc;" horiz-adv-x="600" 
d="M225 694q44 0 65.5 -26.5t21.5 -66.5q0 -46 -23.5 -90.5t-67 -78t-102.5 -46.5l-34 59q38 7 66.5 21.5t48 34t28.5 40.5l-2 2q-6 -3 -11.5 -4.5t-16.5 -1.5q-28 0 -46 20.5t-18 48.5q0 40 26 64t65 24z" />
    <glyph glyph-name="uni02BE" unicode="&#x2be;" horiz-adv-x="343" 
d="M214 718q41 0 70 -17t44.5 -44.5t15.5 -60.5q0 -67 -45 -107t-117 -40h-52l17 72h46q33 0 53 18.5t20 49.5q0 29 -19 43.5t-47 14.5h-24l16 71h22z" />
    <glyph glyph-name="uni02BF" unicode="&#x2bf;" horiz-adv-x="343" 
d="M283 450q-41 0 -70 17t-44.5 44.5t-15.5 60.5q0 67 45 107t117 40h52l-17 -72h-46q-33 0 -53 -18.5t-20 -49.5q0 -29 19 -43.5t47 -14.5h24l-16 -71h-22z" />
    <glyph glyph-name="circumflex" unicode="&#x2c6;" horiz-adv-x="562" 
d="M174 565l150 171h137l72 -171h-100l-52 98l-97 -98h-110z" />
    <glyph glyph-name="caron" unicode="&#x2c7;" horiz-adv-x="500" 
d="M256 572l-72 170h98l53 -98l98 98h110l-150 -170h-137z" />
    <glyph glyph-name="uni02C8" unicode="&#x2c8;" horiz-adv-x="232" 
d="M173 719h102l-61 -264h-102z" />
    <glyph glyph-name="uni02C9" unicode="&#x2c9;" horiz-adv-x="500" 
d="M518 670l-21 -91h-342l21 91h342z" />
    <glyph glyph-name="uni02CA" unicode="&#x2ca;" horiz-adv-x="536" 
d="M346 742h139l-146 -170h-108z" />
    <glyph glyph-name="uni02CB" unicode="&#x2cb;" horiz-adv-x="537" 
d="M400 742l35 -170h-97l-67 170h129z" />
    <glyph glyph-name="uni02CC" unicode="&#x2cc;" horiz-adv-x="232" 
d="M21 60h102l-61 -264h-102z" />
    <glyph glyph-name="breve" unicode="&#x2d8;" horiz-adv-x="500" 
d="M521 720q-12 -71 -62 -114t-125 -43q-65 0 -102.5 34t-37.5 87q0 9 1 18t3 18h90q-1 -4 -1.5 -9.5t-0.5 -9.5q0 -26 16.5 -41t44.5 -15q30 0 52.5 19t28.5 56h93z" />
    <glyph glyph-name="dotaccent" unicode="&#x2d9;" horiz-adv-x="500" 
d="M334 574q-33 0 -53 15.5t-20 44.5q0 43 24.5 64.5t62.5 21.5q34 0 54 -15.5t20 -44.5q0 -44 -24.5 -65t-63.5 -21z" />
    <glyph glyph-name="ring" unicode="&#x2da;" horiz-adv-x="500" 
d="M356 807q57 0 92 -32t35 -80q0 -59 -39 -97t-99 -38q-57 0 -92 31.5t-35 79.5q0 59 39 97.5t99 38.5zM354 742q-25 0 -43.5 -17.5t-18.5 -46.5q0 -23 16 -38t40 -15q25 0 42.5 17.5t17.5 46.5q0 23 -14.5 38t-39.5 15z" />
    <glyph glyph-name="ogonek" unicode="&#x2db;" horiz-adv-x="519" 
d="M201 -218q-33 0 -62 11.5t-46.5 35t-17.5 59.5q0 38 20 65.5t59.5 47t98.5 32.5l50 -28q-34 -12 -64.5 -25t-48 -30.5t-17.5 -43.5q0 -25 17.5 -34.5t38.5 -9.5q11 0 19.5 2t16.5 4l-6 -76q-13 -5 -28 -7.5t-30 -2.5z" />
    <glyph glyph-name="tilde" unicode="&#x2dc;" horiz-adv-x="500" 
d="M539 718q-12 -75 -50 -112.5t-86 -37.5q-26 0 -44.5 9.5t-31.5 21.5t-25.5 21.5t-26.5 9.5q-17 0 -29.5 -16.5t-19.5 -45.5h-83q12 74 49 112t86 38q24 0 42 -9.5t32 -22t27 -22t27 -9.5q17 0 29.5 16.5t19.5 46.5h84z" />
    <glyph glyph-name="hungarumlaut" unicode="&#x2dd;" horiz-adv-x="500" 
d="M320 572l118 170h131l-145 -170h-104zM118 572l119 170h130l-145 -170h-104z" />
    <glyph glyph-name="gravecomb" unicode="&#x300;" horiz-adv-x="0" 
d="M91 742l35 -170h-97l-67 170h129z" />
    <glyph glyph-name="acutecomb" unicode="&#x301;" horiz-adv-x="0" 
d="M117 742h139l-146 -170h-108z" />
    <glyph glyph-name="uni0302" unicode="&#x302;" horiz-adv-x="0" 
d="M-111 565l150 171h137l72 -171h-100l-52 98l-97 -98h-110z" />
    <glyph glyph-name="tildecomb" unicode="&#x303;" horiz-adv-x="0" 
d="M284 718q-12 -75 -50 -112.5t-86 -37.5q-26 0 -44.5 9.5t-31.5 21.5t-25.5 21.5t-26.5 9.5q-17 0 -29.5 -16.5t-19.5 -45.5h-83q12 74 49 112t86 38q24 0 42 -9.5t32 -22t27 -22t27 -9.5q17 0 29.5 16.5t19.5 46.5h84z" />
    <glyph glyph-name="uni0304" unicode="&#x304;" horiz-adv-x="0" 
d="M267 670l-21 -91h-342l21 91h342z" />
    <glyph glyph-name="uni0306" unicode="&#x306;" horiz-adv-x="0" 
d="M268 720q-12 -71 -62 -114t-125 -43q-65 0 -102.5 34t-37.5 87q0 9 1 18t3 18h90q-1 -4 -1.5 -9.5t-0.5 -9.5q0 -26 16.5 -41t44.5 -15q30 0 52.5 19t28.5 56h93z" />
    <glyph glyph-name="uni0307" unicode="&#x307;" horiz-adv-x="0" 
d="M81 574q-33 0 -53 15.5t-20 44.5q0 43 24.5 64.5t62.5 21.5q34 0 54 -15.5t20 -44.5q0 -44 -24.5 -65t-63.5 -21z" />
    <glyph glyph-name="uni0308" unicode="&#x308;" horiz-adv-x="0" 
d="M184 565q-30 0 -49 15t-19 43q0 41 23 61t60 20q31 0 49.5 -15t18.5 -42q0 -42 -23 -62t-60 -20zM-28 565q-30 0 -49 15t-19 43q0 41 23 61t60 20q31 0 49.5 -15t18.5 -42q0 -42 -23 -62t-60 -20z" />
    <glyph glyph-name="hookabovecomb" unicode="&#x309;" horiz-adv-x="0" 
d="M341 549l-17 51q35 7 51 22.5t16 32.5q0 16 -10 23.5t-24 7.5q-12 0 -23.5 -6.5t-21.5 -17.5l-51 50q17 24 46 39.5t67 15.5q44 0 73.5 -25t29.5 -70q0 -33 -16.5 -59.5t-47 -42.5t-72.5 -21z" />
    <glyph glyph-name="uni030A" unicode="&#x30a;" horiz-adv-x="0" 
d="M96 807q57 0 92 -32t35 -80q0 -59 -39 -97t-99 -38q-57 0 -92 31.5t-35 79.5q0 59 39 97.5t99 38.5zM94 742q-25 0 -43.5 -17.5t-18.5 -46.5q0 -23 16 -38t40 -15q25 0 42.5 17.5t17.5 46.5q0 23 -14.5 38t-39.5 15z" />
    <glyph glyph-name="uni030B" unicode="&#x30b;" horiz-adv-x="0" 
d="M117 572l118 170h131l-145 -170h-104zM-85 572l119 170h130l-145 -170h-104z" />
    <glyph glyph-name="uni030C" unicode="&#x30c;" horiz-adv-x="0" 
d="M-4 572l-72 170h98l53 -98l98 98h110l-150 -170h-137z" />
    <glyph glyph-name="uni030F" unicode="&#x30f;" horiz-adv-x="0" 
d="M-7 742l44 -170h-95l-67 170h118zM178 742l43 -170h-95l-67 170h119z" />
    <glyph glyph-name="uni0311" unicode="&#x311;" horiz-adv-x="0" 
d="M-94 563q10 70 56.5 113.5t124.5 43.5q68 0 106.5 -34.5t38.5 -88.5q0 -9 -1 -17t-3 -17h-90q1 5 1.5 10t0.5 9q0 28 -18.5 42t-42.5 14q-37 0 -56.5 -20.5t-23.5 -54.5h-93z" />
    <glyph glyph-name="uni0312" unicode="&#x312;" horiz-adv-x="0" 
d="M480 774l-84 -202h-128l119 202h93z" />
    <glyph glyph-name="uni031B" unicode="&#x31b;" horiz-adv-x="0" 
d="M339 433l-25 67q29 0 52.5 25t35.5 88h98q-9 -69 -33.5 -108.5t-57.5 -55.5t-70 -16z" />
    <glyph glyph-name="dotbelowcomb" unicode="&#x323;" horiz-adv-x="0" 
d="M-96 -220q-34 0 -54 15.5t-20 45.5q0 42 24.5 63.5t62.5 21.5q34 0 54 -15.5t20 -44.5q0 -43 -24 -64.5t-63 -21.5z" />
    <glyph glyph-name="uni0324" unicode="&#x324;" horiz-adv-x="0" 
d="M7 -205q-30 0 -49 15t-19 43q0 41 23 61t60 20q31 0 49.5 -15t18.5 -42q0 -42 -23 -62t-60 -20zM-205 -205q-30 0 -49 15t-19 43q0 41 23 61t60 20q31 0 49.5 -15t18.5 -42q0 -42 -23 -62t-60 -20z" />
    <glyph glyph-name="uni0326" unicode="&#x326;" horiz-adv-x="0" 
d="M2 -66l-109 -173h-98l76 173h131z" />
    <glyph glyph-name="uni0327" unicode="&#x327;" horiz-adv-x="0" 
d="M-107 6l46 23q52 -14 79.5 -43t27.5 -73q0 -41 -18.5 -70t-49.5 -44t-70 -15q-37 0 -65 12.5t-44 29.5l39 65q13 -13 31.5 -19.5t35.5 -6.5q27 0 44 17.5t17 42.5q0 27 -18 46t-55 35z" />
    <glyph glyph-name="uni0328" unicode="&#x328;" horiz-adv-x="0" 
d="M-160 -218q-33 0 -62 11.5t-46.5 35t-17.5 59.5q0 38 20 65.5t59.5 47t98.5 32.5l50 -28q-34 -12 -64.5 -25t-48 -30.5t-17.5 -43.5q0 -25 17.5 -34.5t38.5 -9.5q11 0 19.5 2t16.5 4l-6 -76q-13 -5 -28 -7.5t-30 -2.5z" />
    <glyph glyph-name="uni032E" unicode="&#x32e;" horiz-adv-x="0" 
d="M90 -63q-12 -71 -62 -114t-125 -43q-65 0 -102.5 34t-37.5 87q0 9 1 18t3 18h90q-1 -4 -1.5 -9.5t-0.5 -9.5q0 -26 16.5 -41t44.5 -15q30 0 52.5 19t28.5 56h93z" />
    <glyph glyph-name="uni0331" unicode="&#x331;" horiz-adv-x="0" 
d="M96 -79l-21 -91h-342l21 91h342z" />
    <glyph glyph-name="uni0335" unicode="&#x335;" horiz-adv-x="0" 
d="M250 372l-19 -83h-443l19 83h443z" />
    <glyph glyph-name="uni0338" unicode="&#x338;" horiz-adv-x="0" 
d="M-1 -24l524 548h73l-523 -548h-74z" />
    <glyph glyph-name="uni03A9" unicode="&#x3a9;" horiz-adv-x="753" 
d="M17 0l24 106h205l-20 -17q-46 19 -78 55t-48.5 82.5t-16.5 96.5q0 72 24 135t68.5 110.5t109 74.5t143.5 27t144.5 -31.5t104.5 -92t39 -148.5q0 -72 -27.5 -135t-78 -107.5t-120.5 -62.5l-11 13h204l-24 -106h-275l24 107q40 6 70.5 33.5t52 67.5t32 87t10.5 92
q0 54 -19 92.5t-53.5 58.5t-81.5 20q-52 0 -90.5 -22.5t-64 -62t-38 -87.5t-12.5 -99q0 -43 12.5 -79.5t35.5 -62t55 -35.5l-25 -110h-275z" />
    <glyph glyph-name="uni03BC" unicode="&#x3bc;" horiz-adv-x="611" 
d="M-36 -210l164 710h137l-69 -296q-11 -49 9.5 -77t65.5 -28q34 0 59.5 15.5t43 45.5t27.5 73l61 267h137l-116 -500h-121l14 87q-26 -46 -69 -70.5t-96 -24.5q-29 0 -59 9.5t-52 32.5l66 34l-65 -278h-137z" />
    <glyph glyph-name="pi" unicode="&#x3c0;" horiz-adv-x="761" 
d="M94 0l93 401h-128l23 99h702l-23 -99h-129l-56 -241q-5 -20 -0.5 -36t24.5 -24t61 -4l-39 -98q-80 -9 -125.5 7t-59 54t-0.5 94l57 248h-170l-93 -401h-137z" />
    <glyph glyph-name="uni1E08" unicode="&#x1e08;" horiz-adv-x="683" 
d="M359 -10q-83 0 -148.5 33.5t-104 97t-38.5 153.5q0 81 23 152t68 126t110.5 86.5t149.5 31.5q71 0 125.5 -23t90.5 -68.5t50 -112.5l-136 -34q-10 65 -43.5 95t-91.5 30q-52 0 -90.5 -25.5t-64 -66.5t-38.5 -90.5t-13 -97.5q0 -55 20 -93.5t56 -59.5t83 -21q57 0 89.5 27
t54.5 71l126 -51q-43 -74 -109.5 -117t-168.5 -43zM275 6l46 23q52 -14 79.5 -43t27.5 -73q0 -41 -18.5 -70t-49.5 -44t-70 -15q-37 0 -65 12.5t-44 29.5l39 65q13 -13 31.5 -19.5t35.5 -6.5q27 0 44 17.5t17 42.5q0 27 -18 46t-55 35zM485 892h133l-124 -162h-106z" />
    <glyph glyph-name="uni1E09" unicode="&#x1e09;" horiz-adv-x="554" 
d="M283 -9q-75 0 -129.5 29.5t-82.5 81t-28 115.5q0 83 33 149t95.5 104.5t149.5 38.5q64 0 112.5 -21.5t76.5 -60.5t33 -90l-134 -24q0 41 -21.5 67.5t-69.5 26.5q-31 0 -57 -16t-45 -44t-28.5 -64t-9.5 -75q0 -34 12.5 -60.5t36.5 -41t59 -14.5q32 0 59 19t39 53l125 -42
q-28 -62 -87.5 -96.5t-138.5 -34.5zM196 7l46 23q52 -14 79.5 -43t27.5 -73q0 -41 -18.5 -70t-49.5 -44t-70 -15q-37 0 -65 12.5t-44 29.5l39 65q13 -13 31.5 -19.5t35.5 -6.5q27 0 44 17.5t17 42.5q0 27 -18 46t-55 35zM395 742h139l-146 -170h-108z" />
    <glyph glyph-name="uni1E0C" unicode="&#x1e0c;" horiz-adv-x="707" 
d="M26 0l153 660h218q90 0 152.5 -34.5t95 -95t32.5 -140.5q0 -85 -25.5 -156.5t-74 -124t-116.5 -81t-154 -28.5h-281zM190 110h118q55 0 97.5 23t71.5 62t44 88.5t15 101.5q0 49 -17 86t-51 58t-87 21h-89zM246 -220q-34 0 -54 15.5t-20 45.5q0 42 24.5 63.5t62.5 21.5
q34 0 54 -15.5t20 -44.5q0 -43 -24 -64.5t-63 -21.5z" />
    <glyph glyph-name="uni1E0D" unicode="&#x1e0d;" horiz-adv-x="617" 
d="M222 -9q-53 0 -94 25.5t-64.5 71.5t-23.5 111q0 61 18 117t50.5 99.5t79 69t102.5 25.5q37 0 69 -13t54 -39t31 -66l75 327h137l-166 -719h-124l17 94q-24 -47 -67 -75t-94 -28zM276 95q29 0 54 16.5t43.5 45t29 64t10.5 73.5q0 34 -12 59t-33.5 38.5t-50.5 13.5
q-33 0 -59 -16.5t-44.5 -44.5t-28.5 -62.5t-10 -70.5t11.5 -62t34 -40t55.5 -14zM212 -220q-34 0 -54 15.5t-20 45.5q0 42 24.5 63.5t62.5 21.5q34 0 54 -15.5t20 -44.5q0 -43 -24 -64.5t-63 -21.5z" />
    <glyph glyph-name="uni1E0E" unicode="&#x1e0e;" horiz-adv-x="707" 
d="M26 0l153 660h218q90 0 152.5 -34.5t95 -95t32.5 -140.5q0 -85 -25.5 -156.5t-74 -124t-116.5 -81t-154 -28.5h-281zM190 110h118q55 0 97.5 23t71.5 62t44 88.5t15 101.5q0 49 -17 86t-51 58t-87 21h-89zM438 -79l-21 -91h-342l21 91h342z" />
    <glyph glyph-name="uni1E0F" unicode="&#x1e0f;" horiz-adv-x="617" 
d="M222 -9q-53 0 -94 25.5t-64.5 71.5t-23.5 111q0 61 18 117t50.5 99.5t79 69t102.5 25.5q37 0 69 -13t54 -39t31 -66l75 327h137l-166 -719h-124l17 94q-24 -47 -67 -75t-94 -28zM276 95q29 0 54 16.5t43.5 45t29 64t10.5 73.5q0 34 -12 59t-33.5 38.5t-50.5 13.5
q-33 0 -59 -16.5t-44.5 -44.5t-28.5 -62.5t-10 -70.5t11.5 -62t34 -40t55.5 -14zM404 -79l-21 -91h-342l21 91h342z" />
    <glyph glyph-name="uni1E14" unicode="&#x1e14;" horiz-adv-x="625" 
d="M26 0l153 660h491l-26 -111h-353l-38 -164h278l-24 -106h-278l-38 -168h365l-26 -111h-504zM629 830l-21 -91h-342l21 91h342zM492 1060l35 -162h-91l-67 162h123z" />
    <glyph glyph-name="uni1E15" unicode="&#x1e15;" horiz-adv-x="578" 
d="M280 -9q-72 0 -125.5 29t-83 80t-29.5 117q0 82 33 148t95 105t149 39q69 0 117.5 -27t74 -77t25.5 -119q0 -20 -2 -40.5t-8 -40.5h-400v95h316l-43 -28q4 13 5 23.5t1 20.5q0 30 -11 50.5t-31 31.5t-48 11q-41 0 -68.5 -18t-44 -47.5t-23.5 -64.5t-7 -69
q0 -37 14.5 -63.5t40.5 -41t61 -14.5q41 0 67 18.5t41 46.5l112 -50q-19 -36 -52.5 -61.5t-78 -39.5t-97.5 -14zM536 670l-21 -91h-342l21 91h342zM399 900l35 -162h-91l-67 162h123z" />
    <glyph glyph-name="uni1E16" unicode="&#x1e16;" horiz-adv-x="625" 
d="M26 0l153 660h491l-26 -111h-353l-38 -164h278l-24 -106h-278l-38 -168h365l-26 -111h-504zM629 830l-21 -91h-342l21 91h342zM509 1060h133l-124 -162h-106z" />
    <glyph glyph-name="uni1E17" unicode="&#x1e17;" horiz-adv-x="578" 
d="M280 -9q-72 0 -125.5 29t-83 80t-29.5 117q0 82 33 148t95 105t149 39q69 0 117.5 -27t74 -77t25.5 -119q0 -20 -2 -40.5t-8 -40.5h-400v95h316l-43 -28q4 13 5 23.5t1 20.5q0 30 -11 50.5t-31 31.5t-48 11q-41 0 -68.5 -18t-44 -47.5t-23.5 -64.5t-7 -69
q0 -37 14.5 -63.5t40.5 -41t61 -14.5q41 0 67 18.5t41 46.5l112 -50q-19 -36 -52.5 -61.5t-78 -39.5t-97.5 -14zM536 670l-21 -91h-342l21 91h342zM416 900h133l-124 -162h-106z" />
    <glyph glyph-name="uni1E1C" unicode="&#x1e1c;" horiz-adv-x="625" 
d="M26 0l153 660h491l-26 -111h-353l-38 -164h278l-24 -106h-278l-38 -168h365l-26 -111h-504zM246 6l46 23q52 -14 79.5 -43t27.5 -73q0 -41 -18.5 -70t-49.5 -44t-70 -15q-37 0 -65 12.5t-44 29.5l39 65q13 -13 31.5 -19.5t35.5 -6.5q27 0 44 17.5t17 42.5q0 27 -18 46
t-55 35zM623 880q-12 -71 -62 -114t-125 -43q-65 0 -102.5 34t-37.5 87q0 9 1 18t3 18h90q-1 -4 -1.5 -9.5t-0.5 -9.5q0 -26 16.5 -41t44.5 -15q30 0 52.5 19t28.5 56h93z" />
    <glyph glyph-name="uni1E1D" unicode="&#x1e1d;" horiz-adv-x="578" 
d="M280 -9q-72 0 -125.5 29t-83 80t-29.5 117q0 82 33 148t95 105t149 39q69 0 117.5 -27t74 -77t25.5 -119q0 -20 -2 -40.5t-8 -40.5h-400v95h316l-43 -28q4 13 5 23.5t1 20.5q0 30 -11 50.5t-31 31.5t-48 11q-41 0 -68.5 -18t-44 -47.5t-23.5 -64.5t-7 -69
q0 -37 14.5 -63.5t40.5 -41t61 -14.5q41 0 67 18.5t41 46.5l112 -50q-19 -36 -52.5 -61.5t-78 -39.5t-97.5 -14zM218 6l46 23q52 -14 79.5 -43t27.5 -73q0 -41 -18.5 -70t-49.5 -44t-70 -15q-37 0 -65 12.5t-44 29.5l39 65q13 -13 31.5 -19.5t35.5 -6.5q27 0 44 17.5
t17 42.5q0 27 -18 46t-55 35zM533 720q-12 -71 -62 -114t-125 -43q-65 0 -102.5 34t-37.5 87q0 9 1 18t3 18h90q-1 -4 -1.5 -9.5t-0.5 -9.5q0 -26 16.5 -41t44.5 -15q30 0 52.5 19t28.5 56h93z" />
    <glyph glyph-name="uni1E20" unicode="&#x1e20;" horiz-adv-x="712" 
d="M330 -9q-73 0 -132 34t-94.5 98t-35.5 153q0 79 23.5 149.5t68.5 126t111.5 87t152.5 31.5q69 0 124.5 -21t94 -64t51.5 -111l-132 -29q-11 57 -47.5 85t-94.5 28q-49 0 -88.5 -22t-67 -60t-42 -86.5t-14.5 -101.5q0 -58 19 -100t55 -64t88 -22q45 0 77.5 14.5t53.5 41
t30 60.5l8 25h-176l23 100h288l-85 -343h-96l32 147l12 -15q-18 -45 -46.5 -76.5t-68 -48t-92.5 -16.5zM652 830l-21 -91h-342l21 91h342z" />
    <glyph glyph-name="uni1E21" unicode="&#x1e21;" horiz-adv-x="615" 
d="M211 -215q-44 0 -84 11.5t-71 33.5t-49.5 54.5t-22.5 75.5l138 22q5 -48 27.5 -75t76.5 -27q29 0 54.5 12t45 40t30.5 78l32 143l11 4q-16 -68 -62 -106.5t-112 -38.5q-52 0 -94.5 25.5t-66.5 72t-24 106.5q0 61 18 114t51 93.5t78.5 63.5t100.5 23q43 0 78.5 -18
t57.5 -53.5t22 -87.5l-18 -19l39 168h137l-113 -484q-20 -85 -58.5 -135.5t-94 -73t-127.5 -22.5zM281 115q38 0 67 25t46 66t17 89q0 34 -12 58.5t-34 38t-52 13.5q-42 0 -72.5 -24.5t-47.5 -64.5t-17 -87q0 -50 27 -82t78 -32zM551 670l-21 -91h-342l21 91h342z" />
    <glyph glyph-name="uni1E24" unicode="&#x1e24;" horiz-adv-x="730" 
d="M741 660l-153 -660h-139l153 660h139zM317 660l-153 -660h-138l153 660h138zM612 389l-26 -111h-427l26 111h427zM273 -220q-34 0 -54 15.5t-20 45.5q0 42 24.5 63.5t62.5 21.5q34 0 54 -15.5t20 -44.5q0 -43 -24 -64.5t-63 -21.5z" />
    <glyph glyph-name="uni1E25" unicode="&#x1e25;" horiz-adv-x="607" 
d="M12 0l166 719h137l-76 -328l-16 -17q13 40 40 70.5t65.5 48t85.5 17.5q52 0 89.5 -24t52.5 -67.5t2 -104.5l-73 -314h-137l69 297q11 49 -9.5 77t-64.5 28q-34 0 -60 -15.5t-44 -45.5t-29 -74l-61 -267h-137zM213 -220q-34 0 -54 15.5t-20 45.5q0 42 24.5 63.5t62.5 21.5
q34 0 54 -15.5t20 -44.5q0 -43 -24 -64.5t-63 -21.5z" />
    <glyph glyph-name="uni1E2A" unicode="&#x1e2a;" horiz-adv-x="730" 
d="M741 660l-153 -660h-139l153 660h139zM317 660l-153 -660h-138l153 660h138zM612 389l-26 -111h-427l26 111h427zM459 -63q-12 -71 -62 -114t-125 -43q-65 0 -102.5 34t-37.5 87q0 9 1 18t3 18h90q-1 -4 -1.5 -9.5t-0.5 -9.5q0 -26 16.5 -41t44.5 -15q30 0 52.5 19
t28.5 56h93z" />
    <glyph glyph-name="uni1E2B" unicode="&#x1e2b;" horiz-adv-x="607" 
d="M12 0l166 719h137l-76 -328l-16 -17q13 40 40 70.5t65.5 48t85.5 17.5q52 0 89.5 -24t52.5 -67.5t2 -104.5l-73 -314h-137l69 297q11 49 -9.5 77t-64.5 28q-34 0 -60 -15.5t-44 -45.5t-29 -74l-61 -267h-137zM399 -63q-12 -71 -62 -114t-125 -43q-65 0 -102.5 34
t-37.5 87q0 9 1 18t3 18h90q-1 -4 -1.5 -9.5t-0.5 -9.5q0 -26 16.5 -41t44.5 -15q30 0 52.5 19t28.5 56h93z" />
    <glyph glyph-name="uni1E2E" unicode="&#x1e2e;" horiz-adv-x="306" 
d="M317 660l-153 -660h-138l153 660h138zM374 725q-30 0 -49 15t-19 43q0 41 23 61t60 20q31 0 49.5 -15t18.5 -42q0 -42 -23 -62t-60 -20zM162 725q-30 0 -49 15t-19 43q0 41 23 61t60 20q31 0 49.5 -15t18.5 -42q0 -42 -23 -62t-60 -20zM339 1074h133l-124 -162h-106z" />
    <glyph glyph-name="uni1E2F" unicode="&#x1e2f;" horiz-adv-x="277" 
d="M265 500l-116 -500h-137l116 500h137zM323 565q-30 0 -49 15t-19 43q0 41 23 61t60 20q31 0 49.5 -15t18.5 -42q0 -42 -23 -62t-60 -20zM111 565q-30 0 -49 15t-19 43q0 41 23 61t60 20q31 0 49.5 -15t18.5 -42q0 -42 -23 -62t-60 -20zM288 914h133l-124 -162h-106z" />
    <glyph glyph-name="uni1E36" unicode="&#x1e36;" horiz-adv-x="597" 
d="M190 111h347l-26 -111h-485l153 660h138zM247 -220q-34 0 -54 15.5t-20 45.5q0 42 24.5 63.5t62.5 21.5q34 0 54 -15.5t20 -44.5q0 -43 -24 -64.5t-63 -21.5z" />
    <glyph glyph-name="uni1E37" unicode="&#x1e37;" horiz-adv-x="319" 
d="M177 -8q-82 0 -115 46.5t-15 123.5l129 557h137l-129 -557q-9 -36 4.5 -53t47.5 -17q13 0 23 1t18 3l-27 -93q-16 -6 -33 -8.5t-40 -2.5zM102 -220q-34 0 -54 15.5t-20 45.5q0 42 24.5 63.5t62.5 21.5q34 0 54 -15.5t20 -44.5q0 -43 -24 -64.5t-63 -21.5z" />
    <glyph glyph-name="uni1E3A" unicode="&#x1e3a;" horiz-adv-x="597" 
d="M190 111h347l-26 -111h-485l153 660h138zM439 -79l-21 -91h-342l21 91h342z" />
    <glyph glyph-name="uni1E3B" unicode="&#x1e3b;" horiz-adv-x="319" 
d="M-36 -170l20 91h254l-21 -91h-253zM177 -8q-82 0 -115 46.5t-15 123.5l129 557h137l-129 -557q-9 -36 4.5 -53t47.5 -17q13 0 23 1t18 3l-27 -93q-16 -6 -33 -8.5t-40 -2.5z" />
    <glyph glyph-name="uni1E42" unicode="&#x1e42;" horiz-adv-x="879" 
d="M26 0l153 660h180l38 -353l11 -159h1l80 158l198 354h203l-153 -660h-124l80 344l46 187h-1l-303 -531h-109l-60 529h-2l-34 -185l-80 -344h-124zM350 -220q-34 0 -54 15.5t-20 45.5q0 42 24.5 63.5t62.5 21.5q34 0 54 -15.5t20 -44.5q0 -43 -24 -64.5t-63 -21.5z" />
    <glyph glyph-name="uni1E43" unicode="&#x1e43;" horiz-adv-x="933" 
d="M12 0l116 500h121l-23 -142l-9 11q20 69 72.5 105t119.5 36q53 0 89.5 -24t51.5 -69t0 -108l-72 -309h-137l69 296q12 50 -7 78t-61 28q-34 0 -60 -15.5t-43.5 -45.5t-28.5 -74l-61 -267h-137zM671 0l68 296q12 50 -7 78t-60 28q-34 0 -60 -15.5t-44 -45.5t-28 -74
l-10 87q26 76 81.5 116t124.5 40q54 0 91 -24t52 -69t1 -108l-72 -309h-137zM372 -220q-34 0 -54 15.5t-20 45.5q0 42 24.5 63.5t62.5 21.5q34 0 54 -15.5t20 -44.5q0 -43 -24 -64.5t-63 -21.5z" />
    <glyph glyph-name="uni1E44" unicode="&#x1e44;" horiz-adv-x="729" 
d="M26 0l153 660h152l135 -391l35 -117h2l25 126l88 382h124l-153 -660h-150l-138 388l-35 116h-2l-23 -122l-89 -382h-124zM478 734q-33 0 -53 15.5t-20 44.5q0 43 24.5 64.5t62.5 21.5q34 0 54 -15.5t20 -44.5q0 -44 -24.5 -65t-63.5 -21z" />
    <glyph glyph-name="uni1E45" unicode="&#x1e45;" horiz-adv-x="607" 
d="M12 0l116 500h121l-23 -142l-9 11q20 69 73 105t120 36q55 0 93 -24t53 -68.5t1 -106.5l-72 -311h-137l69 297q11 49 -9.5 77t-64.5 28q-34 0 -60 -15.5t-44 -45.5t-29 -74l-61 -267h-137zM385 574q-33 0 -53 15.5t-20 44.5q0 43 24.5 64.5t62.5 21.5q34 0 54 -15.5
t20 -44.5q0 -44 -24.5 -65t-63.5 -21z" />
    <glyph glyph-name="uni1E46" unicode="&#x1e46;" horiz-adv-x="729" 
d="M26 0l153 660h152l135 -391l35 -117h2l25 126l88 382h124l-153 -660h-150l-138 388l-35 116h-2l-23 -122l-89 -382h-124zM287 -220q-34 0 -54 15.5t-20 45.5q0 42 24.5 63.5t62.5 21.5q34 0 54 -15.5t20 -44.5q0 -43 -24 -64.5t-63 -21.5z" />
    <glyph glyph-name="uni1E47" unicode="&#x1e47;" horiz-adv-x="607" 
d="M12 0l116 500h121l-23 -142l-9 11q20 69 73 105t120 36q55 0 93 -24t53 -68.5t1 -106.5l-72 -311h-137l69 297q11 49 -9.5 77t-64.5 28q-34 0 -60 -15.5t-44 -45.5t-29 -74l-61 -267h-137zM220 -220q-34 0 -54 15.5t-20 45.5q0 42 24.5 63.5t62.5 21.5q34 0 54 -15.5
t20 -44.5q0 -43 -24 -64.5t-63 -21.5z" />
    <glyph glyph-name="uni1E48" unicode="&#x1e48;" horiz-adv-x="729" 
d="M26 0l153 660h152l135 -391l35 -117h2l25 126l88 382h124l-153 -660h-150l-138 388l-35 116h-2l-23 -122l-89 -382h-124zM479 -79l-21 -91h-342l21 91h342z" />
    <glyph glyph-name="uni1E49" unicode="&#x1e49;" horiz-adv-x="607" 
d="M12 0l116 500h121l-23 -142l-9 11q20 69 73 105t120 36q55 0 93 -24t53 -68.5t1 -106.5l-72 -311h-137l69 297q11 49 -9.5 77t-64.5 28q-34 0 -60 -15.5t-44 -45.5t-29 -74l-61 -267h-137zM412 -79l-21 -91h-342l21 91h342z" />
    <glyph glyph-name="uni1E4C" unicode="&#x1e4c;" horiz-adv-x="736" 
d="M356 -10q-79 0 -144.5 34t-104 99t-38.5 157q0 81 23 151.5t67.5 124t110 84t148.5 30.5q80 0 144.5 -34t103 -99t38.5 -157q0 -80 -23 -150.5t-67.5 -124.5t-109.5 -84.5t-148 -30.5zM363 104q50 0 87.5 24.5t62.5 66t37.5 91t12.5 99.5q0 55 -18.5 93t-52.5 58t-81 20
q-50 0 -87.5 -24.5t-63 -65.5t-38.5 -91t-13 -100q0 -54 19 -92.5t53.5 -58.5t81.5 -20zM663 878q-12 -75 -50 -112.5t-86 -37.5q-26 0 -44.5 9.5t-31.5 21.5t-25.5 21.5t-26.5 9.5q-17 0 -29.5 -16.5t-19.5 -45.5h-83q12 74 49 112t86 38q24 0 42 -9.5t32 -22t27 -22
t27 -9.5q17 0 29.5 16.5t19.5 46.5h84zM527 1095h133l-124 -162h-106z" />
    <glyph glyph-name="uni1E4D" unicode="&#x1e4d;" horiz-adv-x="598" 
d="M281 -9q-74 0 -128 29.5t-82.5 81t-28.5 115.5q0 83 33.5 149t95 104.5t146.5 38.5q76 0 129 -29.5t81.5 -80.5t28.5 -115q0 -82 -33 -148.5t-94.5 -105.5t-147.5 -39zM284 92q29 0 54 16t44 44.5t29 64.5t10 75q0 34 -12 60t-35.5 41t-59.5 15q-29 0 -54.5 -16t-44 -44
t-28.5 -64t-10 -75q0 -33 12 -60t36 -42t59 -15zM561 718q-12 -75 -50 -112.5t-86 -37.5q-26 0 -44.5 9.5t-31.5 21.5t-25.5 21.5t-26.5 9.5q-17 0 -29.5 -16.5t-19.5 -45.5h-83q12 74 49 112t86 38q24 0 42 -9.5t32 -22t27 -22t27 -9.5q17 0 29.5 16.5t19.5 46.5h84z
M425 935h133l-124 -162h-106z" />
    <glyph glyph-name="uni1E4E" unicode="&#x1e4e;" horiz-adv-x="736" 
d="M356 -10q-79 0 -144.5 34t-104 99t-38.5 157q0 81 23 151.5t67.5 124t110 84t148.5 30.5q80 0 144.5 -34t103 -99t38.5 -157q0 -80 -23 -150.5t-67.5 -124.5t-109.5 -84.5t-148 -30.5zM363 104q50 0 87.5 24.5t62.5 66t37.5 91t12.5 99.5q0 55 -18.5 93t-52.5 58t-81 20
q-50 0 -87.5 -24.5t-63 -65.5t-38.5 -91t-13 -100q0 -54 19 -92.5t53.5 -58.5t81.5 -20zM663 878q-12 -75 -50 -112.5t-86 -37.5q-26 0 -44.5 9.5t-31.5 21.5t-25.5 21.5t-26.5 9.5q-17 0 -29.5 -16.5t-19.5 -45.5h-83q12 74 49 112t86 38q24 0 42 -9.5t32 -22t27 -22
t27 -9.5q17 0 29.5 16.5t19.5 46.5h84zM604 928q-30 0 -49 15t-19 43q0 41 23 61t60 20q31 0 49.5 -15t18.5 -42q0 -42 -23 -62t-60 -20zM392 928q-30 0 -49 15t-19 43q0 41 23 61t60 20q31 0 49.5 -15t18.5 -42q0 -42 -23 -62t-60 -20z" />
    <glyph glyph-name="uni1E4F" unicode="&#x1e4f;" horiz-adv-x="598" 
d="M281 -9q-74 0 -128 29.5t-82.5 81t-28.5 115.5q0 83 33.5 149t95 104.5t146.5 38.5q76 0 129 -29.5t81.5 -80.5t28.5 -115q0 -82 -33 -148.5t-94.5 -105.5t-147.5 -39zM284 92q29 0 54 16t44 44.5t29 64.5t10 75q0 34 -12 60t-35.5 41t-59.5 15q-29 0 -54.5 -16t-44 -44
t-28.5 -64t-10 -75q0 -33 12 -60t36 -42t59 -15zM561 718q-12 -75 -50 -112.5t-86 -37.5q-26 0 -44.5 9.5t-31.5 21.5t-25.5 21.5t-26.5 9.5q-17 0 -29.5 -16.5t-19.5 -45.5h-83q12 74 49 112t86 38q24 0 42 -9.5t32 -22t27 -22t27 -9.5q17 0 29.5 16.5t19.5 46.5h84z
M502 768q-30 0 -49 15t-19 43q0 41 23 61t60 20q31 0 49.5 -15t18.5 -42q0 -42 -23 -62t-60 -20zM290 768q-30 0 -49 15t-19 43q0 41 23 61t60 20q31 0 49.5 -15t18.5 -42q0 -42 -23 -62t-60 -20z" />
    <glyph glyph-name="uni1E50" unicode="&#x1e50;" horiz-adv-x="736" 
d="M356 -10q-79 0 -144.5 34t-104 99t-38.5 157q0 81 23 151.5t67.5 124t110 84t148.5 30.5q80 0 144.5 -34t103 -99t38.5 -157q0 -80 -23 -150.5t-67.5 -124.5t-109.5 -84.5t-148 -30.5zM363 104q50 0 87.5 24.5t62.5 66t37.5 91t12.5 99.5q0 55 -18.5 93t-52.5 58t-81 20
q-50 0 -87.5 -24.5t-63 -65.5t-38.5 -91t-13 -100q0 -54 19 -92.5t53.5 -58.5t81.5 -20zM646 830l-21 -91h-342l21 91h342zM510 1060l35 -162h-91l-67 162h123z" />
    <glyph glyph-name="uni1E51" unicode="&#x1e51;" horiz-adv-x="598" 
d="M281 -9q-74 0 -128 29.5t-82.5 81t-28.5 115.5q0 83 33.5 149t95 104.5t146.5 38.5q76 0 129 -29.5t81.5 -80.5t28.5 -115q0 -82 -33 -148.5t-94.5 -105.5t-147.5 -39zM284 92q29 0 54 16t44 44.5t29 64.5t10 75q0 34 -12 60t-35.5 41t-59.5 15q-29 0 -54.5 -16t-44 -44
t-28.5 -64t-10 -75q0 -33 12 -60t36 -42t59 -15zM544 670l-21 -91h-342l21 91h342zM408 900l35 -162h-91l-67 162h123z" />
    <glyph glyph-name="uni1E52" unicode="&#x1e52;" horiz-adv-x="736" 
d="M356 -10q-79 0 -144.5 34t-104 99t-38.5 157q0 81 23 151.5t67.5 124t110 84t148.5 30.5q80 0 144.5 -34t103 -99t38.5 -157q0 -80 -23 -150.5t-67.5 -124.5t-109.5 -84.5t-148 -30.5zM363 104q50 0 87.5 24.5t62.5 66t37.5 91t12.5 99.5q0 55 -18.5 93t-52.5 58t-81 20
q-50 0 -87.5 -24.5t-63 -65.5t-38.5 -91t-13 -100q0 -54 19 -92.5t53.5 -58.5t81.5 -20zM646 830l-21 -91h-342l21 91h342zM527 1060h133l-124 -162h-106z" />
    <glyph glyph-name="uni1E53" unicode="&#x1e53;" horiz-adv-x="598" 
d="M281 -9q-74 0 -128 29.5t-82.5 81t-28.5 115.5q0 83 33.5 149t95 104.5t146.5 38.5q76 0 129 -29.5t81.5 -80.5t28.5 -115q0 -82 -33 -148.5t-94.5 -105.5t-147.5 -39zM284 92q29 0 54 16t44 44.5t29 64.5t10 75q0 34 -12 60t-35.5 41t-59.5 15q-29 0 -54.5 -16t-44 -44
t-28.5 -64t-10 -75q0 -33 12 -60t36 -42t59 -15zM544 670l-21 -91h-342l21 91h342zM425 900h133l-124 -162h-106z" />
    <glyph glyph-name="uni1E5A" unicode="&#x1e5a;" horiz-adv-x="662" 
d="M26 0l153 660h259q97 0 153.5 -49t56.5 -136q0 -66 -30 -114t-81.5 -75t-114.5 -33l-42 -8h-176l24 105h149q44 0 73.5 15.5t45 42t15.5 59.5q0 42 -29 62.5t-77 20.5h-115l-128 -550h-136zM452 0l-110 284l128 19l123 -303h-141zM275 -220q-34 0 -54 15.5t-20 45.5
q0 42 24.5 63.5t62.5 21.5q34 0 54 -15.5t20 -44.5q0 -43 -24 -64.5t-63 -21.5z" />
    <glyph glyph-name="uni1E5B" unicode="&#x1e5b;" horiz-adv-x="410" 
d="M12 0l116 500h119l-24 -157l-9 13q16 47 43 81.5t64 53.5t80 19q17 0 28.5 -2t20.5 -7l-35 -119q-10 5 -23 8t-32 3q-34 0 -65 -15.5t-54 -47.5t-35 -84l-57 -246h-137zM46 -220q-34 0 -54 15.5t-20 45.5q0 42 24.5 63.5t62.5 21.5q34 0 54 -15.5t20 -44.5
q0 -43 -24 -64.5t-63 -21.5z" />
    <glyph glyph-name="uni1E5E" unicode="&#x1e5e;" horiz-adv-x="662" 
d="M26 0l153 660h259q97 0 153.5 -49t56.5 -136q0 -66 -30 -114t-81.5 -75t-114.5 -33l-42 -8h-176l24 105h149q44 0 73.5 15.5t45 42t15.5 59.5q0 42 -29 62.5t-77 20.5h-115l-128 -550h-136zM452 0l-110 284l128 19l123 -303h-141zM467 -79l-21 -91h-342l21 91h342z" />
    <glyph glyph-name="uni1E5F" unicode="&#x1e5f;" horiz-adv-x="410" 
d="M-72 -170l21 91h251l-21 -91h-251zM12 0l116 500h119l-24 -157l-9 13q16 47 43 81.5t64 53.5t80 19q17 0 28.5 -2t20.5 -7l-35 -119q-10 5 -23 8t-32 3q-34 0 -65 -15.5t-54 -47.5t-35 -84l-57 -246h-137z" />
    <glyph glyph-name="uni1E60" unicode="&#x1e60;" horiz-adv-x="639" 
d="M334 -10q-72 0 -133 20t-107.5 58.5t-76.5 97.5l93 77q21 -48 56.5 -79.5t79.5 -46.5t90 -15q38 0 62.5 11.5t36.5 31t12 41.5q0 27 -18.5 43t-55.5 27l-102 31q-47 15 -83 39t-56.5 59t-20.5 79q0 63 33 109.5t90.5 72t133.5 25.5q102 0 170.5 -38t108.5 -110l-97 -75
q-17 41 -46.5 65.5t-64.5 34.5t-73 10q-37 0 -62 -10.5t-37 -28t-12 -39.5q0 -26 22 -46t58 -32l107 -32q74 -24 111.5 -64t37.5 -103q0 -66 -34.5 -114t-93 -73.5t-129.5 -25.5zM421 734q-33 0 -53 15.5t-20 44.5q0 43 24.5 64.5t62.5 21.5q34 0 54 -15.5t20 -44.5
q0 -44 -24.5 -65t-63.5 -21z" />
    <glyph glyph-name="uni1E61" unicode="&#x1e61;" horiz-adv-x="518" 
d="M254 -11q-55 0 -104 16t-87 46.5t-60 71.5l85 67q23 -46 64 -73.5t93 -27.5q39 0 61 12t22 36q0 18 -13 30.5t-38 19.5l-71 21q-70 21 -102 57t-32 85q0 48 25.5 84t72 56t109.5 20q76 0 134 -28t89 -81l-83 -71q-12 24 -33 42t-47.5 28.5t-57.5 10.5q-41 0 -62.5 -12.5
t-21.5 -35.5q0 -20 18.5 -30t40.5 -17l97 -30q53 -16 81 -49.5t28 -78.5q0 -52 -25.5 -90t-72.5 -58.5t-110 -20.5zM329 574q-33 0 -53 15.5t-20 44.5q0 43 24.5 64.5t62.5 21.5q34 0 54 -15.5t20 -44.5q0 -44 -24.5 -65t-63.5 -21z" />
    <glyph glyph-name="uni1E62" unicode="&#x1e62;" horiz-adv-x="639" 
d="M334 -10q-72 0 -133 20t-107.5 58.5t-76.5 97.5l93 77q21 -48 56.5 -79.5t79.5 -46.5t90 -15q38 0 62.5 11.5t36.5 31t12 41.5q0 27 -18.5 43t-55.5 27l-102 31q-47 15 -83 39t-56.5 59t-20.5 79q0 63 33 109.5t90.5 72t133.5 25.5q102 0 170.5 -38t108.5 -110l-97 -75
q-17 41 -46.5 65.5t-64.5 34.5t-73 10q-37 0 -62 -10.5t-37 -28t-12 -39.5q0 -26 22 -46t58 -32l107 -32q74 -24 111.5 -64t37.5 -103q0 -66 -34.5 -114t-93 -73.5t-129.5 -25.5zM244 -220q-34 0 -54 15.5t-20 45.5q0 42 24.5 63.5t62.5 21.5q34 0 54 -15.5t20 -44.5
q0 -43 -24 -64.5t-63 -21.5z" />
    <glyph glyph-name="uni1E63" unicode="&#x1e63;" horiz-adv-x="518" 
d="M254 -11q-55 0 -104 16t-87 46.5t-60 71.5l85 67q23 -46 64 -73.5t93 -27.5q39 0 61 12t22 36q0 18 -13 30.5t-38 19.5l-71 21q-70 21 -102 57t-32 85q0 48 25.5 84t72 56t109.5 20q76 0 134 -28t89 -81l-83 -71q-12 24 -33 42t-47.5 28.5t-57.5 10.5q-41 0 -62.5 -12.5
t-21.5 -35.5q0 -20 18.5 -30t40.5 -17l97 -30q53 -16 81 -49.5t28 -78.5q0 -52 -25.5 -90t-72.5 -58.5t-110 -20.5zM182 -220q-34 0 -54 15.5t-20 45.5q0 42 24.5 63.5t62.5 21.5q34 0 54 -15.5t20 -44.5q0 -43 -24 -64.5t-63 -21.5z" />
    <glyph glyph-name="uni1E64" unicode="&#x1e64;" horiz-adv-x="639" 
d="M334 -10q-72 0 -133 20t-107.5 58.5t-76.5 97.5l93 77q21 -48 56.5 -79.5t79.5 -46.5t90 -15q38 0 62.5 11.5t36.5 31t12 41.5q0 27 -18.5 43t-55.5 27l-102 31q-47 15 -83 39t-56.5 59t-20.5 79q0 63 33 109.5t90.5 72t133.5 25.5q102 0 170.5 -38t108.5 -110l-97 -75
q-17 41 -46.5 65.5t-64.5 34.5t-73 10q-37 0 -62 -10.5t-37 -28t-12 -39.5q0 -26 22 -46t58 -32l107 -32q74 -24 111.5 -64t37.5 -103q0 -66 -34.5 -114t-93 -73.5t-129.5 -25.5zM447 892h133l-124 -162h-106zM473 948q-33 0 -53 15.5t-20 44.5q0 43 24.5 64.5t62.5 21.5
q34 0 54 -15.5t20 -44.5q0 -44 -24.5 -65t-63.5 -21z" />
    <glyph glyph-name="uni1E65" unicode="&#x1e65;" horiz-adv-x="518" 
d="M254 -11q-55 0 -104 16t-87 46.5t-60 71.5l85 67q23 -46 64 -73.5t93 -27.5q39 0 61 12t22 36q0 18 -13 30.5t-38 19.5l-71 21q-70 21 -102 57t-32 85q0 48 25.5 84t72 56t109.5 20q76 0 134 -28t89 -81l-83 -71q-12 24 -33 42t-47.5 28.5t-57.5 10.5q-41 0 -62.5 -12.5
t-21.5 -35.5q0 -20 18.5 -30t40.5 -17l97 -30q53 -16 81 -49.5t28 -78.5q0 -52 -25.5 -90t-72.5 -58.5t-110 -20.5zM365 742h139l-146 -170h-108zM381 792q-33 0 -53 15.5t-20 44.5q0 43 24.5 64.5t62.5 21.5q34 0 54 -15.5t20 -44.5q0 -44 -24.5 -65t-63.5 -21z" />
    <glyph glyph-name="uni1E66" unicode="&#x1e66;" horiz-adv-x="639" 
d="M334 -10q-72 0 -133 20t-107.5 58.5t-76.5 97.5l93 77q21 -48 56.5 -79.5t79.5 -46.5t90 -15q38 0 62.5 11.5t36.5 31t12 41.5q0 27 -18.5 43t-55.5 27l-102 31q-47 15 -83 39t-56.5 59t-20.5 79q0 63 33 109.5t90.5 72t133.5 25.5q102 0 170.5 -38t108.5 -110l-97 -75
q-17 41 -46.5 65.5t-64.5 34.5t-73 10q-37 0 -62 -10.5t-37 -28t-12 -39.5q0 -26 22 -46t58 -32l107 -32q74 -24 111.5 -64t37.5 -103q0 -66 -34.5 -114t-93 -73.5t-129.5 -25.5zM341 730l-66 162h96l49 -97l92 97h108l-142 -162h-137zM462 941q-33 0 -53 15.5t-20 44.5
q0 43 24.5 64.5t62.5 21.5q34 0 54 -15.5t20 -44.5q0 -44 -24.5 -65t-63.5 -21z" />
    <glyph glyph-name="uni1E67" unicode="&#x1e67;" horiz-adv-x="518" 
d="M254 -11q-55 0 -104 16t-87 46.5t-60 71.5l85 67q23 -46 64 -73.5t93 -27.5q39 0 61 12t22 36q0 18 -13 30.5t-38 19.5l-71 21q-70 21 -102 57t-32 85q0 48 25.5 84t72 56t109.5 20q76 0 134 -28t89 -81l-83 -71q-12 24 -33 42t-47.5 28.5t-57.5 10.5q-41 0 -62.5 -12.5
t-21.5 -35.5q0 -20 18.5 -30t40.5 -17l97 -30q53 -16 81 -49.5t28 -78.5q0 -52 -25.5 -90t-72.5 -58.5t-110 -20.5zM244 572l-72 170h98l53 -98l98 98h110l-150 -170h-137zM355 778q-33 0 -53 15.5t-20 44.5q0 43 24.5 64.5t62.5 21.5q34 0 54 -15.5t20 -44.5
q0 -44 -24.5 -65t-63.5 -21z" />
    <glyph glyph-name="uni1E68" unicode="&#x1e68;" horiz-adv-x="639" 
d="M334 -10q-72 0 -133 20t-107.5 58.5t-76.5 97.5l93 77q21 -48 56.5 -79.5t79.5 -46.5t90 -15q38 0 62.5 11.5t36.5 31t12 41.5q0 27 -18.5 43t-55.5 27l-102 31q-47 15 -83 39t-56.5 59t-20.5 79q0 63 33 109.5t90.5 72t133.5 25.5q102 0 170.5 -38t108.5 -110l-97 -75
q-17 41 -46.5 65.5t-64.5 34.5t-73 10q-37 0 -62 -10.5t-37 -28t-12 -39.5q0 -26 22 -46t58 -32l107 -32q74 -24 111.5 -64t37.5 -103q0 -66 -34.5 -114t-93 -73.5t-129.5 -25.5zM421 734q-33 0 -53 15.5t-20 44.5q0 43 24.5 64.5t62.5 21.5q34 0 54 -15.5t20 -44.5
q0 -44 -24.5 -65t-63.5 -21zM244 -220q-34 0 -54 15.5t-20 45.5q0 42 24.5 63.5t62.5 21.5q34 0 54 -15.5t20 -44.5q0 -43 -24 -64.5t-63 -21.5z" />
    <glyph glyph-name="uni1E69" unicode="&#x1e69;" horiz-adv-x="518" 
d="M254 -11q-55 0 -104 16t-87 46.5t-60 71.5l85 67q23 -46 64 -73.5t93 -27.5q39 0 61 12t22 36q0 18 -13 30.5t-38 19.5l-71 21q-70 21 -102 57t-32 85q0 48 25.5 84t72 56t109.5 20q76 0 134 -28t89 -81l-83 -71q-12 24 -33 42t-47.5 28.5t-57.5 10.5q-41 0 -62.5 -12.5
t-21.5 -35.5q0 -20 18.5 -30t40.5 -17l97 -30q53 -16 81 -49.5t28 -78.5q0 -52 -25.5 -90t-72.5 -58.5t-110 -20.5zM329 574q-33 0 -53 15.5t-20 44.5q0 43 24.5 64.5t62.5 21.5q34 0 54 -15.5t20 -44.5q0 -44 -24.5 -65t-63.5 -21zM182 -220q-34 0 -54 15.5t-20 45.5
q0 42 24.5 63.5t62.5 21.5q34 0 54 -15.5t20 -44.5q0 -43 -24 -64.5t-63 -21.5z" />
    <glyph glyph-name="uni1E6C" unicode="&#x1e6c;" horiz-adv-x="628" 
d="M696 660l-26 -111h-217l-127 -549h-138l127 549h-220l27 111h574zM219 -220q-34 0 -54 15.5t-20 45.5q0 42 24.5 63.5t62.5 21.5q34 0 54 -15.5t20 -44.5q0 -43 -24 -64.5t-63 -21.5z" />
    <glyph glyph-name="uni1E6D" unicode="&#x1e6d;" horiz-adv-x="423" 
d="M248 -9q-56 0 -96 21t-56 61t-3 99l100 436l147 40l-111 -475q-10 -42 11 -61.5t57 -19.5q24 0 40 5t29 13l-1 -93q-26 -14 -55.5 -20t-61.5 -6zM49 398l24 102h376l-24 -102h-376zM177 -220q-34 0 -54 15.5t-20 45.5q0 42 24.5 63.5t62.5 21.5q34 0 54 -15.5t20 -44.5
q0 -43 -24 -64.5t-63 -21.5z" />
    <glyph glyph-name="uni1E6E" unicode="&#x1e6e;" horiz-adv-x="628" 
d="M696 660l-26 -111h-217l-127 -549h-138l127 549h-220l27 111h574zM417 -79l-21 -91h-342l21 91h342z" />
    <glyph glyph-name="uni1E6F" unicode="&#x1e6f;" horiz-adv-x="423" 
d="M248 -9q-56 0 -96 21t-56 61t-3 99l100 436l147 40l-111 -475q-10 -42 11 -61.5t57 -19.5q24 0 40 5t29 13l-1 -93q-26 -14 -55.5 -20t-61.5 -6zM49 398l24 102h376l-24 -102h-376zM369 -79l-21 -91h-342l21 91h342z" />
    <glyph glyph-name="uni1E78" unicode="&#x1e78;" horiz-adv-x="700" 
d="M328 -10q-95 0 -158.5 36t-87.5 103t-3 161l87 370h139l-90 -392q-12 -54 0.5 -91t44.5 -55.5t79 -18.5q64 0 100.5 39.5t52.5 110.5l94 407h138l-97 -419q-28 -120 -101 -185.5t-198 -65.5zM664 866q-12 -75 -50 -112.5t-86 -37.5q-26 0 -44.5 9.5t-31.5 21.5
t-25.5 21.5t-26.5 9.5q-17 0 -29.5 -16.5t-19.5 -45.5h-83q12 74 49 112t86 38q24 0 42 -9.5t32 -22t27 -22t27 -9.5q17 0 29.5 16.5t19.5 46.5h84zM528 1083h133l-124 -162h-106z" />
    <glyph glyph-name="uni1E79" unicode="&#x1e79;" horiz-adv-x="606" 
d="M199 -9q-53 0 -91.5 23.5t-55 67.5t-2.5 106l72 312h137l-68 -296q-12 -51 9.5 -78t64.5 -27q35 0 60 15.5t42.5 45.5t27.5 73l62 267h137l-116 -500h-121l23 142l9 -11q-21 -69 -72 -104.5t-118 -35.5zM576 712q-12 -75 -50 -112.5t-86 -37.5q-26 0 -44.5 9.5
t-31.5 21.5t-25.5 21.5t-26.5 9.5q-17 0 -29.5 -16.5t-19.5 -45.5h-83q12 74 49 112t86 38q24 0 42 -9.5t32 -22t27 -22t27 -9.5q17 0 29.5 16.5t19.5 46.5h84zM440 929h133l-124 -162h-106z" />
    <glyph glyph-name="uni1E7A" unicode="&#x1e7a;" horiz-adv-x="700" 
d="M328 -10q-95 0 -158.5 36t-87.5 103t-3 161l87 370h139l-90 -392q-12 -54 0.5 -91t44.5 -55.5t79 -18.5q64 0 100.5 39.5t52.5 110.5l94 407h138l-97 -419q-28 -120 -101 -185.5t-198 -65.5zM647 818l-21 -91h-342l21 91h342zM605 880q-30 0 -49 15t-19 43q0 41 23 61
t60 20q31 0 49.5 -15t18.5 -42q0 -42 -23 -62t-60 -20zM393 880q-30 0 -49 15t-19 43q0 41 23 61t60 20q31 0 49.5 -15t18.5 -42q0 -42 -23 -62t-60 -20z" />
    <glyph glyph-name="uni1E7B" unicode="&#x1e7b;" horiz-adv-x="606" 
d="M199 -9q-53 0 -91.5 23.5t-55 67.5t-2.5 106l72 312h137l-68 -296q-12 -51 9.5 -78t64.5 -27q35 0 60 15.5t42.5 45.5t27.5 73l62 267h137l-116 -500h-121l23 142l9 -11q-21 -69 -72 -104.5t-118 -35.5zM559 664l-21 -91h-342l21 91h342zM516 727q-30 0 -49 15t-19 43
q0 41 23 61t60 20q31 0 49.5 -15t18.5 -42q0 -42 -23 -62t-60 -20zM304 727q-30 0 -49 15t-19 43q0 41 23 61t60 20q31 0 49.5 -15t18.5 -42q0 -42 -23 -62t-60 -20z" />
    <glyph glyph-name="Wgrave" unicode="&#x1e80;" horiz-adv-x="970" 
d="M149 0l-37 660h136l10 -537l243 537h136l12 -541l248 541h150l-342 -660h-158l-10 360l5 159h-2l-67 -159l-168 -360h-156zM604 892l35 -162h-91l-67 162h123z" />
    <glyph glyph-name="wgrave" unicode="&#x1e81;" horiz-adv-x="852" 
d="M103 0l-37 500h133l16 -375l187 375h135l32 -379l183 379h145l-266 -500h-157l-34 340l-176 -340h-161zM499 742l35 -170h-97l-67 170h129z" />
    <glyph glyph-name="Wacute" unicode="&#x1e82;" horiz-adv-x="970" 
d="M149 0l-37 660h136l10 -537l243 537h136l12 -541l248 541h150l-342 -660h-158l-10 360l5 159h-2l-67 -159l-168 -360h-156zM621 892h133l-124 -162h-106z" />
    <glyph glyph-name="wacute" unicode="&#x1e83;" horiz-adv-x="852" 
d="M103 0l-37 500h133l16 -375l187 375h135l32 -379l183 379h145l-266 -500h-157l-34 340l-176 -340h-161zM525 742h139l-146 -170h-108z" />
    <glyph glyph-name="Wdieresis" unicode="&#x1e84;" horiz-adv-x="970" 
d="M149 0l-37 660h136l10 -537l243 537h136l12 -541l248 541h150l-342 -660h-158l-10 360l5 159h-2l-67 -159l-168 -360h-156zM698 725q-30 0 -49 15t-19 43q0 41 23 61t60 20q31 0 49.5 -15t18.5 -42q0 -42 -23 -62t-60 -20zM486 725q-30 0 -49 15t-19 43q0 41 23 61t60 20
q31 0 49.5 -15t18.5 -42q0 -42 -23 -62t-60 -20z" />
    <glyph glyph-name="wdieresis" unicode="&#x1e85;" horiz-adv-x="852" 
d="M103 0l-37 500h133l16 -375l187 375h135l32 -379l183 379h145l-266 -500h-157l-34 340l-176 -340h-161zM592 565q-30 0 -49 15t-19 43q0 41 23 61t60 20q31 0 49.5 -15t18.5 -42q0 -42 -23 -62t-60 -20zM380 565q-30 0 -49 15t-19 43q0 41 23 61t60 20q31 0 49.5 -15
t18.5 -42q0 -42 -23 -62t-60 -20z" />
    <glyph glyph-name="uni1E8E" unicode="&#x1e8e;" horiz-adv-x="619" 
d="M183 0l58 250l-133 410h136l60 -199l27 -106l72 109l147 196h152l-325 -420l-56 -240h-138zM410 722q-33 0 -53 15.5t-20 44.5q0 43 24.5 64.5t62.5 21.5q34 0 54 -15.5t20 -44.5q0 -44 -24.5 -65t-63.5 -21z" />
    <glyph glyph-name="uni1E8F" unicode="&#x1e8f;" horiz-adv-x="538" 
d="M33 -215q-42 0 -75 9.5t-52 24.5l41 101q34 -30 82 -30q29 0 52 13.5t41 42.5l30 48l-88 506h138l26 -275l11 -123l61 118l149 280h147l-342 -562q-32 -55 -66 -89t-72 -49t-83 -15zM355 568q-33 0 -53 15.5t-20 44.5q0 43 24.5 64.5t62.5 21.5q34 0 54 -15.5t20 -44.5
q0 -44 -24.5 -65t-63.5 -21z" />
    <glyph glyph-name="uni1E92" unicode="&#x1e92;" horiz-adv-x="611" 
d="M-12 0l26 109l456 441h-360l26 110h519l-26 -109l-457 -441h379l-26 -110h-537zM247 -220q-34 0 -54 15.5t-20 45.5q0 42 24.5 63.5t62.5 21.5q34 0 54 -15.5t20 -44.5q0 -43 -24 -64.5t-63 -21.5z" />
    <glyph glyph-name="uni1E93" unicode="&#x1e93;" horiz-adv-x="512" 
d="M-11 0l21 90l274 263l56 49l-82 -3h-181l24 101h419l-21 -93l-257 -245l-71 -63l98 2h177l-23 -101h-434zM183 -220q-34 0 -54 15.5t-20 45.5q0 42 24.5 63.5t62.5 21.5q34 0 54 -15.5t20 -44.5q0 -43 -24 -64.5t-63 -21.5z" />
    <glyph glyph-name="uni1E97" unicode="&#x1e97;" horiz-adv-x="423" 
d="M248 -9q-56 0 -96 21t-56 61t-3 99l100 436l147 40l-111 -475q-10 -42 11 -61.5t57 -19.5q24 0 40 5t29 13l-1 -93q-26 -14 -55.5 -20t-61.5 -6zM49 398l24 102h376l-24 -102h-376zM401 713q-30 0 -49 15t-19 43q0 41 23 61t60 20q31 0 49.5 -15t18.5 -42q0 -42 -23 -62
t-60 -20zM189 713q-30 0 -49 15t-19 43q0 41 23 61t60 20q31 0 49.5 -15t18.5 -42q0 -42 -23 -62t-60 -20z" />
    <glyph glyph-name="uni1E9E" unicode="&#x1e9e;" horiz-adv-x="681" 
d="M425 -5q-56 0 -100.5 16.5t-76.5 42.5l52 89q20 -20 49.5 -32t62.5 -12q28 0 50.5 11.5t37 33.5t14.5 54q0 42 -24 62t-74 20h-85l21 87l206 183h-164q-41 0 -70 -15t-47 -43.5t-28 -68.5l-97 -423h-138l101 439q16 68 53.5 117.5t95.5 76.5t133 27h336l-24 -102
l-225 -197h11q42 0 76 -19t54.5 -54.5t20.5 -86.5q0 -64 -28.5 -110.5t-78.5 -71t-114 -24.5z" />
    <glyph glyph-name="uni1EA0" unicode="&#x1ea0;" horiz-adv-x="660" 
d="M-48 0l390 660h168l82 -660h-132l-46 438l-9 107h-2l-55 -105l-249 -440h-147zM134 167l23 102h358l-24 -102h-357zM258 -220q-34 0 -54 15.5t-20 45.5q0 42 24.5 63.5t62.5 21.5q34 0 54 -15.5t20 -44.5q0 -43 -24 -64.5t-63 -21.5z" />
    <glyph glyph-name="uni1EA1" unicode="&#x1ea1;" horiz-adv-x="617" 
d="M222 -9q-53 0 -94 25.5t-64.5 71.5t-23.5 111q0 61 18 117t50.5 99.5t79 69t102.5 25.5q37 0 69 -13t54 -39t31 -66l25 108h137l-116 -500h-124l17 94q-24 -47 -67 -75t-94 -28zM277 95q28 0 53 16.5t43.5 45t29 64t10.5 73.5q0 34 -12 59t-33.5 38.5t-50.5 13.5
q-33 0 -59 -16.5t-44.5 -44.5t-28.5 -62.5t-10 -70.5t11.5 -62t34 -40t56.5 -14zM218 -220q-34 0 -54 15.5t-20 45.5q0 42 24.5 63.5t62.5 21.5q34 0 54 -15.5t20 -44.5q0 -43 -24 -64.5t-63 -21.5z" />
    <glyph glyph-name="uni1EA2" unicode="&#x1ea2;" horiz-adv-x="660" 
d="M-48 0l390 660h168l82 -660h-132l-46 438l-9 107h-2l-55 -105l-249 -440h-147zM134 167l23 102h358l-24 -102h-357zM420 702l-17 49q32 7 45.5 22.5t13.5 32.5t-10.5 24t-23.5 7t-24 -6t-19 -18l-54 50q16 25 45.5 40.5t67.5 15.5q43 0 73.5 -24.5t30.5 -69.5
q0 -34 -16 -59.5t-44.5 -41.5t-67.5 -22z" />
    <glyph glyph-name="uni1EA3" unicode="&#x1ea3;" horiz-adv-x="617" 
d="M222 -9q-53 0 -94 25.5t-64.5 71.5t-23.5 111q0 61 18 117t50.5 99.5t79 69t102.5 25.5q37 0 69 -13t54 -39t31 -66l25 108h137l-116 -500h-124l17 94q-24 -47 -67 -75t-94 -28zM277 95q28 0 53 16.5t43.5 45t29 64t10.5 73.5q0 34 -12 59t-33.5 38.5t-50.5 13.5
q-33 0 -59 -16.5t-44.5 -44.5t-28.5 -62.5t-10 -70.5t11.5 -62t34 -40t56.5 -14zM337 549l-17 51q35 7 51 22.5t16 32.5q0 16 -10 23.5t-24 7.5q-12 0 -23.5 -6.5t-21.5 -17.5l-51 50q17 24 46 39.5t67 15.5q44 0 73.5 -25t29.5 -70q0 -33 -16.5 -59.5t-47 -42.5t-72.5 -21z
" />
    <glyph glyph-name="uni1EA4" unicode="&#x1ea4;" horiz-adv-x="660" 
d="M258 725l145 164h129l69 -164h-94l-51 95l-94 -95h-104zM676 979h120l-112 -145h-94zM-48 0l390 660h168l82 -660h-132l-46 438l-9 107h-2l-55 -105l-249 -440h-147zM134 167l23 102h358l-24 -102h-357z" />
    <glyph glyph-name="uni1EA5" unicode="&#x1ea5;" horiz-adv-x="617" 
d="M179 565l144 164h129l69 -164h-94l-51 95l-94 -95h-103zM596 819h121l-112 -145h-95zM222 -9q-53 0 -94 25.5t-64.5 71.5t-23.5 111q0 61 18 117t50.5 99.5t79 69t102.5 25.5q37 0 69 -13t54 -39t31 -66l25 108h137l-116 -500h-124l17 94q-24 -47 -67 -75t-94 -28z
M277 95q28 0 53 16.5t43.5 45t29 64t10.5 73.5q0 34 -12 59t-33.5 38.5t-50.5 13.5q-33 0 -59 -16.5t-44.5 -44.5t-28.5 -62.5t-10 -70.5t11.5 -62t34 -40t56.5 -14z" />
    <glyph glyph-name="uni1EA6" unicode="&#x1ea6;" horiz-adv-x="660" 
d="M258 725l145 164h129l69 -164h-94l-51 95l-94 -95h-104zM664 979l31 -145h-82l-60 145h111zM-48 0l390 660h168l82 -660h-132l-46 438l-9 107h-2l-55 -105l-249 -440h-147zM134 167l23 102h358l-24 -102h-357z" />
    <glyph glyph-name="uni1EA7" unicode="&#x1ea7;" horiz-adv-x="617" 
d="M179 565l144 164h129l69 -164h-94l-51 95l-94 -95h-103zM584 819l31 -145h-82l-60 145h111zM222 -9q-53 0 -94 25.5t-64.5 71.5t-23.5 111q0 61 18 117t50.5 99.5t79 69t102.5 25.5q37 0 69 -13t54 -39t31 -66l25 108h137l-116 -500h-124l17 94q-24 -47 -67 -75t-94 -28z
M277 95q28 0 53 16.5t43.5 45t29 64t10.5 73.5q0 34 -12 59t-33.5 38.5t-50.5 13.5q-33 0 -59 -16.5t-44.5 -44.5t-28.5 -62.5t-10 -70.5t11.5 -62t34 -40t56.5 -14z" />
    <glyph glyph-name="uni1EA8" unicode="&#x1ea8;" horiz-adv-x="660" 
d="M258 725l145 164h129l69 -164h-94l-51 95l-94 -95h-104zM615 813l-17 49q33 6 46 21.5t13 33.5q0 16 -10 23t-24 7q-12 0 -23 -6t-19 -18l-54 50q16 25 45.5 41t66.5 16q43 0 73.5 -25t30.5 -70q0 -33 -16 -59t-44 -42t-68 -21zM-48 0l390 660h168l82 -660h-132l-46 438
l-9 107h-2l-55 -105l-249 -440h-147zM134 167l23 102h358l-24 -102h-357z" />
    <glyph glyph-name="uni1EA9" unicode="&#x1ea9;" horiz-adv-x="617" 
d="M179 565l144 164h129l69 -164h-94l-51 95l-94 -95h-103zM536 653l-17 49q32 6 45 21.5t13 33.5q0 16 -10 23t-23 7t-24 -6t-19 -18l-54 50q16 25 45.5 41t66.5 16q44 0 74.5 -25t30.5 -70q0 -33 -16 -59t-44.5 -42t-67.5 -21zM222 -9q-53 0 -94 25.5t-64.5 71.5
t-23.5 111q0 61 18 117t50.5 99.5t79 69t102.5 25.5q37 0 69 -13t54 -39t31 -66l25 108h137l-116 -500h-124l17 94q-24 -47 -67 -75t-94 -28zM277 95q28 0 53 16.5t43.5 45t29 64t10.5 73.5q0 34 -12 59t-33.5 38.5t-50.5 13.5q-33 0 -59 -16.5t-44.5 -44.5t-28.5 -62.5
t-10 -70.5t11.5 -62t34 -40t56.5 -14z" />
    <glyph glyph-name="uni1EAA" unicode="&#x1eaa;" horiz-adv-x="660" 
d="M258 725l145 164h129l69 -164h-94l-51 95l-94 -95h-104zM666 1052q-10 -69 -45 -103.5t-80 -34.5q-25 0 -42 9t-29.5 20t-24.5 19.5t-28 8.5t-26.5 -15t-15.5 -40h-78q9 69 43 103.5t81 34.5q22 0 39 -8.5t30 -20t26 -20t28 -8.5q16 0 27 14.5t16 40.5h79zM-48 0l390 660
h168l82 -660h-132l-46 438l-9 107h-2l-55 -105l-249 -440h-147zM134 167l23 102h358l-24 -102h-357z" />
    <glyph glyph-name="uni1EAB" unicode="&#x1eab;" horiz-adv-x="617" 
d="M179 565l144 164h129l69 -164h-94l-51 95l-94 -95h-103zM586 892q-10 -69 -44.5 -103.5t-80.5 -34.5q-25 0 -42 9t-29.5 20t-24.5 19.5t-27 8.5q-17 0 -27.5 -15t-15.5 -40h-78q9 69 43 103.5t81 34.5q23 0 39.5 -8.5t30 -20t26.5 -20t27 -8.5q17 0 27.5 14.5t15.5 40.5
h79zM222 -9q-53 0 -94 25.5t-64.5 71.5t-23.5 111q0 61 18 117t50.5 99.5t79 69t102.5 25.5q37 0 69 -13t54 -39t31 -66l25 108h137l-116 -500h-124l17 94q-24 -47 -67 -75t-94 -28zM277 95q28 0 53 16.5t43.5 45t29 64t10.5 73.5q0 34 -12 59t-33.5 38.5t-50.5 13.5
q-33 0 -59 -16.5t-44.5 -44.5t-28.5 -62.5t-10 -70.5t11.5 -62t34 -40t56.5 -14z" />
    <glyph glyph-name="uni1EAC" unicode="&#x1eac;" horiz-adv-x="660" 
d="M-48 0l390 660h168l82 -660h-132l-46 438l-9 107h-2l-55 -105l-249 -440h-147zM134 167l23 102h358l-24 -102h-357zM258 -220q-34 0 -54 15.5t-20 45.5q0 42 24.5 63.5t62.5 21.5q34 0 54 -15.5t20 -44.5q0 -43 -24 -64.5t-63 -21.5zM541 892l67 -162h-97l-49 97l-92 -97
h-108l142 162h137z" />
    <glyph glyph-name="uni1EAD" unicode="&#x1ead;" horiz-adv-x="617" 
d="M222 -9q-53 0 -94 25.5t-64.5 71.5t-23.5 111q0 61 18 117t50.5 99.5t79 69t102.5 25.5q37 0 69 -13t54 -39t31 -66l25 108h137l-116 -500h-124l17 94q-24 -47 -67 -75t-94 -28zM277 95q28 0 53 16.5t43.5 45t29 64t10.5 73.5q0 34 -12 59t-33.5 38.5t-50.5 13.5
q-33 0 -59 -16.5t-44.5 -44.5t-28.5 -62.5t-10 -70.5t11.5 -62t34 -40t56.5 -14zM218 -220q-34 0 -54 15.5t-20 45.5q0 42 24.5 63.5t62.5 21.5q34 0 54 -15.5t20 -44.5q0 -43 -24 -64.5t-63 -21.5zM170 565l150 171h137l72 -171h-100l-52 98l-97 -98h-110z" />
    <glyph glyph-name="uni1EAE" unicode="&#x1eae;" horiz-adv-x="660" 
d="M611 874q-11 -69 -59 -110t-120 -41q-62 0 -98 32.5t-36 83.5q0 17 4 35h85q-1 -5 -1.5 -9.5t-0.5 -9.5q0 -26 16 -40.5t43 -14.5q30 0 51.5 19t28.5 55h87zM399 894l85 138h120l-109 -138h-96zM-48 0l390 660h168l82 -660h-132l-46 438l-9 107h-2l-55 -105l-249 -440
h-147zM134 167l23 102h358l-24 -102h-357z" />
    <glyph glyph-name="uni1EAF" unicode="&#x1eaf;" horiz-adv-x="617" 
d="M540 714q-11 -69 -58.5 -110t-119.5 -41q-63 0 -99 32.5t-36 83.5q0 17 5 35h85q-2 -5 -2.5 -9.5t-0.5 -9.5q0 -26 16 -40.5t44 -14.5q30 0 51.5 19t27.5 55h87zM329 734l84 138h120l-108 -138h-96zM222 -9q-53 0 -94 25.5t-64.5 71.5t-23.5 111q0 61 18 117t50.5 99.5
t79 69t102.5 25.5q37 0 69 -13t54 -39t31 -66l25 108h137l-116 -500h-124l17 94q-24 -47 -67 -75t-94 -28zM277 95q28 0 53 16.5t43.5 45t29 64t10.5 73.5q0 34 -12 59t-33.5 38.5t-50.5 13.5q-33 0 -59 -16.5t-44.5 -44.5t-28.5 -62.5t-10 -70.5t11.5 -62t34 -40t56.5 -14z
" />
    <glyph glyph-name="uni1EB0" unicode="&#x1eb0;" horiz-adv-x="660" 
d="M613 874q-11 -69 -59 -110t-120 -41q-62 0 -98 32.5t-36 83.5q0 17 4 35h85q-2 -5 -2.5 -9.5t-0.5 -9.5q0 -26 16.5 -40.5t43.5 -14.5q30 0 51.5 19t27.5 55h88zM428 894l-62 138h116l33 -138h-87zM-48 0l390 660h168l82 -660h-132l-46 438l-9 107h-2l-55 -105l-249 -440
h-147zM134 167l23 102h358l-24 -102h-357z" />
    <glyph glyph-name="uni1EB1" unicode="&#x1eb1;" horiz-adv-x="617" 
d="M540 714q-11 -69 -58.5 -110t-119.5 -41q-63 0 -99 32.5t-36 83.5q0 17 5 35h85q-2 -5 -2.5 -9.5t-0.5 -9.5q0 -26 16 -40.5t44 -14.5q30 0 51.5 19t27.5 55h87zM356 734l-62 138h116l33 -138h-87zM222 -9q-53 0 -94 25.5t-64.5 71.5t-23.5 111q0 61 18 117t50.5 99.5
t79 69t102.5 25.5q37 0 69 -13t54 -39t31 -66l25 108h137l-116 -500h-124l17 94q-24 -47 -67 -75t-94 -28zM277 95q28 0 53 16.5t43.5 45t29 64t10.5 73.5q0 34 -12 59t-33.5 38.5t-50.5 13.5q-33 0 -59 -16.5t-44.5 -44.5t-28.5 -62.5t-10 -70.5t11.5 -62t34 -40t56.5 -14z
" />
    <glyph glyph-name="uni1EB2" unicode="&#x1eb2;" horiz-adv-x="660" 
d="M613 874q-11 -69 -58.5 -110t-119.5 -41q-63 0 -99 33t-36 84q0 16 5 34h84q-1 -4 -1.5 -9t-0.5 -9q0 -26 16 -40.5t43 -14.5q30 0 52 18.5t28 54.5h87zM448 877l-16 47q31 6 44 21t13 32q0 16 -10 23t-23 7q-12 0 -23 -6t-19 -18l-51 49q16 23 44 38t64 15
q42 0 71 -23.5t29 -67.5q0 -32 -15.5 -56.5t-42.5 -40t-65 -20.5zM-48 0l390 660h168l82 -660h-132l-46 438l-9 107h-2l-55 -105l-249 -440h-147zM134 167l23 102h358l-24 -102h-357z" />
    <glyph glyph-name="uni1EB3" unicode="&#x1eb3;" horiz-adv-x="617" 
d="M541 714q-11 -69 -59 -110t-120 -41q-62 0 -98 33t-36 84q0 16 4 34h85q-1 -4 -1.5 -9t-0.5 -9q0 -26 16 -40.5t43 -14.5q30 0 51.5 18.5t28.5 54.5h87zM376 717l-16 47q31 6 44 21t13 32q0 16 -10 23t-23 7t-23.5 -6t-18.5 -18l-51 49q15 23 43.5 38t64.5 15
q41 0 70.5 -23.5t29.5 -67.5q0 -32 -15.5 -56.5t-42.5 -40t-65 -20.5zM222 -9q-53 0 -94 25.5t-64.5 71.5t-23.5 111q0 61 18 117t50.5 99.5t79 69t102.5 25.5q37 0 69 -13t54 -39t31 -66l25 108h137l-116 -500h-124l17 94q-24 -47 -67 -75t-94 -28zM277 95q28 0 53 16.5
t43.5 45t29 64t10.5 73.5q0 34 -12 59t-33.5 38.5t-50.5 13.5q-33 0 -59 -16.5t-44.5 -44.5t-28.5 -62.5t-10 -70.5t11.5 -62t34 -40t56.5 -14z" />
    <glyph glyph-name="uni1EB4" unicode="&#x1eb4;" horiz-adv-x="660" 
d="M614 874q-11 -69 -58.5 -110t-119.5 -41q-63 0 -98.5 32.5t-35.5 83.5q0 17 4 35h85q-2 -5 -2.5 -9.5t-0.5 -9.5q0 -26 16 -40.5t44 -14.5q30 0 51.5 19t27.5 55h87zM657 1042q-10 -69 -44.5 -103.5t-80.5 -34.5q-24 0 -41 8.5t-30 20t-25 20t-27 8.5q-17 0 -27 -15
t-15 -40h-79q9 69 43 103.5t81 34.5q23 0 39.5 -8.5t30 -20t26.5 -20t28 -8.5q16 0 26.5 14.5t16.5 40.5h78zM-48 0l390 660h168l82 -660h-132l-46 438l-9 107h-2l-55 -105l-249 -440h-147zM134 167l23 102h358l-24 -102h-357z" />
    <glyph glyph-name="uni1EB5" unicode="&#x1eb5;" horiz-adv-x="617" 
d="M541 714q-12 -69 -59.5 -110t-119.5 -41q-63 0 -98.5 32.5t-35.5 83.5q0 17 4 35h85q-2 -5 -2.5 -9.5t-0.5 -9.5q0 -26 16.5 -40.5t43.5 -14.5q30 0 51.5 19t27.5 55h88zM583 882q-9 -69 -44 -103.5t-81 -34.5q-24 0 -41 8.5t-30 20t-25 20t-27 8.5q-16 0 -26.5 -15
t-15.5 -40h-79q10 69 43.5 103.5t80.5 34.5q23 0 39.5 -8.5t30 -20t26.5 -20t28 -8.5q16 0 26.5 14.5t16.5 40.5h78zM222 -9q-53 0 -94 25.5t-64.5 71.5t-23.5 111q0 61 18 117t50.5 99.5t79 69t102.5 25.5q37 0 69 -13t54 -39t31 -66l25 108h137l-116 -500h-124l17 94
q-24 -47 -67 -75t-94 -28zM277 95q28 0 53 16.5t43.5 45t29 64t10.5 73.5q0 34 -12 59t-33.5 38.5t-50.5 13.5q-33 0 -59 -16.5t-44.5 -44.5t-28.5 -62.5t-10 -70.5t11.5 -62t34 -40t56.5 -14z" />
    <glyph glyph-name="uni1EB6" unicode="&#x1eb6;" horiz-adv-x="660" 
d="M-48 0l390 660h168l82 -660h-132l-46 438l-9 107h-2l-55 -105l-249 -440h-147zM134 167l23 102h358l-24 -102h-357zM258 -220q-34 0 -54 15.5t-20 45.5q0 42 24.5 63.5t62.5 21.5q34 0 54 -15.5t20 -44.5q0 -43 -24 -64.5t-63 -21.5zM624 880q-12 -71 -62 -114t-125 -43
q-65 0 -102.5 34t-37.5 87q0 9 1 18t3 18h90q-1 -4 -1.5 -9.5t-0.5 -9.5q0 -26 16.5 -41t44.5 -15q30 0 52.5 19t28.5 56h93z" />
    <glyph glyph-name="uni1EB7" unicode="&#x1eb7;" horiz-adv-x="617" 
d="M222 -9q-53 0 -94 25.5t-64.5 71.5t-23.5 111q0 61 18 117t50.5 99.5t79 69t102.5 25.5q37 0 69 -13t54 -39t31 -66l25 108h137l-116 -500h-124l17 94q-24 -47 -67 -75t-94 -28zM277 95q28 0 53 16.5t43.5 45t29 64t10.5 73.5q0 34 -12 59t-33.5 38.5t-50.5 13.5
q-33 0 -59 -16.5t-44.5 -44.5t-28.5 -62.5t-10 -70.5t11.5 -62t34 -40t56.5 -14zM218 -220q-34 0 -54 15.5t-20 45.5q0 42 24.5 63.5t62.5 21.5q34 0 54 -15.5t20 -44.5q0 -43 -24 -64.5t-63 -21.5zM544 720q-12 -71 -62 -114t-125 -43q-65 0 -102.5 34t-37.5 87q0 9 1 18
t3 18h90q-1 -4 -1.5 -9.5t-0.5 -9.5q0 -26 16.5 -41t44.5 -15q30 0 52.5 19t28.5 56h93z" />
    <glyph glyph-name="uni1EB8" unicode="&#x1eb8;" horiz-adv-x="625" 
d="M26 0l153 660h491l-26 -111h-353l-38 -164h278l-24 -106h-278l-38 -168h365l-26 -111h-504zM258 -220q-34 0 -54 15.5t-20 45.5q0 42 24.5 63.5t62.5 21.5q34 0 54 -15.5t20 -44.5q0 -43 -24 -64.5t-63 -21.5z" />
    <glyph glyph-name="uni1EB9" unicode="&#x1eb9;" horiz-adv-x="578" 
d="M280 -9q-72 0 -125.5 29t-83 80t-29.5 117q0 82 33 148t95 105t149 39q69 0 117.5 -27t74 -77t25.5 -119q0 -20 -2 -40.5t-8 -40.5h-400v95h316l-43 -28q4 13 5 23.5t1 20.5q0 30 -11 50.5t-31 31.5t-48 11q-41 0 -68.5 -18t-44 -47.5t-23.5 -64.5t-7 -69
q0 -37 14.5 -63.5t40.5 -41t61 -14.5q41 0 67 18.5t41 46.5l112 -50q-19 -36 -52.5 -61.5t-78 -39.5t-97.5 -14zM230 -220q-34 0 -54 15.5t-20 45.5q0 42 24.5 63.5t62.5 21.5q34 0 54 -15.5t20 -44.5q0 -43 -24 -64.5t-63 -21.5z" />
    <glyph glyph-name="uni1EBA" unicode="&#x1eba;" horiz-adv-x="625" 
d="M26 0l153 660h491l-26 -111h-353l-38 -164h278l-24 -106h-278l-38 -168h365l-26 -111h-504zM419 702l-17 49q32 7 45.5 22.5t13.5 32.5t-10.5 24t-23.5 7t-24 -6t-19 -18l-54 50q16 25 45.5 40.5t67.5 15.5q43 0 73.5 -24.5t30.5 -69.5q0 -34 -16 -59.5t-44.5 -41.5
t-67.5 -22z" />
    <glyph glyph-name="uni1EBB" unicode="&#x1ebb;" horiz-adv-x="578" 
d="M280 -9q-72 0 -125.5 29t-83 80t-29.5 117q0 82 33 148t95 105t149 39q69 0 117.5 -27t74 -77t25.5 -119q0 -20 -2 -40.5t-8 -40.5h-400v95h316l-43 -28q4 13 5 23.5t1 20.5q0 30 -11 50.5t-31 31.5t-48 11q-41 0 -68.5 -18t-44 -47.5t-23.5 -64.5t-7 -69
q0 -37 14.5 -63.5t40.5 -41t61 -14.5q41 0 67 18.5t41 46.5l112 -50q-19 -36 -52.5 -61.5t-78 -39.5t-97.5 -14zM325 549l-17 51q35 7 51 22.5t16 32.5q0 16 -10 23.5t-24 7.5q-12 0 -23.5 -6.5t-21.5 -17.5l-51 50q17 24 46 39.5t67 15.5q44 0 73.5 -25t29.5 -70
q0 -33 -16.5 -59.5t-47 -42.5t-72.5 -21z" />
    <glyph glyph-name="uni1EBC" unicode="&#x1ebc;" horiz-adv-x="625" 
d="M26 0l153 660h491l-26 -111h-353l-38 -164h278l-24 -106h-278l-38 -168h365l-26 -111h-504zM646 878q-12 -75 -50 -112.5t-86 -37.5q-26 0 -44.5 9.5t-31.5 21.5t-25.5 21.5t-26.5 9.5q-17 0 -29.5 -16.5t-19.5 -45.5h-83q12 74 49 112t86 38q24 0 42 -9.5t32 -22t27 -22
t27 -9.5q17 0 29.5 16.5t19.5 46.5h84z" />
    <glyph glyph-name="uni1EBD" unicode="&#x1ebd;" horiz-adv-x="578" 
d="M280 -9q-72 0 -125.5 29t-83 80t-29.5 117q0 82 33 148t95 105t149 39q69 0 117.5 -27t74 -77t25.5 -119q0 -20 -2 -40.5t-8 -40.5h-400v95h316l-43 -28q4 13 5 23.5t1 20.5q0 30 -11 50.5t-31 31.5t-48 11q-41 0 -68.5 -18t-44 -47.5t-23.5 -64.5t-7 -69
q0 -37 14.5 -63.5t40.5 -41t61 -14.5q41 0 67 18.5t41 46.5l112 -50q-19 -36 -52.5 -61.5t-78 -39.5t-97.5 -14zM553 718q-12 -75 -50 -112.5t-86 -37.5q-26 0 -44.5 9.5t-31.5 21.5t-25.5 21.5t-26.5 9.5q-17 0 -29.5 -16.5t-19.5 -45.5h-83q12 74 49 112t86 38
q24 0 42 -9.5t32 -22t27 -22t27 -9.5q17 0 29.5 16.5t19.5 46.5h84z" />
    <glyph glyph-name="uni1EBE" unicode="&#x1ebe;" horiz-adv-x="625" 
d="M257 725l145 164h129l69 -164h-94l-51 95l-94 -95h-104zM675 979h120l-112 -145h-94zM26 0l153 660h491l-26 -111h-353l-38 -164h278l-24 -106h-278l-38 -168h365l-26 -111h-504z" />
    <glyph glyph-name="uni1EBF" unicode="&#x1ebf;" horiz-adv-x="578" 
d="M584 819h121l-112 -145h-95zM167 565l144 164h129l69 -164h-94l-51 95l-94 -95h-103zM280 -9q-72 0 -126 29t-83 80t-29 117q0 82 33 148.5t95.5 105t148.5 38.5q69 0 117.5 -26t74 -72t25.5 -105q0 -20 -3 -41.5t-9 -43.5h-398v76h316l-43 -25q4 13 5 23.5t1 20.5
q0 30 -11 50.5t-31.5 31.5t-47.5 11q-41 0 -68.5 -17.5t-44 -47.5t-23.5 -65t-7 -69q0 -37 14.5 -63.5t40.5 -41t61 -14.5q41 0 67 18.5t41 46.5l112 -50q-19 -36 -52.5 -62t-78 -39.5t-97.5 -13.5z" />
    <glyph glyph-name="uni1EC0" unicode="&#x1ec0;" horiz-adv-x="625" 
d="M257 725l145 164h129l69 -164h-94l-51 95l-94 -95h-104zM663 979l31 -145h-82l-60 145h111zM26 0l153 660h491l-26 -111h-353l-38 -164h278l-24 -106h-278l-38 -168h365l-26 -111h-504z" />
    <glyph glyph-name="uni1EC1" unicode="&#x1ec1;" horiz-adv-x="578" 
d="M572 819l31 -145h-82l-60 145h111zM167 565l144 164h129l69 -164h-94l-51 95l-94 -95h-103zM280 -9q-72 0 -126 29t-83 80t-29 117q0 82 33 148.5t95.5 105t148.5 38.5q69 0 117.5 -26t74 -72t25.5 -105q0 -20 -3 -41.5t-9 -43.5h-398v76h316l-43 -25q4 13 5 23.5t1 20.5
q0 30 -11 50.5t-31.5 31.5t-47.5 11q-41 0 -68.5 -17.5t-44 -47.5t-23.5 -65t-7 -69q0 -37 14.5 -63.5t40.5 -41t61 -14.5q41 0 67 18.5t41 46.5l112 -50q-19 -36 -52.5 -62t-78 -39.5t-97.5 -13.5z" />
    <glyph glyph-name="uni1EC2" unicode="&#x1ec2;" horiz-adv-x="625" 
d="M257 725l145 164h129l69 -164h-94l-51 95l-94 -95h-104zM615 813l-18 49q33 6 46 21.5t13 33.5q0 16 -10 23t-24 7q-12 0 -23 -6t-19 -18l-54 50q16 25 45.5 41t66.5 16q43 0 73.5 -25t30.5 -70q0 -33 -16 -59t-44 -42t-67 -21zM26 0l153 660h491l-26 -111h-353l-38 -164
h278l-24 -106h-278l-38 -168h365l-26 -111h-504z" />
    <glyph glyph-name="uni1EC3" unicode="&#x1ec3;" horiz-adv-x="578" 
d="M524 653l-17 49q32 6 45.5 21.5t13.5 33.5q0 16 -10.5 23t-23.5 7t-24 -6t-19 -18l-54 50q16 25 45.5 41t66.5 16q44 0 74.5 -25t30.5 -70q0 -33 -16 -59t-44.5 -42t-67.5 -21zM167 565l144 164h129l69 -164h-94l-51 95l-94 -95h-103zM280 -9q-72 0 -126 29t-83 80
t-29 117q0 82 33 148.5t95.5 105t148.5 38.5q69 0 117.5 -26t74 -72t25.5 -105q0 -20 -3 -41.5t-9 -43.5h-398v76h316l-43 -25q4 13 5 23.5t1 20.5q0 30 -11 50.5t-31.5 31.5t-47.5 11q-41 0 -68.5 -17.5t-44 -47.5t-23.5 -65t-7 -69q0 -37 14.5 -63.5t40.5 -41t61 -14.5
q41 0 67 18.5t41 46.5l112 -50q-19 -36 -52.5 -62t-78 -39.5t-97.5 -13.5z" />
    <glyph glyph-name="uni1EC4" unicode="&#x1ec4;" horiz-adv-x="625" 
d="M257 725l145 164h129l69 -164h-94l-51 95l-94 -95h-104zM665 1052q-10 -69 -45 -103.5t-80 -34.5q-25 0 -42 9t-29.5 20t-24.5 19.5t-28 8.5t-26.5 -15t-15.5 -40h-78q9 69 43 103.5t81 34.5q22 0 39 -8.5t30 -20t26 -20t28 -8.5q16 0 27 14.5t16 40.5h79zM26 0l153 660
h491l-26 -111h-353l-38 -164h278l-24 -106h-278l-38 -168h365l-26 -111h-504z" />
    <glyph glyph-name="uni1EC5" unicode="&#x1ec5;" horiz-adv-x="578" 
d="M167 565l144 164h129l69 -164h-94l-51 95l-94 -95h-103zM574 892q-10 -69 -44.5 -103.5t-80.5 -34.5q-24 0 -41 9t-30 20t-25 19.5t-27 8.5q-16 0 -26.5 -15t-15.5 -40h-79q9 69 43 103.5t81 34.5q23 0 39.5 -8.5t30 -20t26.5 -20t28 -8.5q16 0 26.5 14.5t16.5 40.5h78z
M280 -9q-72 0 -126 29t-83 80t-29 117q0 82 33 148.5t95.5 105t148.5 38.5q69 0 117.5 -26t74 -72t25.5 -105q0 -20 -3 -41.5t-9 -43.5h-398v76h316l-43 -25q4 13 5 23.5t1 20.5q0 30 -11 50.5t-31.5 31.5t-47.5 11q-41 0 -68.5 -17.5t-44 -47.5t-23.5 -65t-7 -69
q0 -37 14.5 -63.5t40.5 -41t61 -14.5q41 0 67 18.5t41 46.5l112 -50q-19 -36 -52.5 -62t-78 -39.5t-97.5 -13.5z" />
    <glyph glyph-name="uni1EC6" unicode="&#x1ec6;" horiz-adv-x="625" 
d="M26 0l153 660h491l-26 -111h-353l-38 -164h278l-24 -106h-278l-38 -168h365l-26 -111h-504zM258 -220q-34 0 -54 15.5t-20 45.5q0 42 24.5 63.5t62.5 21.5q34 0 54 -15.5t20 -44.5q0 -43 -24 -64.5t-63 -21.5zM540 892l67 -162h-97l-49 97l-92 -97h-108l142 162h137z" />
    <glyph glyph-name="uni1EC7" unicode="&#x1ec7;" horiz-adv-x="578" 
d="M280 -9q-72 0 -125.5 29t-83 80t-29.5 117q0 82 33 148t95 105t149 39q69 0 117.5 -27t74 -77t25.5 -119q0 -20 -2 -40.5t-8 -40.5h-400v95h316l-43 -28q4 13 5 23.5t1 20.5q0 30 -11 50.5t-31 31.5t-48 11q-41 0 -68.5 -18t-44 -47.5t-23.5 -64.5t-7 -69
q0 -37 14.5 -63.5t40.5 -41t61 -14.5q41 0 67 18.5t41 46.5l112 -50q-19 -36 -52.5 -61.5t-78 -39.5t-97.5 -14zM230 -220q-34 0 -54 15.5t-20 45.5q0 42 24.5 63.5t62.5 21.5q34 0 54 -15.5t20 -44.5q0 -43 -24 -64.5t-63 -21.5zM158 565l150 171h137l72 -171h-100l-52 98
l-97 -98h-110z" />
    <glyph glyph-name="uni1EC8" unicode="&#x1ec8;" horiz-adv-x="306" 
d="M317 660l-153 -660h-138l153 660h138zM248 702l-17 49q32 7 45.5 22.5t13.5 32.5t-10.5 24t-23.5 7t-24 -6t-19 -18l-54 50q16 25 45.5 40.5t67.5 15.5q43 0 73.5 -24.5t30.5 -69.5q0 -34 -16 -59.5t-44.5 -41.5t-67.5 -22z" />
    <glyph glyph-name="uni1EC9" unicode="&#x1ec9;" horiz-adv-x="277" 
d="M265 500l-116 -500h-137l116 500h137zM194 549l-17 51q35 7 51 22.5t16 32.5q0 16 -10 23.5t-24 7.5q-12 0 -23.5 -6.5t-21.5 -17.5l-51 50q17 24 46 39.5t67 15.5q44 0 73.5 -25t29.5 -70q0 -33 -16.5 -59.5t-47 -42.5t-72.5 -21z" />
    <glyph glyph-name="uni1ECA" unicode="&#x1eca;" horiz-adv-x="306" 
d="M317 660l-153 -660h-138l153 660h138zM57 -220q-34 0 -54 15.5t-20 45.5q0 42 24.5 63.5t62.5 21.5q34 0 54 -15.5t20 -44.5q0 -43 -24 -64.5t-63 -21.5z" />
    <glyph glyph-name="uni1ECB" unicode="&#x1ecb;" horiz-adv-x="277" 
d="M222 572q-36 0 -57 17t-18 50q3 41 26.5 60.5t62.5 19.5q37 0 58 -17t18 -49q-3 -43 -27 -62t-63 -19zM265 500l-116 -500h-137l116 500h137zM43 -220q-34 0 -54 15.5t-20 45.5q0 42 24.5 63.5t62.5 21.5q34 0 54 -15.5t20 -44.5q0 -43 -24 -64.5t-63 -21.5z" />
    <glyph glyph-name="uni1ECC" unicode="&#x1ecc;" horiz-adv-x="736" 
d="M356 -10q-79 0 -144.5 34t-104 99t-38.5 157q0 81 23 151.5t67.5 124t110 84t148.5 30.5q80 0 144.5 -34t103 -99t38.5 -157q0 -80 -23 -150.5t-67.5 -124.5t-109.5 -84.5t-148 -30.5zM363 104q50 0 87.5 24.5t62.5 66t37.5 91t12.5 99.5q0 55 -18.5 93t-52.5 58t-81 20
q-50 0 -87.5 -24.5t-63 -65.5t-38.5 -91t-13 -100q0 -54 19 -92.5t53.5 -58.5t81.5 -20zM299 -220q-34 0 -54 15.5t-20 45.5q0 42 24.5 63.5t62.5 21.5q34 0 54 -15.5t20 -44.5q0 -43 -24 -64.5t-63 -21.5z" />
    <glyph glyph-name="uni1ECD" unicode="&#x1ecd;" horiz-adv-x="598" 
d="M281 -9q-74 0 -128 29.5t-82.5 81t-28.5 115.5q0 83 33.5 149t95 104.5t146.5 38.5q76 0 129 -29.5t81.5 -80.5t28.5 -115q0 -82 -33 -148.5t-94.5 -105.5t-147.5 -39zM284 92q29 0 54 16t44 44.5t29 64.5t10 75q0 34 -12 60t-35.5 41t-59.5 15q-29 0 -54.5 -16t-44 -44
t-28.5 -64t-10 -75q0 -33 12 -60t36 -42t59 -15zM218 -220q-34 0 -54 15.5t-20 45.5q0 42 24.5 63.5t62.5 21.5q34 0 54 -15.5t20 -44.5q0 -43 -24 -64.5t-63 -21.5z" />
    <glyph glyph-name="uni1ECE" unicode="&#x1ece;" horiz-adv-x="736" 
d="M356 -10q-79 0 -144.5 34t-104 99t-38.5 157q0 81 23 151.5t67.5 124t110 84t148.5 30.5q80 0 144.5 -34t103 -99t38.5 -157q0 -80 -23 -150.5t-67.5 -124.5t-109.5 -84.5t-148 -30.5zM363 104q50 0 87.5 24.5t62.5 66t37.5 91t12.5 99.5q0 55 -18.5 93t-52.5 58t-81 20
q-50 0 -87.5 -24.5t-63 -65.5t-38.5 -91t-13 -100q0 -54 19 -92.5t53.5 -58.5t81.5 -20zM437 702l-17 49q32 7 45.5 22.5t13.5 32.5t-10.5 24t-23.5 7t-24 -6t-19 -18l-54 50q16 25 45.5 40.5t67.5 15.5q43 0 73.5 -24.5t30.5 -69.5q0 -34 -16 -59.5t-44.5 -41.5t-67.5 -22z
" />
    <glyph glyph-name="uni1ECF" unicode="&#x1ecf;" horiz-adv-x="598" 
d="M281 -9q-74 0 -128 29.5t-82.5 81t-28.5 115.5q0 83 33.5 149t95 104.5t146.5 38.5q76 0 129 -29.5t81.5 -80.5t28.5 -115q0 -82 -33 -148.5t-94.5 -105.5t-147.5 -39zM284 92q29 0 54 16t44 44.5t29 64.5t10 75q0 34 -12 60t-35.5 41t-59.5 15q-29 0 -54.5 -16t-44 -44
t-28.5 -64t-10 -75q0 -33 12 -60t36 -42t59 -15zM333 549l-17 51q35 7 51 22.5t16 32.5q0 16 -10 23.5t-24 7.5q-12 0 -23.5 -6.5t-21.5 -17.5l-51 50q17 24 46 39.5t67 15.5q44 0 73.5 -25t29.5 -70q0 -33 -16.5 -59.5t-47 -42.5t-72.5 -21z" />
    <glyph glyph-name="uni1ED0" unicode="&#x1ed0;" horiz-adv-x="736" 
d="M275 725l144 164h129l69 -164h-94l-51 95l-93 -95h-104zM692 979h121l-112 -145h-95zM356 -10q-79 0 -144.5 34t-104 99t-38.5 157q0 81 23 151.5t67.5 124t110 84t148.5 30.5q80 0 144.5 -34t103 -99t38.5 -157q0 -80 -23 -150.5t-67.5 -124.5t-109.5 -84.5t-148 -30.5z
M363 104q50 0 87.5 24.5t62.5 66t37.5 91t12.5 99.5q0 55 -18.5 93t-52.5 58t-81 20q-50 0 -87.5 -24.5t-63 -65.5t-38.5 -91t-13 -100q0 -54 19 -92.5t53.5 -58.5t81.5 -20z" />
    <glyph glyph-name="uni1ED1" unicode="&#x1ed1;" horiz-adv-x="598" 
d="M593 819h120l-112 -145h-95zM175 565l144 164h130l69 -164h-94l-51 95l-94 -95h-104zM281 -9q-74 0 -128 29.5t-82.5 81t-28.5 115.5q0 83 33.5 149t95 104.5t146.5 38.5q76 0 129 -29.5t81.5 -80.5t28.5 -115q0 -82 -33 -148.5t-94.5 -105.5t-147.5 -39zM284 92
q29 0 54 16t44 44.5t29 64.5t10 75q0 34 -12 60t-35.5 41t-59.5 15q-29 0 -54.5 -16t-44 -44t-28.5 -64t-10 -75q0 -33 12 -60t36 -42t59 -15z" />
    <glyph glyph-name="uni1ED2" unicode="&#x1ed2;" horiz-adv-x="736" 
d="M275 725l144 164h129l69 -164h-94l-51 95l-93 -95h-104zM680 979l31 -145h-82l-60 145h111zM356 -10q-79 0 -144.5 34t-104 99t-38.5 157q0 81 23 151.5t67.5 124t110 84t148.5 30.5q80 0 144.5 -34t103 -99t38.5 -157q0 -80 -23 -150.5t-67.5 -124.5t-109.5 -84.5
t-148 -30.5zM363 104q50 0 87.5 24.5t62.5 66t37.5 91t12.5 99.5q0 55 -18.5 93t-52.5 58t-81 20q-50 0 -87.5 -24.5t-63 -65.5t-38.5 -91t-13 -100q0 -54 19 -92.5t53.5 -58.5t81.5 -20z" />
    </font>
</defs>
</svg>
