<?xml version="1.0" standalone="no"?>
<!DOCTYPE svg PUBLIC "-//W3C//DTD SVG 1.1//EN" "http://www.w3.org/Graphics/SVG/1.1/DTD/svg11.dtd" >
<svg xmlns="http://www.w3.org/2000/svg" xmlns:xlink="http://www.w3.org/1999/xlink" version="1.1">
<metadata>
Created by FontForge 20170731 at Wed Feb 26 09:24:02 2020
 By Aleksey,,,
Copyright 2019 The Work Sans Project Authors (https://github.com/weiweihuanghuang/Work-Sans)
</metadata>
<defs>
<font id="WorkSans-Medium" horiz-adv-x="604" >
  <font-face 
    font-family="Work Sans Medium"
    font-weight="500"
    font-stretch="normal"
    units-per-em="1000"
    panose-1="0 0 0 0 0 0 0 0 0 0"
    ascent="800"
    descent="-200"
    x-height="500"
    cap-height="660"
    bbox="-222 -338 1292 1097"
    underline-thickness="50"
    underline-position="-175"
    unicode-range="U+000D-FB02"
  />
<missing-glyph horiz-adv-x="500" 
d="M92 -57h316v708h-316v-708zM74 -76v745h352v-745h-352z" />
    <glyph glyph-name="fi" unicode="fi" horiz-adv-x="673" 
d="M295 732q31 0 56.5 -6.5t38.5 -17.5l-20 -77q-11 7 -25 10.5t-32 3.5q-41 0 -64.5 -19t-23.5 -62v-73l3 -27v-464h-107v572q0 38 11.5 68t34.5 50.5t55.5 31t72.5 10.5zM387 500v-84h-360v84h360zM537 584q-35 0 -53.5 17.5t-18.5 49.5t18.5 49t53.5 17q34 0 52.5 -17
t18.5 -49t-18.5 -49.5t-52.5 -17.5zM590 500v-500h-107v500h107z" />
    <glyph glyph-name="fl" unicode="fl" horiz-adv-x="712" 
d="M295 732q31 0 56.5 -6.5t38.5 -17.5l-20 -77q-11 7 -25 10.5t-32 3.5q-41 0 -64.5 -19t-23.5 -62v-73l3 -27v-464h-107v572q0 38 11.5 68t34.5 50.5t55.5 31t72.5 10.5zM387 500v-84h-360v84h360zM587 725v-585q0 -37 13 -51t43 -14q18 0 30.5 2.5t31.5 9.5l-12 -80
q-17 -8 -39 -12.5t-44 -4.5q-67 0 -98.5 34.5t-31.5 106.5v594h107z" />
    <glyph glyph-name="f_f" unicode="ff" horiz-adv-x="795" 
d="M295 732q31 0 56.5 -6.5t38.5 -17.5l-20 -77q-11 7 -25 10.5t-32 3.5q-41 0 -64.5 -19t-23.5 -62v-73l3 -27v-464h-107v572q0 38 11.5 68t34.5 50.5t55.5 31t72.5 10.5zM387 500v-84h-360v84h360zM691 732q31 0 56.5 -6.5t38.5 -17.5l-20 -77q-11 7 -25 10.5t-32 3.5
q-41 0 -64.5 -19t-23.5 -62v-73l3 -27v-464h-107v572q0 38 11.5 68t34.5 50.5t55.5 31t72.5 10.5zM783 500v-84h-360v84h360z" />
    <glyph glyph-name="f_f_i" unicode="ffi" horiz-adv-x="1069" 
d="M295 732q31 0 56.5 -6.5t38.5 -17.5l-20 -77q-11 7 -25 10.5t-32 3.5q-41 0 -64.5 -19t-23.5 -62v-73l3 -27v-464h-107v572q0 38 11.5 68t34.5 50.5t55.5 31t72.5 10.5zM387 500v-84h-360v84h360zM691 732q31 0 56.5 -6.5t38.5 -17.5l-20 -77q-11 7 -25 10.5t-32 3.5
q-41 0 -64.5 -19t-23.5 -62v-73l3 -27v-464h-107v572q0 38 11.5 68t34.5 50.5t55.5 31t72.5 10.5zM783 500v-84h-360v84h360zM932 584q-35 0 -53.5 17.5t-18.5 49.5t18.5 49t53.5 17q34 0 52.5 -17t18.5 -49t-18.5 -49.5t-52.5 -17.5zM985 500v-500h-107v500h107z" />
    <glyph glyph-name="f_f_l" unicode="ffl" horiz-adv-x="1108" 
d="M295 732q31 0 56.5 -6.5t38.5 -17.5l-20 -77q-11 7 -25 10.5t-32 3.5q-41 0 -64.5 -19t-23.5 -62v-73l3 -27v-464h-107v572q0 38 11.5 68t34.5 50.5t55.5 31t72.5 10.5zM387 500v-84h-360v84h360zM691 732q31 0 56.5 -6.5t38.5 -17.5l-20 -77q-11 7 -25 10.5t-32 3.5
q-41 0 -64.5 -19t-23.5 -62v-73l3 -27v-464h-107v572q0 38 11.5 68t34.5 50.5t55.5 31t72.5 10.5zM783 500v-84h-360v84h360zM982 725v-585q0 -37 13 -51t43 -14q18 0 30.5 2.5t31.5 9.5l-12 -80q-17 -8 -39 -12.5t-44 -4.5q-67 0 -98.5 34.5t-31.5 106.5v594h107z" />
    <glyph glyph-name=".notdef" horiz-adv-x="500" 
d="M92 -57h316v708h-316v-708zM74 -76v745h352v-745h-352z" />
    <glyph glyph-name=".null" horiz-adv-x="0" 
 />
    <glyph glyph-name="nonmarkingreturn" horiz-adv-x="333" 
 />
    <glyph glyph-name="NULL" horiz-adv-x="0" 
 />
    <glyph glyph-name="NULL" horiz-adv-x="0" 
 />
    <glyph glyph-name="CR" unicode="&#xd;" horiz-adv-x="325" 
 />
    <glyph glyph-name="space" unicode=" " horiz-adv-x="325" 
 />
    <glyph glyph-name="exclam" unicode="!" horiz-adv-x="281" 
d="M196 660v-264l-14 -186h-84l-14 186v264h112zM140 132q34 0 54.5 -19.5t20.5 -51.5t-20.5 -51t-54.5 -19q-33 0 -53.5 19t-20.5 51t20.5 51.5t53.5 19.5z" />
    <glyph glyph-name="quotedbl" unicode="&#x22;" horiz-adv-x="416" 
d="M359 686l-27 -256h-78v256h105zM181 686l-27 -256h-78v256h105z" />
    <glyph glyph-name="numbersign" unicode="#" horiz-adv-x="654" 
d="M539 660l-109 -660h-82l109 660h82zM588 250v-73h-566v73h566zM302 660l-109 -660h-83l109 660h83zM632 484v-74h-567v74h567z" />
    <glyph glyph-name="dollar" unicode="$" horiz-adv-x="628" 
d="M320 1q-68 0 -122.5 17.5t-95 47.5t-66.5 69l71 72q21 -35 53 -61.5t74 -41.5t92 -15q68 0 107.5 23.5t39.5 70.5q0 27 -20 48.5t-72 33.5l-146 34q-58 13 -95.5 36t-55.5 56.5t-18 73.5q0 55 29.5 99t85.5 70.5t135 26.5q85 0 149 -32t106 -96l-68 -66q-37 57 -84 82
t-112 25q-48 0 -78.5 -12.5t-45.5 -34t-15 -47.5q0 -21 8.5 -38t31.5 -30t65 -22l130 -29q93 -21 132 -62t39 -105q0 -59 -32 -102.5t-89 -67t-133 -23.5zM278 -96v852h80v-852h-80z" />
    <glyph glyph-name="percent" unicode="%" horiz-adv-x="880" 
d="M178 0l432 660h92l-431 -660h-93zM204 670q51 0 88.5 -23t58 -64t20.5 -97q0 -55 -20.5 -96.5t-58 -64.5t-88.5 -23q-50 0 -88 23t-58.5 64.5t-20.5 96.5q0 56 20.5 97t58.5 64t88 23zM204 592q-25 0 -43 -12.5t-27 -36t-9 -57.5q0 -33 9 -57t27 -36t43 -12q26 0 44 12
t27 36t9 57q0 34 -9 57.5t-27 36t-44 12.5zM676 358q51 0 88.5 -23t58 -64.5t20.5 -96.5q0 -56 -20.5 -97t-58 -64t-88.5 -23q-50 0 -88 23t-58.5 64t-20.5 97q0 55 20.5 96.5t58.5 64.5t88 23zM676 279q-25 0 -43 -12t-27 -35.5t-9 -57.5q0 -33 9 -57t27 -36.5t43 -12.5
q26 0 44 12.5t27 36.5t9 57t-9 57t-27 36t-44 12z" />
    <glyph glyph-name="ampersand" unicode="&#x26;" horiz-adv-x="630" 
d="M258 -10q-67 0 -115.5 22.5t-75 62.5t-26.5 94q0 31 8.5 59.5t28 55t53.5 49t85 39.5l39 17q40 23 64.5 42t36 40t11.5 49q0 33 -20 51t-53 18q-39 0 -58.5 -21.5t-19.5 -51.5q0 -18 5.5 -35t22 -42t48.5 -65.5t87 -106.5q54 -65 90.5 -105.5t62.5 -61t48.5 -27
t50.5 -5.5l-18 -78q-32 0 -59.5 6.5t-59 28.5t-74 66t-104.5 117q-58 68 -96.5 114.5t-60 79t-30.5 59t-9 56.5q0 37 19 72.5t57.5 58t100.5 22.5q50 0 85 -18t54 -49.5t19 -72.5q0 -38 -14 -71t-49.5 -63t-100.5 -59l-33 -14q-46 -23 -72 -44t-37 -44.5t-11 -56.5
q0 -34 17.5 -58.5t47.5 -37.5t67 -13q53 0 90 18.5t69 51.5l14 15q24 38 37.5 86t8.5 109l83 -5q2 -64 -16.5 -124t-56.5 -108l-20 -22q-36 -46 -91 -73t-130 -27z" />
    <glyph glyph-name="quotesingle" unicode="'" horiz-adv-x="239" 
d="M181 686l-27 -256h-78v256h105z" />
    <glyph glyph-name="parenleft" unicode="(" horiz-adv-x="362" 
d="M283 747l56 -56q-63 -57 -101 -121t-55 -135.5t-17 -156.5q0 -83 17 -155.5t55 -135.5t101 -121l-56 -56q-109 88 -164.5 205.5t-55.5 262.5q0 146 55.5 264t164.5 205z" />
    <glyph glyph-name="parenright" unicode=")" horiz-adv-x="362" 
d="M79 -190l-56 56q63 57 101 121t55 135.5t17 156.5q0 83 -17 155.5t-55 135.5t-101 121l56 56q109 -88 164.5 -205.5t55.5 -262.5q0 -146 -55.5 -264t-164.5 -205z" />
    <glyph glyph-name="asterisk" unicode="*" horiz-adv-x="577" 
d="M307 505l81 -82l74 -102l-66 -48l-74 102l-53 102l19 14zM269 505l19 -14l19 -14l-53 -102l-73 -102l-66 48l74 102zM73 603l120 -39l103 -51l-8 -22l-7 -23l-113 20l-119 38zM330 730l-1 -126l-17 -113h-24h-24l-16 113l-1 126h83zM504 603l24 -77l-119 -38l-113 -20
l-8 23l-7 22l103 51z" />
    <glyph glyph-name="plus" unicode="+" 
d="M349 572v-506h-93v506h93zM548 364v-89h-492v89h492z" />
    <glyph glyph-name="comma" unicode="," horiz-adv-x="273" 
d="M136 135q28 0 46.5 -13.5t28.5 -37t10 -53.5q0 -37 -14 -71.5t-40.5 -63t-63.5 -46.5l-50 43q27 10 48 26t35.5 36t20.5 41l-4 2q-5 -3 -11.5 -5t-18.5 -2q-14 0 -28.5 7.5t-24.5 22.5t-10 39q0 22 10.5 39t27.5 26.5t38 9.5z" />
    <glyph glyph-name="hyphen" unicode="-" horiz-adv-x="515" 
d="M428 313v-99h-341v99h341z" />
    <glyph glyph-name="period" unicode="." horiz-adv-x="273" 
d="M137 135q34 0 54.5 -19.5t20.5 -52.5t-20.5 -53t-54.5 -20q-35 0 -55.5 20t-20.5 53t20.5 52.5t55.5 19.5z" />
    <glyph glyph-name="slash" unicode="/" horiz-adv-x="446" 
d="M422 725l-298 -795h-100l298 795h100z" />
    <glyph glyph-name="zero" unicode="0" horiz-adv-x="628" 
d="M314 -10q-119 0 -186.5 86.5t-67.5 253.5t67.5 253.5t186.5 86.5q120 0 187.5 -86.5t67.5 -253.5t-67.5 -253.5t-187.5 -86.5zM314 81q48 0 80.5 27.5t49 83t16.5 138.5t-16.5 138.5t-49 83t-80.5 27.5t-80.5 -27.5t-48.5 -83t-16 -138.5t16 -138.5t48.5 -83t80.5 -27.5z
" />
    <glyph glyph-name="one" unicode="1" horiz-adv-x="402" 
d="M203 0v453q0 20 0.5 41.5t1.5 45.5q-34 -33 -77.5 -56.5t-89.5 -33.5l-20 93q21 3 49 14t58 28t55 36.5t39 38.5h90v-660h-106z" />
    <glyph glyph-name="two" unicode="2" horiz-adv-x="587" 
d="M70 0v78q95 68 159.5 120t103.5 96t56.5 83.5t17.5 80.5q0 53 -33 86t-92 33q-62 0 -98.5 -41.5t-41.5 -113.5l-93 43q7 63 37 109t81.5 71t119.5 25q56 0 98.5 -16t71.5 -44.5t44.5 -66.5t15.5 -81q0 -63 -31 -121.5t-98 -119.5t-176 -131v-2q12 2 33 2.5l42 1t34 0.5
h208v-92h-459z" />
    <glyph glyph-name="three" unicode="3" horiz-adv-x="586" 
d="M293 -10q-93 0 -161.5 41.5t-93.5 116.5l104 49q9 -36 28 -62t50 -39.5t77 -13.5q39 0 66 14t41.5 39t14.5 57q0 33 -12.5 55t-39 32t-67.5 10q-12 0 -24.5 -0.5t-26.5 -2.5v90q9 -1 17.5 -1.5t16.5 -0.5q65 0 93 26t28 81q0 47 -28.5 72t-81.5 25q-55 0 -85.5 -25.5
t-46.5 -73.5l-98 41q14 46 47 80t81.5 52.5t106.5 18.5q71 0 118.5 -23t71 -63t23.5 -89q0 -38 -11 -66.5t-29.5 -49t-40 -31.5t-43.5 -15v-2q29 -1 53.5 -11.5t44 -29t30.5 -44.5t11 -57q0 -60 -30 -105t-82.5 -70t-121.5 -25z" />
    <glyph glyph-name="four" unicode="4" horiz-adv-x="622" 
d="M366 0v165h-322v73q2 5 6.5 12t10.5 16l275 394h131v-412h112v-83h-112v-165h-101zM144 248h222v233q0 24 1.5 49.5t2.5 50.5h-2q-11 -24 -28.5 -52.5t-32.5 -49.5l-156 -222q-2 -2 -3.5 -4t-3.5 -5z" />
    <glyph glyph-name="five" unicode="5" horiz-adv-x="582" 
d="M287 -10q-88 0 -144.5 38t-89.5 110l100 52q15 -48 45.5 -78.5t90.5 -30.5q42 0 71.5 15.5t45.5 44t16 68.5q0 42 -15 70t-43 42.5t-70 14.5q-29 0 -54 -6t-45 -18.5t-35 -32.5l-88 17l40 364h384v-92h-299l-24 -186l-2 -11h2q23 25 59.5 39t86.5 14q64 0 110 -26.5
t72 -73.5t26 -109q0 -54 -18 -96t-51 -71t-76.5 -43.5t-94.5 -14.5z" />
    <glyph glyph-name="six" unicode="6" horiz-adv-x="611" 
d="M329 670q53 0 94 -14.5t71.5 -45.5t50.5 -81l-94 -45q-14 43 -44.5 68t-84.5 25q-39 0 -69 -19t-51 -53.5t-32 -81t-11 -100.5v-6.5v-11.5l4 -2q11 40 39.5 64.5t64.5 36.5t71 12q66 0 115 -25.5t76.5 -72.5t27.5 -112q0 -66 -29 -114.5t-80.5 -75t-123.5 -26.5
q-84 0 -143 42t-90 118t-31 178q0 113 35.5 189t96.5 114.5t137 38.5zM322 327q-38 0 -67 -15.5t-45.5 -42.5t-16.5 -63q0 -35 17.5 -63t46.5 -44.5t65 -16.5q61 0 95 33t34 91q0 37 -15 64.5t-43.5 42t-70.5 14.5z" />
    <glyph glyph-name="seven" unicode="7" horiz-adv-x="575" 
d="M38 660h503v-89q-83 -86 -134 -176.5t-73.5 -188t-22.5 -206.5h-108q0 110 27.5 214.5t84 200t142.5 179.5l20 -27h-439v93z" />
    <glyph glyph-name="eight" unicode="8" horiz-adv-x="619" 
d="M310 669q67 0 116.5 -21.5t76.5 -60.5t27 -94q0 -51 -24.5 -89.5t-71.5 -58.5v-1q57 -21 90.5 -62.5t33.5 -102.5q0 -59 -30.5 -101t-86 -65t-131.5 -23t-131.5 23t-86.5 65t-31 101q0 60 33 102t92 63v1q-45 19 -71 57.5t-26 90.5q0 55 27 94t77 60.5t117 21.5zM310 579
q-53 0 -84.5 -26t-31.5 -71t32 -70.5t84 -25.5t83.5 25.5t31.5 70.5t-31 71t-84 26zM310 80q44 0 75 13t48 38t17 58q0 35 -17.5 59.5t-48.5 37.5t-74 13q-42 0 -74 -13t-49.5 -37.5t-17.5 -59.5q0 -33 17 -58t49 -38t75 -13z" />
    <glyph glyph-name="nine" unicode="9" horiz-adv-x="617" 
d="M296 670q85 0 143.5 -42t88 -118t29.5 -179q0 -114 -31 -189.5t-89 -113.5t-140 -38q-84 0 -144 37t-90 111l101 47q14 -47 46.5 -75t88.5 -28q46 0 77 18t49.5 52t26.5 82t8 108v5.5v5.5h-4q-11 -40 -39.5 -65t-64.5 -36.5t-72 -11.5q-64 0 -113.5 25.5t-77.5 71.5
t-28 109q0 69 28.5 119t81 77.5t125.5 27.5zM297 576q-63 0 -96.5 -34t-33.5 -95q0 -54 35.5 -84.5t94.5 -30.5q38 0 67 15.5t45.5 42.5t16.5 63q0 38 -16.5 65.5t-45.5 42.5t-67 15z" />
    <glyph glyph-name="colon" unicode=":" horiz-adv-x="298" 
d="M149 510q34 0 54.5 -19.5t20.5 -52.5t-20.5 -53t-54.5 -20q-35 0 -55.5 20t-20.5 53t20.5 52.5t55.5 19.5zM149 135q34 0 54.5 -19.5t20.5 -52.5t-20.5 -53t-54.5 -20q-35 0 -55.5 20t-20.5 53t20.5 52.5t55.5 19.5z" />
    <glyph glyph-name="semicolon" unicode=";" horiz-adv-x="298" 
d="M147 135q28 0 46.5 -13.5t28.5 -37t10 -53.5q0 -37 -14 -71.5t-40.5 -63t-63.5 -46.5l-50 43q27 10 48 26t35.5 36t20.5 41l-4 2q-5 -3 -11.5 -5t-18.5 -2q-14 0 -28.5 7.5t-24.5 22.5t-10 39q0 22 10.5 39t27.5 26.5t38 9.5zM149 509q34 0 54.5 -19.5t20.5 -52.5
t-20.5 -53t-54.5 -20q-35 0 -55.5 20t-20.5 53t20.5 52.5t55.5 19.5z" />
    <glyph glyph-name="less" unicode="&#x3c;" 
d="M549 21l-481 223v109l481 223v-106l-396 -170l396 -172v-107z" />
    <glyph glyph-name="equal" unicode="=" 
d="M540 454v-88h-476v88h476zM540 249v-88h-476v88h476z" />
    <glyph glyph-name="greater" unicode="&#x3e;" 
d="M55 576l481 -223v-109l-481 -223v106l396 170l-396 172v107z" />
    <glyph glyph-name="question" unicode="?" horiz-adv-x="562" 
d="M283 670q67 0 119.5 -20.5t82 -59.5t29.5 -94q0 -59 -25.5 -98.5t-68.5 -60t-95 -26.5l-3 -101h-103v151q66 8 105.5 23.5t57.5 39t18 58.5q0 43 -30.5 68.5t-93.5 25.5q-59 0 -96 -33t-44 -92l-99 45q11 52 43 91t83 61t120 22zM270 132q34 0 54.5 -19.5t20.5 -51.5
t-20.5 -51t-54.5 -19q-33 0 -53.5 19t-20.5 51t20.5 51.5t53.5 19.5z" />
    <glyph glyph-name="at" unicode="@" horiz-adv-x="950" 
d="M479 -192q-94 0 -171 29t-132.5 83.5t-86 131.5t-30.5 173q0 97 32.5 177t92 138.5t140 90t176.5 31.5q92 0 165 -30t124.5 -83t78 -123t26.5 -150q0 -69 -17.5 -122t-47.5 -89t-67.5 -54.5t-75.5 -18.5q-58 0 -87 30t-25 77q-22 -45 -65.5 -71t-91.5 -26q-49 0 -87 24
t-59.5 68t-21.5 103q0 54 16.5 102.5t46.5 85.5t71.5 58t90.5 21q36 0 65.5 -12.5t50 -36.5t28.5 -59l23 99h94l-73 -314q-2 -11 -3.5 -20t-1.5 -18q0 -27 14 -36.5t33 -9.5q33 0 61.5 23.5t46.5 72t18 121.5q0 71 -23 130.5t-66 103t-103.5 67t-135.5 23.5
q-82 0 -149.5 -26t-117 -75t-77 -118t-27.5 -154q0 -84 27 -149.5t75 -111t111.5 -69.5t136.5 -24q80 0 128 20.5t82 44.5l35 -53q-27 -20 -60.5 -37t-78.5 -27.5t-108 -10.5zM454 77q38 0 69 26.5t49.5 71t18.5 96.5q0 35 -13 61t-36 40.5t-54 14.5q-33 0 -59.5 -15
t-45.5 -41.5t-29.5 -60.5t-10.5 -72t13 -65.5t37.5 -41.5t60.5 -14z" />
    <glyph glyph-name="A" unicode="A" horiz-adv-x="665" 
d="M20 0l249 660h128l249 -660h-113l-170 472l-30 95h-3l-28 -93l-172 -474h-110zM153 173v87h357v-87h-357z" />
    <glyph glyph-name="B" unicode="B" horiz-adv-x="662" 
d="M98 0v660h260q119 0 174 -48t55 -133q0 -52 -30 -92.5t-88 -51.5v-1q64 -10 99.5 -52.5t35.5 -98.5q0 -85 -62 -134t-180 -49h-264zM203 89h164q63 0 94.5 26t31.5 73t-31.5 73t-94.5 26h-164v-198zM203 376h147q126 0 126 97t-126 97h-147v-194z" />
    <glyph glyph-name="C" unicode="C" horiz-adv-x="684" 
d="M645 175q-20 -60 -60 -101.5t-94 -62.5t-119 -21q-95 0 -165 41t-108 117t-38 182t38 182t108 117t164 41q65 0 117.5 -18t89.5 -54t57 -90l-101 -45q-20 59 -58 86.5t-99 27.5t-107 -29t-71.5 -84t-25.5 -134q0 -78 24 -133.5t69 -84.5t108 -29q61 0 105.5 31.5
t63.5 94.5z" />
    <glyph glyph-name="D" unicode="D" horiz-adv-x="720" 
d="M331 660q155 0 241.5 -85.5t86.5 -244.5t-86.5 -244.5t-241.5 -85.5h-233v660h233zM331 91q105 0 160.5 62.5t55.5 176.5t-55.5 176.5t-160.5 62.5h-126v-478h126z" />
    <glyph glyph-name="E" unicode="E" horiz-adv-x="636" 
d="M98 0v660h478v-92h-371v-190h290v-90h-290v-196h385v-92h-492z" />
    <glyph glyph-name="F" unicode="F" horiz-adv-x="611" 
d="M575 568h-370v-192h290v-92h-290v-284h-107v660h477v-92z" />
    <glyph glyph-name="G" unicode="G" horiz-adv-x="724" 
d="M366 -10q-93 0 -161 41t-106 116.5t-38 182.5q0 105 39.5 181t112 117.5t166.5 41.5q103 0 166.5 -38t101.5 -118l-99 -47q-19 55 -62.5 82.5t-105.5 27.5t-108.5 -29t-72.5 -84.5t-26 -133.5q0 -79 23 -134.5t69.5 -84.5t114.5 -29q37 0 69 9.5t56 28t37.5 47t13.5 67.5
v19h-192v87h287v-340h-80l-6 133l20 -10q-24 -63 -79.5 -98t-139.5 -35z" />
    <glyph glyph-name="H" unicode="H" horiz-adv-x="736" 
d="M639 660v-660h-108v660h108zM205 660v-660h-107v660h107zM585 380v-92h-433v92h433z" />
    <glyph glyph-name="I" unicode="I" horiz-adv-x="303" 
d="M205 660v-660h-107v660h107z" />
    <glyph glyph-name="J" unicode="J" horiz-adv-x="582" 
d="M493 660v-426q0 -115 -63.5 -179.5t-176.5 -64.5q-81 0 -132 30t-71 84.5t-7 126.5l103 19q-12 -86 13 -126.5t94 -40.5q75 0 103.5 43.5t28.5 127.5v406h108z" />
    <glyph glyph-name="K" unicode="K" horiz-adv-x="667" 
d="M639 660l-294 -318l-12 -1l-171 -184l-10 117l356 386h131zM205 660v-660h-107v660h107zM367 424l278 -424h-126l-237 364z" />
    <glyph glyph-name="L" unicode="L" horiz-adv-x="599" 
d="M205 92h364v-92h-471v660h107v-568z" />
    <glyph glyph-name="M" unicode="M" horiz-adv-x="871" 
d="M773 660v-660h-99v382l8 182h-1l-201 -564h-89l-201 564h-1l8 -182v-382h-99v660h159l133 -382l46 -157h2l47 157l132 382h156z" />
    <glyph glyph-name="N" unicode="N" horiz-adv-x="736" 
d="M639 660v-660h-127l-255 416l-64 117h-1l4 -107v-426h-98v660h126l254 -415l65 -119h1l-4 108v426h99z" />
    <glyph glyph-name="O" unicode="O" horiz-adv-x="745" 
d="M372 670q96 0 166 -41t108 -117t38 -182t-38 -182t-108 -117t-166 -41q-95 0 -165 41t-108 117t-38 182t38 182t108 117t165 41zM372 577q-62 0 -106.5 -29t-68.5 -84t-24 -134q0 -78 24 -133.5t68.5 -84.5t106.5 -29q63 0 107.5 29t68.5 84.5t24 133.5q0 79 -24 134
t-68.5 84t-107.5 29z" />
    <glyph glyph-name="P" unicode="P" horiz-adv-x="627" 
d="M352 660q71 0 122.5 -25t80.5 -71t29 -111q0 -64 -29 -110.5t-80.5 -71.5t-122.5 -25h-147v-246h-107v660h254zM335 338q71 0 104.5 29.5t33.5 85.5q0 57 -33.5 86.5t-104.5 29.5h-130v-231h130z" />
    <glyph glyph-name="Q" unicode="Q" horiz-adv-x="745" 
d="M535 -198q-56 0 -102.5 20t-75 65t-28.5 120q0 12 2 26t7 27l79 6q-3 -14 -5 -25.5t-2 -21.5q0 -52 17.5 -78t46 -35t62.5 -9q39 0 69.5 10t49.5 26l26 -87q-24 -21 -66.5 -32.5t-79.5 -11.5zM372 670q96 0 166 -41t108 -117t38 -182t-38 -182t-108 -117t-166 -41
q-95 0 -165 41t-108 117t-38 182t38 182t108 117t165 41zM372 577q-62 0 -106.5 -29t-68.5 -84t-24 -134q0 -78 24 -133.5t68.5 -84.5t106.5 -29q63 0 107.5 29t68.5 84.5t24 133.5q0 79 -24 134t-68.5 84t-107.5 29z" />
    <glyph glyph-name="R" unicode="R" horiz-adv-x="672" 
d="M367 660q106 0 168.5 -53t62.5 -143q0 -93 -62.5 -143.5t-168.5 -50.5l-10 -6h-153v-264h-106v660h269zM359 353q65 0 96.5 26.5t31.5 81.5q0 54 -31.5 81t-96.5 27h-155v-216h155zM422 331l215 -331h-123l-184 289z" />
    <glyph glyph-name="S" unicode="S" horiz-adv-x="642" 
d="M323 670q89 0 154 -33.5t110 -98.5l-72 -69q-38 58 -85.5 83.5t-112.5 25.5q-48 0 -79 -13t-45.5 -34.5t-14.5 -48.5q0 -31 21.5 -54t80.5 -36l134 -30q96 -21 136 -64t40 -109q0 -61 -33 -106t-91.5 -69t-137.5 -24q-70 0 -126 18t-98 49t-69 71l74 74q21 -35 53 -62.5
t74.5 -42.5t94.5 -15q46 0 79.5 11t51 32.5t17.5 51.5q0 29 -19.5 51t-72.5 34l-145 33q-60 13 -99 37t-58 58.5t-19 77.5q0 56 30.5 101.5t88.5 73t138 27.5z" />
    <glyph glyph-name="T" unicode="T" horiz-adv-x="619" 
d="M589 660v-92h-226v-568h-107v568h-226v92h559z" />
    <glyph glyph-name="U" unicode="U" horiz-adv-x="709" 
d="M624 660v-407q0 -131 -69 -197t-201 -66q-130 0 -199.5 66t-69.5 197v407h107v-394q0 -93 40 -138t122 -45q83 0 123 45t40 138v394h107z" />
    <glyph glyph-name="V" unicode="V" horiz-adv-x="659" 
d="M637 660l-245 -660h-125l-245 660h114l154 -439l40 -131l40 130l154 440h113z" />
    <glyph glyph-name="W" unicode="W" horiz-adv-x="972" 
d="M222 0l-194 660h113l148 -567l144 567h110l145 -568l147 568h109l-193 -660h-126l-105 396l-33 152h-1l-33 -152l-104 -396h-127z" />
    <glyph glyph-name="X" unicode="X" horiz-adv-x="620" 
d="M595 0h-126l-163 254l-162 -254h-123l229 335l-211 325h126l151 -240l153 240h117l-214 -321z" />
    <glyph glyph-name="Y" unicode="Y" horiz-adv-x="597" 
d="M588 660l-236 -407v-253h-107v253l-235 407h119l118 -213l52 -98l52 98l117 213h120z" />
    <glyph glyph-name="Z" unicode="Z" horiz-adv-x="631" 
d="M141 54l-19 37h461v-91h-533v87l430 519l19 -37h-440v91h512v-87z" />
    <glyph glyph-name="bracketleft" unicode="[" horiz-adv-x="361" 
d="M330 640h-147v-723h147v-85h-244v893h244v-85z" />
    <glyph glyph-name="backslash" unicode="\" horiz-adv-x="446" 
d="M24 725h100l298 -795h-100z" />
    <glyph glyph-name="bracketright" unicode="]" horiz-adv-x="361" 
d="M31 -83h147v723h-147v85h244v-893h-244v85z" />
    <glyph glyph-name="asciicircum" unicode="^" horiz-adv-x="576" 
d="M26 355l214 373h96l213 -373h-101l-160 292l-160 -292h-102z" />
    <glyph glyph-name="underscore" unicode="_" horiz-adv-x="539" 
d="M539 -88v-93h-539v93h539z" />
    <glyph glyph-name="grave" unicode="`" horiz-adv-x="500" 
d="M268 746l73 -168h-82l-99 168h108z" />
    <glyph glyph-name="a" unicode="a" horiz-adv-x="570" 
d="M372 321q0 50 -27.5 77.5t-75.5 27.5q-45 0 -77 -21t-47 -68l-90 38q19 61 74.5 98t143.5 37q60 0 106 -19.5t72.5 -58.5t26.5 -100v-223q0 -37 37 -37q18 0 35 5l-6 -74q-23 -11 -58 -11q-32 0 -57.5 11.5t-40 35t-14.5 58.5v7l22 1q-9 -39 -37 -64.5t-65 -38t-75 -12.5
q-47 0 -84.5 15t-59 45.5t-21.5 75.5q0 56 36.5 92t103.5 49l194 38l-1 -75l-141 -29q-42 -8 -63 -23t-21 -44q0 -28 21.5 -44.5t57.5 -16.5q25 0 48.5 6t42.5 19.5t29.5 35t10.5 51.5v136z" />
    <glyph glyph-name="b" unicode="b" horiz-adv-x="627" 
d="M351 -10q-44 0 -80.5 17t-61.5 47.5t-37 68.5l13 17l-8 -140h-94v725h107v-351l-12 17q19 52 65 85.5t111 33.5q60 0 110.5 -31t79.5 -89t29 -141q0 -81 -29.5 -139t-80 -89t-112.5 -31zM328 76q65 0 101.5 46.5t36.5 127.5t-36 127t-101 46q-42 0 -73 -21.5t-48.5 -60.5
t-17.5 -93q0 -53 17 -91.5t48.5 -59.5t72.5 -21z" />
    <glyph glyph-name="c" unicode="c" horiz-adv-x="562" 
d="M299 510q60 0 102.5 -17.5t71.5 -49.5t44 -73l-101 -40q-13 46 -41.5 70.5t-74.5 24.5q-45 0 -77 -20.5t-48.5 -59.5t-16.5 -96q0 -56 17 -95t49 -59t76 -20q34 0 59 11.5t41.5 33t22.5 52.5l97 -33q-14 -45 -43.5 -78.5t-73.5 -52t-101 -18.5q-74 0 -131 31t-88.5 89.5
t-31.5 139.5t31.5 139.5t88 89.5t128.5 31z" />
    <glyph glyph-name="d" unicode="d" horiz-adv-x="627" 
d="M275 -10q-62 0 -112.5 31t-79.5 89t-29 139q0 84 31 142t83 88.5t114 30.5q64 0 108 -35t59 -91l-12 -11v352h107v-725h-95l-8 136l14 -1q-7 -45 -33 -77.5t-64.5 -50t-82.5 -17.5zM298 76q43 0 74 22t48 62t17 96q0 52 -17 89.5t-47.5 57.5t-70.5 20q-67 0 -104 -46
t-37 -127t36 -127.5t101 -46.5z" />
    <glyph glyph-name="e" unicode="e" horiz-adv-x="578" 
d="M303 -10q-75 0 -132 31t-88.5 89.5t-31.5 139.5t31.5 139.5t87.5 89.5t127 31q73 0 124 -30t78 -82t27 -118q0 -18 -1 -34t-3 -28h-402v82h355l-53 -16q0 68 -34 104.5t-93 36.5q-43 0 -75 -20t-49 -59.5t-17 -96.5q0 -56 18 -95t51 -59t78 -20q50 0 81 19t49 53l85 -40
q-18 -36 -48.5 -62.5t-72.5 -40.5t-92 -14z" />
    <glyph glyph-name="f" unicode="f" horiz-adv-x="400" 
d="M295 732q31 0 56.5 -6.5t38.5 -17.5l-20 -77q-11 7 -25 10.5t-32 3.5q-41 0 -64.5 -19t-23.5 -62v-73l3 -27v-464h-107v572q0 38 11.5 68t34.5 50.5t55.5 31t72.5 10.5zM387 500v-84h-360v84h360z" />
    <glyph glyph-name="g" unicode="g" horiz-adv-x="540" 
d="M523 605l17 -84q-3 0 -6 0.5t-6 0.5q-48 0 -73 -20.5t-25 -59.5l-52 24q0 40 17 71.5t48.5 49.5t71.5 18h4h4zM365 78q76 0 118 -33.5t42 -92.5q0 -52 -33 -89.5t-89.5 -57.5t-129.5 -20q-123 0 -182 38t-59 95q0 40 28.5 70t96.5 34l-6 -16q-42 9 -67.5 32.5t-25.5 66.5
t33 73t93 35l56 -27h-12q-46 -4 -65 -21t-19 -38q0 -25 18.5 -37t52.5 -12h150zM273 -135q55 0 90.5 10.5t53 27t17.5 36.5q0 23 -18.5 37t-66.5 14h-161q-28 0 -47 -14.5t-19 -39.5q0 -33 40 -52t111 -19zM269 510q66 0 114.5 -21t75 -59t26.5 -89t-26.5 -89t-75 -59
t-114.5 -21q-104 0 -159.5 46.5t-55.5 122.5q0 51 27 89t75.5 59t112.5 21zM269 435q-46 0 -76.5 -25.5t-30.5 -68.5t30.5 -69t76.5 -26q47 0 77.5 26t30.5 69t-30.5 68.5t-77.5 25.5z" />
    <glyph glyph-name="h" unicode="h" horiz-adv-x="619" 
d="M83 0v725h107v-305q25 47 67.5 68.5t94.5 21.5q53 0 95.5 -20.5t67.5 -61.5t25 -104v-324h-107v290q0 74 -30.5 103t-76.5 29q-32 0 -63.5 -15.5t-52 -50t-20.5 -92.5v-264h-107z" />
    <glyph glyph-name="i" unicode="i" horiz-adv-x="274" 
d="M137 584q-35 0 -53.5 17.5t-18.5 49.5t18.5 49t53.5 17q34 0 52.5 -17t18.5 -49t-18.5 -49.5t-52.5 -17.5zM190 500v-500h-107v500h107z" />
    <glyph glyph-name="j" unicode="j" horiz-adv-x="274" 
d="M137 584q-35 0 -53.5 17.5t-18.5 49.5t18.5 49t53.5 17q34 0 52.5 -17t18.5 -49t-18.5 -49.5t-52.5 -17.5zM190 500v-544q0 -64 -23.5 -101.5t-61 -53.5t-79.5 -16q-34 0 -62 9t-47 24l18 86q14 -12 33.5 -20t43.5 -8q32 0 51.5 20.5t19.5 69.5v534h107z" />
    <glyph glyph-name="k" unicode="k" horiz-adv-x="583" 
d="M555 500l-223 -228l-23 -16l-157 -163l-1 122l277 285h127zM190 725v-725h-107v725h107zM345 332l222 -332h-124l-178 271z" />
    <glyph glyph-name="l" unicode="l" horiz-adv-x="312" 
d="M187 725v-585q0 -37 13 -51t43 -14q18 0 30.5 2.5t31.5 9.5l-12 -80q-17 -8 -39 -12.5t-44 -4.5q-67 0 -98.5 34.5t-31.5 106.5v594h107z" />
    <glyph glyph-name="m" unicode="m" horiz-adv-x="949" 
d="M83 0v500h95l5 -84q26 48 69.5 71t92.5 23q54 0 99.5 -24.5t68.5 -73.5q16 33 44 55t62 32.5t67 10.5q48 0 90 -20t68 -61t26 -105v-324h-107v307q0 61 -29 88t-74 27q-35 0 -64.5 -17t-47.5 -50.5t-18 -82.5v-272h-107v307q0 61 -29 88t-74 27q-30 0 -60 -16t-50 -50
t-20 -90v-266h-107z" />
    <glyph glyph-name="n" unicode="n" horiz-adv-x="619" 
d="M83 0v500h95l7 -130l-14 14q14 43 40.5 71.5t63 41.5t77.5 13q53 0 95.5 -20.5t67.5 -61.5t25 -104v-324h-107v291q0 74 -30.5 102.5t-76.5 28.5q-33 0 -64 -15.5t-51.5 -49.5t-20.5 -91v-266h-107z" />
    <glyph glyph-name="o" unicode="o" horiz-adv-x="600" 
d="M300 510q73 0 129 -31t87.5 -89.5t31.5 -139.5t-31.5 -139.5t-87.5 -89.5t-129 -31t-129 31t-88 89.5t-32 139.5t32 139.5t88 89.5t129 31zM300 426q-45 0 -76.5 -20.5t-48.5 -59.5t-17 -96q0 -56 17 -95.5t48.5 -60t76.5 -20.5t76 20.5t48 60t17 95.5q0 57 -17 96
t-48 59.5t-76 20.5z" />
    <glyph glyph-name="p" unicode="p" horiz-adv-x="627" 
d="M83 -210v710h95l8 -140l-14 17q12 39 37 69t62.5 47t82.5 17q61 0 111 -31t79 -88.5t29 -139.5t-29.5 -140.5t-80 -89.5t-112.5 -31q-64 0 -109 33.5t-64 85.5l12 17v-336h-107zM328 77q65 0 101.5 46t36.5 127t-36 127.5t-100 46.5q-42 0 -73.5 -21.5t-49 -60
t-17.5 -92.5q0 -53 17 -92t48 -60t73 -21z" />
    <glyph glyph-name="q" unicode="q" horiz-adv-x="627" 
d="M437 -210v356l15 -14q-7 -44 -32.5 -76t-63 -49t-81.5 -17q-62 0 -112 31t-79.5 89.5t-29.5 140.5t31 140t83 88.5t114 30.5q44 0 80.5 -17.5t61 -49t32.5 -74.5l-15 -5l8 136h95v-710h-107zM298 77q42 0 73 21t48.5 60.5t17.5 93.5q0 56 -17 94t-48 58t-72 20
q-65 0 -102 -46.5t-37 -127.5t36 -127t101 -46z" />
    <glyph glyph-name="r" unicode="r" horiz-adv-x="414" 
d="M83 0v500h91l10 -90q20 49 59.5 74.5t97.5 25.5q15 0 30 -2.5t25 -7.5l-15 -94q-11 4 -24.5 6.5t-36.5 2.5q-31 0 -61 -16.5t-49.5 -49.5t-19.5 -84v-265h-107z" />
    <glyph glyph-name="s" unicode="s" horiz-adv-x="529" 
d="M273 -10q-75 0 -137 29t-98 82l74 64q22 -41 63.5 -65.5t99.5 -24.5q46 0 73 16t27 45q0 19 -12.5 33.5t-47.5 22.5l-105 22q-80 16 -114 51.5t-34 90.5q0 41 24 76t70.5 56.5t111.5 21.5q75 0 128 -26.5t81 -75.5l-74 -62q-19 40 -56 59.5t-77 19.5q-32 0 -55 -8
t-35 -22t-12 -33q0 -20 15 -35t54 -23l114 -24q72 -14 101.5 -47.5t29.5 -81.5t-25 -84.5t-72 -56.5t-112 -20z" />
    <glyph glyph-name="t" unicode="t" horiz-adv-x="424" 
d="M229 647v-497q0 -37 19.5 -54t52.5 -17q27 0 47 8.5t37 23.5l24 -78q-23 -20 -56.5 -31.5t-74.5 -11.5q-43 0 -79 14t-56 45.5t-21 82.5v485zM401 500v-84h-375v84h375z" />
    <glyph glyph-name="u" unicode="u" horiz-adv-x="618" 
d="M261 -10q-49 0 -90.5 18t-66.5 58t-25 104v330h107v-303q0 -68 29 -93.5t81 -25.5q25 0 48.5 8.5t42.5 27t29.5 47.5t10.5 68v271h107v-500h-94l-5 81q-26 -47 -70 -69t-104 -22z" />
    <glyph glyph-name="v" unicode="v" horiz-adv-x="532" 
d="M412 500h112l-199 -500h-117l-200 500h117l142 -407z" />
    <glyph glyph-name="w" unicode="w" horiz-adv-x="855" 
d="M719 500h116l-168 -500h-117l-126 371l-119 -371h-117l-167 500h115l114 -395l124 395h107l124 -395z" />
    <glyph glyph-name="x" unicode="x" horiz-adv-x="550" 
d="M161 500l141 -214l20 -3l203 -283h-127l-147 220l-23 8l-196 272h129zM522 500l-196 -268l-22 1l-160 -233h-122l213 285l21 -2l143 217h123z" />
    <glyph glyph-name="y" unicode="y" horiz-adv-x="530" 
d="M522 500l-219 -559q-22 -58 -47.5 -92t-58.5 -49t-77 -15q-36 0 -66.5 9.5t-53.5 25.5l26 83q19 -16 40.5 -24t46.5 -8q27 0 48.5 14.5t38.5 57.5l22 54l-53 124l-156 379h120l111 -314l29 -94l33 103l105 305h111z" />
    <glyph glyph-name="z" unicode="z" horiz-adv-x="529" 
d="M51 0v74l242 282l61 62l-87 -2h-214v84h419v-74l-242 -282l-60 -62l95 2h216v-84h-430z" />
    <glyph glyph-name="braceleft" unicode="{" horiz-adv-x="372" 
d="M331 -190q-67 0 -108.5 15.5t-60 46t-18.5 76.5v185q0 56 -25.5 80t-86.5 24v82q61 0 86.5 24t25.5 80v186q0 46 18.5 76.5t60 46t108.5 15.5v-78q-51 0 -72.5 -15t-21.5 -47v-199q0 -53 -27.5 -85t-81.5 -45q54 -12 81.5 -44t27.5 -85v-199q0 -32 21.5 -47t72.5 -15v-78
z" />
    <glyph glyph-name="bar" unicode="|" horiz-adv-x="266" 
d="M180 725v-893h-94v893h94z" />
    <glyph glyph-name="braceright" unicode="}" horiz-adv-x="372" 
d="M41 747q67 0 108.5 -15.5t60 -46t18.5 -76.5v-185q0 -56 25.5 -80t86.5 -24v-82q-61 0 -86.5 -24t-25.5 -80v-186q0 -46 -18.5 -76.5t-60 -46t-108.5 -15.5v78q51 0 72.5 15t21.5 47v199q0 53 27.5 85t81.5 45q-54 12 -81.5 44t-27.5 85v199q0 32 -21.5 47t-72.5 15v78z
" />
    <glyph glyph-name="asciitilde" unicode="~" horiz-adv-x="557" 
d="M514 396q-6 -79 -40.5 -120.5t-98.5 -41.5q-34 0 -59 10.5t-44 25t-37.5 25t-40.5 10.5q-25 0 -39 -18.5t-19 -51.5h-93q6 81 40 122t100 41q34 0 58.5 -10.5t44 -25t38 -25t39.5 -10.5q25 0 39 18t19 51h93z" />
    <glyph glyph-name="uni00A0" unicode="&#xa0;" horiz-adv-x="325" 
 />
    <glyph glyph-name="exclamdown" unicode="&#xa1;" horiz-adv-x="274" 
d="M82 -160v264l14 186h84l14 -186v-264h-112zM138 368q-34 0 -54.5 19.5t-20.5 51.5t20.5 51t54.5 19q33 0 53.5 -19t20.5 -51t-20.5 -51.5t-53.5 -19.5z" />
    <glyph glyph-name="cent" unicode="&#xa2;" horiz-adv-x="570" 
d="M311 -10q-75 0 -131.5 31t-88.5 89.5t-32 139.5t32 139.5t88 89.5t130 31q59 0 101.5 -17.5t70.5 -49t43 -73.5l-91 -39q-14 50 -45 76t-78 26q-67 0 -110.5 -47t-43.5 -137q0 -60 20.5 -100t55 -61t78.5 -21q35 0 61 11.5t43.5 35t25.5 56.5l88 -30q-14 -46 -43.5 -79.5
t-73 -52t-100.5 -18.5zM266 -100v700h78v-700h-78z" />
    <glyph glyph-name="sterling" unicode="&#xa3;" horiz-adv-x="620" 
d="M72 275v70h400v-70h-400zM153 -10q-51 0 -82 24.5t-31 63.5q0 26 15 46t42.5 32t66.5 12q41 0 71 -9.5t54 -24.5t45.5 -30t44.5 -25t53 -10q41 0 59 22.5t18 71.5l78 -3q2 -54 -14 -92t-48 -58t-76 -20q-38 0 -69.5 11.5t-59 29t-53 35t-51.5 29.5t-55 12
q-23 0 -33.5 -7.5t-10.5 -21.5q0 -15 12.5 -23t32.5 -8q36 0 53.5 16t23 42t5.5 57q0 42 -14.5 76t-44.5 83q-19 32 -31 58t-17 49t-5 47q0 59 28 103t77.5 68t112.5 24q83 0 135 -40t73 -122l-89 -42q-14 56 -41.5 86t-81.5 30t-86.5 -28.5t-32.5 -80.5q0 -19 3.5 -36
t12 -36.5t23.5 -48.5q26 -49 41 -92.5t15 -82.5q0 -33 -8.5 -65.5t-28.5 -60.5t-52.5 -44.5t-79.5 -16.5z" />
    <glyph glyph-name="currency" unicode="&#xa4;" horiz-adv-x="659" 
d="M330 538q62 0 109.5 -26.5t74.5 -74t27 -108.5t-27 -108.5t-74.5 -74.5t-109.5 -27q-61 0 -109 27t-75.5 74.5t-27.5 108.5t27.5 108.5t75.5 74t109 26.5zM330 452q-51 0 -84 -34.5t-33 -88.5t33 -89t84 -35t83.5 35t32.5 89t-32.5 88.5t-83.5 34.5zM125 598l123 -125
l-61 -60l-127 120zM186 247l59 -61l-120 -127l-65 65zM473 243l126 -119l-65 -65l-121 124zM534 598l65 -65l-123 -122l-61 61z" />
    <glyph glyph-name="yen" unicode="&#xa5;" horiz-adv-x="634" 
d="M268 0v111h-192v56h192v73h-192v59h126l48 -4l-220 365h118l121 -229l47 -100h2l47 101l122 228h117l-221 -365l49 4h127v-59h-193v-73h193v-56h-193v-111h-98z" />
    <glyph glyph-name="brokenbar" unicode="&#xa6;" horiz-adv-x="266" 
d="M180 725v-368h-94v368h94zM180 200v-368h-94v368h94z" />
    <glyph glyph-name="section" unicode="&#xa7;" horiz-adv-x="605" 
d="M419 126l-52 46q39 2 66 12t41 27.5t14 39.5q0 28 -20 48.5t-76 30.5l-152 27q-51 9 -84 29.5t-48 50.5t-15 65q0 50 27 88t76.5 59t116.5 21q73 0 127 -25t90 -73l-70 -58q-28 40 -65.5 57.5t-86.5 17.5q-60 0 -92 -21.5t-32 -55.5q0 -17 7 -31.5t27 -25t56 -17.5
l129 -22q66 -11 104 -31.5t54 -48t16 -62.5q0 -38 -17 -69.5t-52.5 -52t-88.5 -26.5zM290 -110q-87 0 -145.5 28.5t-88.5 72.5l70 60q22 -37 64 -59.5t104 -22.5q61 0 96 21.5t35 59.5q0 23 -17 39t-57 23l-163 33q-55 11 -90.5 30.5t-52 49t-16.5 68.5q0 37 17.5 65
t48.5 45.5t74 23.5l40 -41q-29 -8 -49.5 -18.5t-31.5 -25t-11 -34.5q0 -27 22.5 -48.5t76.5 -31.5l157 -28q75 -14 108 -51t33 -90q0 -49 -27 -87.5t-77 -60t-120 -21.5z" />
    <glyph glyph-name="dieresis" unicode="&#xa8;" horiz-adv-x="500" 
d="M149 700q30 0 47.5 -17t17.5 -46q0 -28 -17.5 -45.5t-47.5 -17.5q-29 0 -47 17.5t-18 45.5q0 29 18 46t47 17zM351 700q30 0 47.5 -17t17.5 -46q0 -28 -17.5 -45.5t-47.5 -17.5t-47.5 17.5t-17.5 45.5q0 29 17.5 46t47.5 17z" />
    <glyph glyph-name="copyright" unicode="&#xa9;" horiz-adv-x="806" 
d="M403 -10q-102 0 -179 44.5t-120.5 121.5t-43.5 174q0 98 43.5 174.5t120.5 121t179 44.5q101 0 178.5 -44.5t121 -121t43.5 -174.5q0 -97 -43.5 -174t-121 -121.5t-178.5 -44.5zM403 61q80 0 140 35t93 96.5t33 137.5t-33 137.5t-93 96.5t-140 35q-79 0 -139.5 -35
t-94 -96.5t-33.5 -137.5t33.5 -137.5t94 -96.5t139.5 -35zM409 142q-86 0 -135 50t-49 136q0 87 49 137t135 50q62 0 102.5 -27t58.5 -73l-70 -34q-12 29 -34 43t-56 14q-47 0 -74.5 -28.5t-27.5 -81.5q0 -52 27.5 -81t74.5 -29q36 0 60 14.5t36 46.5l67 -29
q-20 -53 -60.5 -80.5t-103.5 -27.5z" />
    <glyph glyph-name="ordfeminine" unicode="&#xaa;" horiz-adv-x="399" 
d="M140 321q-53 0 -83 24.5t-30 64.5q0 41 25.5 63.5t86.5 34.5l114 21v-47l-84 -18q-33 -6 -45 -16.5t-12 -29.5q0 -18 13 -27.5t35 -9.5q18 0 37 6t31.5 22t12.5 43v88q0 29 -16.5 45t-44.5 16t-51 -13.5t-37 -47.5l-64 28q12 42 51 69t101 27q70 0 108 -30.5t38 -92.5
v-132q0 -18 8.5 -24.5t21.5 -6.5q16 0 23 4l-6 -51q-9 -5 -20 -7.5t-24 -2.5q-35 0 -55.5 19t-20.5 56v16l12 -9q-7 -22 -24.5 -41t-43 -30t-57.5 -11zM28 186v64h334v-64h-334z" />
    <glyph glyph-name="guillemotleft" unicode="&#xab;" horiz-adv-x="521" 
d="M277 461l-126 -196l126 -196h-105l-126 196l126 196h105zM474 461l-126 -196l126 -196h-105l-126 196l126 196h105z" />
    <glyph glyph-name="logicalnot" unicode="&#xac;" 
d="M545 317v-196h-97v196h97zM545 364v-89h-486v89h486z" />
    <glyph glyph-name="uni00AD" unicode="&#xad;" horiz-adv-x="515" 
d="M428 313v-99h-341v99h341z" />
    <glyph glyph-name="registered" unicode="&#xae;" horiz-adv-x="806" 
d="M403 -10q-102 0 -179 44.5t-120.5 121.5t-43.5 174q0 98 43.5 174.5t120.5 121t179 44.5q101 0 178.5 -44t121 -121t43.5 -175q0 -97 -43.5 -174t-121 -121.5t-178.5 -44.5zM475 146l-93 148l65 23l117 -171h-89zM403 61q80 0 140 35t93 96.5t33 137.5t-33 137.5
t-93 96.5t-140 35q-79 0 -139.5 -35t-94 -96.5t-33.5 -137.5t33.5 -137.5t94 -96.5t139.5 -35zM260 146v368h159q41 0 71.5 -15t48 -41t17.5 -63q0 -55 -39 -86.5t-102 -31.5h-78v-131h-77zM337 333h74q32 0 49.5 14.5t17.5 45.5t-17.5 45.5t-49.5 14.5h-74v-120z" />
    <glyph glyph-name="macron" unicode="&#xaf;" horiz-adv-x="500" 
d="M419 666v-78h-338v78h338z" />
    <glyph glyph-name="degree" unicode="&#xb0;" horiz-adv-x="471" 
d="M235 327q-52 0 -93 22t-63.5 60.5t-22.5 89.5q0 50 22.5 89t63.5 60.5t93 21.5q54 0 94 -21.5t63 -60.5t23 -89q0 -51 -23 -89.5t-63 -60.5t-94 -22zM235 406q42 0 68 26.5t26 66.5q0 41 -26 67t-68 26q-40 0 -66.5 -26t-26.5 -67q0 -40 26.5 -66.5t66.5 -26.5z" />
    <glyph glyph-name="plusminus" unicode="&#xb1;" 
d="M347 644v-481h-89v481h89zM548 447v-88h-492v88h492zM548 87v-87h-492v87h492z" />
    <glyph glyph-name="uni00B2" unicode="&#xb2;" horiz-adv-x="373" 
d="M36 333v57q23 16 46 31t45 31q46 35 73 60.5t37.5 46.5t10.5 42q0 29 -17 47t-51 18q-35 0 -55 -23t-21 -65l-80 23q4 63 46.5 98.5t112.5 35.5q54 0 88 -18.5t50.5 -47.5t16.5 -62q0 -28 -14 -55.5t-43 -56t-73 -59.5q-14 -10 -29 -18.5t-31 -17.5v-1q11 1 35 2t37 1
h126v-69h-310z" />
    <glyph glyph-name="uni00B3" unicode="&#xb3;" horiz-adv-x="367" 
d="M185 735q68 0 105 -30t37 -79q0 -29 -11.5 -50t-30.5 -31.5t-38 -11.5v-2q23 0 43.5 -10t33 -29.5t12.5 -49.5q0 -35 -20.5 -61t-55.5 -40t-81 -14q-65 0 -104.5 25t-54.5 74l81 32q5 -32 24 -48t54 -16q31 0 50 16t19 43q0 28 -20 39t-56 11h-8t-9 -1v56q4 -1 7.5 -1
h6.5q34 0 52 13.5t18 40.5t-16 41t-44 14q-29 0 -47 -14t-23 -43l-78 26q12 51 54 75.5t100 24.5z" />
    <glyph glyph-name="acute" unicode="&#xb4;" horiz-adv-x="582" 
d="M274 746h108l-99 -168h-82z" />
    <glyph glyph-name="uni00B5" unicode="&#xb5;" horiz-adv-x="622" 
d="M83 -210v710h107v-302q0 -63 29 -91.5t81 -28.5q36 0 65.5 16t48 51t18.5 92v263h107v-500h-91l-7 84q-23 -47 -64.5 -70.5t-91.5 -23.5q-33 0 -61 10t-47 33l13 18v-261h-107z" />
    <glyph glyph-name="paragraph" unicode="&#xb6;" horiz-adv-x="684" 
d="M295 -100v287q-76 0 -133.5 29t-90 82t-32.5 125q0 73 34.5 126.5t97 82t145.5 28.5h285v-760h-91v674h-122v-674h-93zM294 273v301q-52 0 -88 -18.5t-54.5 -52.5t-18.5 -80q0 -47 18.5 -80.5t54.5 -51.5t88 -18z" />
    <glyph glyph-name="periodcentered" unicode="&#xb7;" horiz-adv-x="240" 
d="M121 427q34 0 54.5 -19.5t20.5 -52.5t-20.5 -53t-54.5 -20q-35 0 -55.5 20t-20.5 53t20.5 52.5t55.5 19.5z" />
    <glyph glyph-name="cedilla" unicode="&#xb8;" horiz-adv-x="500" 
d="M198 6l42 25q65 -16 93.5 -48.5t28.5 -78.5q0 -51 -35 -85t-92 -34q-33 0 -56.5 8t-40.5 21l22 65q13 -9 28 -15.5t37 -6.5q27 0 44.5 17.5t17.5 48.5q0 26 -19.5 44.5t-69.5 38.5z" />
    <glyph glyph-name="uni00B9" unicode="&#xb9;" horiz-adv-x="259" 
d="M134 730h75v-397h-86v241q0 13 0.5 32t1.5 37q-22 -20 -51 -35t-61 -20v73q19 3 43.5 14t46 25.5t31.5 29.5z" />
    <glyph glyph-name="ordmasculine" unicode="&#xba;" horiz-adv-x="379" 
d="M189 321q-73 0 -118.5 45.5t-45.5 125.5q0 82 45.5 127t118.5 45q74 0 119.5 -45t45.5 -127q0 -80 -45.5 -125.5t-119.5 -45.5zM36 186v64h307v-64h-307zM189 384q40 0 59 28t19 80q0 53 -19 81.5t-59 28.5q-39 0 -58 -28.5t-19 -81.5q0 -52 19 -80t58 -28z" />
    <glyph glyph-name="guillemotright" unicode="&#xbb;" horiz-adv-x="521" 
d="M244 69l126 196l-126 196h105l126 -196l-126 -196h-105zM47 69l126 196l-126 196h105l126 -196l-126 -196h-105z" />
    <glyph glyph-name="onequarter" unicode="&#xbc;" horiz-adv-x="813" 
d="M134 665h75v-397h-86v241q0 13 0.5 32t1.5 37q-22 -20 -51 -35t-61 -20v73q19 3 43.5 14t46 25.5t31.5 29.5zM99 0l477 660h91l-476 -660h-92zM795 150v-59h-68v-95h-74v95h-199v43l176 259h97v-243h68zM533 150h120v103q0 20 1 39.5t2 38.5h-3q-5 -12 -14 -28t-17 -28z
" />
    <glyph glyph-name="onehalf" unicode="&#xbd;" horiz-adv-x="881" 
d="M134 665h75v-397h-86v241q0 13 0.5 32t1.5 37q-22 -20 -51 -35t-61 -20v73q19 3 43.5 14t46 25.5t31.5 29.5zM99 0l477 660h91l-476 -660h-92zM544 -4v57q23 16 46 31t45 31q46 35 73 60.5t37.5 46.5t10.5 42q0 29 -17 47t-51 18q-35 0 -55 -23t-21 -65l-80 23
q4 63 46.5 98.5t112.5 35.5q54 0 88 -18.5t50.5 -47.5t16.5 -62q0 -28 -14 -55.5t-43 -56t-73 -59.5q-14 -10 -29 -18.5t-31 -17.5v-1q11 1 35 2t37 1h126v-69h-310z" />
    <glyph glyph-name="threequarters" unicode="&#xbe;" horiz-adv-x="922" 
d="M185 670q68 0 105 -30t37 -79q0 -29 -11.5 -50t-30.5 -31.5t-38 -11.5v-2q23 0 43.5 -10t33 -29.5t12.5 -49.5q0 -35 -20.5 -61t-55.5 -40t-81 -14q-65 0 -104.5 25t-54.5 74l81 32q5 -32 24 -48t54 -16q31 0 50 16t19 43q0 28 -20 39t-56 11h-8t-9 -1v56q4 -1 7.5 -1
h6.5q34 0 52 13.5t18 40.5t-16 41t-44 14q-29 0 -47 -14t-23 -43l-78 26q12 51 54 75.5t100 24.5zM207 0l477 660h91l-476 -660h-92zM904 150v-59h-68v-95h-74v95h-199v43l176 259h97v-243h68zM642 150h120v103q0 20 1 39.5t2 38.5h-3q-5 -12 -14 -28t-17 -28z" />
    <glyph glyph-name="questiondown" unicode="&#xbf;" horiz-adv-x="558" 
d="M276 -170q-67 0 -119.5 20.5t-82 59.5t-29.5 94q0 59 25.5 98.5t68.5 60t95 26.5l3 101h103v-151q-66 -8 -105.5 -23.5t-57.5 -39t-18 -58.5q0 -43 30.5 -68.5t93.5 -25.5q59 0 96 33t44 92l99 -45q-11 -52 -43 -91t-83 -61t-120 -22zM289 368q-34 0 -54.5 19.5
t-20.5 51.5t20.5 51t54.5 19q33 0 53.5 -19t20.5 -51t-20.5 -51.5t-53.5 -19.5z" />
    <glyph glyph-name="Agrave" unicode="&#xc0;" horiz-adv-x="665" 
d="M20 0l249 660h128l249 -660h-113l-170 472l-30 95h-3l-28 -93l-172 -474h-110zM153 173v87h357v-87h-357zM315 897l65 -160h-82l-87 160h104z" />
    <glyph glyph-name="Aacute" unicode="&#xc1;" horiz-adv-x="665" 
d="M20 0l249 660h128l249 -660h-113l-170 472l-30 95h-3l-28 -93l-172 -474h-110zM153 173v87h357v-87h-357zM346 897h104l-87 -160h-82z" />
    <glyph glyph-name="Acircumflex" unicode="&#xc2;" horiz-adv-x="665" 
d="M20 0l249 660h128l249 -660h-113l-170 472l-30 95h-3l-28 -93l-172 -474h-110zM153 173v87h357v-87h-357zM496 737h-87l-76 102l-76 -102h-87l107 160h112z" />
    <glyph glyph-name="Atilde" unicode="&#xc3;" horiz-adv-x="665" 
d="M20 0l249 660h128l249 -660h-113l-170 472l-30 95h-3l-28 -93l-172 -474h-110zM153 173v87h357v-87h-357zM518 877q-2 -47 -16.5 -78.5t-39 -47t-59.5 -15.5q-28 0 -47.5 10t-34 22.5t-28 22.5t-28.5 10q-21 0 -31.5 -17.5t-14.5 -48.5h-73q4 71 34 106.5t84 35.5
q27 0 46.5 -10t34 -22.5t27 -22.5t27.5 -10q21 0 31.5 17.5t15.5 47.5h72z" />
    <glyph glyph-name="Adieresis" unicode="&#xc4;" horiz-adv-x="665" 
d="M20 0l249 660h128l249 -660h-113l-170 472l-30 95h-3l-28 -93l-172 -474h-110zM153 173v87h357v-87h-357zM232 860q30 0 47.5 -17t17.5 -46q0 -28 -17.5 -45.5t-47.5 -17.5q-29 0 -47 17.5t-18 45.5q0 29 18 46t47 17zM434 860q30 0 47.5 -17t17.5 -46q0 -28 -17.5 -45.5
t-47.5 -17.5t-47.5 17.5t-17.5 45.5q0 29 17.5 46t47.5 17z" />
    <glyph glyph-name="Aring" unicode="&#xc5;" horiz-adv-x="665" 
d="M20 0l249 660h128l249 -660h-113l-170 472l-30 95h-3l-28 -93l-172 -474h-110zM153 173v87h357v-87h-357zM332 845q58 0 93.5 -33t35.5 -87t-35.5 -87.5t-93.5 -33.5q-59 0 -95 33.5t-36 87.5t36 87t95 33zM332 789q-29 0 -47.5 -18t-18.5 -46t18.5 -46t47.5 -18t47 18
t18 46t-18 46t-47 18z" />
    <glyph glyph-name="AE" unicode="&#xc6;" horiz-adv-x="945" 
d="M546 90h353v-90h-457v208h-218l-109 -208h-112l355 660h527v-90h-339v-192h258v-89h-258v-199zM266 294h176v277h-26z" />
    <glyph glyph-name="Ccedilla" unicode="&#xc7;" horiz-adv-x="684" 
d="M645 175q-20 -60 -60 -101.5t-94 -62.5t-119 -21q-95 0 -165 41t-108 117t-38 182t38 182t108 117t164 41q65 0 117.5 -18t89.5 -54t57 -90l-101 -45q-20 59 -58 86.5t-99 27.5t-107 -29t-71.5 -84t-25.5 -134q0 -78 24 -133.5t69 -84.5t108 -29q61 0 105.5 31.5
t63.5 94.5zM306 6l42 25q65 -16 93.5 -48.5t28.5 -78.5q0 -51 -35 -85t-92 -34q-33 0 -56.5 8t-40.5 21l22 65q13 -9 28 -15.5t37 -6.5q27 0 44.5 17.5t17.5 48.5q0 26 -19.5 44.5t-69.5 38.5z" />
    <glyph glyph-name="Egrave" unicode="&#xc8;" horiz-adv-x="636" 
d="M98 0v660h478v-92h-371v-190h290v-90h-290v-196h385v-92h-492zM324 897l65 -160h-82l-87 160h104z" />
    <glyph glyph-name="Eacute" unicode="&#xc9;" horiz-adv-x="636" 
d="M98 0v660h478v-92h-371v-190h290v-90h-290v-196h385v-92h-492zM348 897h104l-87 -160h-82z" />
    <glyph glyph-name="Ecircumflex" unicode="&#xca;" horiz-adv-x="636" 
d="M98 0v660h478v-92h-371v-190h290v-90h-290v-196h385v-92h-492zM500 737h-87l-76 102l-76 -102h-87l107 160h112z" />
    <glyph glyph-name="Edieresis" unicode="&#xcb;" horiz-adv-x="636" 
d="M98 0v660h478v-92h-371v-190h290v-90h-290v-196h385v-92h-492zM236 860q30 0 47.5 -17t17.5 -46q0 -28 -17.5 -45.5t-47.5 -17.5q-29 0 -47 17.5t-18 45.5q0 29 18 46t47 17zM438 860q30 0 47.5 -17t17.5 -46q0 -28 -17.5 -45.5t-47.5 -17.5t-47.5 17.5t-17.5 45.5
q0 29 17.5 46t47.5 17z" />
    <glyph glyph-name="Igrave" unicode="&#xcc;" horiz-adv-x="303" 
d="M205 660v-660h-107v660h107zM130 897l65 -160h-82l-87 160h104z" />
    <glyph glyph-name="Iacute" unicode="&#xcd;" horiz-adv-x="303" 
d="M205 660v-660h-107v660h107zM172 897h104l-87 -160h-82z" />
    <glyph glyph-name="Icircumflex" unicode="&#xce;" horiz-adv-x="303" 
d="M205 660v-660h-107v660h107zM314 737h-87l-76 102l-76 -102h-87l107 160h112z" />
    <glyph glyph-name="Idieresis" unicode="&#xcf;" horiz-adv-x="303" 
d="M60 860q30 0 47.5 -17t17.5 -46q0 -28 -17.5 -45.5t-47.5 -17.5q-29 0 -46.5 17.5t-17.5 45.5q0 29 17.5 46t46.5 17zM242 860q30 0 47.5 -17t17.5 -46q0 -28 -17.5 -45.5t-47.5 -17.5q-29 0 -47 17.5t-18 45.5q0 29 18 46t47 17zM205 660v-660h-107v660h107z" />
    <glyph glyph-name="Eth" unicode="&#xd0;" horiz-adv-x="738" 
d="M22 288v89h378v-89h-378zM349 660q155 0 241.5 -85.5t86.5 -244.5t-86.5 -244.5t-241.5 -85.5h-233v660h233zM349 91q105 0 161 62.5t56 176.5t-56 176.5t-161 62.5h-126v-478h126z" />
    <glyph glyph-name="Ntilde" unicode="&#xd1;" horiz-adv-x="736" 
d="M639 660v-660h-127l-255 416l-64 117h-1l4 -107v-426h-98v660h126l254 -415l65 -119h1l-4 108v426h99zM556 877q-2 -47 -16.5 -78.5t-39 -47t-59.5 -15.5q-28 0 -47.5 10t-34 22.5t-28 22.5t-28.5 10q-21 0 -31.5 -17.5t-14.5 -48.5h-73q4 71 34 106.5t84 35.5
q27 0 46.5 -10t34 -22.5t27 -22.5t27.5 -10q21 0 31.5 17.5t15.5 47.5h72z" />
    <glyph glyph-name="Ograve" unicode="&#xd2;" horiz-adv-x="745" 
d="M372 670q96 0 166 -41t108 -117t38 -182t-38 -182t-108 -117t-166 -41q-95 0 -165 41t-108 117t-38 182t38 182t108 117t165 41zM372 577q-62 0 -106.5 -29t-68.5 -84t-24 -134q0 -78 24 -133.5t68.5 -84.5t106.5 -29q63 0 107.5 29t68.5 84.5t24 133.5q0 79 -24 134
t-68.5 84t-107.5 29zM351 897l65 -160h-82l-87 160h104z" />
    <glyph glyph-name="Oacute" unicode="&#xd3;" horiz-adv-x="745" 
d="M372 670q96 0 166 -41t108 -117t38 -182t-38 -182t-108 -117t-166 -41q-95 0 -165 41t-108 117t-38 182t38 182t108 117t165 41zM372 577q-62 0 -106.5 -29t-68.5 -84t-24 -134q0 -78 24 -133.5t68.5 -84.5t106.5 -29q63 0 107.5 29t68.5 84.5t24 133.5q0 79 -24 134
t-68.5 84t-107.5 29zM385 897h104l-87 -160h-82z" />
    <glyph glyph-name="Ocircumflex" unicode="&#xd4;" horiz-adv-x="745" 
d="M372 670q96 0 166 -41t108 -117t38 -182t-38 -182t-108 -117t-166 -41q-95 0 -165 41t-108 117t-38 182t38 182t108 117t165 41zM372 577q-62 0 -106.5 -29t-68.5 -84t-24 -134q0 -78 24 -133.5t68.5 -84.5t106.5 -29q63 0 107.5 29t68.5 84.5t24 133.5q0 79 -24 134
t-68.5 84t-107.5 29zM535 737h-87l-76 102l-76 -102h-87l107 160h112z" />
    <glyph glyph-name="Otilde" unicode="&#xd5;" horiz-adv-x="745" 
d="M372 670q96 0 166 -41t108 -117t38 -182t-38 -182t-108 -117t-166 -41q-95 0 -165 41t-108 117t-38 182t38 182t108 117t165 41zM372 577q-62 0 -106.5 -29t-68.5 -84t-24 -134q0 -78 24 -133.5t68.5 -84.5t106.5 -29q63 0 107.5 29t68.5 84.5t24 133.5q0 79 -24 134
t-68.5 84t-107.5 29zM557 877q-2 -47 -16.5 -78.5t-39 -47t-59.5 -15.5q-28 0 -47.5 10t-34 22.5t-28 22.5t-28.5 10q-21 0 -31.5 -17.5t-14.5 -48.5h-73q4 71 34 106.5t84 35.5q27 0 46.5 -10t34 -22.5t27 -22.5t27.5 -10q21 0 31.5 17.5t15.5 47.5h72z" />
    <glyph glyph-name="Odieresis" unicode="&#xd6;" horiz-adv-x="745" 
d="M372 670q96 0 166 -41t108 -117t38 -182t-38 -182t-108 -117t-166 -41q-95 0 -165 41t-108 117t-38 182t38 182t108 117t165 41zM372 577q-62 0 -106.5 -29t-68.5 -84t-24 -134q0 -78 24 -133.5t68.5 -84.5t106.5 -29q63 0 107.5 29t68.5 84.5t24 133.5q0 79 -24 134
t-68.5 84t-107.5 29zM271 860q30 0 47.5 -17t17.5 -46q0 -28 -17.5 -45.5t-47.5 -17.5q-29 0 -47 17.5t-18 45.5q0 29 18 46t47 17zM473 860q30 0 47.5 -17t17.5 -46q0 -28 -17.5 -45.5t-47.5 -17.5t-47.5 17.5t-17.5 45.5q0 29 17.5 46t47.5 17z" />
    <glyph glyph-name="multiply" unicode="&#xd7;" 
d="M466 91l64 65l-392 393l-65 -65zM138 91l392 393l-64 65l-393 -393z" />
    <glyph glyph-name="Oslash" unicode="&#xd8;" horiz-adv-x="745" 
d="M236 78l-47 38l315 447l48 -36zM80 -34l104 145l48 -38l-78 -107h-74zM559 535l-48 37l81 110h73zM372 670q96 0 166 -41t108 -117t38 -182t-38 -182t-108 -117t-166 -41q-95 0 -165 41t-108 117t-38 182t38 182t108 117t165 41zM372 577q-62 0 -106.5 -29t-68.5 -84
t-24 -134q0 -78 24 -133.5t68.5 -84.5t106.5 -29q63 0 107.5 29t68.5 84.5t24 133.5q0 79 -24 134t-68.5 84t-107.5 29z" />
    <glyph glyph-name="Ugrave" unicode="&#xd9;" horiz-adv-x="709" 
d="M624 660v-407q0 -131 -69 -197t-201 -66q-130 0 -199.5 66t-69.5 197v407h107v-394q0 -93 40 -138t122 -45q83 0 123 45t40 138v394h107zM341 876l65 -160h-82l-87 160h104z" />
    <glyph glyph-name="Uacute" unicode="&#xda;" horiz-adv-x="709" 
d="M624 660v-407q0 -131 -69 -197t-201 -66q-130 0 -199.5 66t-69.5 197v407h107v-394q0 -93 40 -138t122 -45q83 0 123 45t40 138v394h107zM367 876h104l-87 -160h-82z" />
    <glyph glyph-name="Ucircumflex" unicode="&#xdb;" horiz-adv-x="709" 
d="M624 660v-407q0 -131 -69 -197t-201 -66q-130 0 -199.5 66t-69.5 197v407h107v-394q0 -93 40 -138t122 -45q83 0 123 45t40 138v394h107zM517 716h-87l-76 102l-76 -102h-87l107 160h112z" />
    <glyph glyph-name="Udieresis" unicode="&#xdc;" horiz-adv-x="709" 
d="M624 660v-407q0 -131 -69 -197t-201 -66q-130 0 -199.5 66t-69.5 197v407h107v-394q0 -93 40 -138t122 -45q83 0 123 45t40 138v394h107zM253 839q30 0 47.5 -17t17.5 -46q0 -28 -17.5 -45.5t-47.5 -17.5q-29 0 -47 17.5t-18 45.5q0 29 18 46t47 17zM455 839
q30 0 47.5 -17t17.5 -46q0 -28 -17.5 -45.5t-47.5 -17.5t-47.5 17.5t-17.5 45.5q0 29 17.5 46t47.5 17z" />
    <glyph glyph-name="Yacute" unicode="&#xdd;" horiz-adv-x="597" 
d="M588 660l-236 -407v-253h-107v253l-235 407h119l118 -213l52 -98l52 98l117 213h120zM312 881h104l-87 -160h-82z" />
    <glyph glyph-name="Thorn" unicode="&#xde;" horiz-adv-x="641" 
d="M341 547q124 0 187.5 -54t63.5 -156q0 -101 -63.5 -155.5t-187.5 -54.5h-190v91h190q140 0 140 119q0 61 -35 90t-105 29h-190v91h190zM205 660v-660h-107v660h107z" />
    <glyph glyph-name="germandbls" unicode="&#xdf;" horiz-adv-x="626" 
d="M399 379q63 0 101.5 -25.5t57 -67t18.5 -87.5q0 -57 -22 -104t-66 -76t-113 -29q-47 0 -81 10.5t-49 22.5l24 81q17 -11 38 -18.5t57 -7.5q51 0 80.5 36t29.5 92q0 63 -35 95.5t-104 32.5h-58l5 85h43q60 0 90.5 34t30.5 82q0 54 -34 79.5t-86 25.5q-77 0 -106.5 -43.5
t-29.5 -131.5v-465h-107v486q0 72 23.5 127t78.5 86t148 31q74 0 122.5 -25t73 -65.5t24.5 -87.5q0 -40 -17.5 -78t-51.5 -63.5t-85 -29.5v-2z" />
    <glyph glyph-name="agrave" unicode="&#xe0;" horiz-adv-x="570" 
d="M372 321q0 50 -27.5 77.5t-75.5 27.5q-45 0 -77 -21t-47 -68l-90 38q19 61 74.5 98t143.5 37q60 0 106 -19.5t72.5 -58.5t26.5 -100v-223q0 -37 37 -37q18 0 35 5l-6 -74q-23 -11 -58 -11q-32 0 -57.5 11.5t-40 35t-14.5 58.5v7l22 1q-9 -39 -37 -64.5t-65 -38t-75 -12.5
q-47 0 -84.5 15t-59 45.5t-21.5 75.5q0 56 36.5 92t103.5 49l194 38l-1 -75l-141 -29q-42 -8 -63 -23t-21 -44q0 -28 21.5 -44.5t57.5 -16.5q25 0 48.5 6t42.5 19.5t29.5 35t10.5 51.5v136zM252 746l73 -168h-82l-99 168h108z" />
    <glyph glyph-name="aacute" unicode="&#xe1;" horiz-adv-x="570" 
d="M372 321q0 50 -27.5 77.5t-75.5 27.5q-45 0 -77 -21t-47 -68l-90 38q19 61 74.5 98t143.5 37q60 0 106 -19.5t72.5 -58.5t26.5 -100v-223q0 -37 37 -37q18 0 35 5l-6 -74q-23 -11 -58 -11q-32 0 -57.5 11.5t-40 35t-14.5 58.5v7l22 1q-9 -39 -37 -64.5t-65 -38t-75 -12.5
q-47 0 -84.5 15t-59 45.5t-21.5 75.5q0 56 36.5 92t103.5 49l194 38l-1 -75l-141 -29q-42 -8 -63 -23t-21 -44q0 -28 21.5 -44.5t57.5 -16.5q25 0 48.5 6t42.5 19.5t29.5 35t10.5 51.5v136zM292 746h108l-99 -168h-82z" />
    <glyph glyph-name="acircumflex" unicode="&#xe2;" horiz-adv-x="570" 
d="M372 321q0 50 -27.5 77.5t-75.5 27.5q-45 0 -77 -21t-47 -68l-90 38q19 61 74.5 98t143.5 37q60 0 106 -19.5t72.5 -58.5t26.5 -100v-223q0 -37 37 -37q18 0 35 5l-6 -74q-23 -11 -58 -11q-32 0 -57.5 11.5t-40 35t-14.5 58.5v7l22 1q-9 -39 -37 -64.5t-65 -38t-75 -12.5
q-47 0 -84.5 15t-59 45.5t-21.5 75.5q0 56 36.5 92t103.5 49l194 38l-1 -75l-141 -29q-42 -8 -63 -23t-21 -44q0 -28 21.5 -44.5t57.5 -16.5q25 0 48.5 6t42.5 19.5t29.5 35t10.5 51.5v136zM445 571h-88l-81 107l-81 -107h-88l113 169h112z" />
    <glyph glyph-name="atilde" unicode="&#xe3;" horiz-adv-x="570" 
d="M372 321q0 50 -27.5 77.5t-75.5 27.5q-45 0 -77 -21t-47 -68l-90 38q19 61 74.5 98t143.5 37q60 0 106 -19.5t72.5 -58.5t26.5 -100v-223q0 -37 37 -37q18 0 35 5l-6 -74q-23 -11 -58 -11q-32 0 -57.5 11.5t-40 35t-14.5 58.5v7l22 1q-9 -39 -37 -64.5t-65 -38t-75 -12.5
q-47 0 -84.5 15t-59 45.5t-21.5 75.5q0 56 36.5 92t103.5 49l194 38l-1 -75l-141 -29q-42 -8 -63 -23t-21 -44q0 -28 21.5 -44.5t57.5 -16.5q25 0 48.5 6t42.5 19.5t29.5 35t10.5 51.5v136zM461 717q-2 -47 -16.5 -78.5t-39 -47t-59.5 -15.5q-28 0 -47.5 10t-34 22.5
t-28 22.5t-28.5 10q-21 0 -31.5 -17.5t-14.5 -48.5h-73q4 71 34 106.5t84 35.5q27 0 46.5 -10t34 -22.5t27 -22.5t27.5 -10q21 0 31.5 17.5t15.5 47.5h72z" />
    <glyph glyph-name="adieresis" unicode="&#xe4;" horiz-adv-x="570" 
d="M372 321q0 50 -27.5 77.5t-75.5 27.5q-45 0 -77 -21t-47 -68l-90 38q19 61 74.5 98t143.5 37q60 0 106 -19.5t72.5 -58.5t26.5 -100v-223q0 -37 37 -37q18 0 35 5l-6 -74q-23 -11 -58 -11q-32 0 -57.5 11.5t-40 35t-14.5 58.5v7l22 1q-9 -39 -37 -64.5t-65 -38t-75 -12.5
q-47 0 -84.5 15t-59 45.5t-21.5 75.5q0 56 36.5 92t103.5 49l194 38l-1 -75l-141 -29q-42 -8 -63 -23t-21 -44q0 -28 21.5 -44.5t57.5 -16.5q25 0 48.5 6t42.5 19.5t29.5 35t10.5 51.5v136zM175 700q30 0 47.5 -17t17.5 -46q0 -28 -17.5 -45.5t-47.5 -17.5q-29 0 -47 17.5
t-18 45.5q0 29 18 46t47 17zM377 700q30 0 47.5 -17t17.5 -46q0 -28 -17.5 -45.5t-47.5 -17.5t-47.5 17.5t-17.5 45.5q0 29 17.5 46t47.5 17z" />
    <glyph glyph-name="aring" unicode="&#xe5;" horiz-adv-x="570" 
d="M372 321q0 50 -27.5 77.5t-75.5 27.5q-45 0 -77 -21t-47 -68l-90 38q19 61 74.5 98t143.5 37q60 0 106 -19.5t72.5 -58.5t26.5 -100v-223q0 -37 37 -37q18 0 35 5l-6 -74q-23 -11 -58 -11q-32 0 -57.5 11.5t-40 35t-14.5 58.5v7l22 1q-9 -39 -37 -64.5t-65 -38t-75 -12.5
q-47 0 -84.5 15t-59 45.5t-21.5 75.5q0 56 36.5 92t103.5 49l194 38l-1 -75l-141 -29q-42 -8 -63 -23t-21 -44q0 -28 21.5 -44.5t57.5 -16.5q25 0 48.5 6t42.5 19.5t29.5 35t10.5 51.5v136zM274 809q58 0 93.5 -33t35.5 -87t-35.5 -87.5t-93.5 -33.5q-59 0 -95 33.5
t-36 87.5t36 87t95 33zM274 753q-29 0 -47.5 -18t-18.5 -46t18.5 -46t47.5 -18t47 18t18 46t-18 46t-47 18z" />
    <glyph glyph-name="ae" unicode="&#xe6;" horiz-adv-x="891" 
d="M224 -10q-49 0 -87.5 15t-61 45.5t-22.5 75.5q0 56 36.5 91.5t101.5 48.5l181 36v19q0 50 -28.5 77.5t-74.5 27.5q-42 0 -74.5 -21t-49.5 -68l-88 38q11 40 40.5 70.5t73 47.5t96.5 17q69 0 119 -27.5t69 -87.5l-33 2q19 36 48.5 61t67.5 38.5t82 13.5q69 0 118 -30
t75 -82t26 -118q0 -17 -1 -32t-3 -30h-357v0q3 -70 44 -106.5t101 -36.5q45 0 74 19t48 53l85 -40q-18 -36 -48 -62.5t-70 -40.5t-87 -14q-79 0 -136 37t-81 108l28 3q-4 -33 -23 -60t-48 -47t-65 -30.5t-76 -10.5zM243 73q25 0 48.5 6.5t41.5 20t28.5 34t10.5 49.5v44
l-126 -26q-43 -8 -63 -23.5t-20 -43.5q0 -26 20 -43.5t60 -17.5zM480 300h255q-1 40 -17 68t-42 42.5t-61 14.5q-55 0 -90 -32.5t-45 -92.5z" />
    <glyph glyph-name="ccedilla" unicode="&#xe7;" horiz-adv-x="562" 
d="M299 510q60 0 102.5 -17.5t71.5 -49.5t44 -73l-101 -40q-13 46 -41.5 70.5t-74.5 24.5q-45 0 -77 -20.5t-48.5 -59.5t-16.5 -96q0 -56 17 -95t49 -59t76 -20q34 0 59 11.5t41.5 33t22.5 52.5l97 -33q-14 -45 -43.5 -78.5t-73.5 -52t-101 -18.5q-74 0 -131 31t-88.5 89.5
t-31.5 139.5t31.5 139.5t88 89.5t128.5 31zM237 6l42 25q65 -16 93.5 -48.5t28.5 -78.5q0 -51 -35 -85t-92 -34q-33 0 -56.5 8t-40.5 21l22 65q13 -9 28 -15.5t37 -6.5q27 0 44.5 17.5t17.5 48.5q0 26 -19.5 44.5t-69.5 38.5z" />
    <glyph glyph-name="egrave" unicode="&#xe8;" horiz-adv-x="578" 
d="M303 -10q-75 0 -132 31t-88.5 89.5t-31.5 139.5t31.5 139.5t87.5 89.5t127 31q73 0 124 -30t78 -82t27 -118q0 -18 -1 -34t-3 -28h-402v82h355l-53 -16q0 68 -34 104.5t-93 36.5q-43 0 -75 -20t-49 -59.5t-17 -96.5q0 -56 18 -95t51 -59t78 -20q50 0 81 19t49 53l85 -40
q-18 -36 -48.5 -62.5t-72.5 -40.5t-92 -14zM268 746l73 -168h-82l-99 168h108z" />
    <glyph glyph-name="eacute" unicode="&#xe9;" horiz-adv-x="578" 
d="M303 -10q-75 0 -132 31t-88.5 89.5t-31.5 139.5t31.5 139.5t87.5 89.5t127 31q73 0 124 -30t78 -82t27 -118q0 -18 -1 -34t-3 -28h-402v82h355l-53 -16q0 68 -34 104.5t-93 36.5q-43 0 -75 -20t-49 -59.5t-17 -96.5q0 -56 18 -95t51 -59t78 -20q50 0 81 19t49 53l85 -40
q-18 -36 -48.5 -62.5t-72.5 -40.5t-92 -14zM308 746h108l-99 -168h-82z" />
    <glyph glyph-name="ecircumflex" unicode="&#xea;" horiz-adv-x="578" 
d="M303 -10q-75 0 -132 31t-88.5 89.5t-31.5 139.5t31.5 139.5t87.5 89.5t127 31q73 0 124 -30t78 -82t27 -118q0 -18 -1 -34t-3 -28h-402v82h355l-53 -16q0 68 -34 104.5t-93 36.5q-43 0 -75 -20t-49 -59.5t-17 -96.5q0 -56 18 -95t51 -59t78 -20q50 0 81 19t49 53l85 -40
q-18 -36 -48.5 -62.5t-72.5 -40.5t-92 -14zM461 571h-88l-81 107l-81 -107h-88l113 169h112z" />
    <glyph glyph-name="edieresis" unicode="&#xeb;" horiz-adv-x="578" 
d="M303 -10q-75 0 -132 31t-88.5 89.5t-31.5 139.5t31.5 139.5t87.5 89.5t127 31q73 0 124 -30t78 -82t27 -118q0 -18 -1 -34t-3 -28h-402v82h355l-53 -16q0 68 -34 104.5t-93 36.5q-43 0 -75 -20t-49 -59.5t-17 -96.5q0 -56 18 -95t51 -59t78 -20q50 0 81 19t49 53l85 -40
q-18 -36 -48.5 -62.5t-72.5 -40.5t-92 -14zM191 700q30 0 47.5 -17t17.5 -46q0 -28 -17.5 -45.5t-47.5 -17.5q-29 0 -47 17.5t-18 45.5q0 29 18 46t47 17zM393 700q30 0 47.5 -17t17.5 -46q0 -28 -17.5 -45.5t-47.5 -17.5t-47.5 17.5t-17.5 45.5q0 29 17.5 46t47.5 17z" />
    <glyph glyph-name="igrave" unicode="&#xec;" horiz-adv-x="274" 
d="M190 500v-500h-107v500h107zM113 746l73 -168h-82l-99 168h108z" />
    <glyph glyph-name="iacute" unicode="&#xed;" horiz-adv-x="274" 
d="M190 500v-500h-107v500h107zM153 746h108l-99 -168h-82z" />
    <glyph glyph-name="icircumflex" unicode="&#xee;" horiz-adv-x="274" 
d="M190 500v-500h-107v500h107zM306 571h-88l-81 107l-81 -107h-88l113 169h112z" />
    <glyph glyph-name="idieresis" unicode="&#xef;" horiz-adv-x="274" 
d="M222 574q-30 0 -47.5 17t-17.5 46q0 30 17.5 47t47.5 17t47 -17t17 -47q0 -29 -17 -46t-47 -17zM52 574q-29 0 -46.5 17t-17.5 46q0 30 17.5 47t46.5 17q30 0 47.5 -17t17.5 -47q0 -29 -17.5 -46t-47.5 -17zM190 500v-500h-107v500h107z" />
    <glyph glyph-name="eth" unicode="&#xf0;" horiz-adv-x="615" 
d="M298 -10q-75 0 -129 29.5t-83.5 86t-29.5 133.5q0 78 31 134t84 85.5t120 29.5q64 0 106.5 -24t65.5 -66l-8 -6q-10 56 -30.5 103t-52 87.5t-75 76.5t-101.5 69h124q55 -31 97.5 -74t72.5 -97.5t45.5 -120.5t15.5 -144q0 -90 -29 -158.5t-85 -106t-139 -37.5zM303 75
q47 0 79 22.5t49 59.5t17 82q0 54 -17 90.5t-48.5 56t-75.5 19.5t-76 -19.5t-49 -56t-17 -90.5q0 -79 37 -121.5t101 -42.5zM203 535l-15 61l193 41l34 -50zM425 589l-32 50l148 38l16 -59z" />
    <glyph glyph-name="ntilde" unicode="&#xf1;" horiz-adv-x="619" 
d="M83 0v500h95l7 -130l-14 14q14 43 40.5 71.5t63 41.5t77.5 13q53 0 95.5 -20.5t67.5 -61.5t25 -104v-324h-107v291q0 74 -30.5 102.5t-76.5 28.5q-33 0 -64 -15.5t-51.5 -49.5t-20.5 -91v-266h-107zM501 717q-2 -47 -16.5 -78.5t-39 -47t-59.5 -15.5q-28 0 -47.5 10
t-34 22.5t-28 22.5t-28.5 10q-21 0 -31.5 -17.5t-14.5 -48.5h-73q4 71 34 106.5t84 35.5q27 0 46.5 -10t34 -22.5t27 -22.5t27.5 -10q21 0 31.5 17.5t15.5 47.5h72z" />
    <glyph glyph-name="ograve" unicode="&#xf2;" horiz-adv-x="600" 
d="M300 510q73 0 129 -31t87.5 -89.5t31.5 -139.5t-31.5 -139.5t-87.5 -89.5t-129 -31t-129 31t-88 89.5t-32 139.5t32 139.5t88 89.5t129 31zM300 426q-45 0 -76.5 -20.5t-48.5 -59.5t-17 -96q0 -56 17 -95.5t48.5 -60t76.5 -20.5t76 20.5t48 60t17 95.5q0 57 -17 96
t-48 59.5t-76 20.5zM276 746l73 -168h-82l-99 168h108z" />
    <glyph glyph-name="oacute" unicode="&#xf3;" horiz-adv-x="600" 
d="M300 510q73 0 129 -31t87.5 -89.5t31.5 -139.5t-31.5 -139.5t-87.5 -89.5t-129 -31t-129 31t-88 89.5t-32 139.5t32 139.5t88 89.5t129 31zM300 426q-45 0 -76.5 -20.5t-48.5 -59.5t-17 -96q0 -56 17 -95.5t48.5 -60t76.5 -20.5t76 20.5t48 60t17 95.5q0 57 -17 96
t-48 59.5t-76 20.5zM316 746h108l-99 -168h-82z" />
    <glyph glyph-name="ocircumflex" unicode="&#xf4;" horiz-adv-x="600" 
d="M300 510q73 0 129 -31t87.5 -89.5t31.5 -139.5t-31.5 -139.5t-87.5 -89.5t-129 -31t-129 31t-88 89.5t-32 139.5t32 139.5t88 89.5t129 31zM300 426q-45 0 -76.5 -20.5t-48.5 -59.5t-17 -96q0 -56 17 -95.5t48.5 -60t76.5 -20.5t76 20.5t48 60t17 95.5q0 57 -17 96
t-48 59.5t-76 20.5zM469 571h-88l-81 107l-81 -107h-88l113 169h112z" />
    <glyph glyph-name="otilde" unicode="&#xf5;" horiz-adv-x="600" 
d="M300 510q73 0 129 -31t87.5 -89.5t31.5 -139.5t-31.5 -139.5t-87.5 -89.5t-129 -31t-129 31t-88 89.5t-32 139.5t32 139.5t88 89.5t129 31zM300 426q-45 0 -76.5 -20.5t-48.5 -59.5t-17 -96q0 -56 17 -95.5t48.5 -60t76.5 -20.5t76 20.5t48 60t17 95.5q0 57 -17 96
t-48 59.5t-76 20.5zM485 717q-2 -47 -16.5 -78.5t-39 -47t-59.5 -15.5q-28 0 -47.5 10t-34 22.5t-28 22.5t-28.5 10q-21 0 -31.5 -17.5t-14.5 -48.5h-73q4 71 34 106.5t84 35.5q27 0 46.5 -10t34 -22.5t27 -22.5t27.5 -10q21 0 31.5 17.5t15.5 47.5h72z" />
    <glyph glyph-name="odieresis" unicode="&#xf6;" horiz-adv-x="600" 
d="M300 510q73 0 129 -31t87.5 -89.5t31.5 -139.5t-31.5 -139.5t-87.5 -89.5t-129 -31t-129 31t-88 89.5t-32 139.5t32 139.5t88 89.5t129 31zM300 426q-45 0 -76.5 -20.5t-48.5 -59.5t-17 -96q0 -56 17 -95.5t48.5 -60t76.5 -20.5t76 20.5t48 60t17 95.5q0 57 -17 96
t-48 59.5t-76 20.5zM199 700q30 0 47.5 -17t17.5 -46q0 -28 -17.5 -45.5t-47.5 -17.5q-29 0 -47 17.5t-18 45.5q0 29 18 46t47 17zM401 700q30 0 47.5 -17t17.5 -46q0 -28 -17.5 -45.5t-47.5 -17.5t-47.5 17.5t-17.5 45.5q0 29 17.5 46t47.5 17z" />
    <glyph glyph-name="divide" unicode="&#xf7;" horiz-adv-x="610" 
d="M551 364v-89h-492v89h492zM305 187q32 0 51 -19.5t19 -50.5q0 -32 -19 -51t-51 -19t-51.5 19t-19.5 51q0 31 19.5 50.5t51.5 19.5zM305 589q32 0 51 -19t19 -51q0 -31 -19 -50t-51 -19t-51.5 19t-19.5 50q0 32 19.5 51t51.5 19z" />
    <glyph glyph-name="oslash" unicode="&#xf8;" horiz-adv-x="600" 
d="M300 510q73 0 129 -31t87.5 -89.5t31.5 -139.5t-31.5 -139.5t-87.5 -89.5t-129 -31t-129 31t-88 89.5t-32 139.5t32 139.5t88 89.5t129 31zM300 426q-45 0 -76.5 -20.5t-48.5 -59.5t-17 -96q0 -56 17 -95.5t48.5 -60t76.5 -20.5t76 20.5t48 60t17 95.5q0 57 -17 96
t-48 59.5t-76 20.5zM52 -28l429 556h67l-429 -556h-67z" />
    <glyph glyph-name="ugrave" unicode="&#xf9;" horiz-adv-x="618" 
d="M261 -10q-49 0 -90.5 18t-66.5 58t-25 104v330h107v-303q0 -68 29 -93.5t81 -25.5q25 0 48.5 8.5t42.5 27t29.5 47.5t10.5 68v271h107v-500h-94l-5 81q-26 -47 -70 -69t-104 -22zM282 738l73 -168h-82l-99 168h108z" />
    <glyph glyph-name="uacute" unicode="&#xfa;" horiz-adv-x="618" 
d="M261 -10q-49 0 -90.5 18t-66.5 58t-25 104v330h107v-303q0 -68 29 -93.5t81 -25.5q25 0 48.5 8.5t42.5 27t29.5 47.5t10.5 68v271h107v-500h-94l-5 81q-26 -47 -70 -69t-104 -22zM322 738h108l-99 -168h-82z" />
    <glyph glyph-name="ucircumflex" unicode="&#xfb;" horiz-adv-x="618" 
d="M261 -10q-49 0 -90.5 18t-66.5 58t-25 104v330h107v-303q0 -68 29 -93.5t81 -25.5q25 0 48.5 8.5t42.5 27t29.5 47.5t10.5 68v271h107v-500h-94l-5 81q-26 -47 -70 -69t-104 -22zM475 563h-88l-81 107l-81 -107h-88l113 169h112z" />
    <glyph glyph-name="udieresis" unicode="&#xfc;" horiz-adv-x="618" 
d="M261 -10q-49 0 -90.5 18t-66.5 58t-25 104v330h107v-303q0 -68 29 -93.5t81 -25.5q25 0 48.5 8.5t42.5 27t29.5 47.5t10.5 68v271h107v-500h-94l-5 81q-26 -47 -70 -69t-104 -22zM205 692q30 0 47.5 -17t17.5 -46q0 -28 -17.5 -45.5t-47.5 -17.5q-29 0 -47 17.5t-18 45.5
q0 29 18 46t47 17zM407 692q30 0 47.5 -17t17.5 -46q0 -28 -17.5 -45.5t-47.5 -17.5t-47.5 17.5t-17.5 45.5q0 29 17.5 46t47.5 17z" />
    <glyph glyph-name="yacute" unicode="&#xfd;" horiz-adv-x="530" 
d="M522 500l-219 -559q-22 -58 -47.5 -92t-58.5 -49t-77 -15q-36 0 -66.5 9.5t-53.5 25.5l26 83q19 -16 40.5 -24t46.5 -8q27 0 48.5 14.5t38.5 57.5l22 54l-53 124l-156 379h120l111 -314l29 -94l33 103l105 305h111zM287 738h108l-99 -168h-82z" />
    <glyph glyph-name="thorn" unicode="&#xfe;" horiz-adv-x="627" 
d="M83 -210v935h107v-352l-12 18q19 52 65 85.5t111 33.5q60 0 110.5 -31t79.5 -89t29 -141q0 -80 -29.5 -138.5t-80 -89.5t-112.5 -31q-64 0 -109 33.5t-64 85.5l12 17v-336h-107zM328 77q65 0 101.5 46t36.5 127t-36 127.5t-100 46.5q-42 0 -73.5 -21.5t-49 -60
t-17.5 -92.5q0 -53 17 -92t48 -60t73 -21z" />
    <glyph glyph-name="ydieresis" unicode="&#xff;" horiz-adv-x="530" 
d="M522 500l-219 -559q-22 -58 -47.5 -92t-58.5 -49t-77 -15q-36 0 -66.5 9.5t-53.5 25.5l26 83q19 -16 40.5 -24t46.5 -8q27 0 48.5 14.5t38.5 57.5l22 54l-53 124l-156 379h120l111 -314l29 -94l33 103l105 305h111zM170 692q30 0 47.5 -17t17.5 -46q0 -28 -17.5 -45.5
t-47.5 -17.5q-29 0 -47 17.5t-18 45.5q0 29 18 46t47 17zM372 692q30 0 47.5 -17t17.5 -46q0 -28 -17.5 -45.5t-47.5 -17.5t-47.5 17.5t-17.5 45.5q0 29 17.5 46t47.5 17z" />
    <glyph glyph-name="Amacron" unicode="&#x100;" horiz-adv-x="665" 
d="M20 0l249 660h128l249 -660h-113l-170 472l-30 95h-3l-28 -93l-172 -474h-110zM153 173v87h357v-87h-357zM502 826v-78h-338v78h338z" />
    <glyph glyph-name="amacron" unicode="&#x101;" horiz-adv-x="570" 
d="M372 321q0 50 -27.5 77.5t-75.5 27.5q-45 0 -77 -21t-47 -68l-90 38q19 61 74.5 98t143.5 37q60 0 106 -19.5t72.5 -58.5t26.5 -100v-223q0 -37 37 -37q18 0 35 5l-6 -74q-23 -11 -58 -11q-32 0 -57.5 11.5t-40 35t-14.5 58.5v7l22 1q-9 -39 -37 -64.5t-65 -38t-75 -12.5
q-47 0 -84.5 15t-59 45.5t-21.5 75.5q0 56 36.5 92t103.5 49l194 38l-1 -75l-141 -29q-42 -8 -63 -23t-21 -44q0 -28 21.5 -44.5t57.5 -16.5q25 0 48.5 6t42.5 19.5t29.5 35t10.5 51.5v136zM445 666v-78h-338v78h338z" />
    <glyph glyph-name="Abreve" unicode="&#x102;" horiz-adv-x="665" 
d="M20 0l249 660h128l249 -660h-113l-170 472l-30 95h-3l-28 -93l-172 -474h-110zM153 173v87h357v-87h-357zM487 883q0 -69 -42 -111t-112 -42q-69 0 -111.5 42t-42.5 111h78q1 -34 20 -58t56 -24q38 0 56.5 24t19.5 58h78z" />
    <glyph glyph-name="abreve" unicode="&#x103;" horiz-adv-x="570" 
d="M372 321q0 50 -27.5 77.5t-75.5 27.5q-45 0 -77 -21t-47 -68l-90 38q19 61 74.5 98t143.5 37q60 0 106 -19.5t72.5 -58.5t26.5 -100v-223q0 -37 37 -37q18 0 35 5l-6 -74q-23 -11 -58 -11q-32 0 -57.5 11.5t-40 35t-14.5 58.5v7l22 1q-9 -39 -37 -64.5t-65 -38t-75 -12.5
q-47 0 -84.5 15t-59 45.5t-21.5 75.5q0 56 36.5 92t103.5 49l194 38l-1 -75l-141 -29q-42 -8 -63 -23t-21 -44q0 -28 21.5 -44.5t57.5 -16.5q25 0 48.5 6t42.5 19.5t29.5 35t10.5 51.5v136zM430 723q0 -69 -42 -111t-112 -42q-69 0 -111.5 42t-42.5 111h78q1 -34 20 -58
t56 -24q38 0 56.5 24t19.5 58h78z" />
    <glyph glyph-name="Aogonek" unicode="&#x104;" horiz-adv-x="665" 
d="M568 -215q-37 0 -65 12.5t-44 36t-16 58.5q0 51 37 85.5t111 53.5l55 -31q-49 -13 -75.5 -29t-36.5 -33t-10 -35q0 -24 16.5 -36.5t44.5 -12.5q13 0 27 2t25 9l18 -61q-16 -10 -39.5 -14.5t-47.5 -4.5zM20 0l249 660h128l249 -660h-113l-170 472l-30 95h-3l-28 -93
l-172 -474h-110zM153 173v87h357v-87h-357z" />
    <glyph glyph-name="aogonek" unicode="&#x105;" horiz-adv-x="570" 
d="M461 -226q-35 0 -63 12.5t-44 35.5t-16 55q0 56 41 90.5t115 60.5l51 -24q-49 -21 -76.5 -39.5t-39 -36.5t-11.5 -36q0 -23 16.5 -36.5t43.5 -13.5q12 0 26.5 2.5t24.5 9.5l17 -61q-15 -10 -38 -14.5t-47 -4.5zM372 321q0 50 -26.5 77.5t-76.5 27.5q-46 0 -78 -20.5
t-46 -68.5l-89 38q18 61 74 98t144 37q60 0 106 -19.5t72 -58t26 -97.5v-226q0 -37 38 -37q18 0 34 5l-5 -73q-23 -12 -59 -12q-32 0 -57.5 11.5t-40 35t-14.5 59.5v10l21 -3q-10 -39 -38 -64.5t-65 -38t-74 -12.5q-46 0 -83.5 15t-59.5 45.5t-22 74.5q0 56 37 92.5
t104 49.5l194 38l-1 -69l-141 -29q-44 -9 -65.5 -26t-21.5 -46q0 -28 22 -46t62 -18q25 0 48 6.5t41.5 20.5t29 35t10.5 49v139z" />
    <glyph glyph-name="Cacute" unicode="&#x106;" horiz-adv-x="684" 
d="M645 175q-20 -60 -60 -101.5t-94 -62.5t-119 -21q-95 0 -165 41t-108 117t-38 182t38 182t108 117t164 41q65 0 117.5 -18t89.5 -54t57 -90l-101 -45q-20 59 -58 86.5t-99 27.5t-107 -29t-71.5 -84t-25.5 -134q0 -78 24 -133.5t69 -84.5t108 -29q61 0 105.5 31.5
t63.5 94.5zM382 897h104l-87 -160h-82z" />
    <glyph glyph-name="cacute" unicode="&#x107;" horiz-adv-x="562" 
d="M299 510q60 0 102.5 -17.5t71.5 -49.5t44 -73l-101 -40q-13 46 -41.5 70.5t-74.5 24.5q-45 0 -77 -20.5t-48.5 -59.5t-16.5 -96q0 -56 17 -95t49 -59t76 -20q34 0 59 11.5t41.5 33t22.5 52.5l97 -33q-14 -45 -43.5 -78.5t-73.5 -52t-101 -18.5q-74 0 -131 31t-88.5 89.5
t-31.5 139.5t31.5 139.5t88 89.5t128.5 31zM309 746h108l-99 -168h-82z" />
    <glyph glyph-name="Ccircumflex" unicode="&#x108;" horiz-adv-x="684" 
d="M645 175q-20 -60 -60 -101.5t-94 -62.5t-119 -21q-95 0 -165 41t-108 117t-38 182t38 182t108 117t164 41q65 0 117.5 -18t89.5 -54t57 -90l-101 -45q-20 59 -58 86.5t-99 27.5t-107 -29t-71.5 -84t-25.5 -134q0 -78 24 -133.5t69 -84.5t108 -29q61 0 105.5 31.5
t63.5 94.5zM532 737h-87l-76 102l-76 -102h-87l107 160h112z" />
    <glyph glyph-name="ccircumflex" unicode="&#x109;" horiz-adv-x="562" 
d="M299 510q60 0 102.5 -17.5t71.5 -49.5t44 -73l-101 -40q-13 46 -41.5 70.5t-74.5 24.5q-45 0 -77 -20.5t-48.5 -59.5t-16.5 -96q0 -56 17 -95t49 -59t76 -20q34 0 59 11.5t41.5 33t22.5 52.5l97 -33q-14 -45 -43.5 -78.5t-73.5 -52t-101 -18.5q-74 0 -131 31t-88.5 89.5
t-31.5 139.5t31.5 139.5t88 89.5t128.5 31zM462 571h-88l-81 107l-81 -107h-88l113 169h112z" />
    <glyph glyph-name="Cdotaccent" unicode="&#x10a;" horiz-adv-x="684" 
d="M645 175q-20 -60 -60 -101.5t-94 -62.5t-119 -21q-95 0 -165 41t-108 117t-38 182t38 182t108 117t164 41q65 0 117.5 -18t89.5 -54t57 -90l-101 -45q-20 59 -58 86.5t-99 27.5t-107 -29t-71.5 -84t-25.5 -134q0 -78 24 -133.5t69 -84.5t108 -29q61 0 105.5 31.5
t63.5 94.5zM369 878q33 0 51.5 -18t18.5 -48q0 -31 -18.5 -48.5t-51.5 -17.5q-32 0 -50.5 17.5t-18.5 48.5q0 30 18.5 48t50.5 18z" />
    <glyph glyph-name="cdotaccent" unicode="&#x10b;" horiz-adv-x="562" 
d="M299 510q60 0 102.5 -17.5t71.5 -49.5t44 -73l-101 -40q-13 46 -41.5 70.5t-74.5 24.5q-45 0 -77 -20.5t-48.5 -59.5t-16.5 -96q0 -56 17 -95t49 -59t76 -20q34 0 59 11.5t41.5 33t22.5 52.5l97 -33q-14 -45 -43.5 -78.5t-73.5 -52t-101 -18.5q-74 0 -131 31t-88.5 89.5
t-31.5 139.5t31.5 139.5t88 89.5t128.5 31zM293 718q33 0 51.5 -18t18.5 -48q0 -31 -18.5 -48.5t-51.5 -17.5q-32 0 -50.5 17.5t-18.5 48.5q0 30 18.5 48t50.5 18z" />
    <glyph glyph-name="Ccaron" unicode="&#x10c;" horiz-adv-x="684" 
d="M645 175q-20 -60 -60 -101.5t-94 -62.5t-119 -21q-95 0 -165 41t-108 117t-38 182t38 182t108 117t164 41q65 0 117.5 -18t89.5 -54t57 -90l-101 -45q-20 59 -58 86.5t-99 27.5t-107 -29t-71.5 -84t-25.5 -134q0 -78 24 -133.5t69 -84.5t108 -29q61 0 105.5 31.5
t63.5 94.5zM532 897l-107 -160h-112l-107 160h87l76 -102l76 102h87z" />
    <glyph glyph-name="ccaron" unicode="&#x10d;" horiz-adv-x="562" 
d="M299 510q60 0 102.5 -17.5t71.5 -49.5t44 -73l-101 -40q-13 46 -41.5 70.5t-74.5 24.5q-45 0 -77 -20.5t-48.5 -59.5t-16.5 -96q0 -56 17 -95t49 -59t76 -20q34 0 59 11.5t41.5 33t22.5 52.5l97 -33q-14 -45 -43.5 -78.5t-73.5 -52t-101 -18.5q-74 0 -131 31t-88.5 89.5
t-31.5 139.5t31.5 139.5t88 89.5t128.5 31zM461 746l-113 -168h-112l-113 168h88l81 -107l81 107h88z" />
    <glyph glyph-name="Dcaron" unicode="&#x10e;" horiz-adv-x="720" 
d="M331 660q155 0 241.5 -85.5t86.5 -244.5t-86.5 -244.5t-241.5 -85.5h-233v660h233zM331 91q105 0 160.5 62.5t55.5 176.5t-55.5 176.5t-160.5 62.5h-126v-478h126zM522 897l-107 -160h-112l-107 160h87l76 -102l76 102h87z" />
    <glyph glyph-name="dcaron" unicode="&#x10f;" horiz-adv-x="666" 
d="M709 725l-45 -210h-68l21 210h92zM275 -10q-62 0 -112.5 31t-79.5 89t-29 139q0 84 31 142t83 88.5t114 30.5q64 0 108 -35t59 -91l-12 -11v352h107v-725h-95l-8 136l14 -1q-7 -45 -33 -77.5t-64.5 -50t-82.5 -17.5zM298 76q43 0 74 22t48 62t17 96q0 52 -17 89.5
t-47.5 57.5t-70.5 20q-67 0 -104 -46t-37 -127t36 -127.5t101 -46.5z" />
    <glyph glyph-name="Dcroat" unicode="&#x110;" horiz-adv-x="738" 
d="M22 288v89h378v-89h-378zM349 660q155 0 241.5 -85.5t86.5 -244.5t-86.5 -244.5t-241.5 -85.5h-233v660h233zM349 91q105 0 161 62.5t56 176.5t-56 176.5t-161 62.5h-126v-478h126z" />
    <glyph glyph-name="dcroat" unicode="&#x111;" horiz-adv-x="629" 
d="M290 558v71h333v-71h-333zM275 -10q-62 0 -112.5 31t-79.5 89t-29 139q0 84 31 142t83 88.5t114 30.5q64 0 108 -35t59 -91l-12 -11v352h107v-725h-95l-8 136l14 -1q-7 -45 -33 -77.5t-64.5 -50t-82.5 -17.5zM298 76q43 0 74 22t48 62t17 96q0 52 -17 89.5t-47.5 57.5
t-70.5 20q-67 0 -104 -46t-37 -127t36 -127.5t101 -46.5z" />
    <glyph glyph-name="Emacron" unicode="&#x112;" horiz-adv-x="636" 
d="M98 0v660h478v-92h-371v-190h290v-90h-290v-196h385v-92h-492zM506 826v-78h-338v78h338z" />
    <glyph glyph-name="emacron" unicode="&#x113;" horiz-adv-x="578" 
d="M303 -10q-75 0 -132 31t-88.5 89.5t-31.5 139.5t31.5 139.5t87.5 89.5t127 31q73 0 124 -30t78 -82t27 -118q0 -18 -1 -34t-3 -28h-402v82h355l-53 -16q0 68 -34 104.5t-93 36.5q-43 0 -75 -20t-49 -59.5t-17 -96.5q0 -56 18 -95t51 -59t78 -20q50 0 81 19t49 53l85 -40
q-18 -36 -48.5 -62.5t-72.5 -40.5t-92 -14zM461 666v-78h-338v78h338z" />
    <glyph glyph-name="Ebreve" unicode="&#x114;" horiz-adv-x="636" 
d="M98 0v660h478v-92h-371v-190h290v-90h-290v-196h385v-92h-492zM491 883q0 -69 -42 -111t-112 -42q-69 0 -111.5 42t-42.5 111h78q1 -34 20 -58t56 -24q38 0 56.5 24t19.5 58h78z" />
    <glyph glyph-name="ebreve" unicode="&#x115;" horiz-adv-x="578" 
d="M303 -10q-75 0 -132 31t-88.5 89.5t-31.5 139.5t31.5 139.5t87.5 89.5t127 31q73 0 124 -30t78 -82t27 -118q0 -18 -1 -34t-3 -28h-402v82h355l-53 -16q0 68 -34 104.5t-93 36.5q-43 0 -75 -20t-49 -59.5t-17 -96.5q0 -56 18 -95t51 -59t78 -20q50 0 81 19t49 53l85 -40
q-18 -36 -48.5 -62.5t-72.5 -40.5t-92 -14zM446 723q0 -69 -42 -111t-112 -42q-69 0 -111.5 42t-42.5 111h78q1 -34 20 -58t56 -24q38 0 56.5 24t19.5 58h78z" />
    <glyph glyph-name="Edotaccent" unicode="&#x116;" horiz-adv-x="636" 
d="M98 0v660h478v-92h-371v-190h290v-90h-290v-196h385v-92h-492zM337 878q33 0 51.5 -18t18.5 -48q0 -31 -18.5 -48.5t-51.5 -17.5q-32 0 -50.5 17.5t-18.5 48.5q0 30 18.5 48t50.5 18z" />
    <glyph glyph-name="edotaccent" unicode="&#x117;" horiz-adv-x="578" 
d="M303 -10q-75 0 -132 31t-88.5 89.5t-31.5 139.5t31.5 139.5t87.5 89.5t127 31q73 0 124 -30t78 -82t27 -118q0 -18 -1 -34t-3 -28h-402v82h355l-53 -16q0 68 -34 104.5t-93 36.5q-43 0 -75 -20t-49 -59.5t-17 -96.5q0 -56 18 -95t51 -59t78 -20q50 0 81 19t49 53l85 -40
q-18 -36 -48.5 -62.5t-72.5 -40.5t-92 -14zM292 718q33 0 51.5 -18t18.5 -48q0 -31 -18.5 -48.5t-51.5 -17.5q-32 0 -50.5 17.5t-18.5 48.5q0 30 18.5 48t50.5 18z" />
    <glyph glyph-name="Eogonek" unicode="&#x118;" horiz-adv-x="636" 
d="M504 -228q-37 0 -65 12.5t-44 35.5t-16 54q0 57 43.5 91.5t120.5 60.5l47 -26q-73 -28 -101.5 -55t-28.5 -54q0 -24 17 -37.5t45 -13.5q12 0 26.5 2.5t25.5 9.5l18 -61q-16 -10 -39.5 -14.5t-48.5 -4.5zM98 0v660h478v-92h-371v-190h290v-90h-290v-196h385v-92h-492z" />
    <glyph glyph-name="eogonek" unicode="&#x119;" horiz-adv-x="578" 
d="M303 -10q-75 0 -132 31t-88.5 89.5t-31.5 139.5t31.5 139.5t87.5 89.5t127 31q73 0 124 -30t78 -82t27 -118q0 -18 -1 -34t-3 -28h-402v82h355l-53 -16q0 68 -34 104.5t-93 36.5q-43 0 -75 -20t-49 -59.5t-17 -96.5q0 -56 18 -95t51 -59t78 -20q50 0 81 19t49 53l85 -40
q-18 -36 -48.5 -62.5t-72.5 -40.5t-92 -14zM326 -223q-59 0 -91 29t-32 77q0 56 37.5 89t110.5 56l51 -21q-51 -18 -77 -35.5t-35.5 -35.5t-9.5 -39q0 -24 16.5 -37.5t43.5 -13.5q14 0 27.5 3t24.5 8l14 -63q-15 -8 -36 -12.5t-44 -4.5z" />
    <glyph glyph-name="Ecaron" unicode="&#x11a;" horiz-adv-x="636" 
d="M98 0v660h478v-92h-371v-190h290v-90h-290v-196h385v-92h-492zM500 897l-107 -160h-112l-107 160h87l76 -102l76 102h87z" />
    <glyph glyph-name="ecaron" unicode="&#x11b;" horiz-adv-x="578" 
d="M303 -10q-75 0 -132 31t-88.5 89.5t-31.5 139.5t31.5 139.5t87.5 89.5t127 31q73 0 124 -30t78 -82t27 -118q0 -18 -1 -34t-3 -28h-402v82h355l-53 -16q0 68 -34 104.5t-93 36.5q-43 0 -75 -20t-49 -59.5t-17 -96.5q0 -56 18 -95t51 -59t78 -20q50 0 81 19t49 53l85 -40
q-18 -36 -48.5 -62.5t-72.5 -40.5t-92 -14zM460 746l-113 -168h-112l-113 168h88l81 -107l81 107h88z" />
    <glyph glyph-name="Gcircumflex" unicode="&#x11c;" horiz-adv-x="724" 
d="M366 -10q-93 0 -161 41t-106 116.5t-38 182.5q0 105 39.5 181t112 117.5t166.5 41.5q103 0 166.5 -38t101.5 -118l-99 -47q-19 55 -62.5 82.5t-105.5 27.5t-108.5 -29t-72.5 -84.5t-26 -133.5q0 -79 23 -134.5t69.5 -84.5t114.5 -29q37 0 69 9.5t56 28t37.5 47t13.5 67.5
v19h-192v87h287v-340h-80l-6 133l20 -10q-24 -63 -79.5 -98t-139.5 -35zM534 737h-87l-76 102l-76 -102h-87l107 160h112z" />
    <glyph glyph-name="gcircumflex" unicode="&#x11d;" horiz-adv-x="540" 
d="M105 571l105 169h106l105 -169h-81l-77 109l-77 -109h-81zM526 605l18 -83h-3h-3q-48 0 -74.5 -20.5t-26.5 -63.5l-53 25q0 43 18.5 74.5t49.5 49.5t70 18h2.5h1.5zM365 78q76 0 118 -33.5t42 -92.5q0 -52 -33 -89.5t-89.5 -57.5t-129.5 -20q-123 0 -182 38t-59 95
q0 40 28.5 70t96.5 34l-6 -16q-42 9 -67.5 32.5t-25.5 66.5t33 73t93 35l56 -27h-12q-46 -4 -65 -21t-19 -38q0 -25 18.5 -37t52.5 -12h150zM273 -135q55 0 90.5 10.5t53 27t17.5 36.5q0 23 -18.5 37t-66.5 14h-161q-28 0 -47 -14.5t-19 -39.5q0 -33 40 -52t111 -19z
M269 510q66 0 114.5 -21t75 -59t26.5 -89t-26.5 -89t-75 -59t-114.5 -21q-104 0 -159.5 46.5t-55.5 122.5q0 51 27 89t75.5 59t112.5 21zM269 435q-46 0 -76.5 -25.5t-30.5 -68.5t30.5 -69t76.5 -26q47 0 77.5 26t30.5 69t-30.5 68.5t-77.5 25.5z" />
    <glyph glyph-name="Gbreve" unicode="&#x11e;" horiz-adv-x="724" 
d="M366 -10q-93 0 -161 41t-106 116.5t-38 182.5q0 105 39.5 181t112 117.5t166.5 41.5q103 0 166.5 -38t101.5 -118l-99 -47q-19 55 -62.5 82.5t-105.5 27.5t-108.5 -29t-72.5 -84.5t-26 -133.5q0 -79 23 -134.5t69.5 -84.5t114.5 -29q37 0 69 9.5t56 28t37.5 47t13.5 67.5
v19h-192v87h287v-340h-80l-6 133l20 -10q-24 -63 -79.5 -98t-139.5 -35zM525 883q0 -69 -42 -111t-112 -42q-69 0 -111.5 42t-42.5 111h78q1 -34 20 -58t56 -24q38 0 56.5 24t19.5 58h78z" />
    <glyph glyph-name="gbreve" unicode="&#x11f;" horiz-adv-x="540" 
d="M526 605l18 -83h-3h-3q-48 0 -74.5 -20.5t-26.5 -63.5l-53 25q0 43 18.5 74.5t49.5 49.5t70 18h2.5h1.5zM365 78q76 0 118 -33.5t42 -92.5q0 -52 -33 -89.5t-89.5 -57.5t-129.5 -20q-123 0 -182 38t-59 95q0 40 28.5 70t96.5 34l-6 -16q-42 9 -67.5 32.5t-25.5 66.5
t33 73t93 35l56 -27h-12q-46 -4 -65 -21t-19 -38q0 -25 18.5 -37t52.5 -12h150zM273 -135q55 0 90.5 10.5t53 27t17.5 36.5q0 23 -18.5 37t-66.5 14h-161q-28 0 -47 -14.5t-19 -39.5q0 -33 40 -52t111 -19zM269 510q66 0 114.5 -21t75 -59t26.5 -89t-26.5 -89t-75 -59
t-114.5 -21q-104 0 -159.5 46.5t-55.5 122.5q0 51 27 89t75.5 59t112.5 21zM269 435q-46 0 -76.5 -25.5t-30.5 -68.5t30.5 -69t76.5 -26q47 0 77.5 26t30.5 69t-30.5 68.5t-77.5 25.5zM433 723q0 -69 -42 -111t-112 -42q-69 0 -111.5 42t-42.5 111h78q1 -34 20 -58t56 -24
q38 0 56.5 24t19.5 58h78z" />
    <glyph glyph-name="Gdotaccent" unicode="&#x120;" horiz-adv-x="724" 
d="M366 -10q-93 0 -161 41t-106 116.5t-38 182.5q0 105 39.5 181t112 117.5t166.5 41.5q103 0 166.5 -38t101.5 -118l-99 -47q-19 55 -62.5 82.5t-105.5 27.5t-108.5 -29t-72.5 -84.5t-26 -133.5q0 -79 23 -134.5t69.5 -84.5t114.5 -29q37 0 69 9.5t56 28t37.5 47t13.5 67.5
v19h-192v87h287v-340h-80l-6 133l20 -10q-24 -63 -79.5 -98t-139.5 -35zM371 878q33 0 51.5 -18t18.5 -48q0 -31 -18.5 -48.5t-51.5 -17.5q-32 0 -50.5 17.5t-18.5 48.5q0 30 18.5 48t50.5 18z" />
    <glyph glyph-name="gdotaccent" unicode="&#x121;" horiz-adv-x="540" 
d="M523 605l17 -84q-3 0 -6 0.5t-6 0.5q-48 0 -73 -20.5t-25 -59.5l-52 24q0 40 17 71.5t48.5 49.5t71.5 18h4h4zM365 78q76 0 118 -33.5t42 -92.5q0 -52 -33 -89.5t-89.5 -57.5t-129.5 -20q-123 0 -182 38t-59 95q0 40 28.5 70t96.5 34l-6 -16q-42 9 -67.5 32.5t-25.5 66.5
t33 73t93 35l56 -27h-12q-46 -4 -65 -21t-19 -38q0 -25 18.5 -37t52.5 -12h150zM273 -135q55 0 90.5 10.5t53 27t17.5 36.5q0 23 -18.5 37t-66.5 14h-161q-28 0 -47 -14.5t-19 -39.5q0 -33 40 -52t111 -19zM269 510q66 0 114.5 -21t75 -59t26.5 -89t-26.5 -89t-75 -59
t-114.5 -21q-104 0 -159.5 46.5t-55.5 122.5q0 51 27 89t75.5 59t112.5 21zM269 435q-46 0 -76.5 -25.5t-30.5 -68.5t30.5 -69t76.5 -26q47 0 77.5 26t30.5 69t-30.5 68.5t-77.5 25.5zM265 718q33 0 51.5 -18t18.5 -48q0 -31 -18.5 -48.5t-51.5 -17.5q-32 0 -50.5 17.5
t-18.5 48.5q0 30 18.5 48t50.5 18z" />
    <glyph glyph-name="uni0122" unicode="&#x122;" horiz-adv-x="724" 
d="M366 -10q-93 0 -161 41t-106 116.5t-38 182.5q0 105 39.5 181t112 117.5t166.5 41.5q103 0 166.5 -38t101.5 -118l-99 -47q-19 55 -62.5 82.5t-105.5 27.5t-108.5 -29t-72.5 -84.5t-26 -133.5q0 -79 23 -134.5t69.5 -84.5t114.5 -29q37 0 69 9.5t56 28t37.5 47t13.5 67.5
v19h-192v87h287v-340h-80l-6 133l20 -10q-24 -63 -79.5 -98t-139.5 -35zM452 -71l-67 -167h-77l40 167h104z" />
    <glyph glyph-name="uni0123" unicode="&#x123;" horiz-adv-x="540" 
d="M523 605l17 -84q-3 0 -6 0.5t-6 0.5q-48 0 -73 -20.5t-25 -59.5l-52 24q0 40 17 71.5t48.5 49.5t71.5 18h4h4zM365 78q76 0 118 -33.5t42 -92.5q0 -52 -33 -89.5t-89.5 -57.5t-129.5 -20q-123 0 -182 38t-59 95q0 40 28.5 70t96.5 34l-6 -16q-42 9 -67.5 32.5t-25.5 66.5
t33 73t93 35l56 -27h-12q-46 -4 -65 -21t-19 -38q0 -25 18.5 -37t52.5 -12h150zM273 -135q55 0 90.5 10.5t53 27t17.5 36.5q0 23 -18.5 37t-66.5 14h-161q-28 0 -47 -14.5t-19 -39.5q0 -33 40 -52t111 -19zM269 510q66 0 114.5 -21t75 -59t26.5 -89t-26.5 -89t-75 -59
t-114.5 -21q-104 0 -159.5 46.5t-55.5 122.5q0 51 27 89t75.5 59t112.5 21zM269 435q-46 0 -76.5 -25.5t-30.5 -68.5t30.5 -69t76.5 -26q47 0 77.5 26t30.5 69t-30.5 68.5t-77.5 25.5zM365 776l-40 -196h-104l70 196h74z" />
    <glyph glyph-name="Hcircumflex" unicode="&#x124;" horiz-adv-x="736" 
d="M639 660v-660h-108v660h108zM205 660v-660h-107v660h107zM585 380v-92h-433v92h433zM531 737h-87l-76 102l-76 -102h-87l107 160h112z" />
    <glyph glyph-name="hcircumflex" unicode="&#x125;" horiz-adv-x="619" 
d="M83 0v725h107v-305q25 47 67.5 68.5t94.5 21.5q53 0 95.5 -20.5t67.5 -61.5t25 -104v-324h-107v290q0 74 -30.5 103t-76.5 29q-32 0 -63.5 -15.5t-52 -50t-20.5 -92.5v-264h-107zM300 785h-87l-76 102l-76 -102h-87l107 160h112z" />
    <glyph glyph-name="Hbar" unicode="&#x126;" horiz-adv-x="736" 
d="M639 660v-660h-108v660h108zM205 660v-660h-107v660h107zM585 380v-92h-433v92h433zM715 557v-78h-694v78h694z" />
    <glyph glyph-name="hbar" unicode="&#x127;" horiz-adv-x="619" 
d="M6 629h333v-71h-333v71zM83 0v725h107v-305q25 47 67.5 68.5t94.5 21.5q53 0 95.5 -20.5t67.5 -61.5t25 -104v-324h-107v290q0 74 -30.5 103t-76.5 29q-32 0 -63.5 -15.5t-52 -50t-20.5 -92.5v-264h-107z" />
    <glyph glyph-name="Itilde" unicode="&#x128;" horiz-adv-x="303" 
d="M205 660v-660h-107v660h107zM336 877q-2 -47 -16.5 -78.5t-39 -47t-59.5 -15.5q-28 0 -47.5 10t-34 22.5t-28 22.5t-28.5 10q-21 0 -31.5 -17.5t-14.5 -48.5h-73q4 71 34 106.5t84 35.5q27 0 46.5 -10t34 -22.5t27 -22.5t27.5 -10q21 0 31.5 17.5t15.5 47.5h72z" />
    <glyph glyph-name="itilde" unicode="&#x129;" horiz-adv-x="274" 
d="M190 500v-500h-107v500h107zM322 717q-2 -47 -16.5 -78.5t-39 -47t-59.5 -15.5q-28 0 -47.5 10t-34 22.5t-28 22.5t-28.5 10q-21 0 -31.5 -17.5t-14.5 -48.5h-73q4 71 34 106.5t84 35.5q27 0 46.5 -10t34 -22.5t27 -22.5t27.5 -10q21 0 31.5 17.5t15.5 47.5h72z" />
    <glyph glyph-name="Imacron" unicode="&#x12a;" horiz-adv-x="303" 
d="M269 826v-78h-236v78h236zM205 660v-660h-107v660h107z" />
    <glyph glyph-name="imacron" unicode="&#x12b;" horiz-adv-x="274" 
d="M190 500v-500h-107v500h107zM245.162 666v-78h-216.324v78h216.324z" />
    <glyph glyph-name="Ibreve" unicode="&#x12c;" horiz-adv-x="303" 
d="M205 660v-660h-107v660h107zM305 883q0 -69 -42 -111t-112 -42q-69 0 -111.5 42t-42.5 111h78q1 -34 20 -58t56 -24q38 0 56.5 24t19.5 58h78z" />
    <glyph glyph-name="ibreve" unicode="&#x12d;" horiz-adv-x="274" 
d="M190 500v-500h-107v500h107zM291 723q0 -69 -42 -111t-112 -42q-69 0 -111.5 42t-42.5 111h78q1 -34 20 -58t56 -24q38 0 56.5 24t19.5 58h78z" />
    <glyph glyph-name="Iogonek" unicode="&#x12e;" horiz-adv-x="303" 
d="M137 -230q-33 0 -60.5 12t-44 35t-16.5 58q0 39 17.5 66.5t49 48t72.5 38.5l50 -28q-58 -30 -82 -56.5t-24 -54.5q0 -23 14 -36.5t41 -13.5q12 0 25.5 2.5t22.5 7.5l18 -60q-15 -9 -36 -14t-47 -5zM205 660v-660h-107v660h107z" />
    <glyph glyph-name="iogonek" unicode="&#x12f;" horiz-adv-x="274" 
d="M122 -230q-33 0 -60.5 12t-44 35t-16.5 58q0 39 17.5 66.5t49 48t72.5 38.5l50 -28q-58 -30 -82 -56.5t-24 -54.5q0 -23 14 -36.5t42 -13.5q11 0 24.5 2.5t22.5 7.5l18 -60q-15 -9 -36 -14t-47 -5zM137 584q-35 0 -53.5 17.5t-18.5 49.5t18.5 49t53.5 17q34 0 52.5 -17
t18.5 -49t-18.5 -49.5t-52.5 -17.5zM190 500v-500h-107v500h107z" />
    <glyph glyph-name="Idotaccent" unicode="&#x130;" horiz-adv-x="303" 
d="M205 660v-660h-107v660h107zM151 878q33 0 51.5 -18t18.5 -48q0 -31 -18.5 -48.5t-51.5 -17.5q-32 0 -50.5 17.5t-18.5 48.5q0 30 18.5 48t50.5 18z" />
    <glyph glyph-name="dotlessi" unicode="&#x131;" horiz-adv-x="274" 
d="M190 500v-500h-107v500h107z" />
    <glyph glyph-name="IJ" unicode="&#x132;" horiz-adv-x="884" 
d="M205 660v-660h-107v660h107zM796 660v-426q0 -115 -63.5 -179.5t-176.5 -64.5q-81 0 -132 30t-71 84.5t-7 126.5l103 19q-12 -86 13 -126.5t94 -40.5q75 0 103.5 43.5t28.5 127.5v406h108z" />
    <glyph glyph-name="ij" unicode="&#x133;" horiz-adv-x="547" 
d="M137 584q-35 0 -53.5 17.5t-18.5 49.5t18.5 49t53.5 17q34 0 52.5 -17t18.5 -49t-18.5 -49.5t-52.5 -17.5zM190 500v-500h-107v500h107zM411 584q-35 0 -53.5 17.5t-18.5 49.5t18.5 49t53.5 17q34 0 52.5 -17t18.5 -49t-18.5 -49.5t-52.5 -17.5zM464 500v-544
q0 -64 -23.5 -101.5t-61 -53.5t-79.5 -16q-34 0 -62 9t-47 24l18 86q14 -12 33.5 -20t43.5 -8q32 0 51.5 20.5t19.5 69.5v534h107z" />
    <glyph glyph-name="Jcircumflex" unicode="&#x134;" horiz-adv-x="582" 
d="M493 660v-426q0 -115 -63.5 -179.5t-176.5 -64.5q-81 0 -132 30t-71 84.5t-7 126.5l103 19q-12 -86 13 -126.5t94 -40.5q75 0 103.5 43.5t28.5 127.5v406h108zM602 737h-87l-76 102l-76 -102h-87l107 160h112z" />
    <glyph glyph-name="jcircumflex" unicode="&#x135;" horiz-adv-x="274" 
d="M190 500v-544q0 -64 -23.5 -101.5t-61 -53.5t-79.5 -16q-34 0 -62 9t-47 24l18 86q14 -12 33.5 -20t43.5 -8q32 0 51.5 20.5t19.5 69.5v534h107zM306 571h-88l-81 107l-81 -107h-88l113 169h112z" />
    <glyph glyph-name="uni0136" unicode="&#x136;" horiz-adv-x="667" 
d="M639 660l-294 -318l-12 -1l-171 -184l-10 117l356 386h131zM205 660v-660h-107v660h107zM367 424l278 -424h-126l-237 364zM422 -71l-67 -167h-77l40 167h104z" />
    <glyph glyph-name="uni0137" unicode="&#x137;" horiz-adv-x="583" 
d="M555 500l-223 -228l-23 -16l-157 -163l-1 122l277 285h127zM190 725v-725h-107v725h107zM345 332l222 -332h-124l-178 271zM371 -71l-67 -167h-77l40 167h104z" />
    <glyph glyph-name="kgreenlandic" unicode="&#x138;" horiz-adv-x="583" 
d="M555 500l-223 -228l-23 -16l-157 -163l-1 122l278 285h126zM190 500v-500h-107v500h107zM345 332l222 -332h-124l-178 271z" />
    <glyph glyph-name="Lacute" unicode="&#x139;" horiz-adv-x="599" 
d="M205 92h364v-92h-471v660h107v-568zM164 897h104l-87 -160h-82z" />
    <glyph glyph-name="lacute" unicode="&#x13a;" horiz-adv-x="312" 
d="M187 725v-585q0 -37 13 -51t43 -14q18 0 30.5 2.5t31.5 9.5l-12 -80q-17 -8 -39 -12.5t-44 -4.5q-67 0 -98.5 34.5t-31.5 106.5v594h107zM75 790l53 137h103l-76 -137h-80z" />
    <glyph glyph-name="uni013B" unicode="&#x13b;" horiz-adv-x="599" 
d="M205 92h364v-92h-471v660h107v-568zM406 -71l-67 -167h-77l40 167h104z" />
    <glyph glyph-name="uni013C" unicode="&#x13c;" horiz-adv-x="312" 
d="M187 725v-585q0 -37 13 -51t43 -14q18 0 30.5 2.5t31.5 9.5l-12 -80q-17 -8 -39 -12.5t-44 -4.5q-67 0 -98.5 34.5t-31.5 106.5v594h107zM250 -71l-67 -167h-77l40 167h104z" />
    <glyph glyph-name="Lcaron" unicode="&#x13d;" horiz-adv-x="599" 
d="M444 660l-46 -210h-73l21 210h98zM205 92h364v-92h-471v660h107v-568z" />
    <glyph glyph-name="lcaron" unicode="&#x13e;" horiz-adv-x="338" 
d="M351 725l-45 -210h-68l21 210h92zM187 725v-585q0 -37 13 -51t43 -14q18 0 30.5 2.5t31.5 9.5l-12 -80q-17 -8 -39 -12.5t-44 -4.5q-67 0 -98.5 34.5t-31.5 106.5v594h107z" />
    <glyph glyph-name="Ldot" unicode="&#x13f;" horiz-adv-x="626" 
d="M205 92h364v-92h-471v660h107v-568zM471 433q34 0 54.5 -19.5t20.5 -52.5t-20.5 -53t-54.5 -20q-35 0 -55.5 20t-20.5 53t20.5 52.5t55.5 19.5z" />
    <glyph glyph-name="ldot" unicode="&#x140;" horiz-adv-x="434" 
d="M187 725v-585q0 -37 13 -51t43 -14q18 0 30.5 2.5t31.5 9.5l-12 -80q-17 -8 -39 -12.5t-44 -4.5q-67 0 -98.5 34.5t-31.5 106.5v594h107zM352 436q34 0 54.5 -19.5t20.5 -52.5t-20.5 -53t-54.5 -20q-35 0 -55.5 20t-20.5 53t20.5 52.5t55.5 19.5z" />
    <glyph glyph-name="Lslash" unicode="&#x141;" horiz-adv-x="640" 
d="M421 489v-96l-389 -206v96zM246 92h364v-92h-472v660h108v-568z" />
    <glyph glyph-name="lslash" unicode="&#x142;" horiz-adv-x="383" 
d="M349 503v-94l-141 -89l-20 -9l-154 -95v93l137 85l22 9zM234 725v-585q0 -37 13 -51t43 -14q18 0 30 2.5t32 9.5l-13 -80q-16 -8 -38 -12.5t-45 -4.5q-66 0 -97.5 34.5t-31.5 106.5v594h107z" />
    <glyph glyph-name="Nacute" unicode="&#x143;" horiz-adv-x="736" 
d="M639 660v-660h-127l-255 416l-64 117h-1l4 -107v-426h-98v660h126l254 -415l65 -119h1l-4 108v426h99zM384 897h104l-87 -160h-82z" />
    <glyph glyph-name="nacute" unicode="&#x144;" horiz-adv-x="619" 
d="M83 0v500h95l7 -130l-14 14q14 43 40.5 71.5t63 41.5t77.5 13q53 0 95.5 -20.5t67.5 -61.5t25 -104v-324h-107v291q0 74 -30.5 102.5t-76.5 28.5q-33 0 -64 -15.5t-51.5 -49.5t-20.5 -91v-266h-107zM332 746h108l-99 -168h-82z" />
    <glyph glyph-name="uni0145" unicode="&#x145;" horiz-adv-x="736" 
d="M639 660v-660h-127l-255 416l-64 117h-1l4 -107v-426h-98v660h126l254 -415l65 -119h1l-4 108v426h99zM445 -71l-67 -167h-77l40 167h104z" />
    <glyph glyph-name="uni0146" unicode="&#x146;" horiz-adv-x="619" 
d="M83 0v500h95l7 -130l-14 14q14 43 40.5 71.5t63 41.5t77.5 13q53 0 95.5 -20.5t67.5 -61.5t25 -104v-324h-107v291q0 74 -30.5 102.5t-76.5 28.5q-33 0 -64 -15.5t-51.5 -49.5t-20.5 -91v-266h-107zM387 -71l-67 -167h-77l40 167h104z" />
    <glyph glyph-name="Ncaron" unicode="&#x147;" horiz-adv-x="736" 
d="M639 660v-660h-127l-255 416l-64 117h-1l4 -107v-426h-98v660h126l254 -415l65 -119h1l-4 108v426h99zM534 897l-107 -160h-112l-107 160h87l76 -102l76 102h87z" />
    <glyph glyph-name="ncaron" unicode="&#x148;" horiz-adv-x="619" 
d="M83 0v500h95l7 -130l-14 14q14 43 40.5 71.5t63 41.5t77.5 13q53 0 95.5 -20.5t67.5 -61.5t25 -104v-324h-107v291q0 74 -30.5 102.5t-76.5 28.5q-33 0 -64 -15.5t-51.5 -49.5t-20.5 -91v-266h-107zM484 746l-113 -168h-112l-113 168h88l81 -107l81 107h88z" />
    <glyph glyph-name="Eng" unicode="&#x14a;" horiz-adv-x="736" 
d="M478 -215q-33 0 -60.5 8.5t-46.5 22.5l19 89q13 -12 33 -20t45 -8q30 0 51 20t21 69v38l-282 415l-65 119h-1l4 -112v-426h-98v660h126l272 -403l44 -82h1l-1 485h99v-704q0 -64 -24 -101.5t-60.5 -53.5t-76.5 -16z" />
    <glyph glyph-name="eng" unicode="&#x14b;" horiz-adv-x="619" 
d="M540 183v-224q0 -65 -23.5 -103t-61 -54.5t-78.5 -16.5q-35 0 -63 9t-48 24l19 86q14 -12 33.5 -20t43.5 -8q31 0 51 20.5t20 69.5v217h107zM83 0v500h95l7 -130l-14 14q14 43 40.5 71.5t63 41.5t77.5 13q53 0 95.5 -20.5t67.5 -61.5t25 -104v-324h-107v291
q0 74 -30.5 102.5t-76.5 28.5q-33 0 -64 -15.5t-51.5 -49.5t-20.5 -91v-266h-107z" />
    <glyph glyph-name="Omacron" unicode="&#x14c;" horiz-adv-x="745" 
d="M372 670q96 0 166 -41t108 -117t38 -182t-38 -182t-108 -117t-166 -41q-95 0 -165 41t-108 117t-38 182t38 182t108 117t165 41zM372 577q-62 0 -106.5 -29t-68.5 -84t-24 -134q0 -78 24 -133.5t68.5 -84.5t106.5 -29q63 0 107.5 29t68.5 84.5t24 133.5q0 79 -24 134
t-68.5 84t-107.5 29zM541 826v-78h-338v78h338z" />
    <glyph glyph-name="omacron" unicode="&#x14d;" horiz-adv-x="600" 
d="M300 510q73 0 129 -31t87.5 -89.5t31.5 -139.5t-31.5 -139.5t-87.5 -89.5t-129 -31t-129 31t-88 89.5t-32 139.5t32 139.5t88 89.5t129 31zM300 426q-45 0 -76.5 -20.5t-48.5 -59.5t-17 -96q0 -56 17 -95.5t48.5 -60t76.5 -20.5t76 20.5t48 60t17 95.5q0 57 -17 96
t-48 59.5t-76 20.5zM469 666v-78h-338v78h338z" />
    <glyph glyph-name="Obreve" unicode="&#x14e;" horiz-adv-x="745" 
d="M372 670q96 0 166 -41t108 -117t38 -182t-38 -182t-108 -117t-166 -41q-95 0 -165 41t-108 117t-38 182t38 182t108 117t165 41zM372 577q-62 0 -106.5 -29t-68.5 -84t-24 -134q0 -78 24 -133.5t68.5 -84.5t106.5 -29q63 0 107.5 29t68.5 84.5t24 133.5q0 79 -24 134
t-68.5 84t-107.5 29zM526 883q0 -69 -42 -111t-112 -42q-69 0 -111.5 42t-42.5 111h78q1 -34 20 -58t56 -24q38 0 56.5 24t19.5 58h78z" />
    <glyph glyph-name="obreve" unicode="&#x14f;" horiz-adv-x="600" 
d="M300 510q73 0 129 -31t87.5 -89.5t31.5 -139.5t-31.5 -139.5t-87.5 -89.5t-129 -31t-129 31t-88 89.5t-32 139.5t32 139.5t88 89.5t129 31zM300 426q-45 0 -76.5 -20.5t-48.5 -59.5t-17 -96q0 -56 17 -95.5t48.5 -60t76.5 -20.5t76 20.5t48 60t17 95.5q0 57 -17 96
t-48 59.5t-76 20.5zM454 723q0 -69 -42 -111t-112 -42q-69 0 -111.5 42t-42.5 111h78q1 -34 20 -58t56 -24q38 0 56.5 24t19.5 58h78z" />
    <glyph glyph-name="Ohungarumlaut" unicode="&#x150;" horiz-adv-x="745" 
d="M372 670q96 0 166 -41t108 -117t38 -182t-38 -182t-108 -117t-166 -41q-95 0 -165 41t-108 117t-38 182t38 182t108 117t165 41zM372 577q-62 0 -106.5 -29t-68.5 -84t-24 -134q0 -78 24 -133.5t68.5 -84.5t106.5 -29q63 0 107.5 29t68.5 84.5t24 133.5q0 79 -24 134
t-68.5 84t-107.5 29zM490 897h104l-87 -160h-82zM299 897h104l-87 -160h-82z" />
    <glyph glyph-name="ohungarumlaut" unicode="&#x151;" horiz-adv-x="600" 
d="M300 510q73 0 129 -31t87.5 -89.5t31.5 -139.5t-31.5 -139.5t-87.5 -89.5t-129 -31t-129 31t-88 89.5t-32 139.5t32 139.5t88 89.5t129 31zM300 426q-45 0 -76.5 -20.5t-48.5 -59.5t-17 -96q0 -56 17 -95.5t48.5 -60t76.5 -20.5t76 20.5t48 60t17 95.5q0 57 -17 96
t-48 59.5t-76 20.5zM335 578l74 168h104l-98 -168h-80zM148 578l74 168h104l-97 -168h-81z" />
    <glyph glyph-name="OE" unicode="&#x152;" horiz-adv-x="1070" 
d="M664 92h361v-92h-447v93q-37 -49 -90.5 -76t-120.5 -27q-95 0 -163 41t-105.5 117t-37.5 182t37 182t106 117t166 41q67 0 119.5 -26t88.5 -75v91h432v-92h-346v-190h266v-90h-266v-196zM372 83q58 0 100.5 29t66 84.5t23.5 133.5q0 79 -23.5 134t-66 84t-100.5 29
q-64 0 -109 -29t-68 -84t-23 -134q0 -78 23 -133.5t68 -84.5t109 -29z" />
    <glyph glyph-name="oe" unicode="&#x153;" horiz-adv-x="969" 
d="M297 -10q-70 0 -126 31t-88 89.5t-32 139.5t32 139.5t88 89.5t126 31q73 0 129 -34t84 -101h-30q28 67 83 101t128 34q71 0 122 -30t78 -82t27 -118q0 -17 -1 -31.5t-3 -25.5h-402v74h302q-2 61 -36.5 94.5t-90.5 33.5q-43 0 -75 -20t-49 -59.5t-17 -96.5q0 -56 18 -95
t51 -59t79 -20q49 0 80 19.5t49 52.5l85 -40q-17 -36 -48 -62.5t-73 -40.5t-92 -14q-74 0 -130.5 33.5t-84.5 100.5l30 1q-28 -67 -83.5 -101t-129.5 -34zM300 74q45 0 76 20.5t48 60t17 95.5q0 57 -17 96t-48 59.5t-76 20.5t-76.5 -20.5t-48.5 -59.5t-17 -96
q0 -56 17 -95.5t48.5 -60t76.5 -20.5z" />
    <glyph glyph-name="Racute" unicode="&#x154;" horiz-adv-x="672" 
d="M367 660q106 0 168.5 -53t62.5 -143q0 -93 -62.5 -143.5t-168.5 -50.5l-10 -6h-153v-264h-106v660h269zM359 353q65 0 96.5 26.5t31.5 81.5q0 54 -31.5 81t-96.5 27h-155v-216h155zM422 331l215 -331h-123l-184 289zM337 897h104l-87 -160h-82z" />
    <glyph glyph-name="racute" unicode="&#x155;" horiz-adv-x="414" 
d="M83 0v500h91l10 -90q20 49 59.5 74.5t97.5 25.5q15 0 30 -2.5t25 -7.5l-15 -94q-11 4 -24.5 6.5t-36.5 2.5q-31 0 -61 -16.5t-49.5 -49.5t-19.5 -84v-265h-107zM254 746h108l-99 -168h-82z" />
    <glyph glyph-name="uni0156" unicode="&#x156;" horiz-adv-x="672" 
d="M367 660q106 0 168.5 -53t62.5 -143q0 -93 -62.5 -143.5t-168.5 -50.5l-10 -6h-153v-264h-106v660h269zM359 353q65 0 96.5 26.5t31.5 81.5q0 54 -31.5 81t-96.5 27h-155v-216h155zM422 331l215 -331h-123l-184 289zM416 -71l-67 -167h-77l40 167h104z" />
    <glyph glyph-name="uni0157" unicode="&#x157;" horiz-adv-x="414" 
d="M83 0v500h91l10 -90q20 49 59.5 74.5t97.5 25.5q15 0 30 -2.5t25 -7.5l-15 -94q-11 4 -24.5 6.5t-36.5 2.5q-31 0 -61 -16.5t-49.5 -49.5t-19.5 -84v-265h-107zM189 -71l-67 -167h-77l40 167h104z" />
    <glyph glyph-name="Rcaron" unicode="&#x158;" horiz-adv-x="672" 
d="M367 660q106 0 168.5 -53t62.5 -143q0 -93 -62.5 -143.5t-168.5 -50.5l-10 -6h-153v-264h-106v660h269zM359 353q65 0 96.5 26.5t31.5 81.5q0 54 -31.5 81t-96.5 27h-155v-216h155zM422 331l215 -331h-123l-184 289zM487 897l-107 -160h-112l-107 160h87l76 -102l76 102
h87z" />
    <glyph glyph-name="rcaron" unicode="&#x159;" horiz-adv-x="414" 
d="M83 0v500h91l10 -90q20 49 59.5 74.5t97.5 25.5q15 0 30 -2.5t25 -7.5l-15 -94q-11 4 -24.5 6.5t-36.5 2.5q-31 0 -61 -16.5t-49.5 -49.5t-19.5 -84v-265h-107zM406 746l-113 -168h-112l-113 168h88l81 -107l81 107h88z" />
    <glyph glyph-name="Sacute" unicode="&#x15a;" horiz-adv-x="642" 
d="M323 670q89 0 154 -33.5t110 -98.5l-72 -69q-38 58 -85.5 83.5t-112.5 25.5q-48 0 -79 -13t-45.5 -34.5t-14.5 -48.5q0 -31 21.5 -54t80.5 -36l134 -30q96 -21 136 -64t40 -109q0 -61 -33 -106t-91.5 -69t-137.5 -24q-70 0 -126 18t-98 49t-69 71l74 74q21 -35 53 -62.5
t74.5 -42.5t94.5 -15q46 0 79.5 11t51 32.5t17.5 51.5q0 29 -19.5 51t-72.5 34l-145 33q-60 13 -99 37t-58 58.5t-19 77.5q0 56 30.5 101.5t88.5 73t138 27.5zM340 897h104l-87 -160h-82z" />
    <glyph glyph-name="sacute" unicode="&#x15b;" horiz-adv-x="529" 
d="M273 -10q-75 0 -137 29t-98 82l74 64q22 -41 63.5 -65.5t99.5 -24.5q46 0 73 16t27 45q0 19 -12.5 33.5t-47.5 22.5l-105 22q-80 16 -114 51.5t-34 90.5q0 41 24 76t70.5 56.5t111.5 21.5q75 0 128 -26.5t81 -75.5l-74 -62q-19 40 -56 59.5t-77 19.5q-32 0 -55 -8
t-35 -22t-12 -33q0 -20 15 -35t54 -23l114 -24q72 -14 101.5 -47.5t29.5 -81.5t-25 -84.5t-72 -56.5t-112 -20zM283 746h108l-99 -168h-82z" />
    <glyph glyph-name="Scircumflex" unicode="&#x15c;" horiz-adv-x="642" 
d="M323 670q89 0 154 -33.5t110 -98.5l-72 -69q-38 58 -85.5 83.5t-112.5 25.5q-48 0 -79 -13t-45.5 -34.5t-14.5 -48.5q0 -31 21.5 -54t80.5 -36l134 -30q96 -21 136 -64t40 -109q0 -61 -33 -106t-91.5 -69t-137.5 -24q-70 0 -126 18t-98 49t-69 71l74 74q21 -35 53 -62.5
t74.5 -42.5t94.5 -15q46 0 79.5 11t51 32.5t17.5 51.5q0 29 -19.5 51t-72.5 34l-145 33q-60 13 -99 37t-58 58.5t-19 77.5q0 56 30.5 101.5t88.5 73t138 27.5zM490 737h-87l-76 102l-76 -102h-87l107 160h112z" />
    <glyph glyph-name="scircumflex" unicode="&#x15d;" horiz-adv-x="529" 
d="M273 -10q-75 0 -137 29t-98 82l74 64q22 -41 63.5 -65.5t99.5 -24.5q46 0 73 16t27 45q0 19 -12.5 33.5t-47.5 22.5l-105 22q-80 16 -114 51.5t-34 90.5q0 41 24 76t70.5 56.5t111.5 21.5q75 0 128 -26.5t81 -75.5l-74 -62q-19 40 -56 59.5t-77 19.5q-32 0 -55 -8
t-35 -22t-12 -33q0 -20 15 -35t54 -23l114 -24q72 -14 101.5 -47.5t29.5 -81.5t-25 -84.5t-72 -56.5t-112 -20zM436 571h-88l-81 107l-81 -107h-88l113 169h112z" />
    <glyph glyph-name="Scedilla" unicode="&#x15e;" horiz-adv-x="642" 
d="M323 670q89 0 154 -33.5t110 -98.5l-72 -69q-38 58 -85.5 83.5t-112.5 25.5q-48 0 -79 -13t-45.5 -34.5t-14.5 -48.5q0 -31 21.5 -54t80.5 -36l134 -30q96 -21 136 -64t40 -109q0 -61 -33 -106t-91.5 -69t-137.5 -24q-70 0 -126 18t-98 49t-69 71l74 74q21 -35 53 -62.5
t74.5 -42.5t94.5 -15q46 0 79.5 11t51 32.5t17.5 51.5q0 29 -19.5 51t-72.5 34l-145 33q-60 13 -99 37t-58 58.5t-19 77.5q0 56 30.5 101.5t88.5 73t138 27.5zM259 6l42 25q65 -16 93.5 -48.5t28.5 -78.5q0 -51 -35 -85t-92 -34q-33 0 -56.5 8t-40.5 21l22 65
q13 -9 28 -15.5t37 -6.5q27 0 44.5 17.5t17.5 48.5q0 26 -19.5 44.5t-69.5 38.5z" />
    <glyph glyph-name="scedilla" unicode="&#x15f;" horiz-adv-x="529" 
d="M273 -10q-75 0 -137 29t-98 82l74 64q22 -41 63.5 -65.5t99.5 -24.5q46 0 73 16t27 45q0 19 -12.5 33.5t-47.5 22.5l-105 22q-80 16 -114 51.5t-34 90.5q0 41 24 76t70.5 56.5t111.5 21.5q75 0 128 -26.5t81 -75.5l-74 -62q-19 40 -56 59.5t-77 19.5q-32 0 -55 -8
t-35 -22t-12 -33q0 -20 15 -35t54 -23l114 -24q72 -14 101.5 -47.5t29.5 -81.5t-25 -84.5t-72 -56.5t-112 -20zM208 6l42 25q65 -16 93.5 -48.5t28.5 -78.5q0 -51 -35 -85t-92 -34q-33 0 -56.5 8t-40.5 21l22 65q13 -9 28 -15.5t37 -6.5q27 0 44.5 17.5t17.5 48.5
q0 26 -19.5 44.5t-69.5 38.5z" />
    <glyph glyph-name="Scaron" unicode="&#x160;" horiz-adv-x="642" 
d="M323 670q89 0 154 -33.5t110 -98.5l-72 -69q-38 58 -85.5 83.5t-112.5 25.5q-48 0 -79 -13t-45.5 -34.5t-14.5 -48.5q0 -31 21.5 -54t80.5 -36l134 -30q96 -21 136 -64t40 -109q0 -61 -33 -106t-91.5 -69t-137.5 -24q-70 0 -126 18t-98 49t-69 71l74 74q21 -35 53 -62.5
t74.5 -42.5t94.5 -15q46 0 79.5 11t51 32.5t17.5 51.5q0 29 -19.5 51t-72.5 34l-145 33q-60 13 -99 37t-58 58.5t-19 77.5q0 56 30.5 101.5t88.5 73t138 27.5zM490 897l-107 -160h-112l-107 160h87l76 -102l76 102h87z" />
    <glyph glyph-name="scaron" unicode="&#x161;" horiz-adv-x="529" 
d="M273 -10q-75 0 -137 29t-98 82l74 64q22 -41 63.5 -65.5t99.5 -24.5q46 0 73 16t27 45q0 19 -12.5 33.5t-47.5 22.5l-105 22q-80 16 -114 51.5t-34 90.5q0 41 24 76t70.5 56.5t111.5 21.5q75 0 128 -26.5t81 -75.5l-74 -62q-19 40 -56 59.5t-77 19.5q-32 0 -55 -8
t-35 -22t-12 -33q0 -20 15 -35t54 -23l114 -24q72 -14 101.5 -47.5t29.5 -81.5t-25 -84.5t-72 -56.5t-112 -20zM435 746l-113 -168h-112l-113 168h88l81 -107l81 107h88z" />
    <glyph glyph-name="uni0162" unicode="&#x162;" horiz-adv-x="619" 
d="M261 3l29 28q65 -16 93.5 -48.5t28.5 -78.5q0 -51 -35 -85t-92 -34q-33 0 -56.5 8t-40.5 21l22 65q13 -9 28 -15.5t37 -6.5q27 0 44.5 17.5t17.5 48.5q0 26 -18 44t-58 36zM589 660v-92h-226v-568h-107v568h-226v92h559z" />
    <glyph glyph-name="uni0163" unicode="&#x163;" horiz-adv-x="424" 
d="M229 647v-497q0 -37 19.5 -54t52.5 -17q27 0 47 8.5t37 23.5l24 -78q-23 -20 -56.5 -31.5t-74.5 -11.5q-43 0 -79 14t-56 45.5t-21 82.5v485zM401 500v-84h-375v84h375zM194 6l42 25q65 -16 93.5 -48.5t28.5 -78.5q0 -51 -35 -85t-92 -34q-33 0 -56.5 8t-40.5 21l22 65
q13 -9 28 -15.5t37 -6.5q27 0 44.5 17.5t17.5 48.5q0 26 -19.5 44.5t-69.5 38.5z" />
    <glyph glyph-name="Tcaron" unicode="&#x164;" horiz-adv-x="619" 
d="M589 660v-92h-226v-568h-107v568h-226v92h559zM472 897l-107 -160h-112l-107 160h87l76 -102l76 102h87z" />
    <glyph glyph-name="tcaron" unicode="&#x165;" horiz-adv-x="424" 
d="M398 767l-45 -202h-68l21 202h92zM229 647v-497q0 -37 19.5 -54t52.5 -17q27 0 47 8.5t37 23.5l24 -78q-23 -20 -56.5 -31.5t-74.5 -11.5q-43 0 -79 14t-56 45.5t-21 82.5v485zM401 500v-84h-375v84h375z" />
    <glyph glyph-name="Tbar" unicode="&#x166;" horiz-adv-x="619" 
d="M589 660v-92h-226v-568h-107v568h-226v92h559zM519 362v-93h-419v93h419z" />
    <glyph glyph-name="tbar" unicode="&#x167;" horiz-adv-x="425" 
d="M403 335v-72h-377v72h377zM229 647v-497q0 -37 20 -54t52 -17q28 0 48 8.5t36 23.5l25 -78q-24 -20 -57.5 -31.5t-73.5 -11.5q-44 0 -79.5 14t-56 45.5t-21.5 82.5v485zM401 500v-84h-375v84h375z" />
    <glyph glyph-name="Utilde" unicode="&#x168;" horiz-adv-x="709" 
d="M624 660v-407q0 -131 -69 -197t-201 -66q-130 0 -199.5 66t-69.5 197v407h107v-394q0 -93 40 -138t122 -45q83 0 123 45t40 138v394h107zM539 856q-2 -47 -16.5 -78.5t-39 -47t-59.5 -15.5q-28 0 -47.5 10t-34 22.5t-28 22.5t-28.5 10q-21 0 -31.5 -17.5t-14.5 -48.5h-73
q4 71 34 106.5t84 35.5q27 0 46.5 -10t34 -22.5t27 -22.5t27.5 -10q21 0 31.5 17.5t15.5 47.5h72z" />
    <glyph glyph-name="utilde" unicode="&#x169;" horiz-adv-x="618" 
d="M261 -10q-49 0 -90.5 18t-66.5 58t-25 104v330h107v-303q0 -68 29 -93.5t81 -25.5q25 0 48.5 8.5t42.5 27t29.5 47.5t10.5 68v271h107v-500h-94l-5 81q-26 -47 -70 -69t-104 -22zM491 709q-2 -47 -16.5 -78.5t-39 -47t-59.5 -15.5q-28 0 -47.5 10t-34 22.5t-28 22.5
t-28.5 10q-21 0 -31.5 -17.5t-14.5 -48.5h-73q4 71 34 106.5t84 35.5q27 0 46.5 -10t34 -22.5t27 -22.5t27.5 -10q21 0 31.5 17.5t15.5 47.5h72z" />
    <glyph glyph-name="Umacron" unicode="&#x16a;" horiz-adv-x="709" 
d="M624 660v-407q0 -131 -69 -197t-201 -66q-130 0 -199.5 66t-69.5 197v407h107v-394q0 -93 40 -138t122 -45q83 0 123 45t40 138v394h107zM523 805v-78h-338v78h338z" />
    <glyph glyph-name="umacron" unicode="&#x16b;" horiz-adv-x="618" 
d="M261 -10q-49 0 -90.5 18t-66.5 58t-25 104v330h107v-303q0 -68 29 -93.5t81 -25.5q25 0 48.5 8.5t42.5 27t29.5 47.5t10.5 68v271h107v-500h-94l-5 81q-26 -47 -70 -69t-104 -22zM475 658v-78h-338v78h338z" />
    <glyph glyph-name="Ubreve" unicode="&#x16c;" horiz-adv-x="709" 
d="M624 660v-407q0 -131 -69 -197t-201 -66q-130 0 -199.5 66t-69.5 197v407h107v-394q0 -93 40 -138t122 -45q83 0 123 45t40 138v394h107zM508 862q0 -69 -42 -111t-112 -42q-69 0 -111.5 42t-42.5 111h78q1 -34 20 -58t56 -24q38 0 56.5 24t19.5 58h78z" />
    <glyph glyph-name="ubreve" unicode="&#x16d;" horiz-adv-x="618" 
d="M261 -10q-49 0 -90.5 18t-66.5 58t-25 104v330h107v-303q0 -68 29 -93.5t81 -25.5q25 0 48.5 8.5t42.5 27t29.5 47.5t10.5 68v271h107v-500h-94l-5 81q-26 -47 -70 -69t-104 -22zM460 715q0 -69 -42 -111t-112 -42q-69 0 -111.5 42t-42.5 111h78q1 -34 20 -58t56 -24
q38 0 56.5 24t19.5 58h78z" />
    <glyph glyph-name="Uring" unicode="&#x16e;" horiz-adv-x="709" 
d="M624 660v-407q0 -131 -69 -197t-201 -66q-130 0 -199.5 66t-69.5 197v407h107v-394q0 -93 40 -138t122 -45q83 0 123 45t40 138v394h107zM352 925q58 0 93.5 -33t35.5 -87t-35.5 -87.5t-93.5 -33.5q-59 0 -95 33.5t-36 87.5t36 87t95 33zM352 869q-29 0 -47.5 -18
t-18.5 -46t18.5 -46t47.5 -18t47 18t18 46t-18 46t-47 18z" />
    <glyph glyph-name="uring" unicode="&#x16f;" horiz-adv-x="618" 
d="M261 -10q-49 0 -90.5 18t-66.5 58t-25 104v330h107v-303q0 -68 29 -93.5t81 -25.5q25 0 48.5 8.5t42.5 27t29.5 47.5t10.5 68v271h107v-500h-94l-5 81q-26 -47 -70 -69t-104 -22zM304 801q58 0 93.5 -33t35.5 -87t-35.5 -87.5t-93.5 -33.5q-59 0 -95 33.5t-36 87.5t36 87
t95 33zM304 745q-29 0 -47.5 -18t-18.5 -46t18.5 -46t47.5 -18t47 18t18 46t-18 46t-47 18z" />
    <glyph glyph-name="Uhungarumlaut" unicode="&#x170;" horiz-adv-x="709" 
d="M624 660v-407q0 -131 -69 -197t-201 -66q-130 0 -199.5 66t-69.5 197v407h107v-394q0 -93 40 -138t122 -45q83 0 123 45t40 138v394h107zM472 876h104l-87 -160h-82zM281 876h104l-87 -160h-82z" />
    <glyph glyph-name="uhungarumlaut" unicode="&#x171;" horiz-adv-x="618" 
d="M261 -10q-49 0 -90.5 18t-66.5 58t-25 104v330h107v-303q0 -68 29 -93.5t81 -25.5q25 0 48.5 8.5t42.5 27t29.5 47.5t10.5 68v271h107v-500h-94l-5 81q-26 -47 -70 -69t-104 -22zM341 570l74 168h104l-98 -168h-80zM154 570l74 168h104l-97 -168h-81z" />
    <glyph glyph-name="Uogonek" unicode="&#x172;" horiz-adv-x="709" 
d="M624 660v-407q0 -131 -69 -197t-201 -66q-130 0 -199.5 66t-69.5 197v407h107v-394q0 -93 40 -138t122 -45q83 0 123 45t40 138v394h107zM405 -219q-59 0 -91 29t-32 77q0 56 37.5 89t110.5 56l51 -21q-51 -18 -77 -35.5t-35.5 -35.5t-9.5 -39q0 -24 16.5 -37.5
t43.5 -13.5q14 0 27.5 3t24.5 8l14 -63q-15 -8 -36 -12.5t-44 -4.5z" />
    <glyph glyph-name="uogonek" unicode="&#x173;" horiz-adv-x="618" 
d="M466 -230q-33 0 -60.5 12t-44 35t-16.5 58q0 39 17.5 66.5t49 48t72.5 38.5l50 -28q-58 -30 -82 -56.5t-24 -54.5q0 -23 14 -36.5t42 -13.5q11 0 24.5 2.5t22.5 7.5l18 -60q-15 -9 -36 -14t-47 -5zM261 -10q-49 0 -90.5 18t-66.5 58t-25 104v330h107v-303q0 -68 29 -93.5
t81 -25.5q25 0 48.5 8.5t42.5 27t29.5 47.5t10.5 68v271h107v-500h-94l-5 81q-26 -47 -70 -69t-104 -22z" />
    <glyph glyph-name="Wcircumflex" unicode="&#x174;" horiz-adv-x="972" 
d="M222 0l-194 660h113l148 -567l144 567h110l145 -568l147 568h109l-193 -660h-126l-105 396l-33 152h-1l-33 -152l-104 -396h-127zM649 737h-87l-76 102l-76 -102h-87l107 160h112z" />
    <glyph glyph-name="wcircumflex" unicode="&#x175;" horiz-adv-x="855" 
d="M719 500h116l-168 -500h-117l-126 371l-119 -371h-117l-167 500h115l114 -395l124 395h107l124 -395zM597 571h-88l-81 107l-81 -107h-88l113 169h112z" />
    <glyph glyph-name="Ycircumflex" unicode="&#x176;" horiz-adv-x="597" 
d="M588 660l-236 -407v-253h-107v253l-235 407h119l118 -213l52 -98l52 98l117 213h120zM462 721h-87l-76 102l-76 -102h-87l107 160h112z" />
    <glyph glyph-name="ycircumflex" unicode="&#x177;" horiz-adv-x="530" 
d="M522 500l-219 -559q-22 -58 -47.5 -92t-58.5 -49t-77 -15q-36 0 -66.5 9.5t-53.5 25.5l26 83q19 -16 40.5 -24t46.5 -8q27 0 48.5 14.5t38.5 57.5l22 54l-53 124l-156 379h120l111 -314l29 -94l33 103l105 305h111zM440 563h-88l-81 107l-81 -107h-88l113 169h112z" />
    <glyph glyph-name="Ydieresis" unicode="&#x178;" horiz-adv-x="597" 
d="M588 660l-236 -407v-253h-107v253l-235 407h119l118 -213l52 -98l52 98l117 213h120zM198 844q30 0 47.5 -17t17.5 -46q0 -28 -17.5 -45.5t-47.5 -17.5q-29 0 -47 17.5t-18 45.5q0 29 18 46t47 17zM400 844q30 0 47.5 -17t17.5 -46q0 -28 -17.5 -45.5t-47.5 -17.5
t-47.5 17.5t-17.5 45.5q0 29 17.5 46t47.5 17z" />
    <glyph glyph-name="Zacute" unicode="&#x179;" horiz-adv-x="631" 
d="M141 54l-19 37h461v-91h-533v87l430 519l19 -37h-440v91h512v-87zM323 897h104l-87 -160h-82z" />
    <glyph glyph-name="zacute" unicode="&#x17a;" horiz-adv-x="529" 
d="M51 0v74l242 282l61 62l-87 -2h-214v84h419v-74l-242 -282l-60 -62l95 2h216v-84h-430zM268 746h108l-99 -168h-82z" />
    <glyph glyph-name="Zdotaccent" unicode="&#x17b;" horiz-adv-x="631" 
d="M141 54l-19 37h461v-91h-533v87l430 519l19 -37h-440v91h512v-87zM310 878q33 0 51.5 -18t18.5 -48q0 -31 -18.5 -48.5t-51.5 -17.5q-32 0 -50.5 17.5t-18.5 48.5q0 30 18.5 48t50.5 18z" />
    <glyph glyph-name="zdotaccent" unicode="&#x17c;" horiz-adv-x="529" 
d="M51 0v74l242 282l61 62l-87 -2h-214v84h419v-74l-242 -282l-60 -62l95 2h216v-84h-430zM252 718q33 0 51.5 -18t18.5 -48q0 -31 -18.5 -48.5t-51.5 -17.5q-32 0 -50.5 17.5t-18.5 48.5q0 30 18.5 48t50.5 18z" />
    <glyph glyph-name="Zcaron" unicode="&#x17d;" horiz-adv-x="631" 
d="M141 54l-19 37h461v-91h-533v87l430 519l19 -37h-440v91h512v-87zM473 897l-107 -160h-112l-107 160h87l76 -102l76 102h87z" />
    <glyph glyph-name="zcaron" unicode="&#x17e;" horiz-adv-x="529" 
d="M51 0v74l242 282l61 62l-87 -2h-214v84h419v-74l-242 -282l-60 -62l95 2h216v-84h-430zM420 746l-113 -168h-112l-113 168h88l81 -107l81 107h88z" />
    <glyph glyph-name="longs" unicode="&#x17f;" horiz-adv-x="280" 
d="M80 0v572q0 51 16.5 86.5t50.5 54.5t85 19q30 0 50.5 -6t32.5 -17l-15 -78q-9 8 -19.5 11t-24.5 3q-33 0 -51.5 -19.5t-18.5 -62.5v-563h-106z" />
    <glyph glyph-name="uni018F" unicode="&#x18f;" horiz-adv-x="711" 
d="M341 -10q-87 0 -153 38t-102 108t-36 166q0 14 1 28t2 29h534v-86h-479l57 39q-1 -10 -1.5 -19t-0.5 -18q0 -61 25 -104t66.5 -65.5t92.5 -22.5q62 0 105 27.5t65.5 83.5t22.5 139q0 77 -24 132t-68 83.5t-107 28.5q-66 0 -109.5 -32.5t-63.5 -94.5l-107 31q21 61 62 103
t97 64t122 22q96 0 165 -41t106 -117t37 -182t-38 -182t-107.5 -117t-163.5 -41z" />
    <glyph glyph-name="florin" unicode="&#x192;" horiz-adv-x="496" 
d="M393 733q32 0 52 -5.5t44 -19.5l-14 -83q-30 21 -68 21q-33 0 -52.5 -20.5t-26.5 -62.5l-86 -533q-13 -78 -54.5 -118t-109.5 -40q-32 0 -52.5 5.5t-44.5 19.5l15 82q29 -21 68 -21q32 0 52 21t26 63l87 532q13 78 54 118.5t110 40.5zM447 405v-84h-398v84h398z" />
    <glyph glyph-name="Ohorn" unicode="&#x1a0;" horiz-adv-x="745" 
d="M658 767q0 -85 -47.5 -132.5t-139.5 -47.5l-16 73q66 0 90 27.5t24 79.5h89zM372 670q96 0 166 -41t108 -117t38 -182t-38 -182t-108 -117t-166 -41q-95 0 -165 41t-108 117t-38 182t38 182t108 117t165 41zM372 577q-62 0 -106.5 -29t-68.5 -84t-24 -134
q0 -78 24 -133.5t68.5 -84.5t106.5 -29q63 0 107.5 29t68.5 84.5t24 133.5q0 79 -24 134t-68.5 84t-107.5 29z" />
    <glyph glyph-name="ohorn" unicode="&#x1a1;" horiz-adv-x="600" 
d="M300 510q73 0 129 -31t87.5 -89.5t31.5 -139.5t-31.5 -139.5t-87.5 -89.5t-129 -31t-129 31t-88 89.5t-32 139.5t32 139.5t88 89.5t129 31zM300 426q-45 0 -76.5 -20.5t-48.5 -59.5t-17 -96q0 -56 17 -95.5t48.5 -60t76.5 -20.5t76 20.5t48 60t17 95.5q0 57 -17 96
t-48 59.5t-76 20.5zM377 432v68q39 0 61.5 27t22.5 89h83q0 -93 -45 -138.5t-122 -45.5z" />
    <glyph glyph-name="Uhorn" unicode="&#x1af;" horiz-adv-x="709" 
d="M624 660v-407q0 -131 -69 -197t-201 -66q-130 0 -199.5 66t-69.5 197v407h107v-394q0 -93 40 -138t122 -45q83 0 123 45t40 138v394h107zM731 767q0 -85 -45.5 -132.5t-130.5 -47.5l-16 73q58 0 80.5 27.5t22.5 79.5h89z" />
    <glyph glyph-name="uhorn" unicode="&#x1b0;" horiz-adv-x="621" 
d="M261 -10q-49 0 -90.5 18t-66.5 58t-25 104v330h107v-303q0 -68 29 -93.5t81 -25.5q25 0 48.5 8.5t42.5 27t29.5 47.5t10.5 68v271h107v-500h-94l-5 81q-26 -47 -70 -69t-104 -22zM469 432v68q39 0 61.5 27t22.5 89h83q0 -93 -45 -138.5t-122 -45.5z" />
    <glyph glyph-name="uni01C4" unicode="&#x1c4;" horiz-adv-x="1341" 
d="M331 660q155 0 241.5 -85.5t86.5 -244.5t-86.5 -244.5t-241.5 -85.5h-233v660h233zM331 91q105 0 160.5 62.5t55.5 176.5t-55.5 176.5t-160.5 62.5h-126v-478h126zM850 54l-19 37h461v-91h-533v87l430 519l19 -37h-440v91h512v-87zM1183 897l-107 -160h-112l-107 160h87
l76 -102l76 102h87z" />
    <glyph glyph-name="uni01C5" unicode="&#x1c5;" horiz-adv-x="1244" 
d="M331 660q155 0 241.5 -85.5t86.5 -244.5t-86.5 -244.5t-241.5 -85.5h-233v660h233zM331 91q105 0 160.5 62.5t55.5 176.5t-55.5 176.5t-160.5 62.5h-126v-478h126zM766 0v74l242 282l61 62l-87 -2h-214v84h419v-74l-242 -282l-60 -62l95 2h216v-84h-430zM1135 746
l-113 -168h-112l-113 168h88l81 -107l81 107h88z" />
    <glyph glyph-name="uni01C6" unicode="&#x1c6;" horiz-adv-x="1156" 
d="M275 -10q-62 0 -112.5 31t-79.5 89t-29 139q0 84 31 142t83 88.5t114 30.5q64 0 108 -35t59 -91l-12 -11v352h107v-725h-95l-8 136l14 -1q-7 -45 -33 -77.5t-64.5 -50t-82.5 -17.5zM298 76q43 0 74 22t48 62t17 96q0 52 -17 89.5t-47.5 57.5t-70.5 20q-67 0 -104 -46
t-37 -127t36 -127.5t101 -46.5zM678 0v74l242 282l61 62l-87 -2h-214v84h419v-74l-242 -282l-60 -62l95 2h216v-84h-430zM1047 746l-113 -168h-112l-113 168h88l81 -107l81 107h88z" />
    <glyph glyph-name="uni01C7" unicode="&#x1c7;" horiz-adv-x="1181" 
d="M205 92h364v-92h-471v660h107v-568zM1092 660v-426q0 -115 -63.5 -179.5t-176.5 -64.5q-81 0 -132 30t-71 84.5t-7 126.5l103 19q-12 -86 13 -126.5t94 -40.5q75 0 103.5 43.5t28.5 127.5v406h108z" />
    <glyph glyph-name="uni01C8" unicode="&#x1c8;" horiz-adv-x="873" 
d="M205 92h364v-92h-471v660h107v-568zM736 584q-35 0 -53.5 17.5t-18.5 49.5t18.5 49t53.5 17q34 0 52.5 -17t18.5 -49t-18.5 -49.5t-52.5 -17.5zM789 500v-544q0 -64 -23.5 -101.5t-61 -53.5t-79.5 -16q-34 0 -62 9t-47 24l18 86q14 -12 33.5 -20t43.5 -8q32 0 51.5 20.5
t19.5 69.5v534h107z" />
    <glyph glyph-name="uni01C9" unicode="&#x1c9;" horiz-adv-x="586" 
d="M187 725v-585q0 -37 13 -51t43 -14q18 0 30.5 2.5t31.5 9.5l-12 -80q-17 -8 -39 -12.5t-44 -4.5q-67 0 -98.5 34.5t-31.5 106.5v594h107zM449 584q-35 0 -53.5 17.5t-18.5 49.5t18.5 49t53.5 17q34 0 52.5 -17t18.5 -49t-18.5 -49.5t-52.5 -17.5zM502 500v-544
q0 -64 -23.5 -101.5t-61 -53.5t-79.5 -16q-34 0 -62 9t-47 24l18 86q14 -12 33.5 -20t43.5 -8q32 0 51.5 20.5t19.5 69.5v534h107z" />
    <glyph glyph-name="uni01CA" unicode="&#x1ca;" horiz-adv-x="1318" 
d="M639 660v-660h-127l-255 416l-64 117h-1l4 -107v-426h-98v660h126l254 -415l65 -119h1l-4 108v426h99zM1229 660v-426q0 -115 -63.5 -179.5t-176.5 -64.5q-81 0 -132 30t-71 84.5t-7 126.5l103 19q-12 -86 13 -126.5t94 -40.5q75 0 103.5 43.5t28.5 127.5v406h108z" />
    <glyph glyph-name="uni01CB" unicode="&#x1cb;" horiz-adv-x="1010" 
d="M639 660v-660h-127l-255 416l-64 117h-1l4 -107v-426h-98v660h126l254 -415l65 -119h1l-4 108v426h99zM873 584q-35 0 -53.5 17.5t-18.5 49.5t18.5 49t53.5 17q34 0 52.5 -17t18.5 -49t-18.5 -49.5t-52.5 -17.5zM926 500v-544q0 -64 -23.5 -101.5t-61 -53.5t-79.5 -16
q-34 0 -62 9t-47 24l18 86q14 -12 33.5 -20t43.5 -8q32 0 51.5 20.5t19.5 69.5v534h107z" />
    <glyph glyph-name="uni01CC" unicode="&#x1cc;" horiz-adv-x="893" 
d="M83 0v500h95l7 -130l-14 14q14 43 40.5 71.5t63 41.5t77.5 13q53 0 95.5 -20.5t67.5 -61.5t25 -104v-324h-107v291q0 74 -30.5 102.5t-76.5 28.5q-33 0 -64 -15.5t-51.5 -49.5t-20.5 -91v-266h-107zM756 584q-35 0 -53.5 17.5t-18.5 49.5t18.5 49t53.5 17q34 0 52.5 -17
t18.5 -49t-18.5 -49.5t-52.5 -17.5zM809 500v-544q0 -64 -23.5 -101.5t-61 -53.5t-79.5 -16q-34 0 -62 9t-47 24l18 86q14 -12 33.5 -20t43.5 -8q32 0 51.5 20.5t19.5 69.5v534h107z" />
    <glyph glyph-name="Gcaron" unicode="&#x1e6;" horiz-adv-x="724" 
d="M366 -10q-93 0 -161 41t-106 116.5t-38 182.5q0 105 39.5 181t112 117.5t166.5 41.5q103 0 166.5 -38t101.5 -118l-99 -47q-19 55 -62.5 82.5t-105.5 27.5t-108.5 -29t-72.5 -84.5t-26 -133.5q0 -79 23 -134.5t69.5 -84.5t114.5 -29q37 0 69 9.5t56 28t37.5 47t13.5 67.5
v19h-192v87h287v-340h-80l-6 133l20 -10q-24 -63 -79.5 -98t-139.5 -35zM534 897l-107 -160h-112l-107 160h87l76 -102l76 102h87z" />
    <glyph glyph-name="gcaron" unicode="&#x1e7;" horiz-adv-x="540" 
d="M523 605l17 -84q-3 0 -6 0.5t-6 0.5q-48 0 -73 -20.5t-25 -59.5l-52 24q0 40 17 71.5t48.5 49.5t71.5 18h4h4zM365 78q76 0 118 -33.5t42 -92.5q0 -52 -33 -89.5t-89.5 -57.5t-129.5 -20q-123 0 -182 38t-59 95q0 40 28.5 70t96.5 34l-6 -16q-42 9 -67.5 32.5t-25.5 66.5
t33 73t93 35l56 -27h-12q-46 -4 -65 -21t-19 -38q0 -25 18.5 -37t52.5 -12h150zM273 -135q55 0 90.5 10.5t53 27t17.5 36.5q0 23 -18.5 37t-66.5 14h-161q-28 0 -47 -14.5t-19 -39.5q0 -33 40 -52t111 -19zM269 510q66 0 114.5 -21t75 -59t26.5 -89t-26.5 -89t-75 -59
t-114.5 -21q-104 0 -159.5 46.5t-55.5 122.5q0 51 27 89t75.5 59t112.5 21zM269 435q-46 0 -76.5 -25.5t-30.5 -68.5t30.5 -69t76.5 -26q47 0 77.5 26t30.5 69t-30.5 68.5t-77.5 25.5zM433 746l-113 -168h-112l-113 168h88l81 -107l81 107h88z" />
    <glyph glyph-name="uni01EA" unicode="&#x1ea;" horiz-adv-x="745" 
d="M372 670q96 0 166 -41t108 -117t38 -182t-38 -182t-108 -117t-166 -41q-95 0 -165 41t-108 117t-38 182t38 182t108 117t165 41zM372 577q-62 0 -106.5 -29t-68.5 -84t-24 -134q0 -78 24 -133.5t68.5 -84.5t106.5 -29q63 0 107.5 29t68.5 84.5t24 133.5q0 79 -24 134
t-68.5 84t-107.5 29zM406 -223q-59 0 -91 29t-32 77q0 56 37.5 89t110.5 56l51 -21q-51 -18 -77 -35.5t-35.5 -35.5t-9.5 -39q0 -24 16.5 -37.5t43.5 -13.5q14 0 27.5 3t24.5 8l14 -63q-15 -8 -36 -12.5t-44 -4.5z" />
    <glyph glyph-name="uni01EB" unicode="&#x1eb;" horiz-adv-x="600" 
d="M300 510q73 0 129 -31t87.5 -89.5t31.5 -139.5t-31.5 -139.5t-87.5 -89.5t-129 -31t-129 31t-88 89.5t-32 139.5t32 139.5t88 89.5t129 31zM300 426q-45 0 -76.5 -20.5t-48.5 -59.5t-17 -96q0 -56 17 -95.5t48.5 -60t76.5 -20.5t76 20.5t48 60t17 95.5q0 57 -17 96
t-48 59.5t-76 20.5zM337 -217q-59 0 -91 29t-32 77q0 56 37.5 89t110.5 56l51 -21q-51 -18 -77 -35.5t-35.5 -35.5t-9.5 -39q0 -24 16.5 -37.5t43.5 -13.5q14 0 27.5 3t24.5 8l14 -63q-15 -8 -36 -12.5t-44 -4.5z" />
    <glyph glyph-name="uni01F1" unicode="&#x1f1;" horiz-adv-x="1341" 
d="M331 660q155 0 241.5 -85.5t86.5 -244.5t-86.5 -244.5t-241.5 -85.5h-233v660h233zM331 91q105 0 160.5 62.5t55.5 176.5t-55.5 176.5t-160.5 62.5h-126v-478h126zM850 54l-19 37h461v-91h-533v87l430 519l19 -37h-440v91h512v-87z" />
    <glyph glyph-name="uni01F2" unicode="&#x1f2;" horiz-adv-x="1244" 
d="M331 660q155 0 241.5 -85.5t86.5 -244.5t-86.5 -244.5t-241.5 -85.5h-233v660h233zM331 91q105 0 160.5 62.5t55.5 176.5t-55.5 176.5t-160.5 62.5h-126v-478h126zM766 0v74l242 282l61 62l-87 -2h-214v84h419v-74l-242 -282l-60 -62l95 2h216v-84h-430z" />
    <glyph glyph-name="uni01F3" unicode="&#x1f3;" horiz-adv-x="1156" 
d="M275 -10q-62 0 -112.5 31t-79.5 89t-29 139q0 84 31 142t83 88.5t114 30.5q64 0 108 -35t59 -91l-12 -11v352h107v-725h-95l-8 136l14 -1q-7 -45 -33 -77.5t-64.5 -50t-82.5 -17.5zM298 76q43 0 74 22t48 62t17 96q0 52 -17 89.5t-47.5 57.5t-70.5 20q-67 0 -104 -46
t-37 -127t36 -127.5t101 -46.5zM678 0v74l242 282l61 62l-87 -2h-214v84h419v-74l-242 -282l-60 -62l95 2h216v-84h-430z" />
    <glyph glyph-name="Aringacute" unicode="&#x1fa;" horiz-adv-x="665" 
d="M20 0l249 660h128l249 -660h-113l-170 472l-30 95h-3l-28 -93l-172 -474h-110zM153 173v87h357v-87h-357zM332 845q58 0 93.5 -33t35.5 -87t-35.5 -87.5t-93.5 -33.5q-59 0 -95 33.5t-36 87.5t36 87t95 33zM332 789q-29 0 -47.5 -18t-18.5 -46t18.5 -46t47.5 -18t47 18
t18 46t-18 46t-47 18zM349 1054h104l-87 -160h-82z" />
    <glyph glyph-name="aringacute" unicode="&#x1fb;" horiz-adv-x="570" 
d="M372 321q0 50 -27.5 77.5t-75.5 27.5q-45 0 -77 -21t-47 -68l-90 38q19 61 74.5 98t143.5 37q60 0 106 -19.5t72.5 -58.5t26.5 -100v-223q0 -37 37 -37q18 0 35 5l-6 -74q-23 -11 -58 -11q-32 0 -57.5 11.5t-40 35t-14.5 58.5v7l22 1q-9 -39 -37 -64.5t-65 -38t-75 -12.5
q-47 0 -84.5 15t-59 45.5t-21.5 75.5q0 56 36.5 92t103.5 49l194 38l-1 -75l-141 -29q-42 -8 -63 -23t-21 -44q0 -28 21.5 -44.5t57.5 -16.5q25 0 48.5 6t42.5 19.5t29.5 35t10.5 51.5v136zM274 809q58 0 93.5 -33t35.5 -87t-35.5 -87.5t-93.5 -33.5q-59 0 -95 33.5
t-36 87.5t36 87t95 33zM274 753q-29 0 -47.5 -18t-18.5 -46t18.5 -46t47.5 -18t47 18t18 46t-18 46t-47 18zM235 847l53 137h103l-76 -137h-80z" />
    <glyph glyph-name="AEacute" unicode="&#x1fc;" horiz-adv-x="945" 
d="M546 90h353v-90h-457v208h-218l-109 -208h-112l355 660h527v-90h-339v-192h258v-89h-258v-199zM266 294h176v277h-26zM507 897h104l-87 -160h-82z" />
    <glyph glyph-name="aeacute" unicode="&#x1fd;" horiz-adv-x="891" 
d="M224 -10q-49 0 -87.5 15t-61 45.5t-22.5 75.5q0 56 36.5 91.5t101.5 48.5l181 36v19q0 50 -28.5 77.5t-74.5 27.5q-42 0 -74.5 -21t-49.5 -68l-88 38q11 40 40.5 70.5t73 47.5t96.5 17q69 0 119 -27.5t69 -87.5l-33 2q19 36 48.5 61t67.5 38.5t82 13.5q69 0 118 -30
t75 -82t26 -118q0 -17 -1 -32t-3 -30h-357v0q3 -70 44 -106.5t101 -36.5q45 0 74 19t48 53l85 -40q-18 -36 -48 -62.5t-70 -40.5t-87 -14q-79 0 -136 37t-81 108l28 3q-4 -33 -23 -60t-48 -47t-65 -30.5t-76 -10.5zM243 73q25 0 48.5 6.5t41.5 20t28.5 34t10.5 49.5v44
l-126 -26q-43 -8 -63 -23.5t-20 -43.5q0 -26 20 -43.5t60 -17.5zM480 300h255q-1 40 -17 68t-42 42.5t-61 14.5q-55 0 -90 -32.5t-45 -92.5zM459 746h108l-99 -168h-82z" />
    <glyph glyph-name="Oslashacute" unicode="&#x1fe;" horiz-adv-x="745" 
d="M236 78l-47 38l315 447l48 -36zM80 -34l104 145l48 -38l-78 -107h-74zM559 535l-48 37l81 110h73zM372 670q96 0 166 -41t108 -117t38 -182t-38 -182t-108 -117t-166 -41q-95 0 -165 41t-108 117t-38 182t38 182t108 117t165 41zM372 577q-62 0 -106.5 -29t-68.5 -84
t-24 -134q0 -78 24 -133.5t68.5 -84.5t106.5 -29q63 0 107.5 29t68.5 84.5t24 133.5q0 79 -24 134t-68.5 84t-107.5 29zM385 897h104l-87 -160h-82z" />
    <glyph glyph-name="oslashacute" unicode="&#x1ff;" horiz-adv-x="600" 
d="M300 510q73 0 129 -31t87.5 -89.5t31.5 -139.5t-31.5 -139.5t-87.5 -89.5t-129 -31t-129 31t-88 89.5t-32 139.5t32 139.5t88 89.5t129 31zM300 426q-45 0 -76.5 -20.5t-48.5 -59.5t-17 -96q0 -56 17 -95.5t48.5 -60t76.5 -20.5t76 20.5t48 60t17 95.5q0 57 -17 96
t-48 59.5t-76 20.5zM52 -28l429 556h67l-429 -556h-67zM316 746h108l-99 -168h-82z" />
    <glyph glyph-name="uni0200" unicode="&#x200;" horiz-adv-x="665" 
d="M20 0l249 660h128l249 -660h-113l-170 472l-30 95h-3l-28 -93l-172 -474h-110zM153 173v87h357v-87h-357zM215 897l65 -160h-82l-87 160h104zM406 897l65 -160h-82l-87 160h104z" />
    <glyph glyph-name="uni0201" unicode="&#x201;" horiz-adv-x="570" 
d="M372 321q0 50 -27.5 77.5t-75.5 27.5q-45 0 -77 -21t-47 -68l-90 38q19 61 74.5 98t143.5 37q60 0 106 -19.5t72.5 -58.5t26.5 -100v-223q0 -37 37 -37q18 0 35 5l-6 -74q-23 -11 -58 -11q-32 0 -57.5 11.5t-40 35t-14.5 58.5v7l22 1q-9 -39 -37 -64.5t-65 -38t-75 -12.5
q-47 0 -84.5 15t-59 45.5t-21.5 75.5q0 56 36.5 92t103.5 49l194 38l-1 -75l-141 -29q-42 -8 -63 -23t-21 -44q0 -28 21.5 -44.5t57.5 -16.5q25 0 48.5 6t42.5 19.5t29.5 35t10.5 51.5v136zM233 578h-81l-97 168h104zM420 578h-81l-97 168h104z" />
    <glyph glyph-name="uni0202" unicode="&#x202;" horiz-adv-x="665" 
d="M20 0l249 660h128l249 -660h-113l-170 472l-30 95h-3l-28 -93l-172 -474h-110zM153 173v87h357v-87h-357zM487 730h-78q-1 34 -19.5 58t-56.5 24q-37 0 -56 -24t-20 -58h-78q0 69 42.5 111t111.5 42q70 0 112 -42t42 -111z" />
    <glyph glyph-name="uni0203" unicode="&#x203;" horiz-adv-x="570" 
d="M372 321q0 50 -27.5 77.5t-75.5 27.5q-45 0 -77 -21t-47 -68l-90 38q19 61 74.5 98t143.5 37q60 0 106 -19.5t72.5 -58.5t26.5 -100v-223q0 -37 37 -37q18 0 35 5l-6 -74q-23 -11 -58 -11q-32 0 -57.5 11.5t-40 35t-14.5 58.5v7l22 1q-9 -39 -37 -64.5t-65 -38t-75 -12.5
q-47 0 -84.5 15t-59 45.5t-21.5 75.5q0 56 36.5 92t103.5 49l194 38l-1 -75l-141 -29q-42 -8 -63 -23t-21 -44q0 -28 21.5 -44.5t57.5 -16.5q25 0 48.5 6t42.5 19.5t29.5 35t10.5 51.5v136zM430 570h-78q-1 34 -19.5 58t-56.5 24q-37 0 -56 -24t-20 -58h-78q0 69 42.5 111
t111.5 42q70 0 112 -42t42 -111z" />
    <glyph glyph-name="uni0204" unicode="&#x204;" horiz-adv-x="636" 
d="M98 0v660h478v-92h-371v-190h290v-90h-290v-196h385v-92h-492zM219 897l65 -160h-82l-87 160h104zM410 897l65 -160h-82l-87 160h104z" />
    <glyph glyph-name="uni0205" unicode="&#x205;" horiz-adv-x="578" 
d="M303 -10q-75 0 -132 31t-88.5 89.5t-31.5 139.5t31.5 139.5t87.5 89.5t127 31q73 0 124 -30t78 -82t27 -118q0 -18 -1 -34t-3 -28h-402v82h355l-53 -16q0 68 -34 104.5t-93 36.5q-43 0 -75 -20t-49 -59.5t-17 -96.5q0 -56 18 -95t51 -59t78 -20q50 0 81 19t49 53l85 -40
q-18 -36 -48.5 -62.5t-72.5 -40.5t-92 -14zM249 578h-81l-97 168h104zM436 578h-81l-97 168h104z" />
    <glyph glyph-name="uni0206" unicode="&#x206;" horiz-adv-x="636" 
d="M98 0v660h478v-92h-371v-190h290v-90h-290v-196h385v-92h-492zM491 730h-78q-1 34 -19.5 58t-56.5 24q-37 0 -56 -24t-20 -58h-78q0 69 42.5 111t111.5 42q70 0 112 -42t42 -111z" />
    <glyph glyph-name="uni0207" unicode="&#x207;" horiz-adv-x="578" 
d="M303 -10q-75 0 -132 31t-88.5 89.5t-31.5 139.5t31.5 139.5t87.5 89.5t127 31q73 0 124 -30t78 -82t27 -118q0 -18 -1 -34t-3 -28h-402v82h355l-53 -16q0 68 -34 104.5t-93 36.5q-43 0 -75 -20t-49 -59.5t-17 -96.5q0 -56 18 -95t51 -59t78 -20q50 0 81 19t49 53l85 -40
q-18 -36 -48.5 -62.5t-72.5 -40.5t-92 -14zM446 570h-78q-1 34 -19.5 58t-56.5 24q-37 0 -56 -24t-20 -58h-78q0 69 42.5 111t111.5 42q70 0 112 -42t42 -111z" />
    <glyph glyph-name="uni0208" unicode="&#x208;" horiz-adv-x="303" 
d="M205 660v-660h-107v660h107zM33 897l65 -160h-82l-87 160h104zM224 897l65 -160h-82l-87 160h104z" />
    <glyph glyph-name="uni0209" unicode="&#x209;" horiz-adv-x="274" 
d="M190 500v-500h-107v500h107zM94 578h-81l-97 168h104zM281 578h-81l-97 168h104z" />
    <glyph glyph-name="uni020A" unicode="&#x20a;" horiz-adv-x="303" 
d="M205 660v-660h-107v660h107zM305 730h-78q-1 34 -19.5 58t-56.5 24q-37 0 -56 -24t-20 -58h-78q0 69 42.5 111t111.5 42q70 0 112 -42t42 -111z" />
    <glyph glyph-name="uni020B" unicode="&#x20b;" horiz-adv-x="274" 
d="M190 500v-500h-107v500h107zM291 570h-78q-1 34 -19.5 58t-56.5 24q-37 0 -56 -24t-20 -58h-78q0 69 42.5 111t111.5 42q70 0 112 -42t42 -111z" />
    <glyph glyph-name="uni020C" unicode="&#x20c;" horiz-adv-x="745" 
d="M372 670q96 0 166 -41t108 -117t38 -182t-38 -182t-108 -117t-166 -41q-95 0 -165 41t-108 117t-38 182t38 182t108 117t165 41zM372 577q-62 0 -106.5 -29t-68.5 -84t-24 -134q0 -78 24 -133.5t68.5 -84.5t106.5 -29q63 0 107.5 29t68.5 84.5t24 133.5q0 79 -24 134
t-68.5 84t-107.5 29zM254 897l65 -160h-82l-87 160h104zM445 897l65 -160h-82l-87 160h104z" />
    <glyph glyph-name="uni020D" unicode="&#x20d;" horiz-adv-x="600" 
d="M300 510q73 0 129 -31t87.5 -89.5t31.5 -139.5t-31.5 -139.5t-87.5 -89.5t-129 -31t-129 31t-88 89.5t-32 139.5t32 139.5t88 89.5t129 31zM300 426q-45 0 -76.5 -20.5t-48.5 -59.5t-17 -96q0 -56 17 -95.5t48.5 -60t76.5 -20.5t76 20.5t48 60t17 95.5q0 57 -17 96
t-48 59.5t-76 20.5zM257 578h-81l-97 168h104zM444 578h-81l-97 168h104z" />
    <glyph glyph-name="uni020E" unicode="&#x20e;" horiz-adv-x="745" 
d="M372 670q96 0 166 -41t108 -117t38 -182t-38 -182t-108 -117t-166 -41q-95 0 -165 41t-108 117t-38 182t38 182t108 117t165 41zM372 577q-62 0 -106.5 -29t-68.5 -84t-24 -134q0 -78 24 -133.5t68.5 -84.5t106.5 -29q63 0 107.5 29t68.5 84.5t24 133.5q0 79 -24 134
t-68.5 84t-107.5 29zM526 730h-78q-1 34 -19.5 58t-56.5 24q-37 0 -56 -24t-20 -58h-78q0 69 42.5 111t111.5 42q70 0 112 -42t42 -111z" />
    <glyph glyph-name="uni020F" unicode="&#x20f;" horiz-adv-x="600" 
d="M300 510q73 0 129 -31t87.5 -89.5t31.5 -139.5t-31.5 -139.5t-87.5 -89.5t-129 -31t-129 31t-88 89.5t-32 139.5t32 139.5t88 89.5t129 31zM300 426q-45 0 -76.5 -20.5t-48.5 -59.5t-17 -96q0 -56 17 -95.5t48.5 -60t76.5 -20.5t76 20.5t48 60t17 95.5q0 57 -17 96
t-48 59.5t-76 20.5zM454 570h-78q-1 34 -19.5 58t-56.5 24q-37 0 -56 -24t-20 -58h-78q0 69 42.5 111t111.5 42q70 0 112 -42t42 -111z" />
    <glyph glyph-name="uni0210" unicode="&#x210;" horiz-adv-x="672" 
d="M367 660q106 0 168.5 -53t62.5 -143q0 -93 -62.5 -143.5t-168.5 -50.5l-10 -6h-153v-264h-106v660h269zM359 353q65 0 96.5 26.5t31.5 81.5q0 54 -31.5 81t-96.5 27h-155v-216h155zM422 331l215 -331h-123l-184 289zM206 897l65 -160h-82l-87 160h104zM397 897l65 -160
h-82l-87 160h104z" />
    <glyph glyph-name="uni0211" unicode="&#x211;" horiz-adv-x="414" 
d="M83 0v500h91l10 -90q20 49 59.5 74.5t97.5 25.5q15 0 30 -2.5t25 -7.5l-15 -94q-11 4 -24.5 6.5t-36.5 2.5q-31 0 -61 -16.5t-49.5 -49.5t-19.5 -84v-265h-107zM195 578h-81l-97 168h104zM382 578h-81l-97 168h104z" />
    <glyph glyph-name="uni0212" unicode="&#x212;" horiz-adv-x="672" 
d="M367 660q106 0 168.5 -53t62.5 -143q0 -93 -62.5 -143.5t-168.5 -50.5l-10 -6h-153v-264h-106v660h269zM359 353q65 0 96.5 26.5t31.5 81.5q0 54 -31.5 81t-96.5 27h-155v-216h155zM422 331l215 -331h-123l-184 289zM478 730h-78q-1 34 -19.5 58t-56.5 24q-37 0 -56 -24
t-20 -58h-78q0 69 42.5 111t111.5 42q70 0 112 -42t42 -111z" />
    <glyph glyph-name="uni0213" unicode="&#x213;" horiz-adv-x="414" 
d="M83 0v500h91l10 -90q20 49 59.5 74.5t97.5 25.5q15 0 30 -2.5t25 -7.5l-15 -94q-11 4 -24.5 6.5t-36.5 2.5q-31 0 -61 -16.5t-49.5 -49.5t-19.5 -84v-265h-107zM392 570h-78q-1 34 -19.5 58t-56.5 24q-37 0 -56 -24t-20 -58h-78q0 69 42.5 111t111.5 42q70 0 112 -42
t42 -111z" />
    <glyph glyph-name="uni0214" unicode="&#x214;" horiz-adv-x="709" 
d="M624 660v-407q0 -131 -69 -197t-201 -66q-130 0 -199.5 66t-69.5 197v407h107v-394q0 -93 40 -138t122 -45q83 0 123 45t40 138v394h107zM236 876l65 -160h-82l-87 160h104zM427 876l65 -160h-82l-87 160h104z" />
    <glyph glyph-name="uni0215" unicode="&#x215;" horiz-adv-x="618" 
d="M261 -10q-49 0 -90.5 18t-66.5 58t-25 104v330h107v-303q0 -68 29 -93.5t81 -25.5q25 0 48.5 8.5t42.5 27t29.5 47.5t10.5 68v271h107v-500h-94l-5 81q-26 -47 -70 -69t-104 -22zM263 570h-81l-97 168h104zM450 570h-81l-97 168h104z" />
    <glyph glyph-name="uni0216" unicode="&#x216;" horiz-adv-x="709" 
d="M624 660v-407q0 -131 -69 -197t-201 -66q-130 0 -199.5 66t-69.5 197v407h107v-394q0 -93 40 -138t122 -45q83 0 123 45t40 138v394h107zM508 709h-78q-1 34 -19.5 58t-56.5 24q-37 0 -56 -24t-20 -58h-78q0 69 42.5 111t111.5 42q70 0 112 -42t42 -111z" />
    <glyph glyph-name="uni0217" unicode="&#x217;" horiz-adv-x="618" 
d="M261 -10q-49 0 -90.5 18t-66.5 58t-25 104v330h107v-303q0 -68 29 -93.5t81 -25.5q25 0 48.5 8.5t42.5 27t29.5 47.5t10.5 68v271h107v-500h-94l-5 81q-26 -47 -70 -69t-104 -22zM460 562h-78q-1 34 -19.5 58t-56.5 24q-37 0 -56 -24t-20 -58h-78q0 69 42.5 111t111.5 42
q70 0 112 -42t42 -111z" />
    <glyph glyph-name="uni0218" unicode="&#x218;" horiz-adv-x="642" 
d="M323 670q89 0 154 -33.5t110 -98.5l-72 -69q-38 58 -85.5 83.5t-112.5 25.5q-48 0 -79 -13t-45.5 -34.5t-14.5 -48.5q0 -31 21.5 -54t80.5 -36l134 -30q96 -21 136 -64t40 -109q0 -61 -33 -106t-91.5 -69t-137.5 -24q-70 0 -126 18t-98 49t-69 71l74 74q21 -35 53 -62.5
t74.5 -42.5t94.5 -15q46 0 79.5 11t51 32.5t17.5 51.5q0 29 -19.5 51t-72.5 34l-145 33q-60 13 -99 37t-58 58.5t-19 77.5q0 56 30.5 101.5t88.5 73t138 27.5zM372 -71l-67 -167h-77l40 167h104z" />
    <glyph glyph-name="uni0219" unicode="&#x219;" horiz-adv-x="529" 
d="M273 -10q-75 0 -137 29t-98 82l74 64q22 -41 63.5 -65.5t99.5 -24.5q46 0 73 16t27 45q0 19 -12.5 33.5t-47.5 22.5l-105 22q-80 16 -114 51.5t-34 90.5q0 41 24 76t70.5 56.5t111.5 21.5q75 0 128 -26.5t81 -75.5l-74 -62q-19 40 -56 59.5t-77 19.5q-32 0 -55 -8
t-35 -22t-12 -33q0 -20 15 -35t54 -23l114 -24q72 -14 101.5 -47.5t29.5 -81.5t-25 -84.5t-72 -56.5t-112 -20zM322 -71l-67 -167h-77l40 167h104z" />
    <glyph glyph-name="uni021A" unicode="&#x21a;" horiz-adv-x="619" 
d="M589 660v-92h-226v-568h-107v568h-226v92h559zM371 -71l-67 -167h-77l40 167h104z" />
    <glyph glyph-name="uni021B" unicode="&#x21b;" horiz-adv-x="424" 
d="M229 647v-497q0 -37 19.5 -54t52.5 -17q27 0 47 8.5t37 23.5l24 -78q-23 -20 -56.5 -31.5t-74.5 -11.5q-43 0 -79 14t-56 45.5t-21 82.5v485zM401 500v-84h-375v84h375zM307 -71l-67 -167h-77l40 167h104z" />
    <glyph glyph-name="uni022A" unicode="&#x22a;" horiz-adv-x="745" 
d="M372 670q96 0 166 -41t108 -117t38 -182t-38 -182t-108 -117t-166 -41q-95 0 -165 41t-108 117t-38 182t38 182t108 117t165 41zM372 577q-62 0 -106.5 -29t-68.5 -84t-24 -134q0 -78 24 -133.5t68.5 -84.5t106.5 -29q63 0 107.5 29t68.5 84.5t24 133.5q0 79 -24 134
t-68.5 84t-107.5 29zM271 860q30 0 47.5 -17t17.5 -46q0 -28 -17.5 -45.5t-47.5 -17.5q-29 0 -47 17.5t-18 45.5q0 29 18 46t47 17zM473 860q30 0 47.5 -17t17.5 -46q0 -28 -17.5 -45.5t-47.5 -17.5t-47.5 17.5t-17.5 45.5q0 29 17.5 46t47.5 17zM541 1001v-78h-338v78h338z
" />
    <glyph glyph-name="uni022B" unicode="&#x22b;" horiz-adv-x="600" 
d="M300 510q73 0 129 -31t87.5 -89.5t31.5 -139.5t-31.5 -139.5t-87.5 -89.5t-129 -31t-129 31t-88 89.5t-32 139.5t32 139.5t88 89.5t129 31zM300 426q-45 0 -76.5 -20.5t-48.5 -59.5t-17 -96q0 -56 17 -95.5t48.5 -60t76.5 -20.5t76 20.5t48 60t17 95.5q0 57 -17 96
t-48 59.5t-76 20.5zM199 700q30 0 47.5 -17t17.5 -46q0 -28 -17.5 -45.5t-47.5 -17.5q-29 0 -47 17.5t-18 45.5q0 29 18 46t47 17zM401 700q30 0 47.5 -17t17.5 -46q0 -28 -17.5 -45.5t-47.5 -17.5t-47.5 17.5t-17.5 45.5q0 29 17.5 46t47.5 17zM469 841v-78h-338v78h338z
" />
    <glyph glyph-name="uni022C" unicode="&#x22c;" horiz-adv-x="745" 
d="M372 670q96 0 166 -41t108 -117t38 -182t-38 -182t-108 -117t-166 -41q-95 0 -165 41t-108 117t-38 182t38 182t108 117t165 41zM372 577q-62 0 -106.5 -29t-68.5 -84t-24 -134q0 -78 24 -133.5t68.5 -84.5t106.5 -29q63 0 107.5 29t68.5 84.5t24 133.5q0 79 -24 134
t-68.5 84t-107.5 29zM557 877q-2 -47 -16.5 -78.5t-39 -47t-59.5 -15.5q-28 0 -47.5 10t-34 22.5t-28 22.5t-28.5 10q-21 0 -31.5 -17.5t-14.5 -48.5h-73q4 71 34 106.5t84 35.5q27 0 46.5 -10t34 -22.5t27 -22.5t27.5 -10q21 0 31.5 17.5t15.5 47.5h72zM541 1026v-78h-338
v78h338z" />
    <glyph glyph-name="uni022D" unicode="&#x22d;" horiz-adv-x="600" 
d="M300 510q73 0 129 -31t87.5 -89.5t31.5 -139.5t-31.5 -139.5t-87.5 -89.5t-129 -31t-129 31t-88 89.5t-32 139.5t32 139.5t88 89.5t129 31zM300 426q-45 0 -76.5 -20.5t-48.5 -59.5t-17 -96q0 -56 17 -95.5t48.5 -60t76.5 -20.5t76 20.5t48 60t17 95.5q0 57 -17 96
t-48 59.5t-76 20.5zM485 717q-2 -47 -16.5 -78.5t-39 -47t-59.5 -15.5q-28 0 -47.5 10t-34 22.5t-28 22.5t-28.5 10q-21 0 -31.5 -17.5t-14.5 -48.5h-73q4 71 34 106.5t84 35.5q27 0 46.5 -10t34 -22.5t27 -22.5t27.5 -10q21 0 31.5 17.5t15.5 47.5h72zM468 866v-78h-338v78
h338z" />
    <glyph glyph-name="uni0230" unicode="&#x230;" horiz-adv-x="745" 
d="M372 670q96 0 166 -41t108 -117t38 -182t-38 -182t-108 -117t-166 -41q-95 0 -165 41t-108 117t-38 182t38 182t108 117t165 41zM372 577q-62 0 -106.5 -29t-68.5 -84t-24 -134q0 -78 24 -133.5t68.5 -84.5t106.5 -29q63 0 107.5 29t68.5 84.5t24 133.5q0 79 -24 134
t-68.5 84t-107.5 29zM372 878q33 0 51.5 -18t18.5 -48q0 -31 -18.5 -48.5t-51.5 -17.5q-32 0 -50.5 17.5t-18.5 48.5q0 30 18.5 48t50.5 18zM542 1018v-78h-338v78h338z" />
    <glyph glyph-name="uni0231" unicode="&#x231;" horiz-adv-x="600" 
d="M300 510q73 0 129 -31t87.5 -89.5t31.5 -139.5t-31.5 -139.5t-87.5 -89.5t-129 -31t-129 31t-88 89.5t-32 139.5t32 139.5t88 89.5t129 31zM300 426q-45 0 -76.5 -20.5t-48.5 -59.5t-17 -96q0 -56 17 -95.5t48.5 -60t76.5 -20.5t76 20.5t48 60t17 95.5q0 57 -17 96
t-48 59.5t-76 20.5zM300 718q33 0 51.5 -18t18.5 -48q0 -31 -18.5 -48.5t-51.5 -17.5q-32 0 -50.5 17.5t-18.5 48.5q0 30 18.5 48t50.5 18zM469 858v-78h-338v78h338z" />
    <glyph glyph-name="uni0232" unicode="&#x232;" horiz-adv-x="597" 
d="M588 660l-236 -407v-253h-107v253l-235 407h119l118 -213l52 -98l52 98l117 213h120zM468 810v-78h-338v78h338z" />
    <glyph glyph-name="uni0233" unicode="&#x233;" horiz-adv-x="530" 
d="M522 500l-219 -559q-22 -58 -47.5 -92t-58.5 -49t-77 -15q-36 0 -66.5 9.5t-53.5 25.5l26 83q19 -16 40.5 -24t46.5 -8q27 0 48.5 14.5t38.5 57.5l22 54l-53 124l-156 379h120l111 -314l29 -94l33 103l105 305h111zM440 658v-78h-338v78h338z" />
    <glyph glyph-name="uni0237" unicode="&#x237;" horiz-adv-x="274" 
d="M190 500v-544q0 -64 -23.5 -101.5t-61 -53.5t-79.5 -16q-34 0 -62 9t-47 24l18 86q14 -12 33.5 -20t43.5 -8q32 0 51.5 20.5t19.5 69.5v534h107z" />
    <glyph glyph-name="uni0259" unicode="&#x259;" horiz-adv-x="576" 
d="M282 -10q-71 0 -123 30t-80 81.5t-28 117.5q0 15 1.5 30.5t5.5 30.5h398v-74h-352l55 36q-1 -8 -1.5 -16.5t-0.5 -15.5q0 -63 34 -99t92 -36q66 0 102.5 42.5t36.5 125.5q0 60 -15.5 100.5t-46 61t-76.5 20.5q-43 0 -77 -21.5t-51 -59.5l-90 36q18 39 48 68.5t73.5 45.5
t97.5 16q79 0 132 -31t80.5 -89.5t27.5 -139.5q0 -122 -63.5 -191t-179.5 -69z" />
    <glyph glyph-name="uni02B9" unicode="&#x2b9;" horiz-adv-x="600" 
d="M202 686l-72 -256h-81l46 256h107z" />
    <glyph glyph-name="uni02BA" unicode="&#x2ba;" horiz-adv-x="425" 
d="M383 686l-72 -256h-81l46 256h107zM202 686l-72 -256h-81l46 256h107z" />
    <glyph glyph-name="uni02BB" unicode="&#x2bb;" horiz-adv-x="600" 
d="M318 776l-40 -196h-104l70 196h74z" />
    <glyph glyph-name="uni02BC" unicode="&#x2bc;" horiz-adv-x="600" 
d="M137 696q28 0 46.5 -13.5t28.5 -37t10 -53.5q0 -37 -14 -71.5t-40.5 -63t-63.5 -46.5l-50 43q27 10 48 26t35.5 36t20.5 41l-4 2q-5 -3 -11.5 -5t-18.5 -2q-14 0 -28.5 7.5t-24.5 22.5t-10 39q0 22 10.5 39t27.5 26.5t38 9.5z" />
    <glyph glyph-name="uni02BE" unicode="&#x2be;" horiz-adv-x="320" 
d="M113 725q64 0 102 -36.5t38 -95.5q0 -58 -38 -94.5t-102 -36.5h-37v65h38q30 0 49 18.5t19 47.5q0 30 -19 48.5t-49 18.5h-38v65h37z" />
    <glyph glyph-name="uni02BF" unicode="&#x2bf;" horiz-adv-x="320" 
d="M207 462q-64 0 -102 36.5t-38 95.5q0 58 38 94.5t102 36.5h37v-65h-38q-30 0 -49 -18.5t-19 -47.5q0 -30 19 -48.5t49 -18.5h38v-65h-37z" />
    <glyph glyph-name="circumflex" unicode="&#x2c6;" horiz-adv-x="500" 
d="M419 571h-88l-81 107l-81 -107h-88l113 169h112z" />
    <glyph glyph-name="caron" unicode="&#x2c7;" horiz-adv-x="500" 
d="M419 746l-113 -168h-112l-113 168h88l81 -107l81 107h88z" />
    <glyph glyph-name="uni02C8" unicode="&#x2c8;" horiz-adv-x="218" 
d="M65 725h88v-262h-88v262z" />
    <glyph glyph-name="uni02C9" unicode="&#x2c9;" horiz-adv-x="500" 
d="M419 666v-78h-338v78h338z" />
    <glyph glyph-name="uni02CA" unicode="&#x2ca;" horiz-adv-x="600" 
d="M283 746h108l-99 -168h-82z" />
    <glyph glyph-name="uni02CB" unicode="&#x2cb;" horiz-adv-x="518" 
d="M277 746l73 -168h-82l-99 168h108z" />
    <glyph glyph-name="uni02CC" unicode="&#x2cc;" horiz-adv-x="218" 
d="M65 60h88v-262h-88v262z" />
    <glyph glyph-name="breve" unicode="&#x2d8;" horiz-adv-x="500" 
d="M404 723q0 -69 -42 -111t-112 -42q-69 0 -111.5 42t-42.5 111h78q1 -34 20 -58t56 -24q38 0 56.5 24t19.5 58h78z" />
    <glyph glyph-name="dotaccent" unicode="&#x2d9;" horiz-adv-x="500" 
d="M250 718q33 0 51.5 -18t18.5 -48q0 -31 -18.5 -48.5t-51.5 -17.5q-32 0 -50.5 17.5t-18.5 48.5q0 30 18.5 48t50.5 18z" />
    <glyph glyph-name="ring" unicode="&#x2da;" horiz-adv-x="500" 
d="M251 809q58 0 93.5 -33t35.5 -87t-35.5 -87.5t-93.5 -33.5q-59 0 -95 33.5t-36 87.5t36 87t95 33zM251 753q-29 0 -47.5 -18t-18.5 -46t18.5 -46t47.5 -18t47 18t18 46t-18 46t-47 18z" />
    <glyph glyph-name="ogonek" unicode="&#x2db;" horiz-adv-x="500" 
d="M272 -215q-59 0 -91 29t-32 77q0 56 37.5 89t110.5 56l51 -21q-51 -18 -77 -35.5t-35.5 -35.5t-9.5 -39q0 -24 16.5 -37.5t43.5 -13.5q14 0 27.5 3t24.5 8l14 -63q-15 -8 -36 -12.5t-44 -4.5z" />
    <glyph glyph-name="tilde" unicode="&#x2dc;" horiz-adv-x="500" 
d="M436 717q-2 -47 -16.5 -78.5t-39 -47t-59.5 -15.5q-28 0 -47.5 10t-34 22.5t-28 22.5t-28.5 10q-21 0 -31.5 -17.5t-14.5 -48.5h-73q4 71 34 106.5t84 35.5q27 0 46.5 -10t34 -22.5t27 -22.5t27.5 -10q21 0 31.5 17.5t15.5 47.5h72z" />
    <glyph glyph-name="hungarumlaut" unicode="&#x2dd;" horiz-adv-x="500" 
d="M255 578l74 168h104l-98 -168h-80zM68 578l74 168h104l-97 -168h-81z" />
    <glyph glyph-name="gravecomb" unicode="&#x300;" horiz-adv-x="0" 
d="M-24 746l73 -168h-82l-99 168h108z" />
    <glyph glyph-name="acutecomb" unicode="&#x301;" horiz-adv-x="0" 
d="M16 746h108l-99 -168h-82z" />
    <glyph glyph-name="uni0302" unicode="&#x302;" horiz-adv-x="0" 
d="M169 571h-88l-81 107l-81 -107h-88l113 169h112z" />
    <glyph glyph-name="tildecomb" unicode="&#x303;" horiz-adv-x="0" 
d="M185 717q-2 -47 -16.5 -78.5t-39 -47t-59.5 -15.5q-28 0 -47.5 10t-34 22.5t-28 22.5t-28.5 10q-21 0 -31.5 -17.5t-14.5 -48.5h-73q4 71 34 106.5t84 35.5q27 0 46.5 -10t34 -22.5t27 -22.5t27.5 -10q21 0 31.5 17.5t15.5 47.5h72z" />
    <glyph glyph-name="uni0304" unicode="&#x304;" horiz-adv-x="0" 
d="M169 666v-78h-338v78h338z" />
    <glyph glyph-name="uni0306" unicode="&#x306;" horiz-adv-x="0" 
d="M154 723q0 -69 -42 -111t-112 -42q-69 0 -111.5 42t-42.5 111h78q1 -34 20 -58t56 -24q38 0 56.5 24t19.5 58h78z" />
    <glyph glyph-name="uni0307" unicode="&#x307;" horiz-adv-x="0" 
d="M0 718q33 0 51.5 -18t18.5 -48q0 -31 -18.5 -48.5t-51.5 -17.5q-32 0 -50.5 17.5t-18.5 48.5q0 30 18.5 48t50.5 18z" />
    <glyph glyph-name="uni0308" unicode="&#x308;" horiz-adv-x="0" 
d="M-101 700q30 0 47.5 -17t17.5 -46q0 -28 -17.5 -45.5t-47.5 -17.5q-29 0 -47 17.5t-18 45.5q0 29 18 46t47 17zM101 700q30 0 47.5 -17t17.5 -46q0 -28 -17.5 -45.5t-47.5 -17.5t-47.5 17.5t-17.5 45.5q0 29 17.5 46t47.5 17z" />
    <glyph glyph-name="hookabovecomb" unicode="&#x309;" horiz-adv-x="0" 
d="M277 547l-31 44q30 13 44 26.5t14 33.5q0 17 -10.5 27.5t-29.5 10.5q-13 0 -24.5 -7.5t-21.5 -24.5l-55 34q13 34 43 51t70 17q30 0 53 -12t36.5 -33t13.5 -49q0 -27 -12.5 -49.5t-35.5 -39.5t-54 -29z" />
    <glyph glyph-name="uni030A" unicode="&#x30a;" horiz-adv-x="0" 
d="M-2 809q58 0 93.5 -33t35.5 -87t-35.5 -87.5t-93.5 -33.5q-59 0 -95 33.5t-36 87.5t36 87t95 33zM-2 753q-29 0 -47.5 -18t-18.5 -46t18.5 -46t47.5 -18t47 18t18 46t-18 46t-47 18z" />
    <glyph glyph-name="uni030B" unicode="&#x30b;" horiz-adv-x="0" 
d="M35 578l74 168h104l-98 -168h-80zM-152 578l74 168h104l-97 -168h-81z" />
    <glyph glyph-name="uni030C" unicode="&#x30c;" horiz-adv-x="0" 
d="M168 746l-113 -168h-112l-113 168h88l81 -107l81 107h88z" />
    <glyph glyph-name="uni030F" unicode="&#x30f;" horiz-adv-x="0" 
d="M-43 578h-81l-97 168h104zM144 578h-81l-97 168h104z" />
    <glyph glyph-name="uni0311" unicode="&#x311;" horiz-adv-x="0" 
d="M154 570h-78q-1 34 -19.5 58t-56.5 24q-37 0 -56 -24t-20 -58h-78q0 69 42.5 111t111.5 42q70 0 112 -42t42 -111z" />
    <glyph glyph-name="uni0312" unicode="&#x312;" horiz-adv-x="0" 
d="M365 776l-40 -196h-104l70 196h74z" />
    <glyph glyph-name="uni031B" unicode="&#x31b;" horiz-adv-x="0" 
d="M256 432v68q39 0 61.5 27t22.5 89h83q0 -93 -45 -138.5t-122 -45.5z" />
    <glyph glyph-name="dotbelowcomb" unicode="&#x323;" horiz-adv-x="0" 
d="M0 -218q-32 0 -50.5 18t-18.5 48q0 31 18.5 48.5t50.5 17.5q33 0 51.5 -17.5t18.5 -48.5q0 -30 -18.5 -48t-51.5 -18z" />
    <glyph glyph-name="uni0324" unicode="&#x324;" horiz-adv-x="0" 
d="M-101 -74q30 0 47.5 -17t17.5 -46q0 -28 -17.5 -45.5t-47.5 -17.5q-29 0 -47 17.5t-18 45.5q0 29 18 46t47 17zM101 -74q30 0 47.5 -17t17.5 -46q0 -28 -17.5 -45.5t-47.5 -17.5t-47.5 17.5t-17.5 45.5q0 29 17.5 46t47.5 17z" />
    <glyph glyph-name="uni0326" unicode="&#x326;" horiz-adv-x="0" 
d="M52 -71l-67 -167h-77l40 167h104z" />
    <glyph glyph-name="uni0327" unicode="&#x327;" horiz-adv-x="0" 
d="M-62 6l42 25q65 -16 93.5 -48.5t28.5 -78.5q0 -51 -35 -85t-92 -34q-33 0 -56.5 8t-40.5 21l22 65q13 -9 28 -15.5t37 -6.5q27 0 44.5 17.5t17.5 48.5q0 26 -19.5 44.5t-69.5 38.5z" />
    <glyph glyph-name="uni0328" unicode="&#x328;" horiz-adv-x="0" 
d="M-76 -215q-59 0 -91 29t-32 77q0 56 37.5 89t110.5 56l51 -21q-51 -18 -77 -35.5t-35.5 -35.5t-9.5 -39q0 -24 16.5 -37.5t43.5 -13.5q14 0 27.5 3t24.5 8l14 -63q-15 -8 -36 -12.5t-44 -4.5z" />
    <glyph glyph-name="uni032E" unicode="&#x32e;" horiz-adv-x="0" 
d="M154 -70q0 -69 -42 -111t-112 -42q-69 0 -111.5 42t-42.5 111h78q1 -34 20 -58t56 -24q38 0 56.5 24t19.5 58h78z" />
    <glyph glyph-name="uni0331" unicode="&#x331;" horiz-adv-x="0" 
d="M169 -88v-78h-338v78h338z" />
    <glyph glyph-name="uni0335" unicode="&#x335;" horiz-adv-x="0" 
d="M209 366v-71h-419v71h419z" />
    <glyph glyph-name="uni0338" unicode="&#x338;" horiz-adv-x="0" 
d="M55 -28l429 556h67l-429 -556h-67z" />
    <glyph glyph-name="uni03A9" unicode="&#x3a9;" horiz-adv-x="754" 
d="M57 0v86h194l-16 -13q-80 35 -125 105.5t-45 170.5q0 97 38.5 169t108 112t165.5 40t165.5 -40t107.5 -112t38 -169q0 -100 -44.5 -170.5t-124.5 -105.5l-16 13h194v-86h-268v89q70 17 111 80.5t41 170.5q0 74 -25 127.5t-70.5 82t-108.5 28.5q-62 0 -108 -28.5t-71 -82
t-25 -127.5q0 -71 18.5 -123t52.5 -84t81 -44v-89h-268z" />
    <glyph glyph-name="uni03BC" unicode="&#x3bc;" horiz-adv-x="622" 
d="M83 -210v710h107v-302q0 -63 29 -91.5t81 -28.5q36 0 65.5 16t48 51t18.5 92v263h107v-500h-91l-7 84q-23 -47 -64.5 -70.5t-91.5 -23.5q-33 0 -61 10t-47 33l13 18v-261h-107z" />
    <glyph glyph-name="pi" unicode="&#x3c0;" horiz-adv-x="752" 
d="M161 0v418h-129v82h686v-82h-146v-264q0 -26 11 -42t34 -22.5t60 -5.5l-16 -85q-73 -2 -116 10.5t-61.5 42.5t-18.5 80v286h-197v-418h-107z" />
    <glyph glyph-name="uni1E08" unicode="&#x1e08;" horiz-adv-x="684" 
d="M645 175q-20 -60 -60 -101.5t-94 -62.5t-119 -21q-95 0 -165 41t-108 117t-38 182t38 182t108 117t164 41q65 0 117.5 -18t89.5 -54t57 -90l-101 -45q-20 59 -58 86.5t-99 27.5t-107 -29t-71.5 -84t-25.5 -134q0 -78 24 -133.5t69 -84.5t108 -29q61 0 105.5 31.5
t63.5 94.5zM306 6l42 25q65 -16 93.5 -48.5t28.5 -78.5q0 -51 -35 -85t-92 -34q-33 0 -56.5 8t-40.5 21l22 65q13 -9 28 -15.5t37 -6.5q27 0 44.5 17.5t17.5 48.5q0 26 -19.5 44.5t-69.5 38.5zM382 897h104l-87 -160h-82z" />
    <glyph glyph-name="uni1E09" unicode="&#x1e09;" horiz-adv-x="562" 
d="M299 510q60 0 102.5 -17.5t71.5 -49.5t44 -73l-101 -40q-13 46 -41.5 70.5t-74.5 24.5q-45 0 -77 -20.5t-48.5 -59.5t-16.5 -96q0 -56 17 -95t49 -59t76 -20q34 0 59 11.5t41.5 33t22.5 52.5l97 -33q-14 -45 -43.5 -78.5t-73.5 -52t-101 -18.5q-74 0 -131 31t-88.5 89.5
t-31.5 139.5t31.5 139.5t88 89.5t128.5 31zM237 6l42 25q65 -16 93.5 -48.5t28.5 -78.5q0 -51 -35 -85t-92 -34q-33 0 -56.5 8t-40.5 21l22 65q13 -9 28 -15.5t37 -6.5q27 0 44.5 17.5t17.5 48.5q0 26 -19.5 44.5t-69.5 38.5zM309 746h108l-99 -168h-82z" />
    <glyph glyph-name="uni1E0C" unicode="&#x1e0c;" horiz-adv-x="720" 
d="M331 660q155 0 241.5 -85.5t86.5 -244.5t-86.5 -244.5t-241.5 -85.5h-233v660h233zM331 91q105 0 160.5 62.5t55.5 176.5t-55.5 176.5t-160.5 62.5h-126v-478h126zM343 -218q-32 0 -50.5 18t-18.5 48q0 31 18.5 48.5t50.5 17.5q33 0 51.5 -17.5t18.5 -48.5
q0 -30 -18.5 -48t-51.5 -18z" />
    <glyph glyph-name="uni1E0D" unicode="&#x1e0d;" horiz-adv-x="627" 
d="M275 -10q-62 0 -112.5 31t-79.5 89t-29 139q0 84 31 142t83 88.5t114 30.5q64 0 108 -35t59 -91l-12 -11v352h107v-725h-95l-8 136l14 -1q-7 -45 -33 -77.5t-64.5 -50t-82.5 -17.5zM298 76q43 0 74 22t48 62t17 96q0 52 -17 89.5t-47.5 57.5t-70.5 20q-67 0 -104 -46
t-37 -127t36 -127.5t101 -46.5zM306 -218q-32 0 -50.5 18t-18.5 48q0 31 18.5 48.5t50.5 17.5q33 0 51.5 -17.5t18.5 -48.5q0 -30 -18.5 -48t-51.5 -18z" />
    <glyph glyph-name="uni1E0E" unicode="&#x1e0e;" horiz-adv-x="720" 
d="M331 660q155 0 241.5 -85.5t86.5 -244.5t-86.5 -244.5t-241.5 -85.5h-233v660h233zM331 91q105 0 160.5 62.5t55.5 176.5t-55.5 176.5t-160.5 62.5h-126v-478h126zM512 -88v-78h-338v78h338z" />
    <glyph glyph-name="uni1E0F" unicode="&#x1e0f;" horiz-adv-x="627" 
d="M275 -10q-62 0 -112.5 31t-79.5 89t-29 139q0 84 31 142t83 88.5t114 30.5q64 0 108 -35t59 -91l-12 -11v352h107v-725h-95l-8 136l14 -1q-7 -45 -33 -77.5t-64.5 -50t-82.5 -17.5zM298 76q43 0 74 22t48 62t17 96q0 52 -17 89.5t-47.5 57.5t-70.5 20q-67 0 -104 -46
t-37 -127t36 -127.5t101 -46.5zM475 -88v-78h-338v78h338z" />
    <glyph glyph-name="uni1E14" unicode="&#x1e14;" horiz-adv-x="636" 
d="M98 0v660h478v-92h-371v-190h290v-90h-290v-196h385v-92h-492zM506 826v-78h-338v78h338zM324 1061l65 -160h-82l-87 160h104z" />
    <glyph glyph-name="uni1E15" unicode="&#x1e15;" horiz-adv-x="578" 
d="M303 -10q-75 0 -132 31t-88.5 89.5t-31.5 139.5t31.5 139.5t87.5 89.5t127 31q73 0 124 -30t78 -82t27 -118q0 -18 -1 -34t-3 -28h-402v82h355l-53 -16q0 68 -34 104.5t-93 36.5q-43 0 -75 -20t-49 -59.5t-17 -96.5q0 -56 18 -95t51 -59t78 -20q50 0 81 19t49 53l85 -40
q-18 -36 -48.5 -62.5t-72.5 -40.5t-92 -14zM461 666v-78h-338v78h338zM279 901l65 -160h-82l-87 160h104z" />
    <glyph glyph-name="uni1E16" unicode="&#x1e16;" horiz-adv-x="636" 
d="M98 0v660h478v-92h-371v-190h290v-90h-290v-196h385v-92h-492zM506 826v-78h-338v78h338zM350 1061h104l-87 -160h-82z" />
    <glyph glyph-name="uni1E17" unicode="&#x1e17;" horiz-adv-x="578" 
d="M303 -10q-75 0 -132 31t-88.5 89.5t-31.5 139.5t31.5 139.5t87.5 89.5t127 31q73 0 124 -30t78 -82t27 -118q0 -18 -1 -34t-3 -28h-402v82h355l-53 -16q0 68 -34 104.5t-93 36.5q-43 0 -75 -20t-49 -59.5t-17 -96.5q0 -56 18 -95t51 -59t78 -20q50 0 81 19t49 53l85 -40
q-18 -36 -48.5 -62.5t-72.5 -40.5t-92 -14zM461 666v-78h-338v78h338zM305 901h104l-87 -160h-82z" />
    <glyph glyph-name="uni1E1C" unicode="&#x1e1c;" horiz-adv-x="636" 
d="M98 0v660h478v-92h-371v-190h290v-90h-290v-196h385v-92h-492zM287 6l42 25q65 -16 93.5 -48.5t28.5 -78.5q0 -51 -35 -85t-92 -34q-33 0 -56.5 8t-40.5 21l22 65q13 -9 28 -15.5t37 -6.5q27 0 44.5 17.5t17.5 48.5q0 26 -19.5 44.5t-69.5 38.5zM491 883q0 -69 -42 -111
t-112 -42q-69 0 -111.5 42t-42.5 111h78q1 -34 20 -58t56 -24q38 0 56.5 24t19.5 58h78z" />
    <glyph glyph-name="uni1E1D" unicode="&#x1e1d;" horiz-adv-x="578" 
d="M303 -10q-75 0 -132 31t-88.5 89.5t-31.5 139.5t31.5 139.5t87.5 89.5t127 31q73 0 124 -30t78 -82t27 -118q0 -18 -1 -34t-3 -28h-402v82h355l-53 -16q0 68 -34 104.5t-93 36.5q-43 0 -75 -20t-49 -59.5t-17 -96.5q0 -56 18 -95t51 -59t78 -20q50 0 81 19t49 53l85 -40
q-18 -36 -48.5 -62.5t-72.5 -40.5t-92 -14zM238 6l42 25q65 -16 93.5 -48.5t28.5 -78.5q0 -51 -35 -85t-92 -34q-33 0 -56.5 8t-40.5 21l22 65q13 -9 28 -15.5t37 -6.5q27 0 44.5 17.5t17.5 48.5q0 26 -19.5 44.5t-69.5 38.5zM446 723q0 -69 -42 -111t-112 -42
q-69 0 -111.5 42t-42.5 111h78q1 -34 20 -58t56 -24q38 0 56.5 24t19.5 58h78z" />
    <glyph glyph-name="uni1E20" unicode="&#x1e20;" horiz-adv-x="724" 
d="M366 -10q-93 0 -161 41t-106 116.5t-38 182.5q0 105 39.5 181t112 117.5t166.5 41.5q103 0 166.5 -38t101.5 -118l-99 -47q-19 55 -62.5 82.5t-105.5 27.5t-108.5 -29t-72.5 -84.5t-26 -133.5q0 -79 23 -134.5t69.5 -84.5t114.5 -29q37 0 69 9.5t56 28t37.5 47t13.5 67.5
v19h-192v87h287v-340h-80l-6 133l20 -10q-24 -63 -79.5 -98t-139.5 -35zM540 826v-78h-338v78h338z" />
    <glyph glyph-name="uni1E21" unicode="&#x1e21;" horiz-adv-x="540" 
d="M523 605l17 -84q-3 0 -6 0.5t-6 0.5q-48 0 -73 -20.5t-25 -59.5l-52 24q0 40 17 71.5t48.5 49.5t71.5 18h4h4zM365 78q76 0 118 -33.5t42 -92.5q0 -52 -33 -89.5t-89.5 -57.5t-129.5 -20q-123 0 -182 38t-59 95q0 40 28.5 70t96.5 34l-6 -16q-42 9 -67.5 32.5t-25.5 66.5
t33 73t93 35l56 -27h-12q-46 -4 -65 -21t-19 -38q0 -25 18.5 -37t52.5 -12h150zM273 -135q55 0 90.5 10.5t53 27t17.5 36.5q0 23 -18.5 37t-66.5 14h-161q-28 0 -47 -14.5t-19 -39.5q0 -33 40 -52t111 -19zM269 510q66 0 114.5 -21t75 -59t26.5 -89t-26.5 -89t-75 -59
t-114.5 -21q-104 0 -159.5 46.5t-55.5 122.5q0 51 27 89t75.5 59t112.5 21zM269 435q-46 0 -76.5 -25.5t-30.5 -68.5t30.5 -69t76.5 -26q47 0 77.5 26t30.5 69t-30.5 68.5t-77.5 25.5zM380.961 666v-78h-231.922v78h231.922z" />
    <glyph glyph-name="uni1E24" unicode="&#x1e24;" horiz-adv-x="736" 
d="M639 660v-660h-108v660h108zM205 660v-660h-107v660h107zM585 380v-92h-433v92h433zM368 -218q-32 0 -50.5 18t-18.5 48q0 31 18.5 48.5t50.5 17.5q33 0 51.5 -17.5t18.5 -48.5q0 -30 -18.5 -48t-51.5 -18z" />
    <glyph glyph-name="uni1E25" unicode="&#x1e25;" horiz-adv-x="619" 
d="M83 0v725h107v-305q25 47 67.5 68.5t94.5 21.5q53 0 95.5 -20.5t67.5 -61.5t25 -104v-324h-107v290q0 74 -30.5 103t-76.5 29q-32 0 -63.5 -15.5t-52 -50t-20.5 -92.5v-264h-107zM335 -218q-32 0 -50.5 18t-18.5 48q0 31 18.5 48.5t50.5 17.5q33 0 51.5 -17.5t18.5 -48.5
q0 -30 -18.5 -48t-51.5 -18z" />
    <glyph glyph-name="uni1E2A" unicode="&#x1e2a;" horiz-adv-x="736" 
d="M639 660v-660h-108v660h108zM205 660v-660h-107v660h107zM585 380v-92h-433v92h433zM522 -70q0 -69 -42 -111t-112 -42q-69 0 -111.5 42t-42.5 111h78q1 -34 20 -58t56 -24q38 0 56.5 24t19.5 58h78z" />
    <glyph glyph-name="uni1E2B" unicode="&#x1e2b;" horiz-adv-x="619" 
d="M83 0v725h107v-305q25 47 67.5 68.5t94.5 21.5q53 0 95.5 -20.5t67.5 -61.5t25 -104v-324h-107v290q0 74 -30.5 103t-76.5 29q-32 0 -63.5 -15.5t-52 -50t-20.5 -92.5v-264h-107zM489 -70q0 -69 -42 -111t-112 -42q-69 0 -111.5 42t-42.5 111h78q1 -34 20 -58t56 -24
q38 0 56.5 24t19.5 58h78z" />
    <glyph glyph-name="uni1E2E" unicode="&#x1e2e;" horiz-adv-x="303" 
d="M205 660v-660h-107v660h107zM50 860q30 0 47.5 -17t17.5 -46q0 -28 -17.5 -45.5t-47.5 -17.5q-29 0 -47 17.5t-18 45.5q0 29 18 46t47 17zM252 860q30 0 47.5 -17t17.5 -46q0 -28 -17.5 -45.5t-47.5 -17.5t-47.5 17.5t-17.5 45.5q0 29 17.5 46t47.5 17zM164 1072h104
l-87 -160h-82z" />
    <glyph glyph-name="uni1E2F" unicode="&#x1e2f;" horiz-adv-x="274" 
d="M190 500v-500h-107v500h107zM36 700q30 0 47.5 -17t17.5 -46q0 -28 -17.5 -45.5t-47.5 -17.5q-29 0 -47 17.5t-18 45.5q0 29 18 46t47 17zM238 700q30 0 47.5 -17t17.5 -46q0 -28 -17.5 -45.5t-47.5 -17.5t-47.5 17.5t-17.5 45.5q0 29 17.5 46t47.5 17zM150 912h104
l-87 -160h-82z" />
    <glyph glyph-name="uni1E36" unicode="&#x1e36;" horiz-adv-x="599" 
d="M205 92h364v-92h-471v660h107v-568zM354 -218q-32 0 -50.5 18t-18.5 48q0 31 18.5 48.5t50.5 17.5q33 0 51.5 -17.5t18.5 -48.5q0 -30 -18.5 -48t-51.5 -18z" />
    <glyph glyph-name="uni1E37" unicode="&#x1e37;" horiz-adv-x="312" 
d="M187 725v-585q0 -37 13 -51t43 -14q18 0 30.5 2.5t31.5 9.5l-12 -80q-17 -8 -39 -12.5t-44 -4.5q-67 0 -98.5 34.5t-31.5 106.5v594h107zM198 -218q-32 0 -50.5 18t-18.5 48q0 31 18.5 48.5t50.5 17.5q33 0 51.5 -17.5t18.5 -48.5q0 -30 -18.5 -48t-51.5 -18z" />
    <glyph glyph-name="uni1E3A" unicode="&#x1e3a;" horiz-adv-x="599" 
d="M205 92h364v-92h-471v660h107v-568zM523 -88v-78h-338v78h338z" />
    <glyph glyph-name="uni1E3B" unicode="&#x1e3b;" horiz-adv-x="312" 
d="M187 725v-585q0 -37 13 -51t43 -14q18 0 30.5 2.5t31.5 9.5l-12 -80q-17 -8 -39 -12.5t-44 -4.5q-67 0 -98.5 34.5t-31.5 106.5v594h107zM316.229 -88v-78h-236.459v78h236.459z" />
    <glyph glyph-name="uni1E42" unicode="&#x1e42;" horiz-adv-x="871" 
d="M773 660v-660h-99v382l8 182h-1l-201 -564h-89l-201 564h-1l8 -182v-382h-99v660h159l133 -382l46 -157h2l47 157l132 382h156zM435 -218q-32 0 -50.5 18t-18.5 48q0 31 18.5 48.5t50.5 17.5q33 0 51.5 -17.5t18.5 -48.5q0 -30 -18.5 -48t-51.5 -18z" />
    <glyph glyph-name="uni1E43" unicode="&#x1e43;" horiz-adv-x="949" 
d="M83 0v500h95l5 -84q26 48 69.5 71t92.5 23q54 0 99.5 -24.5t68.5 -73.5q16 33 44 55t62 32.5t67 10.5q48 0 90 -20t68 -61t26 -105v-324h-107v307q0 61 -29 88t-74 27q-35 0 -64.5 -17t-47.5 -50.5t-18 -82.5v-272h-107v307q0 61 -29 88t-74 27q-30 0 -60 -16t-50 -50
t-20 -90v-266h-107zM477 -218q-32 0 -50.5 18t-18.5 48q0 31 18.5 48.5t50.5 17.5q33 0 51.5 -17.5t18.5 -48.5q0 -30 -18.5 -48t-51.5 -18z" />
    <glyph glyph-name="uni1E44" unicode="&#x1e44;" horiz-adv-x="736" 
d="M639 660v-660h-127l-255 416l-64 117h-1l4 -107v-426h-98v660h126l254 -415l65 -119h1l-4 108v426h99zM371 878q33 0 51.5 -18t18.5 -48q0 -31 -18.5 -48.5t-51.5 -17.5q-32 0 -50.5 17.5t-18.5 48.5q0 30 18.5 48t50.5 18z" />
    <glyph glyph-name="uni1E45" unicode="&#x1e45;" horiz-adv-x="619" 
d="M83 0v500h95l7 -130l-14 14q14 43 40.5 71.5t63 41.5t77.5 13q53 0 95.5 -20.5t67.5 -61.5t25 -104v-324h-107v291q0 74 -30.5 102.5t-76.5 28.5q-33 0 -64 -15.5t-51.5 -49.5t-20.5 -91v-266h-107zM316 718q33 0 51.5 -18t18.5 -48q0 -31 -18.5 -48.5t-51.5 -17.5
q-32 0 -50.5 17.5t-18.5 48.5q0 30 18.5 48t50.5 18z" />
    <glyph glyph-name="uni1E46" unicode="&#x1e46;" horiz-adv-x="736" 
d="M639 660v-660h-127l-255 416l-64 117h-1l4 -107v-426h-98v660h126l254 -415l65 -119h1l-4 108v426h99zM393 -218q-32 0 -50.5 18t-18.5 48q0 31 18.5 48.5t50.5 17.5q33 0 51.5 -17.5t18.5 -48.5q0 -30 -18.5 -48t-51.5 -18z" />
    <glyph glyph-name="uni1E47" unicode="&#x1e47;" horiz-adv-x="619" 
d="M83 0v500h95l7 -130l-14 14q14 43 40.5 71.5t63 41.5t77.5 13q53 0 95.5 -20.5t67.5 -61.5t25 -104v-324h-107v291q0 74 -30.5 102.5t-76.5 28.5q-33 0 -64 -15.5t-51.5 -49.5t-20.5 -91v-266h-107zM335 -218q-32 0 -50.5 18t-18.5 48q0 31 18.5 48.5t50.5 17.5
q33 0 51.5 -17.5t18.5 -48.5q0 -30 -18.5 -48t-51.5 -18z" />
    <glyph glyph-name="uni1E48" unicode="&#x1e48;" horiz-adv-x="736" 
d="M639 660v-660h-127l-255 416l-64 117h-1l4 -107v-426h-98v660h126l254 -415l65 -119h1l-4 108v426h99zM562 -88v-78h-338v78h338z" />
    <glyph glyph-name="uni1E49" unicode="&#x1e49;" horiz-adv-x="619" 
d="M83 0v500h95l7 -130l-14 14q14 43 40.5 71.5t63 41.5t77.5 13q53 0 95.5 -20.5t67.5 -61.5t25 -104v-324h-107v291q0 74 -30.5 102.5t-76.5 28.5q-33 0 -64 -15.5t-51.5 -49.5t-20.5 -91v-266h-107zM504 -88v-78h-338v78h338z" />
    <glyph glyph-name="uni1E4C" unicode="&#x1e4c;" horiz-adv-x="745" 
d="M372 670q96 0 166 -41t108 -117t38 -182t-38 -182t-108 -117t-166 -41q-95 0 -165 41t-108 117t-38 182t38 182t108 117t165 41zM372 577q-62 0 -106.5 -29t-68.5 -84t-24 -134q0 -78 24 -133.5t68.5 -84.5t106.5 -29q63 0 107.5 29t68.5 84.5t24 133.5q0 79 -24 134
t-68.5 84t-107.5 29zM557 877q-2 -47 -16.5 -78.5t-39 -47t-59.5 -15.5q-28 0 -47.5 10t-34 22.5t-28 22.5t-28.5 10q-21 0 -31.5 -17.5t-14.5 -48.5h-73q4 71 34 106.5t84 35.5q27 0 46.5 -10t34 -22.5t27 -22.5t27.5 -10q21 0 31.5 17.5t15.5 47.5h72zM385 1097h104
l-87 -160h-82z" />
    <glyph glyph-name="uni1E4D" unicode="&#x1e4d;" horiz-adv-x="600" 
d="M300 510q73 0 129 -31t87.5 -89.5t31.5 -139.5t-31.5 -139.5t-87.5 -89.5t-129 -31t-129 31t-88 89.5t-32 139.5t32 139.5t88 89.5t129 31zM300 426q-45 0 -76.5 -20.5t-48.5 -59.5t-17 -96q0 -56 17 -95.5t48.5 -60t76.5 -20.5t76 20.5t48 60t17 95.5q0 57 -17 96
t-48 59.5t-76 20.5zM485 717q-2 -47 -16.5 -78.5t-39 -47t-59.5 -15.5q-28 0 -47.5 10t-34 22.5t-28 22.5t-28.5 10q-21 0 -31.5 -17.5t-14.5 -48.5h-73q4 71 34 106.5t84 35.5q27 0 46.5 -10t34 -22.5t27 -22.5t27.5 -10q21 0 31.5 17.5t15.5 47.5h72zM312 937h104
l-87 -160h-82z" />
    <glyph glyph-name="uni1E4E" unicode="&#x1e4e;" horiz-adv-x="745" 
d="M372 670q96 0 166 -41t108 -117t38 -182t-38 -182t-108 -117t-166 -41q-95 0 -165 41t-108 117t-38 182t38 182t108 117t165 41zM372 577q-62 0 -106.5 -29t-68.5 -84t-24 -134q0 -78 24 -133.5t68.5 -84.5t106.5 -29q63 0 107.5 29t68.5 84.5t24 133.5q0 79 -24 134
t-68.5 84t-107.5 29zM557 877q-2 -47 -16.5 -78.5t-39 -47t-59.5 -15.5q-28 0 -47.5 10t-34 22.5t-28 22.5t-28.5 10q-21 0 -31.5 -17.5t-14.5 -48.5h-73q4 71 34 106.5t84 35.5q27 0 46.5 -10t34 -22.5t27 -22.5t27.5 -10q21 0 31.5 17.5t15.5 47.5h72zM271 1060
q30 0 47.5 -17t17.5 -46q0 -28 -17.5 -45.5t-47.5 -17.5q-29 0 -47 17.5t-18 45.5q0 29 18 46t47 17zM473 1060q30 0 47.5 -17t17.5 -46q0 -28 -17.5 -45.5t-47.5 -17.5t-47.5 17.5t-17.5 45.5q0 29 17.5 46t47.5 17z" />
    <glyph glyph-name="uni1E4F" unicode="&#x1e4f;" horiz-adv-x="600" 
d="M300 510q73 0 129 -31t87.5 -89.5t31.5 -139.5t-31.5 -139.5t-87.5 -89.5t-129 -31t-129 31t-88 89.5t-32 139.5t32 139.5t88 89.5t129 31zM300 426q-45 0 -76.5 -20.5t-48.5 -59.5t-17 -96q0 -56 17 -95.5t48.5 -60t76.5 -20.5t76 20.5t48 60t17 95.5q0 57 -17 96
t-48 59.5t-76 20.5zM485 717q-2 -47 -16.5 -78.5t-39 -47t-59.5 -15.5q-28 0 -47.5 10t-34 22.5t-28 22.5t-28.5 10q-21 0 -31.5 -17.5t-14.5 -48.5h-73q4 71 34 106.5t84 35.5q27 0 46.5 -10t34 -22.5t27 -22.5t27.5 -10q21 0 31.5 17.5t15.5 47.5h72zM198 900
q30 0 47.5 -17t17.5 -46q0 -28 -17.5 -45.5t-47.5 -17.5q-29 0 -47 17.5t-18 45.5q0 29 18 46t47 17zM400 900q30 0 47.5 -17t17.5 -46q0 -28 -17.5 -45.5t-47.5 -17.5t-47.5 17.5t-17.5 45.5q0 29 17.5 46t47.5 17z" />
    <glyph glyph-name="uni1E50" unicode="&#x1e50;" horiz-adv-x="745" 
d="M372 670q96 0 166 -41t108 -117t38 -182t-38 -182t-108 -117t-166 -41q-95 0 -165 41t-108 117t-38 182t38 182t108 117t165 41zM372 577q-62 0 -106.5 -29t-68.5 -84t-24 -134q0 -78 24 -133.5t68.5 -84.5t106.5 -29q63 0 107.5 29t68.5 84.5t24 133.5q0 79 -24 134
t-68.5 84t-107.5 29zM541 826v-78h-338v78h338zM359 1061l65 -160h-82l-87 160h104z" />
    <glyph glyph-name="uni1E51" unicode="&#x1e51;" horiz-adv-x="600" 
d="M300 510q73 0 129 -31t87.5 -89.5t31.5 -139.5t-31.5 -139.5t-87.5 -89.5t-129 -31t-129 31t-88 89.5t-32 139.5t32 139.5t88 89.5t129 31zM300 426q-45 0 -76.5 -20.5t-48.5 -59.5t-17 -96q0 -56 17 -95.5t48.5 -60t76.5 -20.5t76 20.5t48 60t17 95.5q0 57 -17 96
t-48 59.5t-76 20.5zM469 666v-78h-338v78h338zM287 901l65 -160h-82l-87 160h104z" />
    <glyph glyph-name="uni1E52" unicode="&#x1e52;" horiz-adv-x="745" 
d="M372 670q96 0 166 -41t108 -117t38 -182t-38 -182t-108 -117t-166 -41q-95 0 -165 41t-108 117t-38 182t38 182t108 117t165 41zM372 577q-62 0 -106.5 -29t-68.5 -84t-24 -134q0 -78 24 -133.5t68.5 -84.5t106.5 -29q63 0 107.5 29t68.5 84.5t24 133.5q0 79 -24 134
t-68.5 84t-107.5 29zM541 826v-78h-338v78h338zM385 1061h104l-87 -160h-82z" />
    <glyph glyph-name="uni1E53" unicode="&#x1e53;" horiz-adv-x="600" 
d="M300 510q73 0 129 -31t87.5 -89.5t31.5 -139.5t-31.5 -139.5t-87.5 -89.5t-129 -31t-129 31t-88 89.5t-32 139.5t32 139.5t88 89.5t129 31zM300 426q-45 0 -76.5 -20.5t-48.5 -59.5t-17 -96q0 -56 17 -95.5t48.5 -60t76.5 -20.5t76 20.5t48 60t17 95.5q0 57 -17 96
t-48 59.5t-76 20.5zM469 666v-78h-338v78h338zM313 901h104l-87 -160h-82z" />
    <glyph glyph-name="uni1E5A" unicode="&#x1e5a;" horiz-adv-x="672" 
d="M367 660q106 0 168.5 -53t62.5 -143q0 -93 -62.5 -143.5t-168.5 -50.5l-10 -6h-153v-264h-106v660h269zM359 353q65 0 96.5 26.5t31.5 81.5q0 54 -31.5 81t-96.5 27h-155v-216h155zM422 331l215 -331h-123l-184 289zM364 -218q-32 0 -50.5 18t-18.5 48q0 31 18.5 48.5
t50.5 17.5q33 0 51.5 -17.5t18.5 -48.5q0 -30 -18.5 -48t-51.5 -18z" />
    <glyph glyph-name="uni1E5B" unicode="&#x1e5b;" horiz-adv-x="414" 
d="M83 0v500h91l10 -90q20 49 59.5 74.5t97.5 25.5q15 0 30 -2.5t25 -7.5l-15 -94q-11 4 -24.5 6.5t-36.5 2.5q-31 0 -61 -16.5t-49.5 -49.5t-19.5 -84v-265h-107zM137 -218q-32 0 -50.5 18t-18.5 48q0 31 18.5 48.5t50.5 17.5q33 0 51.5 -17.5t18.5 -48.5q0 -30 -18.5 -48
t-51.5 -18z" />
    <glyph glyph-name="uni1E5E" unicode="&#x1e5e;" horiz-adv-x="672" 
d="M367 660q106 0 168.5 -53t62.5 -143q0 -93 -62.5 -143.5t-168.5 -50.5l-10 -6h-153v-264h-106v660h269zM359 353q65 0 96.5 26.5t31.5 81.5q0 54 -31.5 81t-96.5 27h-155v-216h155zM422 331l215 -331h-123l-184 289zM533 -88v-78h-338v78h338z" />
    <glyph glyph-name="uni1E5F" unicode="&#x1e5f;" horiz-adv-x="414" 
d="M83 0v500h91l10 -90q20 49 59.5 74.5t97.5 25.5q15 0 30 -2.5t25 -7.5l-15 -94q-11 4 -24.5 6.5t-36.5 2.5q-31 0 -61 -16.5t-49.5 -49.5t-19.5 -84v-265h-107zM249.186 -88v-78h-224.371v78h224.371z" />
    <glyph glyph-name="uni1E60" unicode="&#x1e60;" horiz-adv-x="642" 
d="M323 670q89 0 154 -33.5t110 -98.5l-72 -69q-38 58 -85.5 83.5t-112.5 25.5q-48 0 -79 -13t-45.5 -34.5t-14.5 -48.5q0 -31 21.5 -54t80.5 -36l134 -30q96 -21 136 -64t40 -109q0 -61 -33 -106t-91.5 -69t-137.5 -24q-70 0 -126 18t-98 49t-69 71l74 74q21 -35 53 -62.5
t74.5 -42.5t94.5 -15q46 0 79.5 11t51 32.5t17.5 51.5q0 29 -19.5 51t-72.5 34l-145 33q-60 13 -99 37t-58 58.5t-19 77.5q0 56 30.5 101.5t88.5 73t138 27.5zM327 878q33 0 51.5 -18t18.5 -48q0 -31 -18.5 -48.5t-51.5 -17.5q-32 0 -50.5 17.5t-18.5 48.5q0 30 18.5 48
t50.5 18z" />
    <glyph glyph-name="uni1E61" unicode="&#x1e61;" horiz-adv-x="529" 
d="M273 -10q-75 0 -137 29t-98 82l74 64q22 -41 63.5 -65.5t99.5 -24.5q46 0 73 16t27 45q0 19 -12.5 33.5t-47.5 22.5l-105 22q-80 16 -114 51.5t-34 90.5q0 41 24 76t70.5 56.5t111.5 21.5q75 0 128 -26.5t81 -75.5l-74 -62q-19 40 -56 59.5t-77 19.5q-32 0 -55 -8
t-35 -22t-12 -33q0 -20 15 -35t54 -23l114 -24q72 -14 101.5 -47.5t29.5 -81.5t-25 -84.5t-72 -56.5t-112 -20zM267 718q33 0 51.5 -18t18.5 -48q0 -31 -18.5 -48.5t-51.5 -17.5q-32 0 -50.5 17.5t-18.5 48.5q0 30 18.5 48t50.5 18z" />
    <glyph glyph-name="uni1E62" unicode="&#x1e62;" horiz-adv-x="642" 
d="M323 670q89 0 154 -33.5t110 -98.5l-72 -69q-38 58 -85.5 83.5t-112.5 25.5q-48 0 -79 -13t-45.5 -34.5t-14.5 -48.5q0 -31 21.5 -54t80.5 -36l134 -30q96 -21 136 -64t40 -109q0 -61 -33 -106t-91.5 -69t-137.5 -24q-70 0 -126 18t-98 49t-69 71l74 74q21 -35 53 -62.5
t74.5 -42.5t94.5 -15q46 0 79.5 11t51 32.5t17.5 51.5q0 29 -19.5 51t-72.5 34l-145 33q-60 13 -99 37t-58 58.5t-19 77.5q0 56 30.5 101.5t88.5 73t138 27.5zM320 -218q-32 0 -50.5 18t-18.5 48q0 31 18.5 48.5t50.5 17.5q33 0 51.5 -17.5t18.5 -48.5q0 -30 -18.5 -48
t-51.5 -18z" />
    <glyph glyph-name="uni1E63" unicode="&#x1e63;" horiz-adv-x="529" 
d="M273 -10q-75 0 -137 29t-98 82l74 64q22 -41 63.5 -65.5t99.5 -24.5q46 0 73 16t27 45q0 19 -12.5 33.5t-47.5 22.5l-105 22q-80 16 -114 51.5t-34 90.5q0 41 24 76t70.5 56.5t111.5 21.5q75 0 128 -26.5t81 -75.5l-74 -62q-19 40 -56 59.5t-77 19.5q-32 0 -55 -8
t-35 -22t-12 -33q0 -20 15 -35t54 -23l114 -24q72 -14 101.5 -47.5t29.5 -81.5t-25 -84.5t-72 -56.5t-112 -20zM270 -218q-32 0 -50.5 18t-18.5 48q0 31 18.5 48.5t50.5 17.5q33 0 51.5 -17.5t18.5 -48.5q0 -30 -18.5 -48t-51.5 -18z" />
    <glyph glyph-name="uni1E64" unicode="&#x1e64;" horiz-adv-x="642" 
d="M323 670q89 0 154 -33.5t110 -98.5l-72 -69q-38 58 -85.5 83.5t-112.5 25.5q-48 0 -79 -13t-45.5 -34.5t-14.5 -48.5q0 -31 21.5 -54t80.5 -36l134 -30q96 -21 136 -64t40 -109q0 -61 -33 -106t-91.5 -69t-137.5 -24q-70 0 -126 18t-98 49t-69 71l74 74q21 -35 53 -62.5
t74.5 -42.5t94.5 -15q46 0 79.5 11t51 32.5t17.5 51.5q0 29 -19.5 51t-72.5 34l-145 33q-60 13 -99 37t-58 58.5t-19 77.5q0 56 30.5 101.5t88.5 73t138 27.5zM340 897h104l-87 -160h-82zM327 1090q33 0 51.5 -18t18.5 -48q0 -31 -18.5 -48.5t-51.5 -17.5q-32 0 -50.5 17.5
t-18.5 48.5q0 30 18.5 48t50.5 18z" />
    <glyph glyph-name="uni1E65" unicode="&#x1e65;" horiz-adv-x="529" 
d="M273 -10q-75 0 -137 29t-98 82l74 64q22 -41 63.5 -65.5t99.5 -24.5q46 0 73 16t27 45q0 19 -12.5 33.5t-47.5 22.5l-105 22q-80 16 -114 51.5t-34 90.5q0 41 24 76t70.5 56.5t111.5 21.5q75 0 128 -26.5t81 -75.5l-74 -62q-19 40 -56 59.5t-77 19.5q-32 0 -55 -8
t-35 -22t-12 -33q0 -20 15 -35t54 -23l114 -24q72 -14 101.5 -47.5t29.5 -81.5t-25 -84.5t-72 -56.5t-112 -20zM283 746h108l-99 -168h-82zM267 930q33 0 51.5 -18t18.5 -48q0 -31 -18.5 -48.5t-51.5 -17.5q-32 0 -50.5 17.5t-18.5 48.5q0 30 18.5 48t50.5 18z" />
    <glyph glyph-name="uni1E66" unicode="&#x1e66;" horiz-adv-x="642" 
d="M323 670q89 0 154 -33.5t110 -98.5l-72 -69q-38 58 -85.5 83.5t-112.5 25.5q-48 0 -79 -13t-45.5 -34.5t-14.5 -48.5q0 -31 21.5 -54t80.5 -36l134 -30q96 -21 136 -64t40 -109q0 -61 -33 -106t-91.5 -69t-137.5 -24q-70 0 -126 18t-98 49t-69 71l74 74q21 -35 53 -62.5
t74.5 -42.5t94.5 -15q46 0 79.5 11t51 32.5t17.5 51.5q0 29 -19.5 51t-72.5 34l-145 33q-60 13 -99 37t-58 58.5t-19 77.5q0 56 30.5 101.5t88.5 73t138 27.5zM490 897l-107 -160h-112l-107 160h87l76 -102l76 102h87zM327 1085q33 0 51.5 -18t18.5 -48q0 -31 -18.5 -48.5
t-51.5 -17.5q-32 0 -50.5 17.5t-18.5 48.5q0 30 18.5 48t50.5 18z" />
    <glyph glyph-name="uni1E67" unicode="&#x1e67;" horiz-adv-x="529" 
d="M273 -10q-75 0 -137 29t-98 82l74 64q22 -41 63.5 -65.5t99.5 -24.5q46 0 73 16t27 45q0 19 -12.5 33.5t-47.5 22.5l-105 22q-80 16 -114 51.5t-34 90.5q0 41 24 76t70.5 56.5t111.5 21.5q75 0 128 -26.5t81 -75.5l-74 -62q-19 40 -56 59.5t-77 19.5q-32 0 -55 -8
t-35 -22t-12 -33q0 -20 15 -35t54 -23l114 -24q72 -14 101.5 -47.5t29.5 -81.5t-25 -84.5t-72 -56.5t-112 -20zM435 746l-113 -168h-112l-113 168h88l81 -107l81 107h88zM267 916q33 0 51.5 -18t18.5 -48q0 -31 -18.5 -48.5t-51.5 -17.5q-32 0 -50.5 17.5t-18.5 48.5
q0 30 18.5 48t50.5 18z" />
    <glyph glyph-name="uni1E68" unicode="&#x1e68;" horiz-adv-x="642" 
d="M323 670q89 0 154 -33.5t110 -98.5l-72 -69q-38 58 -85.5 83.5t-112.5 25.5q-48 0 -79 -13t-45.5 -34.5t-14.5 -48.5q0 -31 21.5 -54t80.5 -36l134 -30q96 -21 136 -64t40 -109q0 -61 -33 -106t-91.5 -69t-137.5 -24q-70 0 -126 18t-98 49t-69 71l74 74q21 -35 53 -62.5
t74.5 -42.5t94.5 -15q46 0 79.5 11t51 32.5t17.5 51.5q0 29 -19.5 51t-72.5 34l-145 33q-60 13 -99 37t-58 58.5t-19 77.5q0 56 30.5 101.5t88.5 73t138 27.5zM327 878q33 0 51.5 -18t18.5 -48q0 -31 -18.5 -48.5t-51.5 -17.5q-32 0 -50.5 17.5t-18.5 48.5q0 30 18.5 48
t50.5 18zM320 -218q-32 0 -50.5 18t-18.5 48q0 31 18.5 48.5t50.5 17.5q33 0 51.5 -17.5t18.5 -48.5q0 -30 -18.5 -48t-51.5 -18z" />
    <glyph glyph-name="uni1E69" unicode="&#x1e69;" horiz-adv-x="529" 
d="M273 -10q-75 0 -137 29t-98 82l74 64q22 -41 63.5 -65.5t99.5 -24.5q46 0 73 16t27 45q0 19 -12.5 33.5t-47.5 22.5l-105 22q-80 16 -114 51.5t-34 90.5q0 41 24 76t70.5 56.5t111.5 21.5q75 0 128 -26.5t81 -75.5l-74 -62q-19 40 -56 59.5t-77 19.5q-32 0 -55 -8
t-35 -22t-12 -33q0 -20 15 -35t54 -23l114 -24q72 -14 101.5 -47.5t29.5 -81.5t-25 -84.5t-72 -56.5t-112 -20zM267 718q33 0 51.5 -18t18.5 -48q0 -31 -18.5 -48.5t-51.5 -17.5q-32 0 -50.5 17.5t-18.5 48.5q0 30 18.5 48t50.5 18zM270 -218q-32 0 -50.5 18t-18.5 48
q0 31 18.5 48.5t50.5 17.5q33 0 51.5 -17.5t18.5 -48.5q0 -30 -18.5 -48t-51.5 -18z" />
    <glyph glyph-name="uni1E6C" unicode="&#x1e6c;" horiz-adv-x="619" 
d="M589 660v-92h-226v-568h-107v568h-226v92h559zM309 -218q-32 0 -50.5 18t-18.5 48q0 31 18.5 48.5t50.5 17.5q33 0 51.5 -17.5t18.5 -48.5q0 -30 -18.5 -48t-51.5 -18z" />
    <glyph glyph-name="uni1E6D" unicode="&#x1e6d;" horiz-adv-x="424" 
d="M229 647v-497q0 -37 19.5 -54t52.5 -17q27 0 47 8.5t37 23.5l24 -78q-23 -20 -56.5 -31.5t-74.5 -11.5q-43 0 -79 14t-56 45.5t-21 82.5v485zM401 500v-84h-375v84h375zM255 -218q-32 0 -50.5 18t-18.5 48q0 31 18.5 48.5t50.5 17.5q33 0 51.5 -17.5t18.5 -48.5
q0 -30 -18.5 -48t-51.5 -18z" />
    <glyph glyph-name="uni1E6E" unicode="&#x1e6e;" horiz-adv-x="619" 
d="M589 660v-92h-226v-568h-107v568h-226v92h559zM478 -88v-78h-338v78h338z" />
    <glyph glyph-name="uni1E6F" unicode="&#x1e6f;" horiz-adv-x="424" 
d="M229 647v-497q0 -37 19.5 -54t52.5 -17q27 0 47 8.5t37 23.5l24 -78q-23 -20 -56.5 -31.5t-74.5 -11.5q-43 0 -79 14t-56 45.5t-21 82.5v485zM401 500v-84h-375v84h375zM424 -88v-78h-338v78h338z" />
    <glyph glyph-name="uni1E78" unicode="&#x1e78;" horiz-adv-x="709" 
d="M624 660v-407q0 -131 -69 -197t-201 -66q-130 0 -199.5 66t-69.5 197v407h107v-394q0 -93 40 -138t122 -45q83 0 123 45t40 138v394h107zM539 856q-2 -47 -16.5 -78.5t-39 -47t-59.5 -15.5q-28 0 -47.5 10t-34 22.5t-28 22.5t-28.5 10q-21 0 -31.5 -17.5t-14.5 -48.5h-73
q4 71 34 106.5t84 35.5q27 0 46.5 -10t34 -22.5t27 -22.5t27.5 -10q21 0 31.5 17.5t15.5 47.5h72zM367 1077h104l-87 -160h-82z" />
    <glyph glyph-name="uni1E79" unicode="&#x1e79;" horiz-adv-x="618" 
d="M261 -10q-49 0 -90.5 18t-66.5 58t-25 104v330h107v-303q0 -68 29 -93.5t81 -25.5q25 0 48.5 8.5t42.5 27t29.5 47.5t10.5 68v271h107v-500h-94l-5 81q-26 -47 -70 -69t-104 -22zM491 709q-2 -47 -16.5 -78.5t-39 -47t-59.5 -15.5q-28 0 -47.5 10t-34 22.5t-28 22.5
t-28.5 10q-21 0 -31.5 -17.5t-14.5 -48.5h-73q4 71 34 106.5t84 35.5q27 0 46.5 -10t34 -22.5t27 -22.5t27.5 -10q21 0 31.5 17.5t15.5 47.5h72zM318 929h104l-87 -160h-82z" />
    <glyph glyph-name="uni1E7A" unicode="&#x1e7a;" horiz-adv-x="709" 
d="M624 660v-407q0 -131 -69 -197t-201 -66q-130 0 -199.5 66t-69.5 197v407h107v-394q0 -93 40 -138t122 -45q83 0 123 45t40 138v394h107zM523 805v-78h-338v78h338zM253 1004q30 0 47.5 -17t17.5 -46q0 -28 -17.5 -45.5t-47.5 -17.5q-29 0 -47 17.5t-18 45.5q0 29 18 46
t47 17zM455 1004q30 0 47.5 -17t17.5 -46q0 -28 -17.5 -45.5t-47.5 -17.5t-47.5 17.5t-17.5 45.5q0 29 17.5 46t47.5 17z" />
    <glyph glyph-name="uni1E7B" unicode="&#x1e7b;" horiz-adv-x="618" 
d="M261 -10q-49 0 -90.5 18t-66.5 58t-25 104v330h107v-303q0 -68 29 -93.5t81 -25.5q25 0 48.5 8.5t42.5 27t29.5 47.5t10.5 68v271h107v-500h-94l-5 81q-26 -47 -70 -69t-104 -22zM475 658v-78h-338v78h338zM205 856q30 0 47.5 -17t17.5 -46q0 -28 -17.5 -45.5
t-47.5 -17.5q-29 0 -47 17.5t-18 45.5q0 29 18 46t47 17zM407 856q30 0 47.5 -17t17.5 -46q0 -28 -17.5 -45.5t-47.5 -17.5t-47.5 17.5t-17.5 45.5q0 29 17.5 46t47.5 17z" />
    <glyph glyph-name="Wgrave" unicode="&#x1e80;" horiz-adv-x="972" 
d="M222 0l-194 660h113l148 -567l144 567h110l145 -568l147 568h109l-193 -660h-126l-105 396l-33 152h-1l-33 -152l-104 -396h-127zM473 897l65 -160h-82l-87 160h104z" />
    <glyph glyph-name="wgrave" unicode="&#x1e81;" horiz-adv-x="855" 
d="M719 500h116l-168 -500h-117l-126 371l-119 -371h-117l-167 500h115l114 -395l124 395h107l124 -395zM404 746l73 -168h-82l-99 168h108z" />
    <glyph glyph-name="Wacute" unicode="&#x1e82;" horiz-adv-x="972" 
d="M222 0l-194 660h113l148 -567l144 567h110l145 -568l147 568h109l-193 -660h-126l-105 396l-33 152h-1l-33 -152l-104 -396h-127zM499 897h104l-87 -160h-82z" />
    <glyph glyph-name="wacute" unicode="&#x1e83;" horiz-adv-x="855" 
d="M719 500h116l-168 -500h-117l-126 371l-119 -371h-117l-167 500h115l114 -395l124 395h107l124 -395zM444 746h108l-99 -168h-82z" />
    <glyph glyph-name="Wdieresis" unicode="&#x1e84;" horiz-adv-x="972" 
d="M222 0l-194 660h113l148 -567l144 567h110l145 -568l147 568h109l-193 -660h-126l-105 396l-33 152h-1l-33 -152l-104 -396h-127zM385 860q30 0 47.5 -17t17.5 -46q0 -28 -17.5 -45.5t-47.5 -17.5q-29 0 -47 17.5t-18 45.5q0 29 18 46t47 17zM587 860q30 0 47.5 -17
t17.5 -46q0 -28 -17.5 -45.5t-47.5 -17.5t-47.5 17.5t-17.5 45.5q0 29 17.5 46t47.5 17z" />
    <glyph glyph-name="wdieresis" unicode="&#x1e85;" horiz-adv-x="855" 
d="M719 500h116l-168 -500h-117l-126 371l-119 -371h-117l-167 500h115l114 -395l124 395h107l124 -395zM327 700q30 0 47.5 -17t17.5 -46q0 -28 -17.5 -45.5t-47.5 -17.5q-29 0 -47 17.5t-18 45.5q0 29 18 46t47 17zM529 700q30 0 47.5 -17t17.5 -46q0 -28 -17.5 -45.5
t-47.5 -17.5t-47.5 17.5t-17.5 45.5q0 29 17.5 46t47.5 17z" />
    <glyph glyph-name="uni1E8E" unicode="&#x1e8e;" horiz-adv-x="597" 
d="M588 660l-236 -407v-253h-107v253l-235 407h119l118 -213l52 -98l52 98l117 213h120zM299 862q33 0 51.5 -18t18.5 -48q0 -31 -18.5 -48.5t-51.5 -17.5q-32 0 -50.5 17.5t-18.5 48.5q0 30 18.5 48t50.5 18z" />
    <glyph glyph-name="uni1E8F" unicode="&#x1e8f;" horiz-adv-x="530" 
d="M522 500l-219 -559q-22 -58 -47.5 -92t-58.5 -49t-77 -15q-36 0 -66.5 9.5t-53.5 25.5l26 83q19 -16 40.5 -24t46.5 -8q27 0 48.5 14.5t38.5 57.5l22 54l-53 124l-156 379h120l111 -314l29 -94l33 103l105 305h111zM271 710q33 0 51.5 -18t18.5 -48q0 -31 -18.5 -48.5
t-51.5 -17.5q-32 0 -50.5 17.5t-18.5 48.5q0 30 18.5 48t50.5 18z" />
    <glyph glyph-name="uni1E92" unicode="&#x1e92;" horiz-adv-x="631" 
d="M141 54l-19 37h461v-91h-533v87l430 519l19 -37h-440v91h512v-87zM306 -218q-32 0 -50.5 18t-18.5 48q0 31 18.5 48.5t50.5 17.5q33 0 51.5 -17.5t18.5 -48.5q0 -30 -18.5 -48t-51.5 -18z" />
    <glyph glyph-name="uni1E93" unicode="&#x1e93;" horiz-adv-x="529" 
d="M51 0v74l242 282l61 62l-87 -2h-214v84h419v-74l-242 -282l-60 -62l95 2h216v-84h-430zM252 -218q-32 0 -50.5 18t-18.5 48q0 31 18.5 48.5t50.5 17.5q33 0 51.5 -17.5t18.5 -48.5q0 -30 -18.5 -48t-51.5 -18z" />
    <glyph glyph-name="uni1E97" unicode="&#x1e97;" horiz-adv-x="424" 
d="M229 647v-497q0 -37 19.5 -54t52.5 -17q27 0 47 8.5t37 23.5l24 -78q-23 -20 -56.5 -31.5t-74.5 -11.5q-43 0 -79 14t-56 45.5t-21 82.5v485zM401 500v-84h-375v84h375zM74 844q30 0 47.5 -17t17.5 -46q0 -28 -17.5 -45.5t-47.5 -17.5q-29 0 -47 17.5t-18 45.5
q0 29 18 46t47 17zM276 844q30 0 47.5 -17t17.5 -46q0 -28 -17.5 -45.5t-47.5 -17.5t-47.5 17.5t-17.5 45.5q0 29 17.5 46t47.5 17z" />
    <glyph glyph-name="uni1E9E" unicode="&#x1e9e;" horiz-adv-x="681" 
d="M444 -5q-64 0 -107 16t-65 38l39 80q21 -21 51.5 -33.5t68.5 -12.5q37 0 63 14.5t39.5 39.5t13.5 55q0 49 -32 74t-86 25h-100v76l166 202h-164q-38 0 -69.5 -18t-50 -49.5t-18.5 -73.5v-428h-108v436q0 68 30.5 118.5t84 78t122.5 27.5h289v-91l-186 -215l5 13h36
q53 0 95 -20.5t66.5 -59.5t24.5 -95q0 -62 -27 -106t-73.5 -67.5t-107.5 -23.5z" />
    <glyph glyph-name="uni1EA0" unicode="&#x1ea0;" horiz-adv-x="665" 
d="M20 0l249 660h128l249 -660h-113l-170 472l-30 95h-3l-28 -93l-172 -474h-110zM153 173v87h357v-87h-357zM333 -218q-32 0 -50.5 18t-18.5 48q0 31 18.5 48.5t50.5 17.5q33 0 51.5 -17.5t18.5 -48.5q0 -30 -18.5 -48t-51.5 -18z" />
    <glyph glyph-name="uni1EA1" unicode="&#x1ea1;" horiz-adv-x="570" 
d="M372 321q0 50 -27.5 77.5t-75.5 27.5q-45 0 -77 -21t-47 -68l-90 38q19 61 74.5 98t143.5 37q60 0 106 -19.5t72.5 -58.5t26.5 -100v-223q0 -37 37 -37q18 0 35 5l-6 -74q-23 -11 -58 -11q-32 0 -57.5 11.5t-40 35t-14.5 58.5v7l22 1q-9 -39 -37 -64.5t-65 -38t-75 -12.5
q-47 0 -84.5 15t-59 45.5t-21.5 75.5q0 56 36.5 92t103.5 49l194 38l-1 -75l-141 -29q-42 -8 -63 -23t-21 -44q0 -28 21.5 -44.5t57.5 -16.5q25 0 48.5 6t42.5 19.5t29.5 35t10.5 51.5v136zM277 -218q-32 0 -50.5 18t-18.5 48q0 31 18.5 48.5t50.5 17.5q33 0 51.5 -17.5
t18.5 -48.5q0 -30 -18.5 -48t-51.5 -18z" />
    <glyph glyph-name="uni1EA2" unicode="&#x1ea2;" horiz-adv-x="665" 
d="M20 0l249 660h128l249 -660h-113l-170 472l-30 95h-3l-28 -93l-172 -474h-110zM153 173v87h357v-87h-357zM334 711l-31 37q26 13 39 26.5t13 33.5q0 14 -9.5 24.5t-28.5 10.5q-14 0 -24.5 -7t-18.5 -23l-57 34q15 31 43.5 48.5t69.5 17.5q29 0 51.5 -11.5t35.5 -32
t13 -47.5t-12 -49t-34 -37.5t-50 -24.5z" />
    <glyph glyph-name="uni1EA3" unicode="&#x1ea3;" horiz-adv-x="570" 
d="M372 321q0 50 -27.5 77.5t-75.5 27.5q-45 0 -77 -21t-47 -68l-90 38q19 61 74.5 98t143.5 37q60 0 106 -19.5t72.5 -58.5t26.5 -100v-223q0 -37 37 -37q18 0 35 5l-6 -74q-23 -11 -58 -11q-32 0 -57.5 11.5t-40 35t-14.5 58.5v7l22 1q-9 -39 -37 -64.5t-65 -38t-75 -12.5
q-47 0 -84.5 15t-59 45.5t-21.5 75.5q0 56 36.5 92t103.5 49l194 38l-1 -75l-141 -29q-42 -8 -63 -23t-21 -44q0 -28 21.5 -44.5t57.5 -16.5q25 0 48.5 6t42.5 19.5t29.5 35t10.5 51.5v136zM268 547l-31 44q30 13 44 26.5t14 33.5q0 17 -10.5 27.5t-29.5 10.5
q-13 0 -24.5 -7.5t-21.5 -24.5l-55 34q13 34 43 51t70 17q30 0 53 -12t36.5 -33t13.5 -49q0 -27 -12.5 -49.5t-35.5 -39.5t-54 -29z" />
    <glyph glyph-name="uni1EA4" unicode="&#x1ea4;" horiz-adv-x="665" 
d="M497 731h-85l-79 106l-80 -106h-85l110 166h109zM521 988h93l-78 -144h-74zM20 0l249 660h128l249 -660h-113l-170 472l-30 95h-3l-28 -93l-172 -474h-110zM153 173v87h357v-87h-357z" />
    <glyph glyph-name="uni1EA5" unicode="&#x1ea5;" horiz-adv-x="570" 
d="M441 571h-85l-80 106l-80 -106h-85l111 166h108zM464 828h94l-78 -144h-74zM372 321q0 50 -26.5 77.5t-76.5 27.5q-46 0 -78 -20.5t-46 -68.5l-89 38q18 61 74 98t144 37q60 0 106 -19.5t72 -58t26 -97.5v-226q0 -37 38 -37q18 0 34 5l-5 -73q-23 -12 -59 -12
q-32 0 -57.5 11.5t-40 35t-14.5 59.5v10l21 -3q-10 -39 -38 -64.5t-65 -38t-74 -12.5q-46 0 -83.5 15t-59.5 45.5t-22 74.5q0 56 37 92.5t104 49.5l194 38l-1 -69l-141 -29q-44 -9 -65.5 -26t-21.5 -46q0 -28 22 -46t62 -18q25 0 48 6.5t41.5 20.5t29 35t10.5 49v139z" />
    <glyph glyph-name="uni1EA6" unicode="&#x1ea6;" horiz-adv-x="665" 
d="M497 731h-85l-79 106l-80 -106h-85l110 166h109zM497 988l59 -144h-74l-78 144h93zM20 0l249 660h128l249 -660h-113l-170 472l-30 95h-3l-28 -93l-172 -474h-110zM153 173v87h357v-87h-357z" />
    <glyph glyph-name="uni1EA7" unicode="&#x1ea7;" horiz-adv-x="570" 
d="M441 571h-85l-80 106l-80 -106h-85l111 166h108zM441 828l58 -144h-74l-78 144h94zM372 321q0 50 -26.5 77.5t-76.5 27.5q-46 0 -78 -20.5t-46 -68.5l-89 38q18 61 74 98t144 37q60 0 106 -19.5t72 -58t26 -97.5v-226q0 -37 38 -37q18 0 34 5l-5 -73q-23 -12 -59 -12
q-32 0 -57.5 11.5t-40 35t-14.5 59.5v10l21 -3q-10 -39 -38 -64.5t-65 -38t-74 -12.5q-46 0 -83.5 15t-59.5 45.5t-22 74.5q0 56 37 92.5t104 49.5l194 38l-1 -69l-141 -29q-44 -9 -65.5 -26t-21.5 -46q0 -28 22 -46t62 -18q25 0 48 6.5t41.5 20.5t29 35t10.5 49v139z" />
    <glyph glyph-name="uni1EA8" unicode="&#x1ea8;" horiz-adv-x="665" 
d="M497 731h-85l-79 106l-80 -106h-85l110 166h109zM499 825l-31 37q27 14 39.5 27t12.5 33q0 15 -9.5 25t-27.5 10q-15 0 -25.5 -7t-18.5 -22l-56 34q14 31 43 48t69 17q29 0 51.5 -11.5t35.5 -32t13 -47.5q0 -26 -12 -48.5t-34 -38t-50 -24.5zM20 0l249 660h128l249 -660
h-113l-170 472l-30 95h-3l-28 -93l-172 -474h-110zM153 173v87h357v-87h-357z" />
    <glyph glyph-name="uni1EA9" unicode="&#x1ea9;" horiz-adv-x="570" 
d="M441 571h-85l-80 106l-80 -106h-85l111 166h108zM443 665l-31 37q27 14 39.5 27t12.5 33q0 15 -9.5 25t-28.5 10q-14 0 -24.5 -7t-18.5 -22l-57 34q15 31 43.5 48t69.5 17q29 0 51.5 -11.5t35.5 -32t13 -47.5q0 -26 -12 -48.5t-34 -38t-50 -24.5zM372 321
q0 50 -26.5 77.5t-76.5 27.5q-46 0 -78 -20.5t-46 -68.5l-89 38q18 61 74 98t144 37q60 0 106 -19.5t72 -58t26 -97.5v-226q0 -37 38 -37q18 0 34 5l-5 -73q-23 -12 -59 -12q-32 0 -57.5 11.5t-40 35t-14.5 59.5v10l21 -3q-10 -39 -38 -64.5t-65 -38t-74 -12.5
q-46 0 -83.5 15t-59.5 45.5t-22 74.5q0 56 37 92.5t104 49.5l194 38l-1 -69l-141 -29q-44 -9 -65.5 -26t-21.5 -46q0 -28 22 -46t62 -18q25 0 48 6.5t41.5 20.5t29 35t10.5 49v139z" />
    <glyph glyph-name="uni1EAA" unicode="&#x1eaa;" horiz-adv-x="665" 
d="M497 731h-85l-79 106l-80 -106h-85l110 166h109zM509 1054q-4 -67 -34 -99t-76 -32q-28 0 -46.5 9t-31.5 20t-25.5 20.5t-27.5 9.5q-19 0 -28.5 -14.5t-14.5 -42.5h-71q5 67 34.5 99t79.5 32q26 0 44.5 -9.5t31.5 -20.5t25 -20t26 -9q19 0 29 14t15 43h70zM20 0l249 660
h128l249 -660h-113l-170 472l-30 95h-3l-28 -93l-172 -474h-110zM153 173v87h357v-87h-357z" />
    <glyph glyph-name="uni1EAB" unicode="&#x1eab;" horiz-adv-x="570" 
d="M441 571h-85l-80 106l-80 -106h-85l111 166h108zM453 894q-4 -67 -34 -99t-77 -32q-27 0 -45.5 9t-32 20t-25.5 20.5t-27 9.5q-19 0 -29 -14.5t-14 -42.5h-71q4 67 34 99t79 32q27 0 45 -9.5t31.5 -20.5t25 -20t26.5 -9q18 0 28.5 14t14.5 43h71zM372 321
q0 50 -26.5 77.5t-76.5 27.5q-46 0 -78 -20.5t-46 -68.5l-89 38q18 61 74 98t144 37q60 0 106 -19.5t72 -58t26 -97.5v-226q0 -37 38 -37q18 0 34 5l-5 -73q-23 -12 -59 -12q-32 0 -57.5 11.5t-40 35t-14.5 59.5v10l21 -3q-10 -39 -38 -64.5t-65 -38t-74 -12.5
q-46 0 -83.5 15t-59.5 45.5t-22 74.5q0 56 37 92.5t104 49.5l194 38l-1 -69l-141 -29q-44 -9 -65.5 -26t-21.5 -46q0 -28 22 -46t62 -18q25 0 48 6.5t41.5 20.5t29 35t10.5 49v139z" />
    <glyph glyph-name="uni1EAC" unicode="&#x1eac;" horiz-adv-x="665" 
d="M20 0l249 660h128l249 -660h-113l-170 472l-30 95h-3l-28 -93l-172 -474h-110zM153 173v87h357v-87h-357zM333 -218q-32 0 -50.5 18t-18.5 48q0 31 18.5 48.5t50.5 17.5q33 0 51.5 -17.5t18.5 -48.5q0 -30 -18.5 -48t-51.5 -18zM496 737h-87l-76 102l-76 -102h-87
l107 160h112z" />
    <glyph glyph-name="uni1EAD" unicode="&#x1ead;" horiz-adv-x="570" 
d="M372 321q0 50 -27.5 77.5t-75.5 27.5q-45 0 -77 -21t-47 -68l-90 38q19 61 74.5 98t143.5 37q60 0 106 -19.5t72.5 -58.5t26.5 -100v-223q0 -37 37 -37q18 0 35 5l-6 -74q-23 -11 -58 -11q-32 0 -57.5 11.5t-40 35t-14.5 58.5v7l22 1q-9 -39 -37 -64.5t-65 -38t-75 -12.5
q-47 0 -84.5 15t-59 45.5t-21.5 75.5q0 56 36.5 92t103.5 49l194 38l-1 -75l-141 -29q-42 -8 -63 -23t-21 -44q0 -28 21.5 -44.5t57.5 -16.5q25 0 48.5 6t42.5 19.5t29.5 35t10.5 51.5v136zM277 -218q-32 0 -50.5 18t-18.5 48q0 31 18.5 48.5t50.5 17.5q33 0 51.5 -17.5
t18.5 -48.5q0 -30 -18.5 -48t-51.5 -18zM445 571h-88l-81 107l-81 -107h-88l113 169h112z" />
    <glyph glyph-name="uni1EAE" unicode="&#x1eae;" horiz-adv-x="665" 
d="M484 880q0 -68 -42 -109t-109 -41q-68 0 -110 41t-42 109h76q1 -33 20 -57t56 -24t55.5 24t19.5 57h76zM277 899l52 134h100l-75 -134h-77zM20 0l249 660h128l249 -660h-113l-170 472l-30 95h-3l-28 -93l-172 -474h-110zM153 173v87h357v-87h-357z" />
    <glyph glyph-name="uni1EAF" unicode="&#x1eaf;" horiz-adv-x="570" 
d="M427 720q0 -68 -41.5 -109t-109.5 -41t-109.5 41t-41.5 109h76q1 -33 20 -57t55 -24q37 0 56 24t19 57h76zM221 739l52 134h99l-74 -134h-77zM372 321q0 50 -26.5 77.5t-76.5 27.5q-46 0 -78 -20.5t-46 -68.5l-89 38q18 61 74 98t144 37q60 0 106 -19.5t72 -58t26 -97.5
v-226q0 -37 38 -37q18 0 34 5l-5 -73q-23 -12 -59 -12q-32 0 -57.5 11.5t-40 35t-14.5 59.5v10l21 -3q-10 -39 -38 -64.5t-65 -38t-74 -12.5q-46 0 -83.5 15t-59.5 45.5t-22 74.5q0 56 37 92.5t104 49.5l194 38l-1 -69l-141 -29q-44 -9 -65.5 -26t-21.5 -46q0 -28 22 -46
t62 -18q25 0 48 6.5t41.5 20.5t29 35t10.5 49v139z" />
    <glyph glyph-name="uni1EB0" unicode="&#x1eb0;" horiz-adv-x="665" 
d="M484 880q0 -68 -42 -109t-109 -41q-68 0 -110 41t-42 109h76q1 -33 20 -57t56 -24t55.5 24t19.5 57h76zM388 899h-77l-75 134h100zM20 0l249 660h128l249 -660h-113l-170 472l-30 95h-3l-28 -93l-172 -474h-110zM153 173v87h357v-87h-357z" />
    <glyph glyph-name="uni1EB1" unicode="&#x1eb1;" horiz-adv-x="570" 
d="M427 720q0 -68 -41.5 -109t-109.5 -41t-109.5 41t-41.5 109h76q1 -33 20 -57t55 -24q37 0 56 24t19 57h76zM332 739h-77l-75 134h100zM372 321q0 50 -26.5 77.5t-76.5 27.5q-46 0 -78 -20.5t-46 -68.5l-89 38q18 61 74 98t144 37q60 0 106 -19.5t72 -58t26 -97.5v-226
q0 -37 38 -37q18 0 34 5l-5 -73q-23 -12 -59 -12q-32 0 -57.5 11.5t-40 35t-14.5 59.5v10l21 -3q-10 -39 -38 -64.5t-65 -38t-74 -12.5q-46 0 -83.5 15t-59.5 45.5t-22 74.5q0 56 37 92.5t104 49.5l194 38l-1 -69l-141 -29q-44 -9 -65.5 -26t-21.5 -46q0 -28 22 -46t62 -18
q25 0 48 6.5t41.5 20.5t29 35t10.5 49v139z" />
    <glyph glyph-name="uni1EB2" unicode="&#x1eb2;" horiz-adv-x="665" 
d="M484 880q0 -68 -42 -109t-109 -41q-68 0 -110 41t-42 109h76q1 -33 20 -57t56 -24t55.5 24t19.5 57h76zM334 884l-30 36q26 13 38 26t12 33q0 15 -9 24.5t-27 9.5q-15 0 -25.5 -6.5t-18.5 -21.5l-54 33q14 30 42 47t68 17q28 0 50 -11.5t34.5 -31.5t12.5 -46t-11.5 -48
t-33 -37t-48.5 -24zM20 0l249 660h128l249 -660h-113l-170 472l-30 95h-3l-28 -93l-172 -474h-110zM153 173v87h357v-87h-357z" />
    <glyph glyph-name="uni1EB3" unicode="&#x1eb3;" horiz-adv-x="570" 
d="M427 720q0 -68 -41.5 -109t-109.5 -41t-109.5 41t-41.5 109h76q1 -33 20 -57t55 -24q37 0 56 24t19 57h76zM277 724l-30 36q26 13 38.5 26t12.5 33q0 15 -9.5 24.5t-27.5 9.5q-14 0 -24.5 -6.5t-18.5 -21.5l-55 33q15 30 43 47t67 17q29 0 51 -11.5t34.5 -31.5t12.5 -46
t-11.5 -48t-33 -37t-49.5 -24zM372 321q0 50 -26.5 77.5t-76.5 27.5q-46 0 -78 -20.5t-46 -68.5l-89 38q18 61 74 98t144 37q60 0 106 -19.5t72 -58t26 -97.5v-226q0 -37 38 -37q18 0 34 5l-5 -73q-23 -12 -59 -12q-32 0 -57.5 11.5t-40 35t-14.5 59.5v10l21 -3
q-10 -39 -38 -64.5t-65 -38t-74 -12.5q-46 0 -83.5 15t-59.5 45.5t-22 74.5q0 56 37 92.5t104 49.5l194 38l-1 -69l-141 -29q-44 -9 -65.5 -26t-21.5 -46q0 -28 22 -46t62 -18q25 0 48 6.5t41.5 20.5t29 35t10.5 49v139z" />
    <glyph glyph-name="uni1EB4" unicode="&#x1eb4;" horiz-adv-x="665" 
d="M484 880q0 -68 -41.5 -109t-109.5 -41t-109.5 41t-41.5 109h76q1 -33 20 -57t55 -24q38 0 56.5 24t19.5 57h75zM510 1044q-4 -67 -34 -99t-76 -32q-28 0 -46.5 9t-31.5 20.5t-25.5 20.5t-27.5 9q-19 0 -29 -14t-14 -43h-71q5 67 34.5 99t78.5 32q27 0 45 -9t31.5 -20.5
t25 -20.5t26.5 -9q19 0 29 14t14 43h71zM20 0l249 660h128l249 -660h-113l-170 472l-30 95h-3l-28 -93l-172 -474h-110zM153 173v87h357v-87h-357z" />
    <glyph glyph-name="uni1EB5" unicode="&#x1eb5;" horiz-adv-x="570" 
d="M428 720q0 -68 -41.5 -109t-109.5 -41t-109.5 41t-41.5 109h76q0 -33 19 -57t56 -24t55.5 24t19.5 57h76zM454 884q-5 -67 -34.5 -99t-76.5 -32q-27 0 -45.5 9t-32 20.5t-26 20.5t-27.5 9q-19 0 -28.5 -14t-14.5 -43h-70q4 67 33.5 99t79.5 32q26 0 44.5 -9t31.5 -20.5
t25 -20.5t27 -9q18 0 28.5 14t14.5 43h71zM372 321q0 50 -26.5 77.5t-76.5 27.5q-46 0 -78 -20.5t-46 -68.5l-89 38q18 61 74 98t144 37q60 0 106 -19.5t72 -58t26 -97.5v-226q0 -37 38 -37q18 0 34 5l-5 -73q-23 -12 -59 -12q-32 0 -57.5 11.5t-40 35t-14.5 59.5v10l21 -3
q-10 -39 -38 -64.5t-65 -38t-74 -12.5q-46 0 -83.5 15t-59.5 45.5t-22 74.5q0 56 37 92.5t104 49.5l194 38l-1 -69l-141 -29q-44 -9 -65.5 -26t-21.5 -46q0 -28 22 -46t62 -18q25 0 48 6.5t41.5 20.5t29 35t10.5 49v139z" />
    <glyph glyph-name="uni1EB6" unicode="&#x1eb6;" horiz-adv-x="665" 
d="M20 0l249 660h128l249 -660h-113l-170 472l-30 95h-3l-28 -93l-172 -474h-110zM153 173v87h357v-87h-357zM333 -218q-32 0 -50.5 18t-18.5 48q0 31 18.5 48.5t50.5 17.5q33 0 51.5 -17.5t18.5 -48.5q0 -30 -18.5 -48t-51.5 -18zM487 883q0 -69 -42 -111t-112 -42
q-69 0 -111.5 42t-42.5 111h78q1 -34 20 -58t56 -24q38 0 56.5 24t19.5 58h78z" />
    <glyph glyph-name="uni1EB7" unicode="&#x1eb7;" horiz-adv-x="570" 
d="M372 321q0 50 -27.5 77.5t-75.5 27.5q-45 0 -77 -21t-47 -68l-90 38q19 61 74.5 98t143.5 37q60 0 106 -19.5t72.5 -58.5t26.5 -100v-223q0 -37 37 -37q18 0 35 5l-6 -74q-23 -11 -58 -11q-32 0 -57.5 11.5t-40 35t-14.5 58.5v7l22 1q-9 -39 -37 -64.5t-65 -38t-75 -12.5
q-47 0 -84.5 15t-59 45.5t-21.5 75.5q0 56 36.5 92t103.5 49l194 38l-1 -75l-141 -29q-42 -8 -63 -23t-21 -44q0 -28 21.5 -44.5t57.5 -16.5q25 0 48.5 6t42.5 19.5t29.5 35t10.5 51.5v136zM277 -218q-32 0 -50.5 18t-18.5 48q0 31 18.5 48.5t50.5 17.5q33 0 51.5 -17.5
t18.5 -48.5q0 -30 -18.5 -48t-51.5 -18zM430 723q0 -69 -42 -111t-112 -42q-69 0 -111.5 42t-42.5 111h78q1 -34 20 -58t56 -24q38 0 56.5 24t19.5 58h78z" />
    <glyph glyph-name="uni1EB8" unicode="&#x1eb8;" horiz-adv-x="636" 
d="M98 0v660h478v-92h-371v-190h290v-90h-290v-196h385v-92h-492zM348 -218q-32 0 -50.5 18t-18.5 48q0 31 18.5 48.5t50.5 17.5q33 0 51.5 -17.5t18.5 -48.5q0 -30 -18.5 -48t-51.5 -18z" />
    <glyph glyph-name="uni1EB9" unicode="&#x1eb9;" horiz-adv-x="578" 
d="M303 -10q-75 0 -132 31t-88.5 89.5t-31.5 139.5t31.5 139.5t87.5 89.5t127 31q73 0 124 -30t78 -82t27 -118q0 -18 -1 -34t-3 -28h-402v82h355l-53 -16q0 68 -34 104.5t-93 36.5q-43 0 -75 -20t-49 -59.5t-17 -96.5q0 -56 18 -95t51 -59t78 -20q50 0 81 19t49 53l85 -40
q-18 -36 -48.5 -62.5t-72.5 -40.5t-92 -14zM299 -218q-32 0 -50.5 18t-18.5 48q0 31 18.5 48.5t50.5 17.5q33 0 51.5 -17.5t18.5 -48.5q0 -30 -18.5 -48t-51.5 -18z" />
    <glyph glyph-name="uni1EBA" unicode="&#x1eba;" horiz-adv-x="636" 
d="M98 0v660h478v-92h-371v-190h290v-90h-290v-196h385v-92h-492zM338 711l-31 37q26 13 39 26.5t13 33.5q0 14 -9.5 24.5t-28.5 10.5q-14 0 -24.5 -7t-18.5 -23l-57 34q15 31 43.5 48.5t69.5 17.5q29 0 51.5 -11.5t35.5 -32t13 -47.5t-12 -49t-34 -37.5t-50 -24.5z" />
    <glyph glyph-name="uni1EBB" unicode="&#x1ebb;" horiz-adv-x="578" 
d="M303 -10q-75 0 -132 31t-88.5 89.5t-31.5 139.5t31.5 139.5t87.5 89.5t127 31q73 0 124 -30t78 -82t27 -118q0 -18 -1 -34t-3 -28h-402v82h355l-53 -16q0 68 -34 104.5t-93 36.5q-43 0 -75 -20t-49 -59.5t-17 -96.5q0 -56 18 -95t51 -59t78 -20q50 0 81 19t49 53l85 -40
q-18 -36 -48.5 -62.5t-72.5 -40.5t-92 -14zM283 547l-31 44q30 13 44 26.5t14 33.5q0 17 -10.5 27.5t-29.5 10.5q-13 0 -24.5 -7.5t-21.5 -24.5l-55 34q13 34 43 51t70 17q30 0 53 -12t36.5 -33t13.5 -49q0 -27 -12.5 -49.5t-35.5 -39.5t-54 -29z" />
    <glyph glyph-name="uni1EBC" unicode="&#x1ebc;" horiz-adv-x="636" 
d="M98 0v660h478v-92h-371v-190h290v-90h-290v-196h385v-92h-492zM522 877q-2 -47 -16.5 -78.5t-39 -47t-59.5 -15.5q-28 0 -47.5 10t-34 22.5t-28 22.5t-28.5 10q-21 0 -31.5 -17.5t-14.5 -48.5h-73q4 71 34 106.5t84 35.5q27 0 46.5 -10t34 -22.5t27 -22.5t27.5 -10
q21 0 31.5 17.5t15.5 47.5h72z" />
    <glyph glyph-name="uni1EBD" unicode="&#x1ebd;" horiz-adv-x="578" 
d="M303 -10q-75 0 -132 31t-88.5 89.5t-31.5 139.5t31.5 139.5t87.5 89.5t127 31q73 0 124 -30t78 -82t27 -118q0 -18 -1 -34t-3 -28h-402v82h355l-53 -16q0 68 -34 104.5t-93 36.5q-43 0 -75 -20t-49 -59.5t-17 -96.5q0 -56 18 -95t51 -59t78 -20q50 0 81 19t49 53l85 -40
q-18 -36 -48.5 -62.5t-72.5 -40.5t-92 -14zM477 717q-2 -47 -16.5 -78.5t-39 -47t-59.5 -15.5q-28 0 -47.5 10t-34 22.5t-28 22.5t-28.5 10q-21 0 -31.5 -17.5t-14.5 -48.5h-73q4 71 34 106.5t84 35.5q27 0 46.5 -10t34 -22.5t27 -22.5t27.5 -10q21 0 31.5 17.5t15.5 47.5
h72z" />
    <glyph glyph-name="uni1EBE" unicode="&#x1ebe;" horiz-adv-x="636" 
d="M502 731h-85l-80 106l-80 -106h-85l111 166h108zM525 988h94l-78 -144h-74zM98 0v660h478v-92h-371v-190h290v-90h-290v-196h385v-92h-492z" />
    <glyph glyph-name="uni1EBF" unicode="&#x1ebf;" horiz-adv-x="578" 
d="M480 828h94l-78 -144h-74zM457 571h-85l-80 106l-80 -106h-85l111 166h108zM303 -10q-75 0 -132 31t-88.5 89.5t-31.5 139.5t31.5 139.5t87 89.5t127.5 31q73 0 124 -30t78 -82t27 -118q0 -17 -1 -31.5t-3 -25.5h-402v74h355l-53 -15q0 69 -34 106t-92 37q-44 0 -76 -20
t-49 -59.5t-17 -96.5q0 -56 18 -95t50.5 -59t79.5 -20q49 0 80 19.5t49 52.5l85 -40q-17 -36 -48 -62.5t-73 -40.5t-92 -14z" />
    <glyph glyph-name="uni1EC0" unicode="&#x1ec0;" horiz-adv-x="636" 
d="M502 731h-85l-80 106l-80 -106h-85l111 166h108zM502 988l58 -144h-74l-78 144h94zM98 0v660h478v-92h-371v-190h290v-90h-290v-196h385v-92h-492z" />
    <glyph glyph-name="uni1EC1" unicode="&#x1ec1;" horiz-adv-x="578" 
d="M457 828l58 -144h-74l-78 144h94zM457 571h-85l-80 106l-80 -106h-85l111 166h108zM303 -10q-75 0 -132 31t-88.5 89.5t-31.5 139.5t31.5 139.5t87 89.5t127.5 31q73 0 124 -30t78 -82t27 -118q0 -17 -1 -31.5t-3 -25.5h-402v74h355l-53 -15q0 69 -34 106t-92 37
q-44 0 -76 -20t-49 -59.5t-17 -96.5q0 -56 18 -95t50.5 -59t79.5 -20q49 0 80 19.5t49 52.5l85 -40q-17 -36 -48 -62.5t-73 -40.5t-92 -14z" />
    <glyph glyph-name="uni1EC2" unicode="&#x1ec2;" horiz-adv-x="636" 
d="M502 731h-85l-80 106l-80 -106h-85l111 166h108zM504 825l-31 37q26 14 39 27t13 33q0 15 -9.5 25t-28.5 10q-14 0 -24.5 -7t-18.5 -22l-57 34q15 31 43.5 48t69.5 17q29 0 51.5 -11.5t35.5 -32t13 -47.5q0 -26 -12.5 -48.5t-34 -38t-49.5 -24.5zM98 0v660h478v-92h-371
v-190h290v-90h-290v-196h385v-92h-492z" />
    <glyph glyph-name="uni1EC3" unicode="&#x1ec3;" horiz-adv-x="578" 
d="M458 665l-30 37q26 14 39 27t13 33q0 15 -10 25t-28 10q-15 0 -25 -7t-19 -22l-56 34q14 31 43 48t69 17q29 0 51.5 -11.5t35.5 -32t13 -47.5q0 -26 -12 -48.5t-33.5 -38t-50.5 -24.5zM457 571h-85l-80 106l-80 -106h-85l111 166h108zM303 -10q-75 0 -132 31t-88.5 89.5
t-31.5 139.5t31.5 139.5t87 89.5t127.5 31q73 0 124 -30t78 -82t27 -118q0 -17 -1 -31.5t-3 -25.5h-402v74h355l-53 -15q0 69 -34 106t-92 37q-44 0 -76 -20t-49 -59.5t-17 -96.5q0 -56 18 -95t50.5 -59t79.5 -20q49 0 80 19.5t49 52.5l85 -40q-17 -36 -48 -62.5t-73 -40.5
t-92 -14z" />
    <glyph glyph-name="uni1EC4" unicode="&#x1ec4;" horiz-adv-x="636" 
d="M502 731h-85l-80 106l-80 -106h-85l111 166h108zM514 1054q-4 -67 -34 -99t-77 -32q-27 0 -45.5 9t-32 20t-25.5 20.5t-28 9.5q-18 0 -28 -14.5t-14 -42.5h-71q4 67 34 99t79 32q27 0 45 -9.5t31.5 -20.5t25 -20t26.5 -9q18 0 28.5 14t14.5 43h71zM98 0v660h478v-92h-371
v-190h290v-90h-290v-196h385v-92h-492z" />
    <glyph glyph-name="uni1EC5" unicode="&#x1ec5;" horiz-adv-x="578" 
d="M457 571h-85l-80 106l-80 -106h-85l111 166h108zM469 894q-5 -67 -34.5 -99t-76.5 -32q-27 0 -45.5 9t-32 20t-25.5 20.5t-28 9.5q-19 0 -28.5 -14.5t-14.5 -42.5h-70q4 67 33.5 99t79.5 32q26 0 44.5 -9.5t32 -20.5t25 -20t26.5 -9q18 0 28.5 14t14.5 43h71zM303 -10
q-75 0 -132 31t-88.5 89.5t-31.5 139.5t31.5 139.5t87 89.5t127.5 31q73 0 124 -30t78 -82t27 -118q0 -17 -1 -31.5t-3 -25.5h-402v74h355l-53 -15q0 69 -34 106t-92 37q-44 0 -76 -20t-49 -59.5t-17 -96.5q0 -56 18 -95t50.5 -59t79.5 -20q49 0 80 19.5t49 52.5l85 -40
q-17 -36 -48 -62.5t-73 -40.5t-92 -14z" />
    <glyph glyph-name="uni1EC6" unicode="&#x1ec6;" horiz-adv-x="636" 
d="M98 0v660h478v-92h-371v-190h290v-90h-290v-196h385v-92h-492zM348 -218q-32 0 -50.5 18t-18.5 48q0 31 18.5 48.5t50.5 17.5q33 0 51.5 -17.5t18.5 -48.5q0 -30 -18.5 -48t-51.5 -18zM500 737h-87l-76 102l-76 -102h-87l107 160h112z" />
    <glyph glyph-name="uni1EC7" unicode="&#x1ec7;" horiz-adv-x="578" 
d="M303 -10q-75 0 -132 31t-88.5 89.5t-31.5 139.5t31.5 139.5t87.5 89.5t127 31q73 0 124 -30t78 -82t27 -118q0 -18 -1 -34t-3 -28h-402v82h355l-53 -16q0 68 -34 104.5t-93 36.5q-43 0 -75 -20t-49 -59.5t-17 -96.5q0 -56 18 -95t51 -59t78 -20q50 0 81 19t49 53l85 -40
q-18 -36 -48.5 -62.5t-72.5 -40.5t-92 -14zM299 -218q-32 0 -50.5 18t-18.5 48q0 31 18.5 48.5t50.5 17.5q33 0 51.5 -17.5t18.5 -48.5q0 -30 -18.5 -48t-51.5 -18zM461 571h-88l-81 107l-81 -107h-88l113 169h112z" />
    <glyph glyph-name="uni1EC8" unicode="&#x1ec8;" horiz-adv-x="303" 
d="M205 660v-660h-107v660h107zM153 711l-31 37q26 13 39 26.5t13 33.5q0 14 -9.5 24.5t-28.5 10.5q-14 0 -24.5 -7t-18.5 -23l-57 34q15 31 43.5 48.5t69.5 17.5q29 0 51.5 -11.5t35.5 -32t13 -47.5t-12 -49t-34 -37.5t-50 -24.5z" />
    <glyph glyph-name="uni1EC9" unicode="&#x1ec9;" horiz-adv-x="274" 
d="M190 500v-500h-107v500h107zM128 547l-31 44q30 13 44 26.5t14 33.5q0 17 -10.5 27.5t-29.5 10.5q-13 0 -24.5 -7.5t-21.5 -24.5l-55 34q13 34 43 51t70 17q30 0 53 -12t36.5 -33t13.5 -49q0 -27 -12.5 -49.5t-35.5 -39.5t-54 -29z" />
    <glyph glyph-name="uni1ECA" unicode="&#x1eca;" horiz-adv-x="303" 
d="M205 660v-660h-107v660h107zM151 -218q-32 0 -50.5 18t-18.5 48q0 31 18.5 48.5t50.5 17.5q33 0 51.5 -17.5t18.5 -48.5q0 -30 -18.5 -48t-51.5 -18z" />
    <glyph glyph-name="uni1ECB" unicode="&#x1ecb;" horiz-adv-x="274" 
d="M137 584q-35 0 -53.5 17.5t-18.5 49.5t18.5 49t53.5 17q34 0 52.5 -17t18.5 -49t-18.5 -49.5t-52.5 -17.5zM190 500v-500h-107v500h107zM137 -218q-32 0 -50.5 18t-18.5 48q0 31 18.5 48.5t50.5 17.5q33 0 51.5 -17.5t18.5 -48.5q0 -30 -18.5 -48t-51.5 -18z" />
    <glyph glyph-name="uni1ECC" unicode="&#x1ecc;" horiz-adv-x="745" 
d="M372 670q96 0 166 -41t108 -117t38 -182t-38 -182t-108 -117t-166 -41q-95 0 -165 41t-108 117t-38 182t38 182t108 117t165 41zM372 577q-62 0 -106.5 -29t-68.5 -84t-24 -134q0 -78 24 -133.5t68.5 -84.5t106.5 -29q63 0 107.5 29t68.5 84.5t24 133.5q0 79 -24 134
t-68.5 84t-107.5 29zM372 -218q-32 0 -50.5 18t-18.5 48q0 31 18.5 48.5t50.5 17.5q33 0 51.5 -17.5t18.5 -48.5q0 -30 -18.5 -48t-51.5 -18z" />
    <glyph glyph-name="uni1ECD" unicode="&#x1ecd;" horiz-adv-x="600" 
d="M300 510q73 0 129 -31t87.5 -89.5t31.5 -139.5t-31.5 -139.5t-87.5 -89.5t-129 -31t-129 31t-88 89.5t-32 139.5t32 139.5t88 89.5t129 31zM300 426q-45 0 -76.5 -20.5t-48.5 -59.5t-17 -96q0 -56 17 -95.5t48.5 -60t76.5 -20.5t76 20.5t48 60t17 95.5q0 57 -17 96
t-48 59.5t-76 20.5zM300 -218q-32 0 -50.5 18t-18.5 48q0 31 18.5 48.5t50.5 17.5q33 0 51.5 -17.5t18.5 -48.5q0 -30 -18.5 -48t-51.5 -18z" />
    <glyph glyph-name="uni1ECE" unicode="&#x1ece;" horiz-adv-x="745" 
d="M372 670q96 0 166 -41t108 -117t38 -182t-38 -182t-108 -117t-166 -41q-95 0 -165 41t-108 117t-38 182t38 182t108 117t165 41zM372 577q-62 0 -106.5 -29t-68.5 -84t-24 -134q0 -78 24 -133.5t68.5 -84.5t106.5 -29q63 0 107.5 29t68.5 84.5t24 133.5q0 79 -24 134
t-68.5 84t-107.5 29zM374 711l-31 37q26 13 39 26.5t13 33.5q0 14 -9.5 24.5t-28.5 10.5q-14 0 -24.5 -7t-18.5 -23l-57 34q15 31 43.5 48.5t69.5 17.5q29 0 51.5 -11.5t35.5 -32t13 -47.5t-12 -49t-34 -37.5t-50 -24.5z" />
    <glyph glyph-name="uni1ECF" unicode="&#x1ecf;" horiz-adv-x="600" 
d="M300 510q73 0 129 -31t87.5 -89.5t31.5 -139.5t-31.5 -139.5t-87.5 -89.5t-129 -31t-129 31t-88 89.5t-32 139.5t32 139.5t88 89.5t129 31zM300 426q-45 0 -76.5 -20.5t-48.5 -59.5t-17 -96q0 -56 17 -95.5t48.5 -60t76.5 -20.5t76 20.5t48 60t17 95.5q0 57 -17 96
t-48 59.5t-76 20.5zM291 547l-31 44q30 13 44 26.5t14 33.5q0 17 -10.5 27.5t-29.5 10.5q-13 0 -24.5 -7.5t-21.5 -24.5l-55 34q13 34 43 51t70 17q30 0 53 -12t36.5 -33t13.5 -49q0 -27 -12.5 -49.5t-35.5 -39.5t-54 -29z" />
    <glyph glyph-name="uni1ED0" unicode="&#x1ed0;" horiz-adv-x="745" 
d="M537 731h-85l-80 106l-79 -106h-86l111 166h109zM561 988h93l-78 -144h-74zM372 670q96 0 166 -41t108 -117t38 -182t-38 -182t-108 -117t-166 -41q-95 0 -165 41t-108 117t-38 182t38 182t108 117t165 41zM372 577q-62 0 -106.5 -29t-68.5 -84t-24 -134q0 -78 24 -133.5
t68.5 -84.5t106.5 -29q63 0 107.5 29t68.5 84.5t24 133.5q0 79 -24 134t-68.5 84t-107.5 29z" />
    <glyph glyph-name="uni1ED1" unicode="&#x1ed1;" horiz-adv-x="600" 
d="M488 828h93l-77 -144h-74zM465 571h-85l-80 106l-80 -106h-85l111 166h108zM300 510q73 0 129 -31t87.5 -89.5t31.5 -139.5t-31.5 -139.5t-87.5 -89.5t-129 -31t-129 31t-88 89.5t-32 139.5t32 139.5t88 89.5t129 31zM300 426q-45 0 -76.5 -20.5t-48.5 -59.5t-17 -96
q0 -56 17 -95.5t48.5 -60t76.5 -20.5t76 20.5t48 60t17 95.5q0 57 -17 96t-48 59.5t-76 20.5z" />
    <glyph glyph-name="uni1ED2" unicode="&#x1ed2;" horiz-adv-x="745" 
d="M537 731h-85l-80 106l-79 -106h-86l111 166h109zM537 988l59 -144h-74l-78 144h93zM372 670q96 0 166 -41t108 -117t38 -182t-38 -182t-108 -117t-166 -41q-95 0 -165 41t-108 117t-38 182t38 182t108 117t165 41zM372 577q-62 0 -106.5 -29t-68.5 -84t-24 -134
q0 -78 24 -133.5t68.5 -84.5t106.5 -29q63 0 107.5 29t68.5 84.5t24 133.5q0 79 -24 134t-68.5 84t-107.5 29z" />
    <glyph glyph-name="uni1ED3" unicode="&#x1ed3;" horiz-adv-x="600" 
d="M464 828l59 -144h-74l-78 144h93zM465 571h-85l-80 106l-80 -106h-85l111 166h108zM300 510q73 0 129 -31t87.5 -89.5t31.5 -139.5t-31.5 -139.5t-87.5 -89.5t-129 -31t-129 31t-88 89.5t-32 139.5t32 139.5t88 89.5t129 31zM300 426q-45 0 -76.5 -20.5t-48.5 -59.5
t-17 -96q0 -56 17 -95.5t48.5 -60t76.5 -20.5t76 20.5t48 60t17 95.5q0 57 -17 96t-48 59.5t-76 20.5z" />
    <glyph glyph-name="uni1ED4" unicode="&#x1ed4;" horiz-adv-x="745" 
d="M537 731h-85l-80 106l-79 -106h-86l111 166h109zM539 825l-31 37q27 14 39.5 27t12.5 33q0 15 -9.5 25t-27.5 10q-15 0 -25.5 -7t-18.5 -22l-56 34q14 31 42.5 48t69.5 17q29 0 51.5 -11.5t35.5 -32t13 -47.5q0 -26 -12 -48.5t-34 -38t-50 -24.5zM372 670q96 0 166 -41
t108 -117t38 -182t-38 -182t-108 -117t-166 -41q-95 0 -165 41t-108 117t-38 182t38 182t108 117t165 41zM372 577q-62 0 -106.5 -29t-68.5 -84t-24 -134q0 -78 24 -133.5t68.5 -84.5t106.5 -29q63 0 107.5 29t68.5 84.5t24 133.5q0 79 -24 134t-68.5 84t-107.5 29z" />
    <glyph glyph-name="uni1ED5" unicode="&#x1ed5;" horiz-adv-x="600" 
d="M466 665l-30 37q26 14 38.5 27t12.5 33q0 15 -9.5 25t-27.5 10q-15 0 -25.5 -7t-18.5 -22l-56 34q14 31 43 48t69 17q29 0 51.5 -11.5t35.5 -32t13 -47.5q0 -26 -12 -48.5t-33.5 -38t-50.5 -24.5zM465 571h-85l-80 106l-80 -106h-85l111 166h108zM300 510q73 0 129 -31
t87.5 -89.5t31.5 -139.5t-31.5 -139.5t-87.5 -89.5t-129 -31t-129 31t-88 89.5t-32 139.5t32 139.5t88 89.5t129 31zM300 426q-45 0 -76.5 -20.5t-48.5 -59.5t-17 -96q0 -56 17 -95.5t48.5 -60t76.5 -20.5t76 20.5t48 60t17 95.5q0 57 -17 96t-48 59.5t-76 20.5z" />
    <glyph glyph-name="uni1ED6" unicode="&#x1ed6;" horiz-adv-x="745" 
d="M537 731h-85l-80 106l-79 -106h-86l111 166h109zM549 1054q-4 -67 -34 -99t-76 -32q-28 0 -46.5 9t-31.5 20t-25.5 20.5t-27.5 9.5q-19 0 -29 -14.5t-14 -42.5h-71q5 67 34.5 99t78.5 32q27 0 45 -9.5t31.5 -20.5t25 -20t26.5 -9q19 0 29 14t15 43h70zM372 670
q96 0 166 -41t108 -117t38 -182t-38 -182t-108 -117t-166 -41q-95 0 -165 41t-108 117t-38 182t38 182t108 117t165 41zM372 577q-62 0 -106.5 -29t-68.5 -84t-24 -134q0 -78 24 -133.5t68.5 -84.5t106.5 -29q63 0 107.5 29t68.5 84.5t24 133.5q0 79 -24 134t-68.5 84
t-107.5 29z" />
    <glyph glyph-name="uni1ED7" unicode="&#x1ed7;" horiz-adv-x="600" 
d="M465 571h-85l-80 106l-80 -106h-85l111 166h108zM477 894q-5 -67 -34.5 -99t-76.5 -32q-27 0 -45.5 9t-32 20t-26 20.5t-27.5 9.5q-19 0 -28.5 -14.5t-14.5 -42.5h-70q4 67 33.5 99t79.5 32q26 0 44.5 -9.5t31.5 -20.5t25 -20t27 -9q18 0 28.5 14t14.5 43h71zM300 510
q73 0 129 -31t87.5 -89.5t31.5 -139.5t-31.5 -139.5t-87.5 -89.5t-129 -31t-129 31t-88 89.5t-32 139.5t32 139.5t88 89.5t129 31zM300 426q-45 0 -76.5 -20.5t-48.5 -59.5t-17 -96q0 -56 17 -95.5t48.5 -60t76.5 -20.5t76 20.5t48 60t17 95.5q0 57 -17 96t-48 59.5
t-76 20.5z" />
    <glyph glyph-name="uni1ED8" unicode="&#x1ed8;" horiz-adv-x="745" 
d="M372 670q96 0 166 -41t108 -117t38 -182t-38 -182t-108 -117t-166 -41q-95 0 -165 41t-108 117t-38 182t38 182t108 117t165 41zM372 577q-62 0 -106.5 -29t-68.5 -84t-24 -134q0 -78 24 -133.5t68.5 -84.5t106.5 -29q63 0 107.5 29t68.5 84.5t24 133.5q0 79 -24 134
t-68.5 84t-107.5 29zM372 -218q-32 0 -50.5 18t-18.5 48q0 31 18.5 48.5t50.5 17.5q33 0 51.5 -17.5t18.5 -48.5q0 -30 -18.5 -48t-51.5 -18zM535 737h-87l-76 102l-76 -102h-87l107 160h112z" />
    <glyph glyph-name="uni1ED9" unicode="&#x1ed9;" horiz-adv-x="600" 
d="M300 510q73 0 129 -31t87.5 -89.5t31.5 -139.5t-31.5 -139.5t-87.5 -89.5t-129 -31t-129 31t-88 89.5t-32 139.5t32 139.5t88 89.5t129 31zM300 426q-45 0 -76.5 -20.5t-48.5 -59.5t-17 -96q0 -56 17 -95.5t48.5 -60t76.5 -20.5t76 20.5t48 60t17 95.5q0 57 -17 96
t-48 59.5t-76 20.5zM300 -218q-32 0 -50.5 18t-18.5 48q0 31 18.5 48.5t50.5 17.5q33 0 51.5 -17.5t18.5 -48.5q0 -30 -18.5 -48t-51.5 -18zM469 571h-88l-81 107l-81 -107h-88l113 169h112z" />
    <glyph glyph-name="uni1EDA" unicode="&#x1eda;" horiz-adv-x="745" 
d="M658 767q0 -85 -47.5 -132.5t-139.5 -47.5l-16 73q66 0 90 27.5t24 79.5h89zM372 670q96 0 166 -41t108 -117t38 -182t-38 -182t-108 -117t-166 -41q-95 0 -165 41t-108 117t-38 182t38 182t108 117t165 41zM372 577q-62 0 -106.5 -29t-68.5 -84t-24 -134
q0 -78 24 -133.5t68.5 -84.5t106.5 -29q63 0 107.5 29t68.5 84.5t24 133.5q0 79 -24 134t-68.5 84t-107.5 29zM385 897h104l-87 -160h-82z" />
    <glyph glyph-name="uni1EDB" unicode="&#x1edb;" horiz-adv-x="600" 
d="M300 510q73 0 129 -31t87.5 -89.5t31.5 -139.5t-31.5 -139.5t-87.5 -89.5t-129 -31t-129 31t-88 89.5t-32 139.5t32 139.5t88 89.5t129 31zM300 426q-45 0 -76.5 -20.5t-48.5 -59.5t-17 -96q0 -56 17 -95.5t48.5 -60t76.5 -20.5t76 20.5t48 60t17 95.5q0 57 -17 96
t-48 59.5t-76 20.5zM377 432v68q39 0 61.5 27t22.5 89h83q0 -93 -45 -138.5t-122 -45.5zM316 746h108l-99 -168h-82z" />
    <glyph glyph-name="uni1EDC" unicode="&#x1edc;" horiz-adv-x="745" 
d="M658 767q0 -85 -47.5 -132.5t-139.5 -47.5l-16 73q66 0 90 27.5t24 79.5h89zM372 670q96 0 166 -41t108 -117t38 -182t-38 -182t-108 -117t-166 -41q-95 0 -165 41t-108 117t-38 182t38 182t108 117t165 41zM372 577q-62 0 -106.5 -29t-68.5 -84t-24 -134
q0 -78 24 -133.5t68.5 -84.5t106.5 -29q63 0 107.5 29t68.5 84.5t24 133.5q0 79 -24 134t-68.5 84t-107.5 29zM359 897l65 -160h-82l-87 160h104z" />
    <glyph glyph-name="uni1EDD" unicode="&#x1edd;" horiz-adv-x="600" 
d="M300 510q73 0 129 -31t87.5 -89.5t31.5 -139.5t-31.5 -139.5t-87.5 -89.5t-129 -31t-129 31t-88 89.5t-32 139.5t32 139.5t88 89.5t129 31zM300 426q-45 0 -76.5 -20.5t-48.5 -59.5t-17 -96q0 -56 17 -95.5t48.5 -60t76.5 -20.5t76 20.5t48 60t17 95.5q0 57 -17 96
t-48 59.5t-76 20.5zM377 432v68q39 0 61.5 27t22.5 89h83q0 -93 -45 -138.5t-122 -45.5zM276 746l73 -168h-82l-99 168h108z" />
    <glyph glyph-name="uni1EDE" unicode="&#x1ede;" horiz-adv-x="745" 
d="M658 767q0 -85 -47.5 -132.5t-139.5 -47.5l-16 73q66 0 90 27.5t24 79.5h89zM372 670q96 0 166 -41t108 -117t38 -182t-38 -182t-108 -117t-166 -41q-95 0 -165 41t-108 117t-38 182t38 182t108 117t165 41zM372 577q-62 0 -106.5 -29t-68.5 -84t-24 -134
q0 -78 24 -133.5t68.5 -84.5t106.5 -29q63 0 107.5 29t68.5 84.5t24 133.5q0 79 -24 134t-68.5 84t-107.5 29zM374 711l-31 37q26 13 39 26.5t13 33.5q0 14 -9.5 24.5t-28.5 10.5q-14 0 -24.5 -7t-18.5 -23l-57 34q15 31 43.5 48.5t69.5 17.5q29 0 51.5 -11.5t35.5 -32
t13 -47.5t-12 -49t-34 -37.5t-50 -24.5z" />
    <glyph glyph-name="uni1EDF" unicode="&#x1edf;" horiz-adv-x="600" 
d="M300 510q73 0 129 -31t87.5 -89.5t31.5 -139.5t-31.5 -139.5t-87.5 -89.5t-129 -31t-129 31t-88 89.5t-32 139.5t32 139.5t88 89.5t129 31zM300 426q-45 0 -76.5 -20.5t-48.5 -59.5t-17 -96q0 -56 17 -95.5t48.5 -60t76.5 -20.5t76 20.5t48 60t17 95.5q0 57 -17 96
t-48 59.5t-76 20.5zM377 432v68q39 0 61.5 27t22.5 89h83q0 -93 -45 -138.5t-122 -45.5zM291 547l-31 44q30 13 44 26.5t14 33.5q0 17 -10.5 27.5t-29.5 10.5q-13 0 -24.5 -7.5t-21.5 -24.5l-55 34q13 34 43 51t70 17q30 0 53 -12t36.5 -33t13.5 -49q0 -27 -12.5 -49.5
t-35.5 -39.5t-54 -29z" />
    <glyph glyph-name="uni1EE0" unicode="&#x1ee0;" horiz-adv-x="745" 
d="M658 767q0 -85 -47.5 -132.5t-139.5 -47.5l-16 73q66 0 90 27.5t24 79.5h89zM372 670q96 0 166 -41t108 -117t38 -182t-38 -182t-108 -117t-166 -41q-95 0 -165 41t-108 117t-38 182t38 182t108 117t165 41zM372 577q-62 0 -106.5 -29t-68.5 -84t-24 -134
q0 -78 24 -133.5t68.5 -84.5t106.5 -29q63 0 107.5 29t68.5 84.5t24 133.5q0 79 -24 134t-68.5 84t-107.5 29zM550 877q-2 -47 -16.5 -78.5t-39 -47t-59.5 -15.5q-28 0 -47.5 10t-34 22.5t-28 22.5t-28.5 10q-21 0 -31.5 -17.5t-14.5 -48.5h-73q4 71 34 106.5t84 35.5
q27 0 46.5 -10t34 -22.5t27 -22.5t27.5 -10q21 0 31.5 17.5t15.5 47.5h72z" />
    <glyph glyph-name="uni1EE1" unicode="&#x1ee1;" horiz-adv-x="600" 
d="M300 510q73 0 129 -31t87.5 -89.5t31.5 -139.5t-31.5 -139.5t-87.5 -89.5t-129 -31t-129 31t-88 89.5t-32 139.5t32 139.5t88 89.5t129 31zM300 426q-45 0 -76.5 -20.5t-48.5 -59.5t-17 -96q0 -56 17 -95.5t48.5 -60t76.5 -20.5t76 20.5t48 60t17 95.5q0 57 -17 96
t-48 59.5t-76 20.5zM377 432v68q39 0 61.5 27t22.5 89h83q0 -93 -45 -138.5t-122 -45.5zM463 717q-2 -47 -16.5 -78.5t-39 -47t-59.5 -15.5q-28 0 -47.5 10t-34 22.5t-28 22.5t-28.5 10q-21 0 -31.5 -17.5t-14.5 -48.5h-73q4 71 34 106.5t84 35.5q27 0 46.5 -10t34 -22.5
t27 -22.5t27.5 -10q21 0 31.5 17.5t15.5 47.5h72z" />
    </font>
</defs>
</svg>
