<?xml version="1.0" standalone="no"?>
<!DOCTYPE svg PUBLIC "-//W3C//DTD SVG 1.1//EN" "http://www.w3.org/Graphics/SVG/1.1/DTD/svg11.dtd" >
<svg xmlns="http://www.w3.org/2000/svg" xmlns:xlink="http://www.w3.org/1999/xlink" version="1.1">
<metadata>
Created by FontForge 20170731 at Wed Feb 26 09:24:02 2020
 By Aleksey,,,
Copyright 2019 The Work Sans Project Authors (https://github.com/weiweihuanghuang/Work-Sans)
</metadata>
<defs>
<font id="WorkSans-Thin" horiz-adv-x="604" >
  <font-face 
    font-family="Work Sans Thin"
    font-weight="250"
    font-stretch="normal"
    units-per-em="1000"
    panose-1="0 0 0 0 0 0 0 0 0 0"
    ascent="800"
    descent="-200"
    x-height="500"
    cap-height="660"
    bbox="-176 -329 1192 1050"
    underline-thickness="50"
    underline-position="-175"
    unicode-range="U+000D-FB02"
  />
<missing-glyph horiz-adv-x="500" 
d="M130 80h240v500h-240v-500zM50 0v660h400v-660h-400z" />
    <glyph glyph-name="fi" unicode="fi" horiz-adv-x="506" 
d="M245 735q29 0 47 -8.5t30 -22.5l-7 -12q-13 16 -29.5 22.5t-40.5 6.5q-55 0 -86 -36.5t-31 -101.5v-83v-9v-491h-16v583q0 36 9 64t26.5 47.5t42 30t55.5 10.5zM314 500v-14h-302v14h302zM413 598q-10 0 -16 6t-6 16t6 16t16 6t16 -6t6 -16t-6 -16t-16 -6zM421 500v-500
h-16v500h16z" />
    <glyph glyph-name="fl" unicode="fl" horiz-adv-x="557" 
d="M245 735q29 0 47 -8.5t30 -22.5l-7 -12q-13 16 -29.5 22.5t-40.5 6.5q-55 0 -86 -36.5t-31 -101.5v-83v-9v-491h-16v583q0 36 9 64t26.5 47.5t42 30t55.5 10.5zM314 500v-14h-302v14h302zM417 730v-623q0 -55 18 -79t55 -24q22 0 34 3t24 9v-14q-10 -5 -24 -8.5t-34 -3.5
q-44 0 -66.5 28t-22.5 89v623h16z" />
    <glyph glyph-name="f_f" unicode="ff" horiz-adv-x="610" 
d="M245 735q29 0 47 -8.5t30 -22.5l-7 -12q-13 16 -29.5 22.5t-40.5 6.5q-55 0 -86 -36.5t-31 -101.5v-83v-9v-491h-16v583q0 36 9 64t26.5 47.5t42 30t55.5 10.5zM314 500v-14h-302v14h302zM535 735q29 0 47 -8.5t30 -22.5l-7 -12q-13 16 -29.5 22.5t-40.5 6.5
q-55 0 -86 -36.5t-31 -101.5v-83v-9v-491h-16v583q0 36 9 64t26.5 47.5t42 30t55.5 10.5zM604 500v-14h-302v14h302z" />
    <glyph glyph-name="f_f_i" unicode="ffi" horiz-adv-x="796" 
d="M245 735q29 0 47 -8.5t30 -22.5l-7 -12q-13 16 -29.5 22.5t-40.5 6.5q-55 0 -86 -36.5t-31 -101.5v-83v-9v-491h-16v583q0 36 9 64t26.5 47.5t42 30t55.5 10.5zM314 500v-14h-302v14h302zM535 735q29 0 47 -8.5t30 -22.5l-7 -12q-13 16 -29.5 22.5t-40.5 6.5
q-55 0 -86 -36.5t-31 -101.5v-83v-9v-491h-16v583q0 36 9 64t26.5 47.5t42 30t55.5 10.5zM604 500v-14h-302v14h302zM703 598q-10 0 -16 6t-6 16t6 16t16 6t16 -6t6 -16t-6 -16t-16 -6zM711 500v-500h-16v500h16z" />
    <glyph glyph-name="f_f_l" unicode="ffl" horiz-adv-x="847" 
d="M245 735q29 0 47 -8.5t30 -22.5l-7 -12q-13 16 -29.5 22.5t-40.5 6.5q-55 0 -86 -36.5t-31 -101.5v-83v-9v-491h-16v583q0 36 9 64t26.5 47.5t42 30t55.5 10.5zM314 500v-14h-302v14h302zM535 735q29 0 47 -8.5t30 -22.5l-7 -12q-13 16 -29.5 22.5t-40.5 6.5
q-55 0 -86 -36.5t-31 -101.5v-83v-9v-491h-16v583q0 36 9 64t26.5 47.5t42 30t55.5 10.5zM604 500v-14h-302v14h302zM707 730v-623q0 -55 18 -79t55 -24q22 0 34 3t24 9v-14q-10 -5 -24 -8.5t-34 -3.5q-44 0 -66.5 28t-22.5 89v623h16z" />
    <glyph glyph-name=".notdef" horiz-adv-x="500" 
d="M130 80h240v500h-240v-500zM50 0v660h400v-660h-400z" />
    <glyph glyph-name=".null" horiz-adv-x="0" 
 />
    <glyph glyph-name="nonmarkingreturn" horiz-adv-x="333" 
 />
    <glyph glyph-name="NULL" horiz-adv-x="0" 
 />
    <glyph glyph-name="NULL" horiz-adv-x="0" 
 />
    <glyph glyph-name="CR" unicode="&#xd;" horiz-adv-x="281" 
 />
    <glyph glyph-name="space" unicode=" " horiz-adv-x="281" 
 />
    <glyph glyph-name="exclam" unicode="!" horiz-adv-x="182" 
d="M99 660v-358v-132h-16v132v358h16zM91 39q10 0 16 -6t6 -16t-6 -16t-16 -6t-16 6t-6 16t6 16t16 6z" />
    <glyph glyph-name="quotedbl" unicode="&#x22;" horiz-adv-x="241" 
d="M175 680v-159h-17v159h17zM83 680v-159h-17v159h17z" />
    <glyph glyph-name="numbersign" unicode="#" horiz-adv-x="632" 
d="M478 660l-100 -660h-16l100 660h16zM559 227v-14h-516v14h516zM265 660l-100 -660h-16l100 660h16zM589 457v-14h-516v14h516z" />
    <glyph glyph-name="dollar" unicode="$" horiz-adv-x="580" 
d="M303 0q-61 0 -113.5 18.5t-88 56.5t-46.5 96l14 8q9 -57 42.5 -93t83.5 -53.5t108 -17.5q91 0 148.5 40t57.5 117q0 52 -36.5 84.5t-119.5 49.5l-112 23q-59 12 -96 33t-54 52t-17 73q0 46 27 85.5t76 63.5t116 24q83 0 140.5 -36t79.5 -113l-12 -10q-19 75 -75 110
t-136 35q-59 0 -104 -21t-70 -57t-25 -81q0 -38 15.5 -66t50 -47t91.5 -31l112 -23q87 -18 126 -53.5t39 -94.5q0 -52 -29 -90.5t-79 -60t-114 -21.5zM291 -100v860h14v-860h-14z" />
    <glyph glyph-name="percent" unicode="%" horiz-adv-x="755" 
d="M144 0l447 660h19l-447 -660h-19zM178 660q49 0 79.5 -24.5t44.5 -62.5t14 -81q0 -42 -14 -80t-44.5 -61.5t-79.5 -23.5t-79.5 23.5t-45 61.5t-14.5 80q0 43 14 81t45 62.5t80 24.5zM178 646q-43 0 -70 -22t-40 -57t-13 -75t13 -74.5t40 -55.5t70 -21t70 21t39.5 55.5
t12.5 74.5t-13 75t-39.5 57t-69.5 22zM578 333q49 0 79.5 -24t44.5 -62t14 -81t-14 -80.5t-44.5 -61.5t-79.5 -24t-80 24t-45.5 61.5t-14.5 80.5t14.5 81t45.5 62t80 24zM578 319q-43 0 -70.5 -21.5t-40.5 -56.5t-13 -75t13 -74.5t40.5 -56t70.5 -21.5t69.5 21.5t39.5 56
t13 74.5t-13 75t-39.5 56.5t-69.5 21.5z" />
    <glyph glyph-name="ampersand" unicode="&#x26;" horiz-adv-x="572" 
d="M234 -10q-53 0 -96 17.5t-68 51t-25 80.5q0 39 13 69t37 55t57 47.5t73 46.5l5 3q46 27 82.5 52t58 57t21.5 79t-32 75.5t-86 28.5q-56 0 -90 -32.5t-34 -86.5q0 -24 6 -43.5t23 -46.5t50 -71l87 -116q59 -77 99 -126.5t68 -77t50.5 -38.5t45.5 -11l-1 -13q-27 0 -52 12
t-54.5 41t-69 78.5t-95.5 123.5q-51 67 -84.5 110.5t-53 73.5t-27.5 53.5t-8 50.5q0 41 17.5 70.5t49 46t73.5 16.5q41 0 71 -14.5t46.5 -41t16.5 -62.5q0 -50 -22 -84.5t-59.5 -60.5t-84.5 -54l-5 -3q-51 -30 -91 -58.5t-62.5 -63.5t-22.5 -85q0 -42 22.5 -72.5t61.5 -46.5
t86 -16q67 0 115.5 26t79.5 71l2 3q35 50 51 118.5t16 143.5h15q0 -71 -15.5 -144t-54.5 -128l-3 -4q-32 -45 -82 -72.5t-121 -27.5z" />
    <glyph glyph-name="quotesingle" unicode="'" horiz-adv-x="149" 
d="M83 680v-159h-17v159h17z" />
    <glyph glyph-name="parenleft" unicode="(" horiz-adv-x="253" 
d="M236 740l8 -10q-61 -50 -100 -116t-57.5 -148t-18.5 -181t18.5 -181t57.5 -147.5t100 -116.5l-8 -10q-94 80 -138.5 190.5t-44.5 264.5q0 155 44.5 265.5t138.5 189.5z" />
    <glyph glyph-name="parenright" unicode=")" horiz-adv-x="253" 
d="M17 -170l-8 10q61 50 100 116t57.5 148t18.5 181t-18.5 181t-57.5 147.5t-100 116.5l8 10q94 -80 138.5 -190.5t44.5 -264.5q0 -155 -44.5 -265.5t-138.5 -189.5z" />
    <glyph glyph-name="asterisk" unicode="*" horiz-adv-x="510" 
d="M260 517l50 -66l79 -109l-13 -9l-79 108l-47 69l5 3zM250 517l5 -4l5 -3l-47 -69l-79 -108l-13 9l79 109zM51 588l127 -41l79 -28l-2 -6l-2 -5l-80 23l-127 42zM263 730v-134l-2 -83h-6h-6l-2 83v134h16zM459 588l5 -15l-128 -42l-79 -23l-2 5l-2 6l78 28z" />
    <glyph glyph-name="plus" unicode="+" 
d="M310 545v-466h-16v466h16zM534 323v-14h-464v14h464z" />
    <glyph glyph-name="comma" unicode="," horiz-adv-x="168" 
d="M85 39q11 0 18.5 -6t11 -16t3.5 -23q0 -19 -6.5 -38.5t-19.5 -35.5t-33 -27l-12 9q21 9 35.5 27.5t20.5 40t-1 37.5h-2q-2 -6 -6 -9t-11 -3q-6 0 -11 3t-7.5 8t-2.5 11t3 11t8 8t12 3z" />
    <glyph glyph-name="hyphen" unicode="-" horiz-adv-x="417" 
d="M349 278v-16h-281v16h281z" />
    <glyph glyph-name="period" unicode="." horiz-adv-x="168" 
d="M84 39q10 0 16 -6t6 -16t-6 -16t-16 -6t-16 6t-6 16t6 16t16 6z" />
    <glyph glyph-name="slash" unicode="/" horiz-adv-x="349" 
d="M313 730l-261 -800h-17l261 800h17z" />
    <glyph glyph-name="zero" unicode="0" horiz-adv-x="590" 
d="M295 -10q-113 0 -174 88t-61 252t61 252t174 88t174 -88t61 -252t-61 -252t-174 -88zM295 4q71 0 119.5 37.5t74 110.5t25.5 178q0 106 -25.5 178.5t-74 110t-119.5 37.5q-70 0 -119 -37.5t-74.5 -110t-25.5 -178.5q0 -105 25.5 -178t74.5 -110.5t119 -37.5z" />
    <glyph glyph-name="one" unicode="1" horiz-adv-x="316" 
d="M208 0v568v31v31q-30 -49 -77.5 -81.5t-97.5 -48.5l-5 13q27 10 53.5 24t50.5 32.5t43.5 41t32.5 49.5h16v-660h-16z" />
    <glyph glyph-name="two" unicode="2" horiz-adv-x="534" 
d="M54 0v14q89 74 161 136t124.5 116.5t80.5 105.5t28 103q0 85 -50.5 133t-137.5 48q-88 0 -141 -54t-57 -144l-15 6q3 63 29.5 109t73.5 71.5t110 25.5q47 0 84.5 -13t64 -38.5t40.5 -61.5t14 -82q0 -72 -46 -139.5t-131.5 -144t-204.5 -176.5v-1h9.5h9.5h9h383v-14h-438z
" />
    <glyph glyph-name="three" unicode="3" horiz-adv-x="512" 
d="M263 -10q-89 0 -149 41.5t-76 109.5l14 9q9 -44 37 -77t71.5 -51t100.5 -18t101.5 20t70 59t25.5 95q0 50 -23 83t-61.5 49t-85.5 16h-36.5t-22.5 -1v15q11 -1 26.5 -1h29.5q71 0 113.5 42t42.5 114q0 75 -47 118t-127 43q-73 0 -125.5 -34.5t-70.5 -94.5l-15 8
q15 42 45 72.5t72.5 46.5t93.5 16q58 0 100.5 -21t66 -60t23.5 -94q0 -30 -8.5 -57t-24.5 -49t-40 -36.5t-55 -19.5v-1q32 -2 58.5 -14t46 -32t30 -48.5t10.5 -63.5q0 -55 -27.5 -96.5t-75 -64.5t-108.5 -23z" />
    <glyph glyph-name="four" unicode="4" horiz-adv-x="550" 
d="M372 0v205h-334v14v0v0l328 441h22v-441h139v-14h-139v-205h-16zM56 219h316v363v30.5v30.5h-1q-10 -15 -21.5 -30t-21.5 -29l-272 -365v0v0z" />
    <glyph glyph-name="five" unicode="5" horiz-adv-x="535" 
d="M275 -10q-85 0 -146.5 35.5t-78.5 123.5l14 6q13 -79 69 -115t142 -36q58 0 101.5 24.5t68.5 68t25 99.5t-24 99t-67 67t-99 24q-54 0 -91.5 -12.5t-62 -32t-40.5 -40.5h-14l30 359h359v-14h-346l-26 -309l-2 -19h1q23 32 68.5 57t123.5 25q61 0 107 -26t72.5 -72
t26.5 -106q0 -45 -15.5 -83t-43.5 -65.5t-66.5 -42.5t-85.5 -15z" />
    <glyph glyph-name="six" unicode="6" horiz-adv-x="545" 
d="M308 670q49 0 83 -16t56.5 -43t33.5 -61l-15 -7q-14 48 -53 80.5t-105 32.5q-65 0 -110 -29t-72 -77.5t-39 -109t-12 -123.5q0 -30 3 -62t7 -61h2q2 66 31 110.5t75.5 67.5t98.5 23q65 0 110.5 -25.5t69.5 -71t24 -106.5t-25.5 -106.5t-72 -70.5t-110.5 -25
q-75 0 -126 38.5t-76.5 114.5t-25.5 187q0 114 32.5 189.5t88.5 113t127 37.5zM292 381q-58 0 -101 -28t-67 -71.5t-24 -90.5q0 -52 23.5 -94.5t66 -67.5t97.5 -25q89 0 141 52.5t52 137.5q0 55 -23 97t-65.5 66t-99.5 24z" />
    <glyph glyph-name="seven" unicode="7" horiz-adv-x="494" 
d="M22 660h463v-14q-80 -86 -136 -185.5t-88.5 -213.5t-43.5 -247h-17q11 127 42.5 242t89 218.5t144.5 194.5l-1 -9h-453v14z" />
    <glyph glyph-name="eight" unicode="8" horiz-adv-x="562" 
d="M281 670q60 0 104.5 -20t69 -56.5t24.5 -85.5q0 -63 -38 -104.5t-105 -55.5v-1q78 -13 124.5 -61.5t46.5 -116.5q0 -52 -29 -92.5t-79.5 -63.5t-117.5 -23q-66 0 -117 23t-80 63.5t-29 92.5q0 69 47.5 117t123.5 61v1q-67 14 -105 55.5t-38 104.5q0 49 24.5 85.5t69 56.5
t104.5 20zM281 656q-82 0 -132 -40t-50 -108t50 -110.5t132 -42.5q83 0 132.5 42.5t49.5 110.5t-49.5 108t-132.5 40zM281 4q62 0 109.5 21t74 58t26.5 86q0 50 -26.5 88t-74 60t-109.5 22t-109.5 -22t-74 -60t-26.5 -88q0 -49 26.5 -86t74 -58t109.5 -21z" />
    <glyph glyph-name="nine" unicode="9" horiz-adv-x="566" 
d="M271 670q79 0 131 -40t78 -115.5t26 -184.5q0 -114 -30.5 -189.5t-83 -113t-120.5 -37.5q-82 0 -138.5 39t-70.5 101l14 7q14 -58 63 -95.5t132 -37.5q62 0 104.5 28.5t67.5 76t36 106.5t11 119q0 36 -3.5 70.5t-8.5 65.5h-2q0 -68 -31 -113.5t-78.5 -68.5t-99.5 -23
q-65 0 -112.5 25t-73 71t-25.5 107q0 62 26.5 107t74.5 70t113 25zM272 656q-91 0 -145 -52t-54 -138q0 -84 53.5 -135.5t141.5 -51.5q58 0 102 26.5t69.5 71t25.5 98.5q0 49 -26 90t-69.5 66t-97.5 25z" />
    <glyph glyph-name="colon" unicode=":" horiz-adv-x="192" 
d="M96 500q10 0 16 -6t6 -16t-6 -16t-16 -6t-16 6t-6 16t6 16t16 6zM96 39q10 0 16 -6t6 -16t-6 -16t-16 -6t-16 6t-6 16t6 16t16 6z" />
    <glyph glyph-name="semicolon" unicode=";" horiz-adv-x="192" 
d="M95 39q11 0 18.5 -6t11 -16t3.5 -23q0 -19 -6.5 -38.5t-19.5 -35.5t-33 -27l-12 9q21 9 35.5 27.5t20.5 40t-1 37.5h-2q-2 -6 -6 -9t-11 -3q-6 0 -11 3t-7.5 8t-2.5 11t3 11t8 8t12 3zM96 500q10 0 16 -6t6 -16t-6 -16t-16 -6t-16 6t-6 16t6 16t16 6z" />
    <glyph glyph-name="less" unicode="&#x3c;" 
d="M533 58l-442 232v19l442 232v-18l-428 -223l428 -224v-18z" />
    <glyph glyph-name="equal" unicode="=" 
d="M517 422v-14h-430v14h430zM517 218v-14h-430v14h430z" />
    <glyph glyph-name="greater" unicode="&#x3e;" 
d="M71 541l442 -232v-19l-442 -232v18l428 223l-428 224v18z" />
    <glyph glyph-name="question" unicode="?" horiz-adv-x="473" 
d="M242 670q56 0 98.5 -20t67 -58t24.5 -91q0 -56 -20.5 -98t-64 -72t-113.5 -50v-131h-16v140q75 23 118.5 51.5t61.5 67t18 92.5q0 73 -49 114t-125 41q-95 0 -141 -42.5t-57 -118.5l-14 6q9 53 33.5 91t68.5 58t110 20zM226 39q10 0 16 -6t6 -16t-6 -16t-16 -6t-16 6
t-6 16t6 16t16 6z" />
    <glyph glyph-name="at" unicode="@" horiz-adv-x="898" 
d="M474 -171q-93 0 -168.5 27t-129.5 78t-82.5 124t-28.5 166q0 104 33 183t90.5 133.5t131.5 82t156 27.5q95 0 164.5 -31.5t115 -84.5t68 -119t22.5 -135q0 -56 -13 -106.5t-36.5 -89t-55.5 -60.5t-70 -22q-47 0 -68 34t-16 78q-23 -43 -65 -72.5t-105 -29.5
q-55 0 -94.5 27t-60.5 73t-21 102q0 55 16.5 102.5t46.5 83.5t70 56t88 20q52 0 89.5 -22.5t57.5 -64.5t19 -100l41 177h16l-78 -331q-3 -11 -4 -21.5t-1 -19.5q0 -44 23.5 -61t48.5 -17q42 0 77.5 36t57 96t21.5 130q0 67 -21.5 130.5t-65 115t-110 82t-157.5 30.5
q-78 0 -149 -27t-126.5 -79t-87.5 -129t-32 -177q0 -89 28 -159.5t79.5 -120t124 -75.5t161.5 -26q69 0 136.5 22t108.5 61l10 -13q-29 -25 -70 -44t-88.5 -29.5t-96.5 -10.5zM414 26q61 0 106 32.5t70 89.5t25 131q0 66 -21 106t-56 57.5t-77 17.5q-41 0 -78 -18
t-65.5 -50.5t-44.5 -77.5t-16 -100q0 -57 21 -99.5t56.5 -65.5t79.5 -23z" />
    <glyph glyph-name="A" unicode="A" horiz-adv-x="586" 
d="M12 0l272 660h18l272 -660h-17l-247 596l-17 46v0l-17 -45l-247 -597h-17zM118 234v14h349v-14h-349z" />
    <glyph glyph-name="B" unicode="B" horiz-adv-x="609" 
d="M99 0v660h232q100 0 151 -42t51 -125q0 -64 -32.5 -104.5t-99.5 -54.5v-1q71 -10 111 -51.5t40 -112.5q0 -83 -56 -126t-165 -43h-232zM115 14h216q101 0 153 39.5t52 116.5q0 78 -52 117t-153 39h-216v-312zM115 340h216q186 0 186 152q0 154 -186 154h-216v-306z" />
    <glyph glyph-name="C" unicode="C" horiz-adv-x="649" 
d="M610 165q-16 -55 -52.5 -94.5t-89 -60t-119.5 -20.5q-87 0 -153 41.5t-103 117.5t-37 181t36.5 181t102.5 117.5t154 41.5q70 0 121 -19.5t85 -58t50 -96.5l-15 -7q-25 84 -84.5 125.5t-156.5 41.5q-83 0 -145.5 -40t-97 -113t-34.5 -173t35 -173t97.5 -113t144.5 -40
q95 0 159 44t87 123z" />
    <glyph glyph-name="D" unicode="D" horiz-adv-x="683" 
d="M302 660q161 0 243 -81t82 -239q0 -167 -82 -253.5t-243 -86.5h-203v660h203zM302 14q152 0 230.5 83t78.5 243q0 151 -78.5 228.5t-230.5 77.5h-187v-632h187z" />
    <glyph glyph-name="E" unicode="E" horiz-adv-x="583" 
d="M99 0v660h437v-14h-421v-302h338v-14h-338v-316h438v-14h-454z" />
    <glyph glyph-name="F" unicode="F" horiz-adv-x="554" 
d="M535 646h-420v-302h338v-14h-338v-330h-16v660h436v-14z" />
    <glyph glyph-name="G" unicode="G" horiz-adv-x="676" 
d="M355 -10q-92 0 -159.5 41.5t-103.5 117.5t-36 181t36.5 181t102.5 117.5t154 41.5q104 0 167.5 -43.5t88.5 -130.5l-14 -7q-25 84 -84.5 125.5t-157.5 41.5q-83 0 -145.5 -40t-97 -113t-34.5 -173t34.5 -173t98 -113t150.5 -40q71 0 117.5 24.5t73 62.5t37.5 79t11 74v53
h-241v14h257v-311h-16v166l1 -2q-21 -79 -83 -126.5t-157 -47.5z" />
    <glyph glyph-name="H" unicode="H" horiz-adv-x="696" 
d="M597 660v-660h-16v660h16zM115 660v-660h-16v660h16zM590 344v-14h-483v14h483z" />
    <glyph glyph-name="I" unicode="I" horiz-adv-x="214" 
d="M115 660v-660h-16v660h16z" />
    <glyph glyph-name="J" unicode="J" horiz-adv-x="498" 
d="M406 660v-451q0 -100 -49 -159.5t-145 -59.5q-66 0 -109 26.5t-61.5 73.5t-9.5 110l16 8q-13 -99 30.5 -151.5t133.5 -52.5q89 0 133.5 55.5t44.5 149.5v451h16z" />
    <glyph glyph-name="K" unicode="K" horiz-adv-x="557" 
d="M534 660l-264 -269l-2 -2l-162 -164v23l405 412h23zM115 660v-660h-16v660h16zM270 404l274 -404h-21l-264 390z" />
    <glyph glyph-name="L" unicode="L" horiz-adv-x="543" 
d="M115 14h416v-14h-432v660h16v-646z" />
    <glyph glyph-name="M" unicode="M" horiz-adv-x="786" 
d="M687 660v-660h-16v580l1 57v0l-269 -637h-20l-269 637v0l1 -57v-580h-16v660h21l261 -612l12 -29v0l12 28l261 613h21z" />
    <glyph glyph-name="N" unicode="N" horiz-adv-x="694" 
d="M595 660v-660h-22l-433 605l-26 39v0l1 -57v-587h-16v660h22l433 -605l26 -39v0l-1 57v587h16z" />
    <glyph glyph-name="O" unicode="O" horiz-adv-x="714" 
d="M357 670q93 0 160.5 -41.5t104 -117.5t36.5 -181t-36.5 -181t-104 -117.5t-160.5 -41.5q-92 0 -160 41.5t-104.5 117.5t-36.5 181t36.5 181t104.5 117.5t160 41.5zM357 656q-87 0 -151 -40t-99 -113t-35 -173t35 -173t99 -113t151 -40q88 0 151.5 40t98.5 113t35 173
t-35 173t-98.5 113t-151.5 40z" />
    <glyph glyph-name="P" unicode="P" horiz-adv-x="561" 
d="M303 660q71 0 121 -22t77 -63.5t27 -99.5t-27 -99t-77 -63t-121 -22h-188v-291h-16v660h204zM303 305q98 0 153.5 45t55.5 125t-55.5 125.5t-153.5 45.5h-188v-341h188z" />
    <glyph glyph-name="Q" unicode="Q" horiz-adv-x="714" 
d="M536 -195q-51 0 -91.5 23.5t-64.5 66.5t-24 101v3v2h14v-2v-3q0 -55 21.5 -95t59.5 -61t85 -21q29 0 57 8.5t47 28.5l8 -13q-19 -19 -47 -28.5t-65 -9.5zM357 670q93 0 160.5 -41.5t104 -117.5t36.5 -181t-36.5 -181t-104 -117.5t-160.5 -41.5q-92 0 -160 41.5
t-104.5 117.5t-36.5 181t36.5 181t104.5 117.5t160 41.5zM357 656q-87 0 -151 -40t-99 -113t-35 -173t35 -173t99 -113t151 -40q88 0 151.5 40t98.5 113t35 173t-35 173t-98.5 113t-151.5 40z" />
    <glyph glyph-name="R" unicode="R" horiz-adv-x="611" 
d="M338 660q97 0 153 -48t56 -132t-56 -132t-153 -48h-3h-220v-300h-16v660h239zM338 314q91 0 142 44t51 122t-51 122t-142 44h-223v-332h223zM369 314l207 -314h-18l-202 304z" />
    <glyph glyph-name="S" unicode="S" horiz-adv-x="594" 
d="M295 670q94 0 156 -36.5t85 -116.5l-13 -10q-20 77 -79 113t-149 36q-66 0 -114.5 -22t-75.5 -59t-27 -83q0 -58 39 -93t135 -55l115 -24q98 -20 139.5 -56t41.5 -97q0 -53 -30.5 -93t-84 -62t-124.5 -22q-69 0 -125.5 19t-93.5 58t-48 99l15 8q9 -58 44 -96t89 -56
t119 -18q62 0 112.5 18.5t80.5 55t30 89.5t-39.5 86t-132.5 52l-115 24q-66 14 -106 35.5t-58.5 52.5t-18.5 75q0 47 28 87.5t80 65.5t125 25z" />
    <glyph glyph-name="T" unicode="T" horiz-adv-x="544" 
d="M533 660v-14h-253v-646h-16v646h-253v14h522z" />
    <glyph glyph-name="U" unicode="U" horiz-adv-x="664" 
d="M581 660v-425q0 -118 -66 -181.5t-183 -63.5t-183 63.5t-66 181.5v425h16v-425q0 -110 62 -170.5t171 -60.5q110 0 171.5 60.5t61.5 170.5v425h16z" />
    <glyph glyph-name="V" unicode="V" horiz-adv-x="576" 
d="M559 660l-260 -660h-22l-260 660h17l227 -573l27 -69l27 69l227 573h17z" />
    <glyph glyph-name="W" unicode="W" horiz-adv-x="909" 
d="M241 0l-218 660h17l212 -644l192 644h21l192 -644l212 644h17l-218 -660h-21l-151 502l-41 136h-1l-40 -136l-152 -502h-21z" />
    <glyph glyph-name="X" unicode="X" horiz-adv-x="526" 
d="M509 0h-20l-226 326l-230 -326h-21l241 342l-220 318h20l210 -304l215 304h22l-226 -320z" />
    <glyph glyph-name="Y" unicode="Y" horiz-adv-x="512" 
d="M496 660l-232 -404v-256h-16v256l-232 404h19l129 -226l92 -161l92 161l129 226h19z" />
    <glyph glyph-name="Z" unicode="Z" horiz-adv-x="552" 
d="M43 8l-3 6h488v-14h-499v14l465 638l3 -6h-461v14h472v-14z" />
    <glyph glyph-name="bracketleft" unicode="[" horiz-adv-x="268" 
d="M257 716h-166v-870h166v-14h-181v898h181v-14z" />
    <glyph glyph-name="backslash" unicode="\" horiz-adv-x="349" 
d="M36 730h17l261 -800h-17z" />
    <glyph glyph-name="bracketright" unicode="]" horiz-adv-x="268" 
d="M11 -154h166v870h-166v14h181v-898h-181v14z" />
    <glyph glyph-name="asciicircum" unicode="^" horiz-adv-x="533" 
d="M37 355l220 375h19l220 -375h-19l-210 359l-211 -359h-19z" />
    <glyph glyph-name="underscore" unicode="_" horiz-adv-x="499" 
d="M499 -97v-14h-499v14h499z" />
    <glyph glyph-name="grave" unicode="`" horiz-adv-x="550" 
d="M242 730l85 -147h-15l-88 147h18z" />
    <glyph glyph-name="a" unicode="a" horiz-adv-x="517" 
d="M407 336q0 74 -41 117t-118 43q-63 0 -109.5 -27.5t-69.5 -90.5l-13 10q23 62 72.5 92t119.5 30q56 0 95 -20.5t59.5 -59.5t20.5 -94v-258q0 -72 59 -72q22 0 34 8l-1 -14q-14 -8 -36 -8q-15 0 -32 7t-28.5 26.5t-11.5 58.5v46l7 6q-7 -49 -38.5 -81.5t-76 -48.5
t-90.5 -16q-50 0 -86 14.5t-55 41.5t-19 66q0 56 37.5 88t106.5 45l217 42v-14l-206 -40q-70 -13 -104.5 -42.5t-34.5 -76.5q0 -53 37.5 -81.5t108.5 -28.5q30 0 63.5 9t64 28.5t49.5 50t19 73.5v171z" />
    <glyph glyph-name="b" unicode="b" horiz-adv-x="585" 
d="M308 -10q-51 0 -94 19.5t-72.5 57t-41.5 90.5l1 2v-159h-16v730h16v-387l-1 2q19 79 75.5 122t132.5 43q69 0 119.5 -31t78.5 -89t28 -140q0 -81 -28 -139.5t-78.5 -89.5t-119.5 -31zM305 4q97 0 155 65t58 181t-58 181t-155 65q-58 0 -104.5 -30t-73 -85t-26.5 -131
q0 -75 27 -130.5t73 -85.5t104 -30z" />
    <glyph glyph-name="c" unicode="c" horiz-adv-x="524" 
d="M281 510q50 0 90 -16t67.5 -46.5t39.5 -74.5l-14 -7q-16 62 -64 96t-119 34q-61 0 -109.5 -29.5t-76.5 -84.5t-28 -132q0 -76 27.5 -131.5t75 -85t108.5 -29.5q47 0 87.5 17t68 48t34.5 73l14 -5q-8 -45 -37.5 -78t-72.5 -51t-94 -18q-66 0 -117 31t-80.5 89.5
t-29.5 139.5t30 139.5t82 89.5t118 31z" />
    <glyph glyph-name="d" unicode="d" horiz-adv-x="585" 
d="M280 -10q-68 0 -120 31t-80.5 89.5t-28.5 139.5q0 82 28.5 140t80.5 89t120 31q77 0 131.5 -43t73.5 -122l-1 -2v387h16v-730h-16v159l1 -2q-11 -53 -40 -90.5t-71 -57t-94 -19.5zM283 4q58 0 103.5 30t71.5 85.5t26 130.5q0 76 -26 131t-71 85t-104 30q-97 0 -156.5 -65
t-59.5 -181t59.5 -181t156.5 -65z" />
    <glyph glyph-name="e" unicode="e" horiz-adv-x="534" 
d="M283 -10q-66 0 -118.5 31t-83 89.5t-30.5 139.5q0 82 30 140t80.5 89t113.5 31q66 0 113 -30t72.5 -85.5t25.5 -132.5v-3v-4h-427v15h420l-7 -6q-1 103 -51.5 167.5t-145.5 64.5q-58 0 -105.5 -29.5t-75 -84.5t-27.5 -132t28 -132t77 -84.5t111 -29.5q61 0 111 30t75 82
l13 -7q-17 -37 -47 -63.5t-69 -41t-83 -14.5z" />
    <glyph glyph-name="f" unicode="f" horiz-adv-x="320" 
d="M245 735q29 0 47 -8.5t30 -22.5l-7 -12q-13 16 -29.5 22.5t-40.5 6.5q-55 0 -86 -36.5t-31 -101.5v-83v-9v-491h-16v583q0 36 9 64t26.5 47.5t42 30t55.5 10.5zM314 500v-14h-302v14h302z" />
    <glyph glyph-name="g" unicode="g" horiz-adv-x="496" 
d="M491 592l5 -14h-1.5h-1.5q-49 0 -75 -31.5t-26 -81.5l-13 5q0 37 13.5 64t38 42.5t57.5 15.5h2h1zM326 37q77 0 121.5 -30t44.5 -80q0 -42 -28.5 -74t-80 -50t-119.5 -18q-107 0 -168.5 37t-61.5 97q0 44 34.5 75t89.5 38l-1 -2q-30 8 -55.5 29t-25.5 58q0 42 32.5 66
t77.5 24l51 -8h-32q-44 0 -78.5 -19.5t-34.5 -60.5t33 -61.5t78 -20.5h123zM266 -201q59 0 106.5 16t75.5 44.5t28 65.5q0 44 -41 71t-110 27h-128q-64 0 -105.5 -28.5t-41.5 -73.5q0 -54 58 -88t158 -34zM258 510q59 0 103 -19.5t68.5 -54.5t24.5 -83q0 -47 -24.5 -82.5
t-68.5 -55t-103 -19.5q-89 0 -143.5 43t-54.5 114q0 48 24.5 83t69.5 54.5t104 19.5zM258 496q-82 0 -132 -39t-50 -104q0 -64 50 -103.5t132 -39.5t131 39.5t49 103.5q0 65 -49 104t-131 39z" />
    <glyph glyph-name="h" unicode="h" horiz-adv-x="574" 
d="M85 0v730h16v-362q17 62 73 102.5t135 40.5q58 0 99.5 -21.5t64 -61.5t22.5 -98v-329h-16v327q0 80 -46.5 124.5t-126.5 44.5q-58 0 -104.5 -27t-73.5 -71.5t-27 -96.5v-302h-16z" />
    <glyph glyph-name="i" unicode="i" horiz-adv-x="186" 
d="M93 598q-10 0 -16 6t-6 16t6 16t16 6t16 -6t6 -16t-6 -16t-16 -6zM101 500v-500h-16v500h16z" />
    <glyph glyph-name="j" unicode="j" horiz-adv-x="186" 
d="M93 598q-10 0 -16 6t-6 16t6 16t16 6t16 -6t6 -16t-6 -16t-16 -6zM101 500v-564q0 -46 -16.5 -80t-46 -52.5t-69.5 -18.5q-21 0 -40 6t-31 16l5 14q12 -11 30 -16.5t36 -5.5q53 0 84.5 37.5t31.5 99.5v564h16z" />
    <glyph glyph-name="k" unicode="k" horiz-adv-x="482" 
d="M465 500l-224 -208l-4 -3l-144 -134v22l348 323h24zM101 730v-730h-16v730h16zM240 302l230 -302h-20l-222 291z" />
    <glyph glyph-name="l" unicode="l" horiz-adv-x="237" 
d="M97 730v-623q0 -55 18 -79t55 -24q22 0 34 3t24 9v-14q-10 -5 -24 -8.5t-34 -3.5q-44 0 -66.5 28t-22.5 89v623h16z" />
    <glyph glyph-name="m" unicode="m" horiz-adv-x="968" 
d="M85 0v500h16v-133q17 62 73 102.5t135 40.5q78 0 126.5 -39t57.5 -110q10 43 39 77t73 54t98 20q58 0 99.5 -21.5t64 -61.5t22.5 -98v-329h-16v327q0 80 -46.5 124.5t-126.5 44.5q-58 0 -104.5 -27t-73.5 -71.5t-27 -96.5v-303h-16v327q0 80 -46.5 124.5t-126.5 44.5
q-58 0 -104.5 -27t-73.5 -71.5t-27 -96.5v-301h-16z" />
    <glyph glyph-name="n" unicode="n" horiz-adv-x="574" 
d="M85 0v500h16v-140l-1 3q11 42 40 75.5t72 52.5t97 19q58 0 99.5 -21.5t64 -61.5t22.5 -98v-329h-16v327q0 80 -46.5 124.5t-126.5 44.5q-58 0 -104.5 -27t-73.5 -71.5t-27 -96.5v-301h-16z" />
    <glyph glyph-name="o" unicode="o" horiz-adv-x="569" 
d="M285 510q69 0 121.5 -31t82 -89.5t29.5 -139.5t-29.5 -139.5t-82 -89.5t-121.5 -31t-121.5 31t-82.5 89.5t-30 139.5t30 139.5t82.5 89.5t121.5 31zM285 496q-64 0 -113 -29.5t-77 -84.5t-28 -132q0 -76 28 -131.5t77 -85t113 -29.5t113 29.5t76.5 85t27.5 131.5
q0 77 -27.5 132t-76.5 84.5t-113 29.5z" />
    <glyph glyph-name="p" unicode="p" horiz-adv-x="585" 
d="M85 -210v710h16v-159l-1 2q12 53 41.5 90.5t72.5 57t94 19.5q69 0 119.5 -31t78.5 -89t28 -140q0 -81 -28 -139.5t-78.5 -89.5t-119.5 -31q-76 0 -132.5 43t-75.5 122l1 2v-367h-16zM305 4q97 0 155 65t58 181t-58 181t-155 65q-58 0 -104 -30t-73 -85t-27 -131
q0 -75 26.5 -130.5t73 -85.5t104.5 -30z" />
    <glyph glyph-name="q" unicode="q" horiz-adv-x="585" 
d="M484 -210v367l1 -2q-12 -52 -41 -89t-71 -56.5t-93 -19.5q-68 0 -120 31t-80.5 89.5t-28.5 139.5q0 82 28.5 140t80.5 89t120 31q52 0 94 -19.5t71 -57t40 -90.5l-1 -2v159h16v-710h-16zM283 4q59 0 104 30t71 85.5t26 130.5q0 76 -26 131t-71.5 85t-103.5 30
q-97 0 -156.5 -65t-59.5 -181t59.5 -181t156.5 -65z" />
    <glyph glyph-name="r" unicode="r" horiz-adv-x="343" 
d="M85 0v500h16v-130q17 59 60 99.5t104 40.5q27 0 44 -6.5t27 -17.5l-9 -12q-10 10 -23 16t-41 6q-46 0 -83 -29.5t-58 -76.5t-21 -99v-291h-16z" />
    <glyph glyph-name="s" unicode="s" horiz-adv-x="479" 
d="M240 -10q-78 0 -133.5 30.5t-69.5 90.5l15 7q13 -56 64 -85t127 -29q80 0 126.5 32.5t46.5 87.5q0 38 -24.5 64t-90.5 40l-114 25q-69 15 -98.5 46.5t-29.5 74.5q0 39 24 69.5t66 48.5t95 18q77 0 124 -30t61 -95l-14 -8q-13 62 -56.5 90.5t-114.5 28.5q-49 0 -87 -15.5
t-60 -42t-22 -60.5q0 -38 25.5 -66.5t87.5 -42.5l116 -26q71 -16 99.5 -45t28.5 -74q0 -41 -23.5 -71.5t-66.5 -46.5t-102 -16z" />
    <glyph glyph-name="t" unicode="t" horiz-adv-x="329" 
d="M127 635v-509q0 -60 25 -91t79 -31q26 0 48 9t40 28l8 -13q-15 -16 -40.5 -27t-55.5 -11q-40 0 -67 15.5t-40 46t-13 74.5v504zM320 500v-14h-309v14h309z" />
    <glyph glyph-name="u" unicode="u" horiz-adv-x="564" 
d="M254 -10q-55 0 -94.5 20.5t-60 60.5t-20.5 96v333h16v-331q0 -79 42.5 -122t119.5 -43q54 0 93 19t64 49t37 63t12 61v304h16v-500h-16v133q-17 -61 -73 -102t-136 -41z" />
    <glyph glyph-name="v" unicode="v" horiz-adv-x="481" 
d="M441 500h18l-210 -500h-17l-210 500h18l201 -480z" />
    <glyph glyph-name="w" unicode="w" horiz-adv-x="779" 
d="M733 500h17l-166 -500h-16l-178 477l-179 -477h-16l-166 500h17l157 -477l178 477h17l178 -477z" />
    <glyph glyph-name="x" unicode="x" horiz-adv-x="472" 
d="M50 500l187 -227l4 -5l221 -268h-24l-207 251l-4 5l-201 244h24zM433 500l-189 -241l-7 -9l-196 -250h-22l208 265l3 4l181 231h22z" />
    <glyph glyph-name="y" unicode="y" horiz-adv-x="481" 
d="M459 500l-249 -601q-18 -43 -37.5 -68t-43.5 -35.5t-55 -10.5q-26 0 -46.5 8t-31.5 24l9 13q11 -17 30 -24t40 -7q39 0 67 21.5t53 81.5l40 97l-55 129l-158 372h18l185 -440l18 -42l17 43l181 439h18z" />
    <glyph glyph-name="z" unicode="z" horiz-adv-x="472" 
d="M39 0v14l331 423l40 49h-68h-311v14h398v-14l-312 -403l-57 -69h82h303v-14h-406z" />
    <glyph glyph-name="braceleft" unicode="{" horiz-adv-x="259" 
d="M239 -170q-36 0 -62.5 13.5t-40.5 38.5t-14 60v243q0 44 -30.5 69t-83.5 25v13q53 0 83.5 25t30.5 69v242q0 35 14 60t40.5 38.5t62.5 13.5v-14q-47 0 -74 -26t-27 -72v-242q0 -38 -20.5 -64t-57.5 -36q37 -10 57.5 -36.5t20.5 -64.5v-243q0 -46 27 -72t74 -26v-14z" />
    <glyph glyph-name="bar" unicode="|" horiz-adv-x="167" 
d="M91 730v-898h-15v898h15z" />
    <glyph glyph-name="braceright" unicode="}" horiz-adv-x="259" 
d="M20 740q36 0 62.5 -13.5t40.5 -38.5t14 -60v-243q0 -44 30.5 -69t83.5 -25v-13q-53 0 -83.5 -25t-30.5 -69v-242q0 -35 -14 -60t-40.5 -38.5t-62.5 -13.5v14q47 0 74 26t27 72v242q0 38 20.5 64t57.5 36q-37 10 -57.5 36.5t-20.5 64.5v243q0 46 -27 72t-74 26v14z" />
    <glyph glyph-name="asciitilde" unicode="~" horiz-adv-x="479" 
d="M436 395q-7 -47 -30.5 -70.5t-64.5 -23.5q-33 0 -58 11t-47 26t-45 26t-53 11q-35 0 -53.5 -19.5t-25.5 -60.5h-16q7 47 30.5 70.5t64.5 23.5q33 0 58 -11t47 -26t45 -26t53 -11q35 0 53.5 20t25.5 60h16z" />
    <glyph glyph-name="uni00A0" unicode="&#xa0;" horiz-adv-x="281" 
 />
    <glyph glyph-name="exclamdown" unicode="&#xa1;" horiz-adv-x="174" 
d="M79 -160v358v132h16v-132v-358h-16zM87 461q-10 0 -16 6t-6 16t6 16t16 6t16 -6t6 -16t-6 -16t-16 -6z" />
    <glyph glyph-name="cent" unicode="&#xa2;" horiz-adv-x="537" 
d="M283 -10q-72 0 -123 31t-77.5 89.5t-26.5 139.5t27.5 139.5t79 89.5t123.5 31q50 0 90 -16t67.5 -46.5t39.5 -74.5l-14 -7q-16 62 -64 96t-119 34q-101 0 -157.5 -65.5t-56.5 -180.5q0 -76 24.5 -131.5t72 -85t114.5 -29.5q47 0 87.5 17t68 48t34.5 73l14 -5
q-8 -45 -37.5 -78t-72.5 -51t-94 -18zM270 -100v700h14v-700h-14z" />
    <glyph glyph-name="sterling" unicode="&#xa3;" horiz-adv-x="573" 
d="M94 303v14h353v-14h-353zM134 -4q-43 0 -68 18t-25 48q0 21 12 36.5t33 24t47 8.5q40 0 67.5 -12t50 -30t45.5 -36.5t52 -30.5t70 -12q49 0 76.5 28.5t28.5 82.5h14q0 -44 -16 -71.5t-43 -40.5t-60 -13q-43 0 -73.5 12t-54 30t-46 36.5t-49 30.5t-63.5 12
q-32 0 -53.5 -15t-21.5 -40q0 -24 20.5 -38t56.5 -14q43 0 70.5 17.5t41 48t13.5 68.5q0 39 -14 79.5t-44 92.5q-21 38 -34 65.5t-18.5 52.5t-5.5 54q0 55 24 96t67.5 63.5t100.5 22.5q74 0 120 -39.5t53 -105.5l-15 -6q-6 62 -49.5 99.5t-108.5 37.5q-81 0 -128.5 -45.5
t-47.5 -122.5q0 -26 5.5 -49.5t18 -50.5t33.5 -66q29 -53 43.5 -95t14.5 -80q0 -33 -9 -61t-27 -48t-44 -31t-60 -11z" />
    <glyph glyph-name="currency" unicode="&#xa4;" horiz-adv-x="602" 
d="M301 516q53 0 92.5 -22.5t61.5 -63.5t22 -97t-22 -97.5t-61.5 -64.5t-92.5 -23q-54 0 -93.5 23t-61.5 64.5t-22 97.5t22 97t61.5 63.5t93.5 22.5zM301 502q-73 0 -117 -46t-44 -123q0 -79 44 -125t117 -46q74 0 117 46t43 125q0 77 -43 123t-117 46zM74 569l106 -107
l-12 -11l-106 106zM170 211l12 -12l-108 -108l-12 12zM431 211l109 -109l-11 -11l-108 108zM529 569l11 -11l-107 -108l-11 13z" />
    <glyph glyph-name="yen" unicode="&#xa5;" horiz-adv-x="568" 
d="M276 0v133h-206v14h206v109h-206v14h163h37l-226 390h19l206 -363l14 -24h2l14 24l206 363h19l-226 -390h37h164v-14h-207v-109h207v-14h-207v-133h-16z" />
    <glyph glyph-name="brokenbar" unicode="&#xa6;" horiz-adv-x="167" 
d="M91 730v-366h-15v366h15zM91 198v-366h-15v366h15z" />
    <glyph glyph-name="section" unicode="&#xa7;" horiz-adv-x="536" 
d="M345 139l-7 9q35 5 69.5 19t57 38.5t22.5 60.5q0 47 -30.5 70t-101.5 39l-95 21q-60 13 -95 30t-50.5 42t-15.5 63t20.5 69.5t61 50.5t99.5 19q66 0 112 -20.5t63 -64.5l-13 -9q-14 43 -57 61.5t-105 18.5q-79 0 -122 -35.5t-43 -88.5q0 -35 13.5 -57.5t46 -37.5
t87.5 -27l94 -20q50 -10 82.5 -25.5t48.5 -39t16 -59.5q0 -37 -21.5 -63.5t-57.5 -42.5t-79 -21zM272 -110q-66 0 -112 20.5t-63 64.5l13 9q14 -43 57 -61.5t105 -18.5q80 0 122.5 35.5t42.5 88.5t-34.5 80.5t-105.5 40.5l-82 16q-63 13 -99.5 29.5t-51.5 40.5t-15 59
q0 37 21.5 63.5t57.5 42.5t79 21l7 -9q-35 -5 -69.5 -19t-57 -38t-22.5 -61q0 -46 33 -71t121 -43l83 -17q76 -16 113.5 -45.5t37.5 -88.5q0 -37 -20.5 -69t-60.5 -51t-100 -19z" />
    <glyph glyph-name="dieresis" unicode="&#xa8;" horiz-adv-x="550" 
d="M183 642q10 0 16 -6t6 -16t-6 -16t-16 -6t-16 6t-6 16t6 16t16 6zM367 642q10 0 16 -6t6 -16t-6 -16t-16 -6t-16 6t-6 16t6 16t16 6z" />
    <glyph glyph-name="copyright" unicode="&#xa9;" horiz-adv-x="784" 
d="M393 -10q-100 0 -175 44.5t-116.5 121.5t-41.5 174t41.5 174t116.5 121.5t174 44.5q100 0 174.5 -44.5t116 -121.5t41.5 -174t-41.5 -174t-116 -121.5t-173.5 -44.5zM392 4q95 0 166 43t110.5 116.5t39.5 166.5t-40 166.5t-111 116.5t-165 43t-165.5 -43t-111 -116.5
t-39.5 -166.5t39.5 -166.5t111 -116.5t165.5 -43zM404 143q-85 0 -133.5 49t-48.5 136t48.5 136t133.5 49q57 0 95 -25t54 -75l-14 -7q-14 47 -48.5 70t-87.5 23q-77 0 -121 -45.5t-44 -125.5t44 -125.5t121 -45.5q53 0 91 28t49 74l15 -6q-13 -50 -55.5 -80t-98.5 -30z" />
    <glyph glyph-name="ordfeminine" unicode="&#xaa;" horiz-adv-x="376" 
d="M151 326q-44 0 -72 22.5t-28 61.5q0 38 25 60t80 32l134 23v-14l-127 -22q-53 -9 -75 -28.5t-22 -51.5q0 -31 23 -50t62 -19q28 0 59.5 10.5t54 35.5t22.5 67v103q0 44 -26 69.5t-76 25.5q-46 0 -75 -17.5t-43 -54.5l-13 5q13 39 47 60t84 21q55 0 86.5 -27t31.5 -80
v-175q0 -22 8.5 -32.5t24.5 -10.5t25 6v-14q-5 -3 -11 -4.5t-15 -1.5q-17 0 -32.5 11.5t-15.5 47.5v28l6 7q-8 -34 -31.5 -55t-53 -30t-57.5 -9zM52 223v14h297v-14h-297z" />
    <glyph glyph-name="guillemotleft" unicode="&#xab;" horiz-adv-x="379" 
d="M211 461l-145 -196l145 -196h-21l-144 196l144 196h21zM329 461l-145 -196l145 -196h-21l-144 196l144 196h21z" />
    <glyph glyph-name="logicalnot" unicode="&#xac;" 
d="M527 317v-141h-16v141h16zM527 323v-14h-450v14h450z" />
    <glyph glyph-name="uni00AD" unicode="&#xad;" horiz-adv-x="417" 
d="M349 278v-16h-281v16h281z" />
    <glyph glyph-name="registered" unicode="&#xae;" horiz-adv-x="784" 
d="M392 -10q-99 0 -174 44.5t-116.5 121.5t-41.5 174t41.5 174t116.5 121.5t174 44.5q100 0 174.5 -44.5t116 -121.5t41.5 -174t-41.5 -174t-116 -121.5t-174.5 -44.5zM537 143l-111 173l14 6l115 -179h-18zM392 4q95 0 166 43t110.5 116.5t39.5 166.5t-40 166.5t-111 116.5
t-165 43t-165.5 -43t-111 -116.5t-39.5 -166.5t39.5 -166.5t111 -116.5t165.5 -43zM275 143v370h155q40 0 66 -11.5t39.5 -33.5t13.5 -56q0 -49 -30 -75t-89 -26h-139v-168h-16zM291 324h139q52 0 78 22.5t26 65.5q0 44 -26 65.5t-78 21.5h-139v-175z" />
    <glyph glyph-name="macron" unicode="&#xaf;" horiz-adv-x="550" 
d="M419 619v-14h-288v14h288z" />
    <glyph glyph-name="degree" unicode="&#xb0;" horiz-adv-x="370" 
d="M185 400q-40 0 -70.5 17t-47 47.5t-16.5 70.5t16.5 70.5t47 47.5t70.5 17q41 0 71 -17t46.5 -47.5t16.5 -70.5t-16.5 -70.5t-46.5 -47.5t-71 -17zM185 414q54 0 86 34t32 87t-32 87t-86 34t-86 -34t-32 -87t32 -87t86 -34z" />
    <glyph glyph-name="plusminus" unicode="&#xb1;" 
d="M310 622v-516h-15v516h15zM527 374v-14h-450v14h450zM527 14v-14h-450v14h450z" />
    <glyph glyph-name="uni00B2" unicode="&#xb2;" horiz-adv-x="349" 
d="M47 333v15q29 24 57.5 48.5t56.5 48.5q30 26 56 53.5t42.5 57.5t16.5 61q0 47 -28.5 75.5t-78.5 28.5q-51 0 -81 -30t-33 -82l-15 3q5 53 38 88t91 35q38 0 65.5 -14.5t42.5 -41t15 -63.5q0 -32 -18 -65t-46 -63t-58 -55q-25 -21 -50 -42.5t-51 -42.5v-1h13h13h213v-14
h-261z" />
    <glyph glyph-name="uni00B3" unicode="&#xb3;" horiz-adv-x="326" 
d="M152 735q55 0 85 -30t30 -75q0 -24 -8 -43t-24.5 -32.5t-40.5 -20.5v-2q26 -3 44.5 -16.5t28.5 -33.5t10 -44q0 -34 -16.5 -59t-44.5 -38.5t-64 -13.5q-52 0 -84 24.5t-44 66.5l13 8q9 -38 37 -61.5t80 -23.5q47 0 77 25t30 71q0 47 -29.5 68.5t-79.5 21.5h-7.5t-10.5 -1
v14q7 -1 11.5 -1h8.5q41 0 69 24t28 67q0 42 -25.5 66.5t-72.5 24.5q-42 0 -68.5 -20t-34.5 -53l-14 7q11 36 42 58t74 22z" />
    <glyph glyph-name="acute" unicode="&#xb4;" horiz-adv-x="600" 
d="M334 730h18l-88 -147h-15z" />
    <glyph glyph-name="uni00B5" unicode="&#xb5;" horiz-adv-x="570" 
d="M85 -210v710h16v-331q0 -79 45.5 -122t116.5 -43q60 0 106.5 27t73 71.5t26.5 96.5v301h16v-500h-16v133q-17 -61 -73 -102t-136 -41q-55 0 -97.5 27t-61.5 77v0v-304h-16z" />
    <glyph glyph-name="paragraph" unicode="&#xb6;" horiz-adv-x="516" 
d="M264 -100v354q-70 0 -123 25.5t-82 71t-29 106.5t28.5 106.5t80 71t120.5 25.5h176v-760h-16v746h-139v-746h-16zM264 268v378q-65 0 -114.5 -23.5t-76.5 -66t-27 -99.5t27 -99.5t76.5 -66t114.5 -23.5z" />
    <glyph glyph-name="periodcentered" unicode="&#xb7;" horiz-adv-x="192" 
d="M96 382q10 0 16 -6t6 -16t-6 -16t-16 -6t-16 6t-6 16t6 16t16 6z" />
    <glyph glyph-name="cedilla" unicode="&#xb8;" horiz-adv-x="600" 
d="M278 3h21q51 -25 71.5 -53.5t20.5 -63.5q0 -40 -24.5 -64t-63.5 -24q-30 0 -52.5 10t-41.5 32l8 12q20 -22 40.5 -31.5t45.5 -9.5q32 0 52.5 20t20.5 54q0 32 -20.5 59t-77.5 59z" />
    <glyph glyph-name="uni00B9" unicode="&#xb9;" horiz-adv-x="214" 
d="M133 730h13v-397h-16v310q0 17 0.5 33t1.5 32q-19 -26 -50 -44.5t-61 -30.5v13q18 6 40 18.5t42 29.5t30 36z" />
    <glyph glyph-name="ordmasculine" unicode="&#xba;" horiz-adv-x="364" 
d="M182 327q-72 0 -105.5 40.5t-33.5 128.5t33.5 128.5t105.5 40.5t105.5 -40.5t33.5 -128.5t-33.5 -128.5t-105.5 -40.5zM49 223v14h266v-14h-266zM182 341q64 0 93.5 37.5t29.5 117.5t-29.5 117.5t-93.5 37.5t-93.5 -37.5t-29.5 -117.5t29.5 -117.5t93.5 -37.5z" />
    <glyph glyph-name="guillemotright" unicode="&#xbb;" horiz-adv-x="379" 
d="M168 69l145 196l-145 196h21l144 -196l-144 -196h-21zM50 69l145 196l-145 196h21l144 -196l-144 -196h-21z" />
    <glyph glyph-name="onequarter" unicode="&#xbc;" horiz-adv-x="675" 
d="M133 665h13v-397h-16v310q0 17 0.5 33t1.5 32q-19 -26 -50 -44.5t-61 -30.5v13q18 6 40 18.5t42 29.5t30 36zM73 0l465 660h19l-465 -660h-19zM646 130v-14h-81v-120h-16v120h-198v14l192 263h22v-263h81zM368 130h181v205v21.5v20.5h-1q-8 -11 -16 -22.5t-16 -22.5z" />
    <glyph glyph-name="onehalf" unicode="&#xbd;" horiz-adv-x="765" 
d="M133 665h13v-397h-16v310q0 17 0.5 33t1.5 32q-19 -26 -50 -44.5t-61 -30.5v13q18 6 40 18.5t42 29.5t30 36zM73 0l465 660h19l-465 -660h-19zM463 -4v15q29 24 57.5 48.5t56.5 48.5q30 26 56 53.5t42.5 57.5t16.5 61q0 47 -28.5 75.5t-78.5 28.5q-51 0 -81 -30t-33 -82
l-15 3q5 53 38 88t91 35q38 0 65.5 -14.5t42.5 -41t15 -63.5q0 -32 -18 -65t-46 -63t-58 -55q-25 -21 -50 -42.5t-51 -42.5v-1h13h13h213v-14h-261z" />
    <glyph glyph-name="threequarters" unicode="&#xbe;" horiz-adv-x="787" 
d="M152 670q55 0 85 -30t30 -75q0 -24 -8 -43t-24.5 -32.5t-40.5 -20.5v-2q26 -3 44.5 -16.5t28.5 -33.5t10 -44q0 -34 -16.5 -59t-44.5 -38.5t-64 -13.5q-52 0 -84 24.5t-44 66.5l13 8q9 -38 37 -61.5t80 -23.5q47 0 77 25t30 71q0 47 -29.5 68.5t-79.5 21.5h-7.5t-10.5 -1
v14q7 -1 11.5 -1h8.5q41 0 69 24t28 67q0 42 -25.5 66.5t-72.5 24.5q-42 0 -68.5 -20t-34.5 -53l-14 7q11 36 42 58t74 22zM185 0l465 660h19l-465 -660h-19zM758 130v-14h-81v-120h-16v120h-198v14l192 263h22v-263h81zM480 130h181v205v21.5v20.5h-1q-8 -11 -16 -22.5
t-16 -22.5z" />
    <glyph glyph-name="questiondown" unicode="&#xbf;" horiz-adv-x="469" 
d="M229 -175q-56 0 -98.5 20t-67 58t-24.5 91q0 56 20.5 98t64 72t113.5 50v131h16v-140q-75 -23 -118.5 -51.5t-61.5 -67t-18 -92.5q0 -73 49 -114t125 -41q95 0 141 42.5t57 118.5l14 -6q-9 -53 -33.5 -91t-68.5 -58t-110 -20zM245 456q-10 0 -16 6t-6 16t6 16t16 6t16 -6
t6 -16t-6 -16t-16 -6z" />
    <glyph glyph-name="Agrave" unicode="&#xc0;" horiz-adv-x="586" 
d="M12 0l272 660h18l272 -660h-17l-247 596l-17 46v0l-17 -45l-247 -597h-17zM118 234v14h349v-14h-349zM225 891l75 -148h-15l-78 148h18z" />
    <glyph glyph-name="Aacute" unicode="&#xc1;" horiz-adv-x="586" 
d="M12 0l272 660h18l272 -660h-17l-247 596l-17 46v0l-17 -45l-247 -597h-17zM118 234v14h349v-14h-349zM362 891h18l-78 -148h-15z" />
    <glyph glyph-name="Acircumflex" unicode="&#xc2;" horiz-adv-x="586" 
d="M12 0l272 660h18l272 -660h-17l-247 596l-17 46v0l-17 -45l-247 -597h-17zM118 234v14h349v-14h-349zM412 743h-17l-102 129l-102 -129h-17l109 142h20z" />
    <glyph glyph-name="Atilde" unicode="&#xc3;" horiz-adv-x="586" 
d="M12 0l272 660h18l272 -660h-17l-247 596l-17 46v0l-17 -45l-247 -597h-17zM118 234v14h349v-14h-349zM452 843q-5 -28 -16.5 -47t-28 -28t-38.5 -9q-26 0 -44.5 10.5t-34 24t-31.5 24t-37 10.5q-29 0 -46 -18t-25 -52h-15q8 43 31.5 63.5t55.5 20.5q24 0 42 -10.5
t33.5 -24t32 -24t38.5 -10.5q30 0 45.5 18t22.5 52h15z" />
    <glyph glyph-name="Adieresis" unicode="&#xc4;" horiz-adv-x="586" 
d="M12 0l272 660h18l272 -660h-17l-247 596l-17 46v0l-17 -45l-247 -597h-17zM118 234v14h349v-14h-349zM200 802q10 0 16 -6t6 -16t-6 -16t-16 -6t-16 6t-6 16t6 16t16 6zM384 802q10 0 16 -6t6 -16t-6 -16t-16 -6t-16 6t-6 16t6 16t16 6z" />
    <glyph glyph-name="Aring" unicode="&#xc5;" horiz-adv-x="586" 
d="M12 0l272 660h18l272 -660h-17l-247 596l-17 46v0l-17 -45l-247 -597h-17zM118 234v14h349v-14h-349zM291 806q35 0 58.5 -23t23.5 -57t-23.5 -57t-58.5 -23t-58.5 23t-23.5 57t23.5 57t58.5 23zM291 792q-28 0 -47 -19t-19 -47t19 -47t47 -19t47 19t19 47t-19 47t-47 19
z" />
    <glyph glyph-name="AE" unicode="&#xc6;" horiz-adv-x="885" 
d="M454 14h401v-14h-417v254h-264l-159 -254h-23l420 660h427v-14h-385v-304h308v-14h-308v-314zM183 268h255v378h-18z" />
    <glyph glyph-name="Ccedilla" unicode="&#xc7;" horiz-adv-x="649" 
d="M610 165q-16 -55 -52.5 -94.5t-89 -60t-119.5 -20.5q-87 0 -153 41.5t-103 117.5t-37 181t36.5 181t102.5 117.5t154 41.5q70 0 121 -19.5t85 -58t50 -96.5l-15 -7q-25 84 -84.5 125.5t-156.5 41.5q-83 0 -145.5 -40t-97 -113t-34.5 -173t35 -173t97.5 -113t144.5 -40
q95 0 159 44t87 123zM303 3h21q51 -25 71.5 -53.5t20.5 -63.5q0 -40 -24.5 -64t-63.5 -24q-30 0 -52.5 10t-41.5 32l8 12q20 -22 40.5 -31.5t45.5 -9.5q32 0 52.5 20t20.5 54q0 32 -20.5 59t-77.5 59z" />
    <glyph glyph-name="Egrave" unicode="&#xc8;" horiz-adv-x="583" 
d="M99 0v660h437v-14h-421v-302h338v-14h-338v-316h438v-14h-454zM250 891l75 -148h-15l-78 148h18z" />
    <glyph glyph-name="Eacute" unicode="&#xc9;" horiz-adv-x="583" 
d="M99 0v660h437v-14h-421v-302h338v-14h-338v-316h438v-14h-454zM386 891h18l-78 -148h-15z" />
    <glyph glyph-name="Ecircumflex" unicode="&#xca;" horiz-adv-x="583" 
d="M99 0v660h437v-14h-421v-302h338v-14h-338v-316h438v-14h-454zM437 743h-17l-102 129l-102 -129h-17l109 142h20z" />
    <glyph glyph-name="Edieresis" unicode="&#xcb;" horiz-adv-x="583" 
d="M99 0v660h437v-14h-421v-302h338v-14h-338v-316h438v-14h-454zM225 802q10 0 16 -6t6 -16t-6 -16t-16 -6t-16 6t-6 16t6 16t16 6zM409 802q10 0 16 -6t6 -16t-6 -16t-16 -6t-16 6t-6 16t6 16t16 6z" />
    <glyph glyph-name="Igrave" unicode="&#xcc;" horiz-adv-x="214" 
d="M115 660v-660h-16v660h16zM39 891l75 -148h-15l-78 148h18z" />
    <glyph glyph-name="Iacute" unicode="&#xcd;" horiz-adv-x="214" 
d="M115 660v-660h-16v660h16zM176 891h18l-78 -148h-15z" />
    <glyph glyph-name="Icircumflex" unicode="&#xce;" horiz-adv-x="214" 
d="M115 660v-660h-16v660h16zM226 743h-17l-102 129l-102 -129h-17l109 142h20z" />
    <glyph glyph-name="Idieresis" unicode="&#xcf;" horiz-adv-x="214" 
d="M48 802q10 0 16 -6t6 -16t-6 -16t-16 -6t-16 6t-6 16t6 16t16 6zM166 802q10 0 16 -6t6 -16t-6 -16t-16 -6t-16 6t-6 16t6 16t16 6zM115 660v-660h-16v660h16z" />
    <glyph glyph-name="Eth" unicode="&#xd0;" horiz-adv-x="691" 
d="M5 327v14h325v-14h-325zM310 660q161 0 243 -81t82 -239q0 -167 -82 -253.5t-243 -86.5h-203v660h203zM310 14q152 0 230.5 83t78.5 243q0 151 -78.5 228.5t-230.5 77.5h-187v-632h187z" />
    <glyph glyph-name="Ntilde" unicode="&#xd1;" horiz-adv-x="694" 
d="M595 660v-660h-22l-433 605l-26 39v0l1 -57v-587h-16v660h22l433 -605l26 -39v0l-1 57v587h16zM512 843q-5 -28 -16.5 -47t-28 -28t-38.5 -9q-26 0 -44.5 10.5t-34 24t-31.5 24t-37 10.5q-29 0 -46 -18t-25 -52h-15q8 43 31.5 63.5t55.5 20.5q24 0 42 -10.5t33.5 -24
t32 -24t38.5 -10.5q30 0 45.5 18t22.5 52h15z" />
    <glyph glyph-name="Ograve" unicode="&#xd2;" horiz-adv-x="714" 
d="M357 670q93 0 160.5 -41.5t104 -117.5t36.5 -181t-36.5 -181t-104 -117.5t-160.5 -41.5q-92 0 -160 41.5t-104.5 117.5t-36.5 181t36.5 181t104.5 117.5t160 41.5zM357 656q-87 0 -151 -40t-99 -113t-35 -173t35 -173t99 -113t151 -40q88 0 151.5 40t98.5 113t35 173
t-35 173t-98.5 113t-151.5 40zM289 891l75 -148h-15l-78 148h18z" />
    <glyph glyph-name="Oacute" unicode="&#xd3;" horiz-adv-x="714" 
d="M357 670q93 0 160.5 -41.5t104 -117.5t36.5 -181t-36.5 -181t-104 -117.5t-160.5 -41.5q-92 0 -160 41.5t-104.5 117.5t-36.5 181t36.5 181t104.5 117.5t160 41.5zM357 656q-87 0 -151 -40t-99 -113t-35 -173t35 -173t99 -113t151 -40q88 0 151.5 40t98.5 113t35 173
t-35 173t-98.5 113t-151.5 40zM426 891h18l-78 -148h-15z" />
    <glyph glyph-name="Ocircumflex" unicode="&#xd4;" horiz-adv-x="714" 
d="M357 670q93 0 160.5 -41.5t104 -117.5t36.5 -181t-36.5 -181t-104 -117.5t-160.5 -41.5q-92 0 -160 41.5t-104.5 117.5t-36.5 181t36.5 181t104.5 117.5t160 41.5zM357 656q-87 0 -151 -40t-99 -113t-35 -173t35 -173t99 -113t151 -40q88 0 151.5 40t98.5 113t35 173
t-35 173t-98.5 113t-151.5 40zM476 743h-17l-102 129l-102 -129h-17l109 142h20z" />
    <glyph glyph-name="Otilde" unicode="&#xd5;" horiz-adv-x="714" 
d="M357 670q93 0 160.5 -41.5t104 -117.5t36.5 -181t-36.5 -181t-104 -117.5t-160.5 -41.5q-92 0 -160 41.5t-104.5 117.5t-36.5 181t36.5 181t104.5 117.5t160 41.5zM357 656q-87 0 -151 -40t-99 -113t-35 -173t35 -173t99 -113t151 -40q88 0 151.5 40t98.5 113t35 173
t-35 173t-98.5 113t-151.5 40zM516 843q-5 -28 -16.5 -47t-28 -28t-38.5 -9q-26 0 -44.5 10.5t-34 24t-31.5 24t-37 10.5q-29 0 -46 -18t-25 -52h-15q8 43 31.5 63.5t55.5 20.5q24 0 42 -10.5t33.5 -24t32 -24t38.5 -10.5q30 0 45.5 18t22.5 52h15z" />
    <glyph glyph-name="Odieresis" unicode="&#xd6;" horiz-adv-x="714" 
d="M357 670q93 0 160.5 -41.5t104 -117.5t36.5 -181t-36.5 -181t-104 -117.5t-160.5 -41.5q-92 0 -160 41.5t-104.5 117.5t-36.5 181t36.5 181t104.5 117.5t160 41.5zM357 656q-87 0 -151 -40t-99 -113t-35 -173t35 -173t99 -113t151 -40q88 0 151.5 40t98.5 113t35 173
t-35 173t-98.5 113t-151.5 40zM264 802q10 0 16 -6t6 -16t-6 -16t-16 -6t-16 6t-6 16t6 16t16 6zM448 802q10 0 16 -6t6 -16t-6 -16t-16 -6t-16 6t-6 16t6 16t16 6z" />
    <glyph glyph-name="multiply" unicode="&#xd7;" 
d="M467 134l13 13l-343 343l-13 -13zM137 134l343 343l-13 13l-343 -343z" />
    <glyph glyph-name="Oslash" unicode="&#xd8;" horiz-adv-x="714" 
d="M170 59l-10 12l382 528l13 -9zM86 -30l74 101l10 -12l-64 -89h-20zM555 590l-13 9l66 91h20zM357 670q93 0 160.5 -41.5t104 -117.5t36.5 -181t-36.5 -181t-104 -117.5t-160.5 -41.5q-92 0 -160 41.5t-104.5 117.5t-36.5 181t36.5 181t104.5 117.5t160 41.5zM357 656
q-87 0 -151 -40t-99 -113t-35 -173t35 -173t99 -113t151 -40q88 0 151.5 40t98.5 113t35 173t-35 173t-98.5 113t-151.5 40z" />
    <glyph glyph-name="Ugrave" unicode="&#xd9;" horiz-adv-x="664" 
d="M581 660v-425q0 -118 -66 -181.5t-183 -63.5t-183 63.5t-66 181.5v425h16v-425q0 -110 62 -170.5t171 -60.5q110 0 171.5 60.5t61.5 170.5v425h16zM314 891l75 -148h-15l-78 148h18z" />
    <glyph glyph-name="Uacute" unicode="&#xda;" horiz-adv-x="664" 
d="M581 660v-425q0 -118 -66 -181.5t-183 -63.5t-183 63.5t-66 181.5v425h16v-425q0 -110 62 -170.5t171 -60.5q110 0 171.5 60.5t61.5 170.5v425h16zM401 851h18l-78 -148h-15z" />
    <glyph glyph-name="Ucircumflex" unicode="&#xdb;" horiz-adv-x="664" 
d="M581 660v-425q0 -118 -66 -181.5t-183 -63.5t-183 63.5t-66 181.5v425h16v-425q0 -110 62 -170.5t171 -60.5q110 0 171.5 60.5t61.5 170.5v425h16zM451 703h-17l-102 129l-102 -129h-17l109 142h20z" />
    <glyph glyph-name="Udieresis" unicode="&#xdc;" horiz-adv-x="664" 
d="M581 660v-425q0 -118 -66 -181.5t-183 -63.5t-183 63.5t-66 181.5v425h16v-425q0 -110 62 -170.5t171 -60.5q110 0 171.5 60.5t61.5 170.5v425h16zM239 762q10 0 16 -6t6 -16t-6 -16t-16 -6t-16 6t-6 16t6 16t16 6zM423 762q10 0 16 -6t6 -16t-6 -16t-16 -6t-16 6t-6 16
t6 16t16 6z" />
    <glyph glyph-name="Yacute" unicode="&#xdd;" horiz-adv-x="512" 
d="M496 660l-232 -404v-256h-16v256l-232 404h19l129 -226l92 -161l92 161l129 226h19zM325 851h18l-78 -148h-15z" />
    <glyph glyph-name="Thorn" unicode="&#xde;" horiz-adv-x="567" 
d="M294 525q117 0 175 -46.5t58 -138.5q0 -91 -58 -138t-175 -47h-186v14h195q208 0 208 171q0 85 -52 128t-156 43h-195v14h186zM115 660v-660h-16v660h16z" />
    <glyph glyph-name="germandbls" unicode="&#xdf;" horiz-adv-x="555" 
d="M326 378q57 -3 97.5 -27t61.5 -65.5t21 -100.5q0 -58 -21.5 -102t-60.5 -68.5t-94 -24.5q-40 0 -70 10t-51 28l10 12q23 -19 50 -28t61 -9q75 0 117.5 50t42.5 132q0 96 -55.5 140.5t-142.5 44.5h-44v14h44q74 0 121.5 47t47.5 132q0 74 -45 116t-123 42
q-94 0 -143.5 -54.5t-49.5 -161.5v-505h-15v516q0 72 23.5 120.5t70 73.5t114.5 25q57 0 98 -20.5t63.5 -59.5t22.5 -94q0 -54 -20.5 -94.5t-54.5 -63t-76 -24.5v-1z" />
    <glyph glyph-name="agrave" unicode="&#xe0;" horiz-adv-x="517" 
d="M407 336q0 74 -41 117t-118 43q-63 0 -109.5 -27.5t-69.5 -90.5l-13 10q23 62 72.5 92t119.5 30q56 0 95 -20.5t59.5 -59.5t20.5 -94v-258q0 -72 59 -72q22 0 34 8l-1 -14q-14 -8 -36 -8q-15 0 -32 7t-28.5 26.5t-11.5 58.5v46l7 6q-7 -49 -38.5 -81.5t-76 -48.5
t-90.5 -16q-50 0 -86 14.5t-55 41.5t-19 66q0 56 37.5 88t106.5 45l217 42v-14l-206 -40q-70 -13 -104.5 -42.5t-34.5 -76.5q0 -53 37.5 -81.5t108.5 -28.5q30 0 63.5 9t64 28.5t49.5 50t19 73.5v171zM168 730l85 -147h-15l-88 147h18z" />
    <glyph glyph-name="aacute" unicode="&#xe1;" horiz-adv-x="517" 
d="M407 336q0 74 -41 117t-118 43q-63 0 -109.5 -27.5t-69.5 -90.5l-13 10q23 62 72.5 92t119.5 30q56 0 95 -20.5t59.5 -59.5t20.5 -94v-258q0 -72 59 -72q22 0 34 8l-1 -14q-14 -8 -36 -8q-15 0 -32 7t-28.5 26.5t-11.5 58.5v46l7 6q-7 -49 -38.5 -81.5t-76 -48.5
t-90.5 -16q-50 0 -86 14.5t-55 41.5t-19 66q0 56 37.5 88t106.5 45l217 42v-14l-206 -40q-70 -13 -104.5 -42.5t-34.5 -76.5q0 -53 37.5 -81.5t108.5 -28.5q30 0 63.5 9t64 28.5t49.5 50t19 73.5v171zM320 730h18l-88 -147h-15z" />
    <glyph glyph-name="acircumflex" unicode="&#xe2;" horiz-adv-x="517" 
d="M407 336q0 74 -41 117t-118 43q-63 0 -109.5 -27.5t-69.5 -90.5l-13 10q23 62 72.5 92t119.5 30q56 0 95 -20.5t59.5 -59.5t20.5 -94v-258q0 -72 59 -72q22 0 34 8l-1 -14q-14 -8 -36 -8q-15 0 -32 7t-28.5 26.5t-11.5 58.5v46l7 6q-7 -49 -38.5 -81.5t-76 -48.5
t-90.5 -16q-50 0 -86 14.5t-55 41.5t-19 66q0 56 37.5 88t106.5 45l217 42v-14l-206 -40q-70 -13 -104.5 -42.5t-34.5 -76.5q0 -53 37.5 -81.5t108.5 -28.5q30 0 63.5 9t64 28.5t49.5 50t19 73.5v171zM359 583h-17l-100 129l-100 -129h-17l108 142h18z" />
    <glyph glyph-name="atilde" unicode="&#xe3;" horiz-adv-x="517" 
d="M407 336q0 74 -41 117t-118 43q-63 0 -109.5 -27.5t-69.5 -90.5l-13 10q23 62 72.5 92t119.5 30q56 0 95 -20.5t59.5 -59.5t20.5 -94v-258q0 -72 59 -72q22 0 34 8l-1 -14q-14 -8 -36 -8q-15 0 -32 7t-28.5 26.5t-11.5 58.5v46l7 6q-7 -49 -38.5 -81.5t-76 -48.5
t-90.5 -16q-50 0 -86 14.5t-55 41.5t-19 66q0 56 37.5 88t106.5 45l217 42v-14l-206 -40q-70 -13 -104.5 -42.5t-34.5 -76.5q0 -53 37.5 -81.5t108.5 -28.5q30 0 63.5 9t64 28.5t49.5 50t19 73.5v171zM401 683q-5 -28 -16.5 -47t-28 -28t-38.5 -9q-26 0 -44.5 10.5t-34 24
t-31.5 24t-37 10.5q-29 0 -46 -18t-25 -52h-15q8 43 31.5 63.5t55.5 20.5q24 0 42 -10.5t33.5 -24t32 -24t38.5 -10.5q30 0 45.5 18t22.5 52h15z" />
    <glyph glyph-name="adieresis" unicode="&#xe4;" horiz-adv-x="517" 
d="M407 336q0 74 -41 117t-118 43q-63 0 -109.5 -27.5t-69.5 -90.5l-13 10q23 62 72.5 92t119.5 30q56 0 95 -20.5t59.5 -59.5t20.5 -94v-258q0 -72 59 -72q22 0 34 8l-1 -14q-14 -8 -36 -8q-15 0 -32 7t-28.5 26.5t-11.5 58.5v46l7 6q-7 -49 -38.5 -81.5t-76 -48.5
t-90.5 -16q-50 0 -86 14.5t-55 41.5t-19 66q0 56 37.5 88t106.5 45l217 42v-14l-206 -40q-70 -13 -104.5 -42.5t-34.5 -76.5q0 -53 37.5 -81.5t108.5 -28.5q30 0 63.5 9t64 28.5t49.5 50t19 73.5v171zM149 642q10 0 16 -6t6 -16t-6 -16t-16 -6t-16 6t-6 16t6 16t16 6z
M333 642q10 0 16 -6t6 -16t-6 -16t-16 -6t-16 6t-6 16t6 16t16 6z" />
    <glyph glyph-name="aring" unicode="&#xe5;" horiz-adv-x="517" 
d="M407 336q0 74 -41 117t-118 43q-63 0 -109.5 -27.5t-69.5 -90.5l-13 10q23 62 72.5 92t119.5 30q56 0 95 -20.5t59.5 -59.5t20.5 -94v-258q0 -72 59 -72q22 0 34 8l-1 -14q-14 -8 -36 -8q-15 0 -32 7t-28.5 26.5t-11.5 58.5v46l7 6q-7 -49 -38.5 -81.5t-76 -48.5
t-90.5 -16q-50 0 -86 14.5t-55 41.5t-19 66q0 56 37.5 88t106.5 45l217 42v-14l-206 -40q-70 -13 -104.5 -42.5t-34.5 -76.5q0 -53 37.5 -81.5t108.5 -28.5q30 0 63.5 9t64 28.5t49.5 50t19 73.5v171zM240 735q35 0 58.5 -23t23.5 -57t-23.5 -57t-58.5 -23t-58.5 23
t-23.5 57t23.5 57t58.5 23zM240 721q-28 0 -47 -19t-19 -47t19 -47t47 -19t47 19t19 47t-19 47t-47 19z" />
    <glyph glyph-name="ae" unicode="&#xe6;" horiz-adv-x="873" 
d="M209 -10q-50 0 -86 14.5t-55 41.5t-19 66q0 56 37.5 88t106.5 45l214 39v52q0 74 -41 117t-118 43q-63 0 -109.5 -27.5t-69.5 -90.5l-13 10q16 42 43 69t65 40t84 13q80 0 127 -44.5t47 -133.5l-3 3q10 54 40 93t73 60.5t92 21.5q63 0 108 -29t68.5 -81.5t23.5 -121.5v-3
v-4h-402v-21q0 -115 54 -180.5t156 -65.5q56 0 105.5 30t74.5 82l13 -7q-17 -37 -47 -63.5t-67.5 -41t-78.5 -14.5q-85 0 -142.5 47.5t-71.5 129.5l2 1q-2 -50 -22 -84.5t-51.5 -55t-67.5 -29.5t-70 -9zM211 4q33 0 67.5 9.5t63.5 29.5t47 53t18 79v95l-203 -37
q-70 -13 -104.5 -42.5t-34.5 -76.5q0 -53 37.5 -81.5t108.5 -28.5zM424 286h386q-1 59 -23 106.5t-62.5 75.5t-100.5 28q-81 0 -136 -55.5t-64 -154.5z" />
    <glyph glyph-name="ccedilla" unicode="&#xe7;" horiz-adv-x="524" 
d="M281 510q50 0 90 -16t67.5 -46.5t39.5 -74.5l-14 -7q-16 62 -64 96t-119 34q-61 0 -109.5 -29.5t-76.5 -84.5t-28 -132q0 -76 27.5 -131.5t75 -85t108.5 -29.5q47 0 87.5 17t68 48t34.5 73l14 -5q-8 -45 -37.5 -78t-72.5 -51t-94 -18q-66 0 -117 31t-80.5 89.5
t-29.5 139.5t30 139.5t82 89.5t118 31zM241 3h21q51 -25 71.5 -53.5t20.5 -63.5q0 -40 -24.5 -64t-63.5 -24q-30 0 -52.5 10t-41.5 32l8 12q20 -22 40.5 -31.5t45.5 -9.5q32 0 52.5 20t20.5 54q0 32 -20.5 59t-77.5 59z" />
    <glyph glyph-name="egrave" unicode="&#xe8;" horiz-adv-x="534" 
d="M283 -10q-66 0 -118.5 31t-83 89.5t-30.5 139.5q0 82 30 140t80.5 89t113.5 31q66 0 113 -30t72.5 -85.5t25.5 -132.5v-3v-4h-427v15h420l-7 -6q-1 103 -51.5 167.5t-145.5 64.5q-58 0 -105.5 -29.5t-75 -84.5t-27.5 -132t28 -132t77 -84.5t111 -29.5q61 0 111 30t75 82
l13 -7q-17 -37 -47 -63.5t-69 -41t-83 -14.5zM197 730l85 -147h-15l-88 147h18z" />
    <glyph glyph-name="eacute" unicode="&#xe9;" horiz-adv-x="534" 
d="M283 -10q-66 0 -118.5 31t-83 89.5t-30.5 139.5q0 82 30 140t80.5 89t113.5 31q66 0 113 -30t72.5 -85.5t25.5 -132.5v-3v-4h-427v15h420l-7 -6q-1 103 -51.5 167.5t-145.5 64.5q-58 0 -105.5 -29.5t-75 -84.5t-27.5 -132t28 -132t77 -84.5t111 -29.5q61 0 111 30t75 82
l13 -7q-17 -37 -47 -63.5t-69 -41t-83 -14.5zM349 730h18l-88 -147h-15z" />
    <glyph glyph-name="ecircumflex" unicode="&#xea;" horiz-adv-x="534" 
d="M283 -10q-66 0 -118.5 31t-83 89.5t-30.5 139.5q0 82 30 140t80.5 89t113.5 31q66 0 113 -30t72.5 -85.5t25.5 -132.5v-3v-4h-427v15h420l-7 -6q-1 103 -51.5 167.5t-145.5 64.5q-58 0 -105.5 -29.5t-75 -84.5t-27.5 -132t28 -132t77 -84.5t111 -29.5q61 0 111 30t75 82
l13 -7q-17 -37 -47 -63.5t-69 -41t-83 -14.5zM388 583h-17l-100 129l-100 -129h-17l108 142h18z" />
    <glyph glyph-name="edieresis" unicode="&#xeb;" horiz-adv-x="534" 
d="M283 -10q-66 0 -118.5 31t-83 89.5t-30.5 139.5q0 82 30 140t80.5 89t113.5 31q66 0 113 -30t72.5 -85.5t25.5 -132.5v-3v-4h-427v15h420l-7 -6q-1 103 -51.5 167.5t-145.5 64.5q-58 0 -105.5 -29.5t-75 -84.5t-27.5 -132t28 -132t77 -84.5t111 -29.5q61 0 111 30t75 82
l13 -7q-17 -37 -47 -63.5t-69 -41t-83 -14.5zM178 642q10 0 16 -6t6 -16t-6 -16t-16 -6t-16 6t-6 16t6 16t16 6zM362 642q10 0 16 -6t6 -16t-6 -16t-16 -6t-16 6t-6 16t6 16t16 6z" />
    <glyph glyph-name="igrave" unicode="&#xec;" horiz-adv-x="186" 
d="M101 500v-500h-16v500h16zM19 730l85 -147h-15l-88 147h18z" />
    <glyph glyph-name="iacute" unicode="&#xed;" horiz-adv-x="186" 
d="M101 500v-500h-16v500h16zM171 730h18l-88 -147h-15z" />
    <glyph glyph-name="icircumflex" unicode="&#xee;" horiz-adv-x="186" 
d="M101 500v-500h-16v500h16zM210 583h-17l-100 129l-100 -129h-17l108 142h18z" />
    <glyph glyph-name="idieresis" unicode="&#xef;" horiz-adv-x="186" 
d="M143 598q-10 0 -16 6t-6 16t6 16t16 6t16 -6t6 -16t-6 -16t-16 -6zM43 598q-10 0 -16 6t-6 16t6 16t16 6t16 -6t6 -16t-6 -16t-16 -6zM101 500v-500h-16v500h16z" />
    <glyph glyph-name="eth" unicode="&#xf0;" horiz-adv-x="577" 
d="M287 -10q-73 0 -126 30.5t-81.5 86.5t-28.5 130q0 76 28.5 131.5t80 86t119.5 30.5q95 0 153.5 -49t69.5 -132l-5 -10q0 91 -20.5 163t-56 125.5t-82 90.5t-99.5 57h31q48 -22 91.5 -57t77 -88t53 -127.5t19.5 -174.5q0 -99 -27.5 -164t-77.5 -97t-119 -32zM287 4
q71 0 117 34t68.5 92t22.5 129q0 66 -29 113.5t-77.5 73t-109.5 25.5q-64 0 -111.5 -29t-74 -81.5t-26.5 -123.5q0 -106 58.5 -169.5t161.5 -63.5zM228 574l-4 13l182 38l8 -12zM414 613l-8 12l120 26l4 -13z" />
    <glyph glyph-name="ntilde" unicode="&#xf1;" horiz-adv-x="574" 
d="M85 0v500h16v-140l-1 3q11 42 40 75.5t72 52.5t97 19q58 0 99.5 -21.5t64 -61.5t22.5 -98v-329h-16v327q0 80 -46.5 124.5t-126.5 44.5q-58 0 -104.5 -27t-73.5 -71.5t-27 -96.5v-301h-16zM452 683q-5 -28 -16.5 -47t-28 -28t-38.5 -9q-26 0 -44.5 10.5t-34 24t-31.5 24
t-37 10.5q-29 0 -46 -18t-25 -52h-15q8 43 31.5 63.5t55.5 20.5q24 0 42 -10.5t33.5 -24t32 -24t38.5 -10.5q30 0 45.5 18t22.5 52h15z" />
    <glyph glyph-name="ograve" unicode="&#xf2;" horiz-adv-x="569" 
d="M285 510q69 0 121.5 -31t82 -89.5t29.5 -139.5t-29.5 -139.5t-82 -89.5t-121.5 -31t-121.5 31t-82.5 89.5t-30 139.5t30 139.5t82.5 89.5t121.5 31zM285 496q-64 0 -113 -29.5t-77 -84.5t-28 -132q0 -76 28 -131.5t77 -85t113 -29.5t113 29.5t76.5 85t27.5 131.5
q0 77 -27.5 132t-76.5 84.5t-113 29.5zM211 726l85 -147h-15l-88 147h18z" />
    <glyph glyph-name="oacute" unicode="&#xf3;" horiz-adv-x="569" 
d="M285 510q69 0 121.5 -31t82 -89.5t29.5 -139.5t-29.5 -139.5t-82 -89.5t-121.5 -31t-121.5 31t-82.5 89.5t-30 139.5t30 139.5t82.5 89.5t121.5 31zM285 496q-64 0 -113 -29.5t-77 -84.5t-28 -132q0 -76 28 -131.5t77 -85t113 -29.5t113 29.5t76.5 85t27.5 131.5
q0 77 -27.5 132t-76.5 84.5t-113 29.5zM363 726h18l-88 -147h-15z" />
    <glyph glyph-name="ocircumflex" unicode="&#xf4;" horiz-adv-x="569" 
d="M285 510q69 0 121.5 -31t82 -89.5t29.5 -139.5t-29.5 -139.5t-82 -89.5t-121.5 -31t-121.5 31t-82.5 89.5t-30 139.5t30 139.5t82.5 89.5t121.5 31zM285 496q-64 0 -113 -29.5t-77 -84.5t-28 -132q0 -76 28 -131.5t77 -85t113 -29.5t113 29.5t76.5 85t27.5 131.5
q0 77 -27.5 132t-76.5 84.5t-113 29.5zM402 579h-17l-100 129l-100 -129h-17l108 142h18z" />
    <glyph glyph-name="otilde" unicode="&#xf5;" horiz-adv-x="569" 
d="M285 510q69 0 121.5 -31t82 -89.5t29.5 -139.5t-29.5 -139.5t-82 -89.5t-121.5 -31t-121.5 31t-82.5 89.5t-30 139.5t30 139.5t82.5 89.5t121.5 31zM285 496q-64 0 -113 -29.5t-77 -84.5t-28 -132q0 -76 28 -131.5t77 -85t113 -29.5t113 29.5t76.5 85t27.5 131.5
q0 77 -27.5 132t-76.5 84.5t-113 29.5zM444 679q-5 -28 -16.5 -47t-28 -28t-38.5 -9q-26 0 -44.5 10.5t-34 24t-31.5 24t-37 10.5q-29 0 -46 -18t-25 -52h-15q8 43 31.5 63.5t55.5 20.5q24 0 42 -10.5t33.5 -24t32 -24t38.5 -10.5q30 0 45.5 18t22.5 52h15z" />
    <glyph glyph-name="odieresis" unicode="&#xf6;" horiz-adv-x="569" 
d="M285 510q69 0 121.5 -31t82 -89.5t29.5 -139.5t-29.5 -139.5t-82 -89.5t-121.5 -31t-121.5 31t-82.5 89.5t-30 139.5t30 139.5t82.5 89.5t121.5 31zM285 496q-64 0 -113 -29.5t-77 -84.5t-28 -132q0 -76 28 -131.5t77 -85t113 -29.5t113 29.5t76.5 85t27.5 131.5
q0 77 -27.5 132t-76.5 84.5t-113 29.5zM192 638q10 0 16 -6t6 -16t-6 -16t-16 -6t-16 6t-6 16t6 16t16 6zM376 638q10 0 16 -6t6 -16t-6 -16t-16 -6t-16 6t-6 16t6 16t16 6z" />
    <glyph glyph-name="divide" unicode="&#xf7;" 
d="M527 323v-14h-450v14h450zM302 154q10 0 16 -6t6 -16t-6 -16t-16 -6t-16 6t-6 16t6 16t16 6zM302 524q10 0 16 -6t6 -16t-6 -16t-16 -6t-16 6t-6 16t6 16t16 6z" />
    <glyph glyph-name="oslash" unicode="&#xf8;" horiz-adv-x="569" 
d="M285 510q69 0 121.5 -31t82 -89.5t29.5 -139.5t-29.5 -139.5t-82 -89.5t-121.5 -31t-121.5 31t-82.5 89.5t-30 139.5t30 139.5t82.5 89.5t121.5 31zM285 496q-64 0 -113 -29.5t-77 -84.5t-28 -132q0 -76 28 -131.5t77 -85t113 -29.5t113 29.5t76.5 85t27.5 131.5
q0 77 -27.5 132t-76.5 84.5t-113 29.5zM52 -30l446 560h19l-446 -560h-19z" />
    <glyph glyph-name="ugrave" unicode="&#xf9;" horiz-adv-x="564" 
d="M254 -10q-55 0 -94.5 20.5t-60 60.5t-20.5 96v333h16v-331q0 -79 42.5 -122t119.5 -43q54 0 93 19t64 49t37 63t12 61v304h16v-500h-16v133q-17 -61 -73 -102t-136 -41zM206 710l85 -147h-15l-88 147h18z" />
    <glyph glyph-name="uacute" unicode="&#xfa;" horiz-adv-x="564" 
d="M254 -10q-55 0 -94.5 20.5t-60 60.5t-20.5 96v333h16v-331q0 -79 42.5 -122t119.5 -43q54 0 93 19t64 49t37 63t12 61v304h16v-500h-16v133q-17 -61 -73 -102t-136 -41zM358 710h18l-88 -147h-15z" />
    <glyph glyph-name="ucircumflex" unicode="&#xfb;" horiz-adv-x="564" 
d="M254 -10q-55 0 -94.5 20.5t-60 60.5t-20.5 96v333h16v-331q0 -79 42.5 -122t119.5 -43q54 0 93 19t64 49t37 63t12 61v304h16v-500h-16v133q-17 -61 -73 -102t-136 -41zM397 563h-17l-100 129l-100 -129h-17l108 142h18z" />
    <glyph glyph-name="udieresis" unicode="&#xfc;" horiz-adv-x="564" 
d="M254 -10q-55 0 -94.5 20.5t-60 60.5t-20.5 96v333h16v-331q0 -79 42.5 -122t119.5 -43q54 0 93 19t64 49t37 63t12 61v304h16v-500h-16v133q-17 -61 -73 -102t-136 -41zM187 622q10 0 16 -6t6 -16t-6 -16t-16 -6t-16 6t-6 16t6 16t16 6zM371 622q10 0 16 -6t6 -16t-6 -16
t-16 -6t-16 6t-6 16t6 16t16 6z" />
    <glyph glyph-name="yacute" unicode="&#xfd;" horiz-adv-x="481" 
d="M459 500l-249 -601q-18 -43 -37.5 -68t-43.5 -35.5t-55 -10.5q-26 0 -46.5 8t-31.5 24l9 13q11 -17 30 -24t40 -7q39 0 67 21.5t53 81.5l40 97l-55 129l-158 372h18l185 -440l18 -42l17 43l181 439h18zM322 710h18l-88 -147h-15z" />
    <glyph glyph-name="thorn" unicode="&#xfe;" horiz-adv-x="585" 
d="M85 -210v940h16v-389l-1 2q17 80 74 123.5t134 43.5q69 0 119.5 -31t78.5 -89t28 -140q0 -81 -28 -139.5t-78.5 -89.5t-119.5 -31q-76 0 -132.5 43t-75.5 122l1 2v-367h-16zM305 4q97 0 155 65t58 181t-58 181t-155 65q-58 0 -104 -30t-73 -85t-27 -131
q0 -75 26.5 -130.5t73 -85.5t104.5 -30z" />
    <glyph glyph-name="ydieresis" unicode="&#xff;" horiz-adv-x="481" 
d="M459 500l-249 -601q-18 -43 -37.5 -68t-43.5 -35.5t-55 -10.5q-26 0 -46.5 8t-31.5 24l9 13q11 -17 30 -24t40 -7q39 0 67 21.5t53 81.5l40 97l-55 129l-158 372h18l185 -440l18 -42l17 43l181 439h18zM151 622q10 0 16 -6t6 -16t-6 -16t-16 -6t-16 6t-6 16t6 16t16 6z
M335 622q10 0 16 -6t6 -16t-6 -16t-16 -6t-16 6t-6 16t6 16t16 6z" />
    <glyph glyph-name="Amacron" unicode="&#x100;" horiz-adv-x="586" 
d="M12 0l272 660h18l272 -660h-17l-247 596l-17 46v0l-17 -45l-247 -597h-17zM118 234v14h349v-14h-349zM437 779v-14h-288v14h288z" />
    <glyph glyph-name="amacron" unicode="&#x101;" horiz-adv-x="517" 
d="M407 336q0 74 -41 117t-118 43q-63 0 -109.5 -27.5t-69.5 -90.5l-13 10q23 62 72.5 92t119.5 30q56 0 95 -20.5t59.5 -59.5t20.5 -94v-258q0 -72 59 -72q22 0 34 8l-1 -14q-14 -8 -36 -8q-15 0 -32 7t-28.5 26.5t-11.5 58.5v46l7 6q-7 -49 -38.5 -81.5t-76 -48.5
t-90.5 -16q-50 0 -86 14.5t-55 41.5t-19 66q0 56 37.5 88t106.5 45l217 42v-14l-206 -40q-70 -13 -104.5 -42.5t-34.5 -76.5q0 -53 37.5 -81.5t108.5 -28.5q30 0 63.5 9t64 28.5t49.5 50t19 73.5v171zM386 619v-14h-288v14h288z" />
    <glyph glyph-name="Abreve" unicode="&#x102;" horiz-adv-x="586" 
d="M12 0l272 660h18l272 -660h-17l-247 596l-17 46v0l-17 -45l-247 -597h-17zM118 234v14h349v-14h-349zM414 862q0 -57 -32 -89t-89 -32t-89 32t-32 89h14q0 -49 28 -78t79 -29t79 29t28 78h14z" />
    <glyph glyph-name="abreve" unicode="&#x103;" horiz-adv-x="517" 
d="M407 336q0 74 -41 117t-118 43q-63 0 -109.5 -27.5t-69.5 -90.5l-13 10q23 62 72.5 92t119.5 30q56 0 95 -20.5t59.5 -59.5t20.5 -94v-258q0 -72 59 -72q22 0 34 8l-1 -14q-14 -8 -36 -8q-15 0 -32 7t-28.5 26.5t-11.5 58.5v46l7 6q-7 -49 -38.5 -81.5t-76 -48.5
t-90.5 -16q-50 0 -86 14.5t-55 41.5t-19 66q0 56 37.5 88t106.5 45l217 42v-14l-206 -40q-70 -13 -104.5 -42.5t-34.5 -76.5q0 -53 37.5 -81.5t108.5 -28.5q30 0 63.5 9t64 28.5t49.5 50t19 73.5v171zM363 702q0 -57 -32 -89t-89 -32t-89 32t-32 89h14q0 -49 28 -78t79 -29
t79 29t28 78h14z" />
    <glyph glyph-name="Aogonek" unicode="&#x104;" horiz-adv-x="586" 
d="M515 -202q-24 0 -44 8.5t-32 26t-12 43.5q0 39 29 70.5t103 60.5l15 -7q-49 -19 -78 -38t-41.5 -40t-12.5 -46q0 -32 21.5 -48t51.5 -16q26 0 41 6t25 14l6 -13q-12 -8 -28.5 -14.5t-43.5 -6.5zM12 0l272 660h18l272 -660h-17l-247 596l-17 46v0l-17 -45l-247 -597h-17z
M118 234v14h349v-14h-349z" />
    <glyph glyph-name="aogonek" unicode="&#x105;" horiz-adv-x="517" 
d="M447 -210q-24 0 -44 8.5t-32 26t-12 43.5q0 39 29 70.5t104 61.5h23q-54 -23 -84.5 -44t-43.5 -42t-13 -46q0 -32 21.5 -48t51.5 -16q28 0 44.5 6t26.5 14l6 -13q-12 -8 -29 -14.5t-48 -6.5zM407 336q0 74 -41 117t-118 43q-63 0 -109.5 -27.5t-69.5 -90.5l-13 10
q23 62 72.5 92t119.5 30q56 0 95 -20.5t59.5 -59.5t20.5 -94v-258q0 -72 59 -72q22 0 34 8l-1 -14q-14 -8 -36 -8q-15 0 -32 7t-28.5 26.5t-11.5 58.5v46l7 6q-7 -49 -38.5 -81.5t-76 -48.5t-90.5 -16q-50 0 -86 14.5t-55 41.5t-19 66q0 56 37.5 88t106.5 45l217 42v-14
l-206 -40q-70 -13 -104.5 -42.5t-34.5 -76.5q0 -53 37.5 -81.5t108.5 -28.5q30 0 63.5 9t64 28.5t49.5 50t19 73.5v171z" />
    <glyph glyph-name="Cacute" unicode="&#x106;" horiz-adv-x="649" 
d="M610 165q-16 -55 -52.5 -94.5t-89 -60t-119.5 -20.5q-87 0 -153 41.5t-103 117.5t-37 181t36.5 181t102.5 117.5t154 41.5q70 0 121 -19.5t85 -58t50 -96.5l-15 -7q-25 84 -84.5 125.5t-156.5 41.5q-83 0 -145.5 -40t-97 -113t-34.5 -173t35 -173t97.5 -113t144.5 -40
q95 0 159 44t87 123zM408 891h18l-78 -148h-15z" />
    <glyph glyph-name="cacute" unicode="&#x107;" horiz-adv-x="524" 
d="M281 510q50 0 90 -16t67.5 -46.5t39.5 -74.5l-14 -7q-16 62 -64 96t-119 34q-61 0 -109.5 -29.5t-76.5 -84.5t-28 -132q0 -76 27.5 -131.5t75 -85t108.5 -29.5q47 0 87.5 17t68 48t34.5 73l14 -5q-8 -45 -37.5 -78t-72.5 -51t-94 -18q-66 0 -117 31t-80.5 89.5
t-29.5 139.5t30 139.5t82 89.5t118 31zM353 730h18l-88 -147h-15z" />
    <glyph glyph-name="Ccircumflex" unicode="&#x108;" horiz-adv-x="649" 
d="M610 165q-16 -55 -52.5 -94.5t-89 -60t-119.5 -20.5q-87 0 -153 41.5t-103 117.5t-37 181t36.5 181t102.5 117.5t154 41.5q70 0 121 -19.5t85 -58t50 -96.5l-15 -7q-25 84 -84.5 125.5t-156.5 41.5q-83 0 -145.5 -40t-97 -113t-34.5 -173t35 -173t97.5 -113t144.5 -40
q95 0 159 44t87 123zM458 743h-17l-102 129l-102 -129h-17l109 142h20z" />
    <glyph glyph-name="ccircumflex" unicode="&#x109;" horiz-adv-x="524" 
d="M281 510q50 0 90 -16t67.5 -46.5t39.5 -74.5l-14 -7q-16 62 -64 96t-119 34q-61 0 -109.5 -29.5t-76.5 -84.5t-28 -132q0 -76 27.5 -131.5t75 -85t108.5 -29.5q47 0 87.5 17t68 48t34.5 73l14 -5q-8 -45 -37.5 -78t-72.5 -51t-94 -18q-66 0 -117 31t-80.5 89.5
t-29.5 139.5t30 139.5t82 89.5t118 31zM392 583h-17l-100 129l-100 -129h-17l108 142h18z" />
    <glyph glyph-name="Cdotaccent" unicode="&#x10a;" horiz-adv-x="649" 
d="M610 165q-16 -55 -52.5 -94.5t-89 -60t-119.5 -20.5q-87 0 -153 41.5t-103 117.5t-37 181t36.5 181t102.5 117.5t154 41.5q70 0 121 -19.5t85 -58t50 -96.5l-15 -7q-25 84 -84.5 125.5t-156.5 41.5q-83 0 -145.5 -40t-97 -113t-34.5 -173t35 -173t97.5 -113t144.5 -40
q95 0 159 44t87 123zM339 802q10 0 16 -6t6 -16t-6 -16t-16 -6t-16 6t-6 16t6 16t16 6z" />
    <glyph glyph-name="cdotaccent" unicode="&#x10b;" horiz-adv-x="524" 
d="M281 510q50 0 90 -16t67.5 -46.5t39.5 -74.5l-14 -7q-16 62 -64 96t-119 34q-61 0 -109.5 -29.5t-76.5 -84.5t-28 -132q0 -76 27.5 -131.5t75 -85t108.5 -29.5q47 0 87.5 17t68 48t34.5 73l14 -5q-8 -45 -37.5 -78t-72.5 -51t-94 -18q-66 0 -117 31t-80.5 89.5
t-29.5 139.5t30 139.5t82 89.5t118 31zM275 642q10 0 16 -6t6 -16t-6 -16t-16 -6t-16 6t-6 16t6 16t16 6z" />
    <glyph glyph-name="Ccaron" unicode="&#x10c;" horiz-adv-x="649" 
d="M610 165q-16 -55 -52.5 -94.5t-89 -60t-119.5 -20.5q-87 0 -153 41.5t-103 117.5t-37 181t36.5 181t102.5 117.5t154 41.5q70 0 121 -19.5t85 -58t50 -96.5l-15 -7q-25 84 -84.5 125.5t-156.5 41.5q-83 0 -145.5 -40t-97 -113t-34.5 -173t35 -173t97.5 -113t144.5 -40
q95 0 159 44t87 123zM458 885l-109 -142h-20l-109 142h17l102 -129l102 129h17z" />
    <glyph glyph-name="ccaron" unicode="&#x10d;" horiz-adv-x="524" 
d="M281 510q50 0 90 -16t67.5 -46.5t39.5 -74.5l-14 -7q-16 62 -64 96t-119 34q-61 0 -109.5 -29.5t-76.5 -84.5t-28 -132q0 -76 27.5 -131.5t75 -85t108.5 -29.5q47 0 87.5 17t68 48t34.5 73l14 -5q-8 -45 -37.5 -78t-72.5 -51t-94 -18q-66 0 -117 31t-80.5 89.5
t-29.5 139.5t30 139.5t82 89.5t118 31zM392 725l-108 -142h-18l-108 142h17l100 -129l100 129h17z" />
    <glyph glyph-name="Dcaron" unicode="&#x10e;" horiz-adv-x="683" 
d="M302 660q161 0 243 -81t82 -239q0 -167 -82 -253.5t-243 -86.5h-203v660h203zM302 14q152 0 230.5 83t78.5 243q0 151 -78.5 228.5t-230.5 77.5h-187v-632h187zM428 885l-109 -142h-20l-109 142h17l102 -129l102 129h17z" />
    <glyph glyph-name="dcaron" unicode="&#x10f;" horiz-adv-x="595" 
d="M628 730l-29 -197h-14l26 197h17zM280 -10q-68 0 -120 31t-80.5 89.5t-28.5 139.5q0 82 28.5 140t80.5 89t120 31q77 0 131.5 -43t73.5 -122l-1 -2v387h16v-730h-16v159l1 -2q-11 -53 -40 -90.5t-71 -57t-94 -19.5zM283 4q58 0 103.5 30t71.5 85.5t26 130.5q0 76 -26 131
t-71 85t-104 30q-97 0 -156.5 -65t-59.5 -181t59.5 -181t156.5 -65z" />
    <glyph glyph-name="Dcroat" unicode="&#x110;" horiz-adv-x="691" 
d="M5 327v14h325v-14h-325zM310 660q161 0 243 -81t82 -239q0 -167 -82 -253.5t-243 -86.5h-203v660h203zM310 14q152 0 230.5 83t78.5 243q0 151 -78.5 228.5t-230.5 77.5h-187v-632h187z" />
    <glyph glyph-name="dcroat" unicode="&#x111;" horiz-adv-x="585" 
d="M302 594v12h295v-12h-295zM280 -10q-68 0 -120 31t-80.5 89.5t-28.5 139.5q0 82 28.5 140t80.5 89t120 31q77 0 131.5 -43t73.5 -122l-1 -2v387h16v-730h-16v159l1 -2q-11 -53 -40 -90.5t-71 -57t-94 -19.5zM283 4q58 0 103.5 30t71.5 85.5t26 130.5q0 76 -26 131t-71 85
t-104 30q-97 0 -156.5 -65t-59.5 -181t59.5 -181t156.5 -65z" />
    <glyph glyph-name="Emacron" unicode="&#x112;" horiz-adv-x="583" 
d="M99 0v660h437v-14h-421v-302h338v-14h-338v-316h438v-14h-454zM462 779v-14h-288v14h288z" />
    <glyph glyph-name="emacron" unicode="&#x113;" horiz-adv-x="534" 
d="M283 -10q-66 0 -118.5 31t-83 89.5t-30.5 139.5q0 82 30 140t80.5 89t113.5 31q66 0 113 -30t72.5 -85.5t25.5 -132.5v-3v-4h-427v15h420l-7 -6q-1 103 -51.5 167.5t-145.5 64.5q-58 0 -105.5 -29.5t-75 -84.5t-27.5 -132t28 -132t77 -84.5t111 -29.5q61 0 111 30t75 82
l13 -7q-17 -37 -47 -63.5t-69 -41t-83 -14.5zM415 619v-14h-288v14h288z" />
    <glyph glyph-name="Ebreve" unicode="&#x114;" horiz-adv-x="583" 
d="M99 0v660h437v-14h-421v-302h338v-14h-338v-316h438v-14h-454zM439 862q0 -57 -32 -89t-89 -32t-89 32t-32 89h14q0 -49 28 -78t79 -29t79 29t28 78h14z" />
    <glyph glyph-name="ebreve" unicode="&#x115;" horiz-adv-x="534" 
d="M283 -10q-66 0 -118.5 31t-83 89.5t-30.5 139.5q0 82 30 140t80.5 89t113.5 31q66 0 113 -30t72.5 -85.5t25.5 -132.5v-3v-4h-427v15h420l-7 -6q-1 103 -51.5 167.5t-145.5 64.5q-58 0 -105.5 -29.5t-75 -84.5t-27.5 -132t28 -132t77 -84.5t111 -29.5q61 0 111 30t75 82
l13 -7q-17 -37 -47 -63.5t-69 -41t-83 -14.5zM392 702q0 -57 -32 -89t-89 -32t-89 32t-32 89h14q0 -49 28 -78t79 -29t79 29t28 78h14z" />
    <glyph glyph-name="Edotaccent" unicode="&#x116;" horiz-adv-x="583" 
d="M99 0v660h437v-14h-421v-302h338v-14h-338v-316h438v-14h-454zM318 802q10 0 16 -6t6 -16t-6 -16t-16 -6t-16 6t-6 16t6 16t16 6z" />
    <glyph glyph-name="edotaccent" unicode="&#x117;" horiz-adv-x="534" 
d="M283 -10q-66 0 -118.5 31t-83 89.5t-30.5 139.5q0 82 30 140t80.5 89t113.5 31q66 0 113 -30t72.5 -85.5t25.5 -132.5v-3v-4h-427v15h420l-7 -6q-1 103 -51.5 167.5t-145.5 64.5q-58 0 -105.5 -29.5t-75 -84.5t-27.5 -132t28 -132t77 -84.5t111 -29.5q61 0 111 30t75 82
l13 -7q-17 -37 -47 -63.5t-69 -41t-83 -14.5zM271 642q10 0 16 -6t6 -16t-6 -16t-16 -6t-16 6t-6 16t6 16t16 6z" />
    <glyph glyph-name="Eogonek" unicode="&#x118;" horiz-adv-x="583" 
d="M481 -210q-23 0 -42 8.5t-30.5 26t-11.5 43.5q0 40 30.5 74t109.5 61l16 -3q-81 -31 -111 -63t-30 -69q0 -32 20.5 -48t48.5 -16q25 0 41 6t26 14l6 -13q-12 -8 -28.5 -14.5t-44.5 -6.5zM99 0v660h437v-14h-421v-302h338v-14h-338v-316h438v-14h-454z" />
    <glyph glyph-name="eogonek" unicode="&#x119;" horiz-adv-x="534" 
d="M283 -10q-66 0 -118.5 31t-83 89.5t-30.5 139.5q0 82 30 140t80.5 89t113.5 31q66 0 113 -30t72.5 -85.5t25.5 -132.5v-3v-4h-427v15h420l-7 -6q-1 103 -51.5 167.5t-145.5 64.5q-58 0 -105.5 -29.5t-75 -84.5t-27.5 -132t28 -132t77 -84.5t111 -29.5q61 0 111 30t75 82
l13 -7q-17 -37 -47 -63.5t-69 -41t-83 -14.5zM299 -205q-36 0 -62 19.5t-26 58.5q0 40 30.5 72t109.5 63l16 -3q-54 -23 -84.5 -44t-43.5 -42t-13 -46q0 -32 21.5 -48t51.5 -16q28 0 44.5 6t26.5 14l6 -13q-12 -8 -29 -14.5t-48 -6.5z" />
    <glyph glyph-name="Ecaron" unicode="&#x11a;" horiz-adv-x="583" 
d="M99 0v660h437v-14h-421v-302h338v-14h-338v-316h438v-14h-454zM437 885l-109 -142h-20l-109 142h17l102 -129l102 129h17z" />
    <glyph glyph-name="ecaron" unicode="&#x11b;" horiz-adv-x="534" 
d="M283 -10q-66 0 -118.5 31t-83 89.5t-30.5 139.5q0 82 30 140t80.5 89t113.5 31q66 0 113 -30t72.5 -85.5t25.5 -132.5v-3v-4h-427v15h420l-7 -6q-1 103 -51.5 167.5t-145.5 64.5q-58 0 -105.5 -29.5t-75 -84.5t-27.5 -132t28 -132t77 -84.5t111 -29.5q61 0 111 30t75 82
l13 -7q-17 -37 -47 -63.5t-69 -41t-83 -14.5zM388 725l-108 -142h-18l-108 142h17l100 -129l100 129h17z" />
    <glyph glyph-name="Gcircumflex" unicode="&#x11c;" horiz-adv-x="676" 
d="M355 -10q-92 0 -159.5 41.5t-103.5 117.5t-36 181t36.5 181t102.5 117.5t154 41.5q104 0 167.5 -43.5t88.5 -130.5l-14 -7q-25 84 -84.5 125.5t-157.5 41.5q-83 0 -145.5 -40t-97 -113t-34.5 -173t34.5 -173t98 -113t150.5 -40q71 0 117.5 24.5t73 62.5t37.5 79t11 74v53
h-241v14h257v-311h-16v166l1 -2q-21 -79 -83 -126.5t-157 -47.5zM462 743h-17l-102 129l-102 -129h-17l109 142h20z" />
    <glyph glyph-name="gcircumflex" unicode="&#x11d;" horiz-adv-x="496" 
d="M136 583l108 142h18l108 -142h-17l-100 129l-100 -129h-17zM491 592l5 -14h-1h-1q-49 0 -75.5 -31.5t-26.5 -81.5l-13 5q0 37 13 64t38 42.5t59 15.5h1h1zM326 37q77 0 121.5 -30t44.5 -80q0 -42 -28.5 -74t-80 -50t-119.5 -18q-107 0 -168.5 37t-61.5 97q0 44 34.5 75
t89.5 38l-1 -2q-30 8 -55.5 29t-25.5 58q0 42 32.5 66t77.5 24l51 -8h-32q-44 0 -78.5 -19.5t-34.5 -60.5t33 -61.5t78 -20.5h123zM266 -201q59 0 106.5 16t75.5 44.5t28 65.5q0 44 -41 71t-110 27h-128q-64 0 -105.5 -28.5t-41.5 -73.5q0 -54 58 -88t158 -34zM258 510
q59 0 103 -19.5t68.5 -54.5t24.5 -83q0 -47 -24.5 -82.5t-68.5 -55t-103 -19.5q-89 0 -143.5 43t-54.5 114q0 48 24.5 83t69.5 54.5t104 19.5zM258 496q-82 0 -132 -39t-50 -104q0 -64 50 -103.5t132 -39.5t131 39.5t49 103.5q0 65 -49 104t-131 39z" />
    <glyph glyph-name="Gbreve" unicode="&#x11e;" horiz-adv-x="676" 
d="M355 -10q-92 0 -159.5 41.5t-103.5 117.5t-36 181t36.5 181t102.5 117.5t154 41.5q104 0 167.5 -43.5t88.5 -130.5l-14 -7q-25 84 -84.5 125.5t-157.5 41.5q-83 0 -145.5 -40t-97 -113t-34.5 -173t34.5 -173t98 -113t150.5 -40q71 0 117.5 24.5t73 62.5t37.5 79t11 74v53
h-241v14h257v-311h-16v166l1 -2q-21 -79 -83 -126.5t-157 -47.5zM464 862q0 -57 -32 -89t-89 -32t-89 32t-32 89h14q0 -49 28 -78t79 -29t79 29t28 78h14z" />
    <glyph glyph-name="gbreve" unicode="&#x11f;" horiz-adv-x="496" 
d="M491 592l5 -14h-1h-1q-49 0 -75.5 -31.5t-26.5 -81.5l-13 5q0 37 13 64t38 42.5t59 15.5h1h1zM326 37q77 0 121.5 -30t44.5 -80q0 -42 -28.5 -74t-80 -50t-119.5 -18q-107 0 -168.5 37t-61.5 97q0 44 34.5 75t89.5 38l-1 -2q-30 8 -55.5 29t-25.5 58q0 42 32.5 66
t77.5 24l51 -8h-32q-44 0 -78.5 -19.5t-34.5 -60.5t33 -61.5t78 -20.5h123zM266 -201q59 0 106.5 16t75.5 44.5t28 65.5q0 44 -41 71t-110 27h-128q-64 0 -105.5 -28.5t-41.5 -73.5q0 -54 58 -88t158 -34zM258 510q59 0 103 -19.5t68.5 -54.5t24.5 -83q0 -47 -24.5 -82.5
t-68.5 -55t-103 -19.5q-89 0 -143.5 43t-54.5 114q0 48 24.5 83t69.5 54.5t104 19.5zM258 496q-82 0 -132 -39t-50 -104q0 -64 50 -103.5t132 -39.5t131 39.5t49 103.5q0 65 -49 104t-131 39zM382 702q0 -57 -32 -89t-89 -32t-89 32t-32 89h14q0 -49 28 -78t79 -29t79 29
t28 78h14z" />
    <glyph glyph-name="Gdotaccent" unicode="&#x120;" horiz-adv-x="676" 
d="M355 -10q-92 0 -159.5 41.5t-103.5 117.5t-36 181t36.5 181t102.5 117.5t154 41.5q104 0 167.5 -43.5t88.5 -130.5l-14 -7q-25 84 -84.5 125.5t-157.5 41.5q-83 0 -145.5 -40t-97 -113t-34.5 -173t34.5 -173t98 -113t150.5 -40q71 0 117.5 24.5t73 62.5t37.5 79t11 74v53
h-241v14h257v-311h-16v166l1 -2q-21 -79 -83 -126.5t-157 -47.5zM343 802q10 0 16 -6t6 -16t-6 -16t-16 -6t-16 6t-6 16t6 16t16 6z" />
    <glyph glyph-name="gdotaccent" unicode="&#x121;" horiz-adv-x="496" 
d="M491 592l5 -14h-1.5h-1.5q-49 0 -75 -31.5t-26 -81.5l-13 5q0 37 13.5 64t38 42.5t57.5 15.5h2h1zM326 37q77 0 121.5 -30t44.5 -80q0 -42 -28.5 -74t-80 -50t-119.5 -18q-107 0 -168.5 37t-61.5 97q0 44 34.5 75t89.5 38l-1 -2q-30 8 -55.5 29t-25.5 58q0 42 32.5 66
t77.5 24l51 -8h-32q-44 0 -78.5 -19.5t-34.5 -60.5t33 -61.5t78 -20.5h123zM266 -201q59 0 106.5 16t75.5 44.5t28 65.5q0 44 -41 71t-110 27h-128q-64 0 -105.5 -28.5t-41.5 -73.5q0 -54 58 -88t158 -34zM258 510q59 0 103 -19.5t68.5 -54.5t24.5 -83q0 -47 -24.5 -82.5
t-68.5 -55t-103 -19.5q-89 0 -143.5 43t-54.5 114q0 48 24.5 83t69.5 54.5t104 19.5zM258 496q-82 0 -132 -39t-50 -104q0 -64 50 -103.5t132 -39.5t131 39.5t49 103.5q0 65 -49 104t-131 39zM253 642q10 0 16 -6t6 -16t-6 -16t-16 -6t-16 6t-6 16t6 16t16 6z" />
    <glyph glyph-name="uni0122" unicode="&#x122;" horiz-adv-x="676" 
d="M355 -10q-92 0 -159.5 41.5t-103.5 117.5t-36 181t36.5 181t102.5 117.5t154 41.5q104 0 167.5 -43.5t88.5 -130.5l-14 -7q-25 84 -84.5 125.5t-157.5 41.5q-83 0 -145.5 -40t-97 -113t-34.5 -173t34.5 -173t98 -113t150.5 -40q71 0 117.5 24.5t73 62.5t37.5 79t11 74v53
h-241v14h257v-311h-16v166l1 -2q-21 -79 -83 -126.5t-157 -47.5zM365 -68l-55 -161h-13l50 161h18z" />
    <glyph glyph-name="uni0123" unicode="&#x123;" horiz-adv-x="496" 
d="M491 592l5 -14h-1.5h-1.5q-49 0 -75 -31.5t-26 -81.5l-13 5q0 37 13.5 64t38 42.5t57.5 15.5h2h1zM326 37q77 0 121.5 -30t44.5 -80q0 -42 -28.5 -74t-80 -50t-119.5 -18q-107 0 -168.5 37t-61.5 97q0 44 34.5 75t89.5 38l-1 -2q-30 8 -55.5 29t-25.5 58q0 42 32.5 66
t77.5 24l51 -8h-32q-44 0 -78.5 -19.5t-34.5 -60.5t33 -61.5t78 -20.5h123zM266 -201q59 0 106.5 16t75.5 44.5t28 65.5q0 44 -41 71t-110 27h-128q-64 0 -105.5 -28.5t-41.5 -73.5q0 -54 58 -88t158 -34zM258 510q59 0 103 -19.5t68.5 -54.5t24.5 -83q0 -47 -24.5 -82.5
t-68.5 -55t-103 -19.5q-89 0 -143.5 43t-54.5 114q0 48 24.5 83t69.5 54.5t104 19.5zM258 496q-82 0 -132 -39t-50 -104q0 -64 50 -103.5t132 -39.5t131 39.5t49 103.5q0 65 -49 104t-131 39zM327 778l-55 -191h-18l60 191h13z" />
    <glyph glyph-name="Hcircumflex" unicode="&#x124;" horiz-adv-x="696" 
d="M597 660v-660h-16v660h16zM115 660v-660h-16v660h16zM590 344v-14h-483v14h483zM467 743h-17l-102 129l-102 -129h-17l109 142h20z" />
    <glyph glyph-name="hcircumflex" unicode="&#x125;" horiz-adv-x="574" 
d="M85 0v730h16v-362q17 62 73 102.5t135 40.5q58 0 99.5 -21.5t64 -61.5t22.5 -98v-329h-16v327q0 80 -46.5 124.5t-126.5 44.5q-58 0 -104.5 -27t-73.5 -71.5t-27 -96.5v-302h-16zM212 763h-17l-102 129l-102 -129h-17l109 142h20z" />
    <glyph glyph-name="Hbar" unicode="&#x126;" horiz-adv-x="696" 
d="M597 660v-660h-16v660h16zM115 660v-660h-16v660h16zM590 344v-14h-483v14h483zM671 507v-14h-646v14h646z" />
    <glyph glyph-name="hbar" unicode="&#x127;" horiz-adv-x="574" 
d="M-12 606h295v-12h-295v12zM85 0v730h16v-362q17 62 73 102.5t135 40.5q58 0 99.5 -21.5t64 -61.5t22.5 -98v-329h-16v327q0 80 -46.5 124.5t-126.5 44.5q-58 0 -104.5 -27t-73.5 -71.5t-27 -96.5v-302h-16z" />
    <glyph glyph-name="Itilde" unicode="&#x128;" horiz-adv-x="214" 
d="M115 660v-660h-16v660h16zM266 843q-5 -28 -16.5 -47t-28 -28t-38.5 -9q-26 0 -44.5 10.5t-34 24t-31.5 24t-37 10.5q-29 0 -46 -18t-25 -52h-15q8 43 31.5 63.5t55.5 20.5q24 0 42 -10.5t33.5 -24t32 -24t38.5 -10.5q30 0 45.5 18t22.5 52h15z" />
    <glyph glyph-name="itilde" unicode="&#x129;" horiz-adv-x="186" 
d="M101 500v-500h-16v500h16zM252 683q-5 -28 -16.5 -47t-28 -28t-38.5 -9q-26 0 -44.5 10.5t-34 24t-31.5 24t-37 10.5q-29 0 -46 -18t-25 -52h-15q8 43 31.5 63.5t55.5 20.5q24 0 42 -10.5t33.5 -24t32 -24t38.5 -10.5q30 0 45.5 18t22.5 52h15z" />
    <glyph glyph-name="Imacron" unicode="&#x12a;" horiz-adv-x="214" 
d="M216 779v-14h-218v14h218zM115 660v-660h-16v660h16z" />
    <glyph glyph-name="imacron" unicode="&#x12b;" horiz-adv-x="186" 
d="M101 500v-500h-16v500h16zM185.162 619v-14h-184.324v14h184.324z" />
    <glyph glyph-name="Ibreve" unicode="&#x12c;" horiz-adv-x="214" 
d="M115 660v-660h-16v660h16zM228 862q0 -57 -32 -89t-89 -32t-89 32t-32 89h14q0 -49 28 -78t79 -29t79 29t28 78h14z" />
    <glyph glyph-name="ibreve" unicode="&#x12d;" horiz-adv-x="186" 
d="M101 500v-500h-16v500h16zM214 702q0 -57 -32 -89t-89 -32t-89 32t-32 89h14q0 -49 28 -78t79 -29t79 29t28 78h14z" />
    <glyph glyph-name="Iogonek" unicode="&#x12e;" horiz-adv-x="214" 
d="M88 -210q-21 0 -39 9.5t-28.5 27t-10.5 42.5q0 22 9.5 43.5t29.5 43.5t50 47l16 -3q-48 -40 -69 -70.5t-21 -60.5q0 -31 19 -48t44 -17q19 0 29.5 4.5t17.5 8.5l6 -11q-9 -6 -21 -11t-32 -5zM115 660v-660h-16v660h16z" />
    <glyph glyph-name="iogonek" unicode="&#x12f;" horiz-adv-x="186" 
d="M74 -210q-21 0 -39 9.5t-28.5 27t-10.5 42.5q0 22 9.5 43.5t29.5 43.5t50 47l16 -3q-48 -40 -69 -70.5t-21 -60.5q0 -31 19 -48t44 -17q19 0 29.5 4.5t17.5 8.5l6 -11q-9 -6 -21 -11t-32 -5zM93 598q-10 0 -16 6t-6 16t6 16t16 6t16 -6t6 -16t-6 -16t-16 -6zM101 500
v-500h-16v500h16z" />
    <glyph glyph-name="Idotaccent" unicode="&#x130;" horiz-adv-x="214" 
d="M115 660v-660h-16v660h16zM107 802q10 0 16 -6t6 -16t-6 -16t-16 -6t-16 6t-6 16t6 16t16 6z" />
    <glyph glyph-name="dotlessi" unicode="&#x131;" horiz-adv-x="186" 
d="M101 500v-500h-16v500h16z" />
    <glyph glyph-name="IJ" unicode="&#x132;" horiz-adv-x="712" 
d="M115 660v-660h-16v660h16zM620 660v-451q0 -100 -49 -159.5t-145 -59.5q-66 0 -109 26.5t-61.5 73.5t-9.5 110l16 8q-13 -99 30.5 -151.5t133.5 -52.5q89 0 133.5 55.5t44.5 149.5v451h16z" />
    <glyph glyph-name="ij" unicode="&#x133;" horiz-adv-x="372" 
d="M93 598q-10 0 -16 6t-6 16t6 16t16 6t16 -6t6 -16t-6 -16t-16 -6zM101 500v-500h-16v500h16zM279 598q-10 0 -16 6t-6 16t6 16t16 6t16 -6t6 -16t-6 -16t-16 -6zM287 500v-564q0 -46 -16.5 -80t-46 -52.5t-69.5 -18.5q-21 0 -40 6t-31 16l5 14q12 -11 30 -16.5t36 -5.5
q53 0 84.5 37.5t31.5 99.5v564h16z" />
    <glyph glyph-name="Jcircumflex" unicode="&#x134;" horiz-adv-x="498" 
d="M406 660v-451q0 -100 -49 -159.5t-145 -59.5q-66 0 -109 26.5t-61.5 73.5t-9.5 110l16 8q-13 -99 30.5 -151.5t133.5 -52.5q89 0 133.5 55.5t44.5 149.5v451h16zM517 743h-17l-102 129l-102 -129h-17l109 142h20z" />
    <glyph glyph-name="jcircumflex" unicode="&#x135;" horiz-adv-x="186" 
d="M101 500v-564q0 -46 -16.5 -80t-46 -52.5t-69.5 -18.5q-21 0 -40 6t-31 16l5 14q12 -11 30 -16.5t36 -5.5q53 0 84.5 37.5t31.5 99.5v564h16zM210 583h-17l-100 129l-100 -129h-17l108 142h18z" />
    <glyph glyph-name="uni0136" unicode="&#x136;" horiz-adv-x="557" 
d="M534 660l-264 -269l-2 -2l-162 -164v23l405 412h23zM115 660v-660h-16v660h16zM270 404l274 -404h-21l-264 390zM333 -68l-55 -161h-13l50 161h18z" />
    <glyph glyph-name="uni0137" unicode="&#x137;" horiz-adv-x="482" 
d="M465 500l-224 -208l-4 -3l-144 -134v22l348 323h24zM101 730v-730h-16v730h16zM240 302l230 -302h-20l-222 291zM324 -68l-55 -161h-13l50 161h18z" />
    <glyph glyph-name="kgreenlandic" unicode="&#x138;" horiz-adv-x="482" 
d="M465 500l-224 -208l-4 -3l-144 -134v22l348 323h24zM101 500v-500h-16v500h16zM240 302l230 -302h-20l-222 291z" />
    <glyph glyph-name="Lacute" unicode="&#x139;" horiz-adv-x="543" 
d="M115 14h416v-14h-432v660h16v-646zM176 891h18l-78 -148h-15z" />
    <glyph glyph-name="lacute" unicode="&#x13a;" horiz-adv-x="237" 
d="M97 730v-623q0 -55 18 -79t55 -24q22 0 34 3t24 9v-14q-10 -5 -24 -8.5t-34 -3.5q-44 0 -66.5 28t-22.5 89v623h16zM83 793l63 137h16l-65 -137h-14z" />
    <glyph glyph-name="uni013B" unicode="&#x13b;" horiz-adv-x="543" 
d="M115 14h416v-14h-432v660h16v-646zM345 -68l-55 -161h-13l50 161h18z" />
    <glyph glyph-name="uni013C" unicode="&#x13c;" horiz-adv-x="237" 
d="M97 730v-623q0 -55 18 -79t55 -24q22 0 34 3t24 9v-14q-10 -5 -24 -8.5t-34 -3.5q-44 0 -66.5 28t-22.5 89v623h16zM173 -68l-55 -161h-13l50 161h18z" />
    <glyph glyph-name="Lcaron" unicode="&#x13d;" horiz-adv-x="543" 
d="M338 660l-29 -197h-14l26 197h17zM115 14h416v-14h-432v660h16v-646z" />
    <glyph glyph-name="lcaron" unicode="&#x13e;" horiz-adv-x="237" 
d="M228 730l-29 -197h-14l26 197h17zM97 730v-623q0 -55 18 -79t55 -24q22 0 34 3t24 9v-14q-10 -5 -24 -8.5t-34 -3.5q-44 0 -66.5 28t-22.5 89v623h16z" />
    <glyph glyph-name="Ldot" unicode="&#x13f;" horiz-adv-x="543" 
d="M115 14h416v-14h-432v660h16v-646zM380 366q10 0 16 -6t6 -16t-6 -16t-16 -6t-16 6t-6 16t6 16t16 6z" />
    <glyph glyph-name="ldot" unicode="&#x140;" horiz-adv-x="294" 
d="M97 730v-623q0 -55 18 -79t55 -24q22 0 34 3t24 9v-14q-10 -5 -24 -8.5t-34 -3.5q-44 0 -66.5 28t-22.5 89v623h16zM238 382q10 0 16 -6t6 -16t-6 -16t-16 -6t-16 6t-6 16t6 16t16 6z" />
    <glyph glyph-name="Lslash" unicode="&#x141;" horiz-adv-x="554" 
d="M334 439v-20l-325 -207v20zM126 14h416v-14h-432v660h16v-646z" />
    <glyph glyph-name="lslash" unicode="&#x142;" horiz-adv-x="278" 
d="M252 455v-17l-129 -93l-3 -2l-106 -76v17l104 75l5 3zM127 730v-623q0 -55 18 -79t55 -24q22 0 34 3t24 9v-14q-10 -5 -24 -8.5t-34 -3.5q-44 0 -66.5 28t-22.5 89v623h16z" />
    <glyph glyph-name="Nacute" unicode="&#x143;" horiz-adv-x="694" 
d="M595 660v-660h-22l-433 605l-26 39v0l1 -57v-587h-16v660h22l433 -605l26 -39v0l-1 57v587h16zM422 891h18l-78 -148h-15z" />
    <glyph glyph-name="nacute" unicode="&#x144;" horiz-adv-x="574" 
d="M85 0v500h16v-140l-1 3q11 42 40 75.5t72 52.5t97 19q58 0 99.5 -21.5t64 -61.5t22.5 -98v-329h-16v327q0 80 -46.5 124.5t-126.5 44.5q-58 0 -104.5 -27t-73.5 -71.5t-27 -96.5v-301h-16zM371 730h18l-88 -147h-15z" />
    <glyph glyph-name="uni0145" unicode="&#x145;" horiz-adv-x="694" 
d="M595 660v-660h-22l-433 605l-26 39v0l1 -57v-587h-16v660h22l433 -605l26 -39v0l-1 57v587h16zM361 -68l-55 -161h-13l50 161h18z" />
    <glyph glyph-name="uni0146" unicode="&#x146;" horiz-adv-x="574" 
d="M85 0v500h16v-140l-1 3q11 42 40 75.5t72 52.5t97 19q58 0 99.5 -21.5t64 -61.5t22.5 -98v-329h-16v327q0 80 -46.5 124.5t-126.5 44.5q-58 0 -104.5 -27t-73.5 -71.5t-27 -96.5v-301h-16zM337 -68l-55 -161h-13l50 161h18z" />
    <glyph glyph-name="Ncaron" unicode="&#x147;" horiz-adv-x="694" 
d="M595 660v-660h-22l-433 605l-26 39v0l1 -57v-587h-16v660h22l433 -605l26 -39v0l-1 57v587h16zM472 885l-109 -142h-20l-109 142h17l102 -129l102 129h17z" />
    <glyph glyph-name="ncaron" unicode="&#x148;" horiz-adv-x="574" 
d="M85 0v500h16v-140l-1 3q11 42 40 75.5t72 52.5t97 19q58 0 99.5 -21.5t64 -61.5t22.5 -98v-329h-16v327q0 80 -46.5 124.5t-126.5 44.5q-58 0 -104.5 -27t-73.5 -71.5t-27 -96.5v-301h-16zM410 725l-108 -142h-18l-108 142h17l100 -129l100 129h17z" />
    <glyph glyph-name="Eng" unicode="&#x14a;" horiz-adv-x="694" 
d="M463 -215q-21 0 -40 6t-31 16l5 14q12 -11 30 -16.5t36 -5.5q53 0 84.5 37.5t31.5 99.5v64l-439 605l-26 39v0l1 -57v-587h-16v660h22l439 -605l19 -28v0v633h16v-724q0 -46 -16.5 -80t-46 -52.5t-69.5 -18.5z" />
    <glyph glyph-name="eng" unicode="&#x14b;" horiz-adv-x="574" 
d="M495 196v-260q0 -46 -16.5 -80t-46 -52.5t-69.5 -18.5q-21 0 -40 6t-31 16l5 14q12 -11 30 -16.5t36 -5.5q53 0 84.5 37.5t31.5 99.5v260h16zM85 0v500h16v-140l-1 3q11 42 40 75.5t72 52.5t97 19q58 0 99.5 -21.5t64 -61.5t22.5 -98v-329h-16v327q0 80 -46.5 124.5
t-126.5 44.5q-58 0 -104.5 -27t-73.5 -71.5t-27 -96.5v-301h-16z" />
    <glyph glyph-name="Omacron" unicode="&#x14c;" horiz-adv-x="714" 
d="M357 670q93 0 160.5 -41.5t104 -117.5t36.5 -181t-36.5 -181t-104 -117.5t-160.5 -41.5q-92 0 -160 41.5t-104.5 117.5t-36.5 181t36.5 181t104.5 117.5t160 41.5zM357 656q-87 0 -151 -40t-99 -113t-35 -173t35 -173t99 -113t151 -40q88 0 151.5 40t98.5 113t35 173
t-35 173t-98.5 113t-151.5 40zM501 779v-14h-288v14h288z" />
    <glyph glyph-name="omacron" unicode="&#x14d;" horiz-adv-x="569" 
d="M285 510q69 0 121.5 -31t82 -89.5t29.5 -139.5t-29.5 -139.5t-82 -89.5t-121.5 -31t-121.5 31t-82.5 89.5t-30 139.5t30 139.5t82.5 89.5t121.5 31zM285 496q-64 0 -113 -29.5t-77 -84.5t-28 -132q0 -76 28 -131.5t77 -85t113 -29.5t113 29.5t76.5 85t27.5 131.5
q0 77 -27.5 132t-76.5 84.5t-113 29.5zM429 615v-14h-288v14h288z" />
    <glyph glyph-name="Obreve" unicode="&#x14e;" horiz-adv-x="714" 
d="M357 670q93 0 160.5 -41.5t104 -117.5t36.5 -181t-36.5 -181t-104 -117.5t-160.5 -41.5q-92 0 -160 41.5t-104.5 117.5t-36.5 181t36.5 181t104.5 117.5t160 41.5zM357 656q-87 0 -151 -40t-99 -113t-35 -173t35 -173t99 -113t151 -40q88 0 151.5 40t98.5 113t35 173
t-35 173t-98.5 113t-151.5 40zM478 862q0 -57 -32 -89t-89 -32t-89 32t-32 89h14q0 -49 28 -78t79 -29t79 29t28 78h14z" />
    <glyph glyph-name="obreve" unicode="&#x14f;" horiz-adv-x="569" 
d="M285 510q69 0 121.5 -31t82 -89.5t29.5 -139.5t-29.5 -139.5t-82 -89.5t-121.5 -31t-121.5 31t-82.5 89.5t-30 139.5t30 139.5t82.5 89.5t121.5 31zM285 496q-64 0 -113 -29.5t-77 -84.5t-28 -132q0 -76 28 -131.5t77 -85t113 -29.5t113 29.5t76.5 85t27.5 131.5
q0 77 -27.5 132t-76.5 84.5t-113 29.5zM406 698q0 -57 -32 -89t-89 -32t-89 32t-32 89h14q0 -49 28 -78t79 -29t79 29t28 78h14z" />
    <glyph glyph-name="Ohungarumlaut" unicode="&#x150;" horiz-adv-x="714" 
d="M357 670q93 0 160.5 -41.5t104 -117.5t36.5 -181t-36.5 -181t-104 -117.5t-160.5 -41.5q-92 0 -160 41.5t-104.5 117.5t-36.5 181t36.5 181t104.5 117.5t160 41.5zM357 656q-87 0 -151 -40t-99 -113t-35 -173t35 -173t99 -113t151 -40q88 0 151.5 40t98.5 113t35 173
t-35 173t-98.5 113t-151.5 40zM473 891h18l-78 -148h-15zM355 891h18l-78 -148h-15z" />
    <glyph glyph-name="ohungarumlaut" unicode="&#x151;" horiz-adv-x="569" 
d="M285 510q69 0 121.5 -31t82 -89.5t29.5 -139.5t-29.5 -139.5t-82 -89.5t-121.5 -31t-121.5 31t-82.5 89.5t-30 139.5t30 139.5t82.5 89.5t121.5 31zM285 496q-64 0 -113 -29.5t-77 -84.5t-28 -132q0 -76 28 -131.5t77 -85t113 -29.5t113 29.5t76.5 85t27.5 131.5
q0 77 -27.5 132t-76.5 84.5t-113 29.5zM333 579l85 147h18l-88 -147h-15zM202 579l85 147h18l-88 -147h-15z" />
    <glyph glyph-name="OE" unicode="&#x152;" horiz-adv-x="1050" 
d="M608 14h412v-14h-428v187q-22 -99 -85 -148t-170 -49q-85 0 -148 41.5t-98 117.5t-35 181t35 181t98 117.5t148 41.5q107 0 170 -49t85 -148v187h411v-14h-395v-302h323v-14h-323v-316zM337 4q90 0 146.5 35.5t82.5 108t26 182.5t-26 182.5t-82.5 108t-146.5 35.5
q-80 0 -139.5 -40t-92.5 -113t-33 -173t33 -173t92.5 -113t139.5 -40z" />
    <glyph glyph-name="oe" unicode="&#x153;" horiz-adv-x="984" 
d="M285 -10q-69 0 -121.5 31t-82.5 89.5t-30 139.5t30 139.5t82.5 89.5t121.5 31q87 0 148 -50t78 -140h-2q17 90 76.5 140t139.5 50q66 0 113 -30t72.5 -85.5t25.5 -132.5v-3v-4h-427v15h413q-2 101 -52.5 163.5t-144.5 62.5q-58 0 -105.5 -29.5t-75 -84.5t-27.5 -132
t28 -132t77 -84.5t111 -29.5q61 0 111 30t75 82l13 -7q-17 -37 -47 -63.5t-69 -41t-83 -14.5q-84 0 -145.5 50t-78.5 141h2q-17 -90 -77.5 -140.5t-148.5 -50.5zM285 4q64 0 113 29.5t76.5 85t27.5 131.5q0 77 -27.5 132t-76.5 84.5t-113 29.5t-113 -29.5t-77 -84.5
t-28 -132q0 -76 28 -131.5t77 -85t113 -29.5z" />
    <glyph glyph-name="Racute" unicode="&#x154;" horiz-adv-x="611" 
d="M338 660q97 0 153 -48t56 -132t-56 -132t-153 -48h-3h-220v-300h-16v660h239zM338 314q91 0 142 44t51 122t-51 122t-142 44h-223v-332h223zM369 314l207 -314h-18l-202 304zM362 891h18l-78 -148h-15z" />
    <glyph glyph-name="racute" unicode="&#x155;" horiz-adv-x="343" 
d="M85 0v500h16v-130q17 59 60 99.5t104 40.5q27 0 44 -6.5t27 -17.5l-9 -12q-10 10 -23 16t-41 6q-46 0 -83 -29.5t-58 -76.5t-21 -99v-291h-16zM280 730h18l-88 -147h-15z" />
    <glyph glyph-name="uni0156" unicode="&#x156;" horiz-adv-x="611" 
d="M338 660q97 0 153 -48t56 -132t-56 -132t-153 -48h-3h-220v-300h-16v660h239zM338 314q91 0 142 44t51 122t-51 122t-142 44h-223v-332h223zM369 314l207 -314h-18l-202 304zM360 -68l-55 -161h-13l50 161h18z" />
    <glyph glyph-name="uni0157" unicode="&#x157;" horiz-adv-x="343" 
d="M85 0v500h16v-130q17 59 60 99.5t104 40.5q27 0 44 -6.5t27 -17.5l-9 -12q-10 10 -23 16t-41 6q-46 0 -83 -29.5t-58 -76.5t-21 -99v-291h-16zM107 -68l-55 -161h-13l50 161h18z" />
    <glyph glyph-name="Rcaron" unicode="&#x158;" horiz-adv-x="611" 
d="M338 660q97 0 153 -48t56 -132t-56 -132t-153 -48h-3h-220v-300h-16v660h239zM338 314q91 0 142 44t51 122t-51 122t-142 44h-223v-332h223zM369 314l207 -314h-18l-202 304zM412 885l-109 -142h-20l-109 142h17l102 -129l102 129h17z" />
    <glyph glyph-name="rcaron" unicode="&#x159;" horiz-adv-x="343" 
d="M85 0v500h16v-130q17 59 60 99.5t104 40.5q27 0 44 -6.5t27 -17.5l-9 -12q-10 10 -23 16t-41 6q-46 0 -83 -29.5t-58 -76.5t-21 -99v-291h-16zM319 725l-108 -142h-18l-108 142h17l100 -129l100 129h17z" />
    <glyph glyph-name="Sacute" unicode="&#x15a;" horiz-adv-x="594" 
d="M295 670q94 0 156 -36.5t85 -116.5l-13 -10q-20 77 -79 113t-149 36q-66 0 -114.5 -22t-75.5 -59t-27 -83q0 -58 39 -93t135 -55l115 -24q98 -20 139.5 -56t41.5 -97q0 -53 -30.5 -93t-84 -62t-124.5 -22q-69 0 -125.5 19t-93.5 58t-48 99l15 8q9 -58 44 -96t89 -56
t119 -18q62 0 112.5 18.5t80.5 55t30 89.5t-39.5 86t-132.5 52l-115 24q-66 14 -106 35.5t-58.5 52.5t-18.5 75q0 47 28 87.5t80 65.5t125 25zM359 891h18l-78 -148h-15z" />
    <glyph glyph-name="sacute" unicode="&#x15b;" horiz-adv-x="479" 
d="M240 -10q-78 0 -133.5 30.5t-69.5 90.5l15 7q13 -56 64 -85t127 -29q80 0 126.5 32.5t46.5 87.5q0 38 -24.5 64t-90.5 40l-114 25q-69 15 -98.5 46.5t-29.5 74.5q0 39 24 69.5t66 48.5t95 18q77 0 124 -30t61 -95l-14 -8q-13 62 -56.5 90.5t-114.5 28.5q-49 0 -87 -15.5
t-60 -42t-22 -60.5q0 -38 25.5 -66.5t87.5 -42.5l116 -26q71 -16 99.5 -45t28.5 -74q0 -41 -23.5 -71.5t-66.5 -46.5t-102 -16zM317 730h18l-88 -147h-15z" />
    <glyph glyph-name="Scircumflex" unicode="&#x15c;" horiz-adv-x="594" 
d="M295 670q94 0 156 -36.5t85 -116.5l-13 -10q-20 77 -79 113t-149 36q-66 0 -114.5 -22t-75.5 -59t-27 -83q0 -58 39 -93t135 -55l115 -24q98 -20 139.5 -56t41.5 -97q0 -53 -30.5 -93t-84 -62t-124.5 -22q-69 0 -125.5 19t-93.5 58t-48 99l15 8q9 -58 44 -96t89 -56
t119 -18q62 0 112.5 18.5t80.5 55t30 89.5t-39.5 86t-132.5 52l-115 24q-66 14 -106 35.5t-58.5 52.5t-18.5 75q0 47 28 87.5t80 65.5t125 25zM409 743h-17l-102 129l-102 -129h-17l109 142h20z" />
    <glyph glyph-name="scircumflex" unicode="&#x15d;" horiz-adv-x="479" 
d="M240 -10q-78 0 -133.5 30.5t-69.5 90.5l15 7q13 -56 64 -85t127 -29q80 0 126.5 32.5t46.5 87.5q0 38 -24.5 64t-90.5 40l-114 25q-69 15 -98.5 46.5t-29.5 74.5q0 39 24 69.5t66 48.5t95 18q77 0 124 -30t61 -95l-14 -8q-13 62 -56.5 90.5t-114.5 28.5q-49 0 -87 -15.5
t-60 -42t-22 -60.5q0 -38 25.5 -66.5t87.5 -42.5l116 -26q71 -16 99.5 -45t28.5 -74q0 -41 -23.5 -71.5t-66.5 -46.5t-102 -16zM356 583h-17l-100 129l-100 -129h-17l108 142h18z" />
    <glyph glyph-name="Scedilla" unicode="&#x15e;" horiz-adv-x="594" 
d="M295 670q94 0 156 -36.5t85 -116.5l-13 -10q-20 77 -79 113t-149 36q-66 0 -114.5 -22t-75.5 -59t-27 -83q0 -58 39 -93t135 -55l115 -24q98 -20 139.5 -56t41.5 -97q0 -53 -30.5 -93t-84 -62t-124.5 -22q-69 0 -125.5 19t-93.5 58t-48 99l15 8q9 -58 44 -96t89 -56
t119 -18q62 0 112.5 18.5t80.5 55t30 89.5t-39.5 86t-132.5 52l-115 24q-66 14 -106 35.5t-58.5 52.5t-18.5 75q0 47 28 87.5t80 65.5t125 25zM272 3h21q51 -25 71.5 -53.5t20.5 -63.5q0 -40 -24.5 -64t-63.5 -24q-30 0 -52.5 10t-41.5 32l8 12q20 -22 40.5 -31.5t45.5 -9.5
q32 0 52.5 20t20.5 54q0 32 -20.5 59t-77.5 59z" />
    <glyph glyph-name="scedilla" unicode="&#x15f;" horiz-adv-x="479" 
d="M240 -10q-78 0 -133.5 30.5t-69.5 90.5l15 7q13 -56 64 -85t127 -29q80 0 126.5 32.5t46.5 87.5q0 38 -24.5 64t-90.5 40l-114 25q-69 15 -98.5 46.5t-29.5 74.5q0 39 24 69.5t66 48.5t95 18q77 0 124 -30t61 -95l-14 -8q-13 62 -56.5 90.5t-114.5 28.5q-49 0 -87 -15.5
t-60 -42t-22 -60.5q0 -38 25.5 -66.5t87.5 -42.5l116 -26q71 -16 99.5 -45t28.5 -74q0 -41 -23.5 -71.5t-66.5 -46.5t-102 -16zM211 3h21q51 -25 71.5 -53.5t20.5 -63.5q0 -40 -24.5 -64t-63.5 -24q-30 0 -52.5 10t-41.5 32l8 12q20 -22 40.5 -31.5t45.5 -9.5q32 0 52.5 20
t20.5 54q0 32 -20.5 59t-77.5 59z" />
    <glyph glyph-name="Scaron" unicode="&#x160;" horiz-adv-x="594" 
d="M295 670q94 0 156 -36.5t85 -116.5l-13 -10q-20 77 -79 113t-149 36q-66 0 -114.5 -22t-75.5 -59t-27 -83q0 -58 39 -93t135 -55l115 -24q98 -20 139.5 -56t41.5 -97q0 -53 -30.5 -93t-84 -62t-124.5 -22q-69 0 -125.5 19t-93.5 58t-48 99l15 8q9 -58 44 -96t89 -56
t119 -18q62 0 112.5 18.5t80.5 55t30 89.5t-39.5 86t-132.5 52l-115 24q-66 14 -106 35.5t-58.5 52.5t-18.5 75q0 47 28 87.5t80 65.5t125 25zM409 885l-109 -142h-20l-109 142h17l102 -129l102 129h17z" />
    <glyph glyph-name="scaron" unicode="&#x161;" horiz-adv-x="479" 
d="M240 -10q-78 0 -133.5 30.5t-69.5 90.5l15 7q13 -56 64 -85t127 -29q80 0 126.5 32.5t46.5 87.5q0 38 -24.5 64t-90.5 40l-114 25q-69 15 -98.5 46.5t-29.5 74.5q0 39 24 69.5t66 48.5t95 18q77 0 124 -30t61 -95l-14 -8q-13 62 -56.5 90.5t-114.5 28.5q-49 0 -87 -15.5
t-60 -42t-22 -60.5q0 -38 25.5 -66.5t87.5 -42.5l116 -26q71 -16 99.5 -45t28.5 -74q0 -41 -23.5 -71.5t-66.5 -46.5t-102 -16zM356 725l-108 -142h-18l-108 142h17l100 -129l100 129h17z" />
    <glyph glyph-name="uni0162" unicode="&#x162;" horiz-adv-x="544" 
d="M264 0l13 3q51 -25 66.5 -53.5t15.5 -63.5q0 -40 -24.5 -64t-63.5 -24q-30 0 -52.5 10t-41.5 32l8 12q20 -22 40.5 -31.5t45.5 -9.5q32 0 52.5 20t20.5 54q0 32 -14 59.5t-66 55.5zM533 660v-14h-253v-646h-16v646h-253v14h522z" />
    <glyph glyph-name="uni0163" unicode="&#x163;" horiz-adv-x="329" 
d="M127 635v-509q0 -60 25 -91t79 -31q26 0 48 9t40 28l8 -13q-15 -16 -40.5 -27t-55.5 -11q-40 0 -67 15.5t-40 46t-13 74.5v504zM320 500v-14h-309v14h309zM184 3h21q51 -25 71.5 -53.5t20.5 -63.5q0 -40 -24.5 -64t-63.5 -24q-30 0 -52.5 10t-41.5 32l8 12
q20 -22 40.5 -31.5t45.5 -9.5q32 0 52.5 20t20.5 54q0 32 -20.5 59t-77.5 59z" />
    <glyph glyph-name="Tcaron" unicode="&#x164;" horiz-adv-x="544" 
d="M533 660v-14h-253v-646h-16v646h-253v14h522zM391 885l-109 -142h-20l-109 142h17l102 -129l102 129h17z" />
    <glyph glyph-name="tcaron" unicode="&#x165;" horiz-adv-x="329" 
d="M264 767l-29 -197h-14l26 197h17zM127 635v-509q0 -60 25 -91t79 -31q26 0 48 9t40 28l8 -13q-15 -16 -40.5 -27t-55.5 -11q-40 0 -67 15.5t-40 46t-13 74.5v504zM320 500v-14h-309v14h309z" />
    <glyph glyph-name="Tbar" unicode="&#x166;" horiz-adv-x="544" 
d="M533 660v-14h-253v-646h-16v646h-253v14h522zM448 348v-14h-351v14h351z" />
    <glyph glyph-name="tbar" unicode="&#x167;" horiz-adv-x="329" 
d="M320 358v-14h-309v14h309zM127 635v-509q0 -60 25 -91t79 -31q26 0 48 9t40 28l8 -13q-15 -16 -40.5 -27t-55.5 -11q-40 0 -67 15.5t-40 46t-13 74.5v504zM320 500v-14h-309v14h309z" />
    <glyph glyph-name="Utilde" unicode="&#x168;" horiz-adv-x="664" 
d="M581 660v-425q0 -118 -66 -181.5t-183 -63.5t-183 63.5t-66 181.5v425h16v-425q0 -110 62 -170.5t171 -60.5q110 0 171.5 60.5t61.5 170.5v425h16zM491 803q-5 -28 -16.5 -47t-28 -28t-38.5 -9q-26 0 -44.5 10.5t-34 24t-31.5 24t-37 10.5q-29 0 -46 -18t-25 -52h-15
q8 43 31.5 63.5t55.5 20.5q24 0 42 -10.5t33.5 -24t32 -24t38.5 -10.5q30 0 45.5 18t22.5 52h15z" />
    <glyph glyph-name="utilde" unicode="&#x169;" horiz-adv-x="564" 
d="M254 -10q-55 0 -94.5 20.5t-60 60.5t-20.5 96v333h16v-331q0 -79 42.5 -122t119.5 -43q54 0 93 19t64 49t37 63t12 61v304h16v-500h-16v133q-17 -61 -73 -102t-136 -41zM439 663q-5 -28 -16.5 -47t-28 -28t-38.5 -9q-26 0 -44.5 10.5t-34 24t-31.5 24t-37 10.5
q-29 0 -46 -18t-25 -52h-15q8 43 31.5 63.5t55.5 20.5q24 0 42 -10.5t33.5 -24t32 -24t38.5 -10.5q30 0 45.5 18t22.5 52h15z" />
    <glyph glyph-name="Umacron" unicode="&#x16a;" horiz-adv-x="664" 
d="M581 660v-425q0 -118 -66 -181.5t-183 -63.5t-183 63.5t-66 181.5v425h16v-425q0 -110 62 -170.5t171 -60.5q110 0 171.5 60.5t61.5 170.5v425h16zM476 739v-14h-288v14h288z" />
    <glyph glyph-name="umacron" unicode="&#x16b;" horiz-adv-x="564" 
d="M254 -10q-55 0 -94.5 20.5t-60 60.5t-20.5 96v333h16v-331q0 -79 42.5 -122t119.5 -43q54 0 93 19t64 49t37 63t12 61v304h16v-500h-16v133q-17 -61 -73 -102t-136 -41zM424 599v-14h-288v14h288z" />
    <glyph glyph-name="Ubreve" unicode="&#x16c;" horiz-adv-x="664" 
d="M581 660v-425q0 -118 -66 -181.5t-183 -63.5t-183 63.5t-66 181.5v425h16v-425q0 -110 62 -170.5t171 -60.5q110 0 171.5 60.5t61.5 170.5v425h16zM453 822q0 -57 -32 -89t-89 -32t-89 32t-32 89h14q0 -49 28 -78t79 -29t79 29t28 78h14z" />
    <glyph glyph-name="ubreve" unicode="&#x16d;" horiz-adv-x="564" 
d="M254 -10q-55 0 -94.5 20.5t-60 60.5t-20.5 96v333h16v-331q0 -79 42.5 -122t119.5 -43q54 0 93 19t64 49t37 63t12 61v304h16v-500h-16v133q-17 -61 -73 -102t-136 -41zM401 682q0 -57 -32 -89t-89 -32t-89 32t-32 89h14q0 -49 28 -78t79 -29t79 29t28 78h14z" />
    <glyph glyph-name="Uring" unicode="&#x16e;" horiz-adv-x="664" 
d="M581 660v-425q0 -118 -66 -181.5t-183 -63.5t-183 63.5t-66 181.5v425h16v-425q0 -110 62 -170.5t171 -60.5q110 0 171.5 60.5t61.5 170.5v425h16zM330 833q35 0 58.5 -23t23.5 -57t-23.5 -57t-58.5 -23t-58.5 23t-23.5 57t23.5 57t58.5 23zM330 819q-28 0 -47 -19
t-19 -47t19 -47t47 -19t47 19t19 47t-19 47t-47 19z" />
    <glyph glyph-name="uring" unicode="&#x16f;" horiz-adv-x="564" 
d="M254 -10q-55 0 -94.5 20.5t-60 60.5t-20.5 96v333h16v-331q0 -79 42.5 -122t119.5 -43q54 0 93 19t64 49t37 63t12 61v304h16v-500h-16v133q-17 -61 -73 -102t-136 -41zM278 715q35 0 58.5 -23t23.5 -57t-23.5 -57t-58.5 -23t-58.5 23t-23.5 57t23.5 57t58.5 23zM278 701
q-28 0 -47 -19t-19 -47t19 -47t47 -19t47 19t19 47t-19 47t-47 19z" />
    <glyph glyph-name="Uhungarumlaut" unicode="&#x170;" horiz-adv-x="664" 
d="M581 660v-425q0 -118 -66 -181.5t-183 -63.5t-183 63.5t-66 181.5v425h16v-425q0 -110 62 -170.5t171 -60.5q110 0 171.5 60.5t61.5 170.5v425h16zM448 851h18l-78 -148h-15zM330 851h18l-78 -148h-15z" />
    <glyph glyph-name="uhungarumlaut" unicode="&#x171;" horiz-adv-x="564" 
d="M254 -10q-55 0 -94.5 20.5t-60 60.5t-20.5 96v333h16v-331q0 -79 42.5 -122t119.5 -43q54 0 93 19t64 49t37 63t12 61v304h16v-500h-16v133q-17 -61 -73 -102t-136 -41zM328 563l85 147h18l-88 -147h-15zM197 563l85 147h18l-88 -147h-15z" />
    <glyph glyph-name="Uogonek" unicode="&#x172;" horiz-adv-x="664" 
d="M581 660v-425q0 -118 -66 -181.5t-183 -63.5t-183 63.5t-66 181.5v425h16v-425q0 -110 62 -170.5t171 -60.5q110 0 171.5 60.5t61.5 170.5v425h16zM360 -202q-36 0 -62 19.5t-26 58.5q0 40 30.5 72t109.5 63l16 -3q-54 -23 -84.5 -44t-43.5 -42t-13 -46q0 -32 21.5 -48
t51.5 -16q28 0 44.5 6t26.5 14l6 -13q-12 -8 -29 -14.5t-48 -6.5z" />
    <glyph glyph-name="uogonek" unicode="&#x173;" horiz-adv-x="564" 
d="M452 -210q-21 0 -38.5 9.5t-28.5 27t-11 42.5q0 22 9.5 43.5t29.5 43.5t50 47l16 -3q-48 -40 -69 -70.5t-21 -60.5q0 -31 19 -48t44 -17q19 0 29.5 4.5t17.5 8.5l6 -11q-9 -6 -21 -11t-32 -5zM254 -10q-55 0 -94.5 20.5t-60 60.5t-20.5 96v333h16v-331q0 -79 42.5 -122
t119.5 -43q54 0 93 19t64 49t37 63t12 61v304h16v-500h-16v133q-17 -61 -73 -102t-136 -41z" />
    <glyph glyph-name="Wcircumflex" unicode="&#x174;" horiz-adv-x="909" 
d="M241 0l-218 660h17l212 -644l192 644h21l192 -644l212 644h17l-218 -660h-21l-151 502l-41 136h-1l-40 -136l-152 -502h-21zM574 743h-17l-102 129l-102 -129h-17l109 142h20z" />
    <glyph glyph-name="wcircumflex" unicode="&#x175;" horiz-adv-x="779" 
d="M733 500h17l-166 -500h-16l-178 477l-179 -477h-16l-166 500h17l157 -477l178 477h17l178 -477zM507 583h-17l-100 129l-100 -129h-17l108 142h18z" />
    <glyph glyph-name="Ycircumflex" unicode="&#x176;" horiz-adv-x="512" 
d="M496 660l-232 -404v-256h-16v256l-232 404h19l129 -226l92 -161l92 161l129 226h19zM375 703h-17l-102 129l-102 -129h-17l109 142h20z" />
    <glyph glyph-name="ycircumflex" unicode="&#x177;" horiz-adv-x="481" 
d="M459 500l-249 -601q-18 -43 -37.5 -68t-43.5 -35.5t-55 -10.5q-26 0 -46.5 8t-31.5 24l9 13q11 -17 30 -24t40 -7q39 0 67 21.5t53 81.5l40 97l-55 129l-158 372h18l185 -440l18 -42l17 43l181 439h18zM361 563h-17l-100 129l-100 -129h-17l108 142h18z" />
    <glyph glyph-name="Ydieresis" unicode="&#x178;" horiz-adv-x="512" 
d="M496 660l-232 -404v-256h-16v256l-232 404h19l129 -226l92 -161l92 161l129 226h19zM163 762q10 0 16 -6t6 -16t-6 -16t-16 -6t-16 6t-6 16t6 16t16 6zM347 762q10 0 16 -6t6 -16t-6 -16t-16 -6t-16 6t-6 16t6 16t16 6z" />
    <glyph glyph-name="Zacute" unicode="&#x179;" horiz-adv-x="552" 
d="M43 8l-3 6h488v-14h-499v14l465 638l3 -6h-461v14h472v-14zM346 891h18l-78 -148h-15z" />
    <glyph glyph-name="zacute" unicode="&#x17a;" horiz-adv-x="472" 
d="M39 0v14l331 423l40 49h-68h-311v14h398v-14l-312 -403l-57 -69h82h303v-14h-406zM315 730h18l-88 -147h-15z" />
    <glyph glyph-name="Zdotaccent" unicode="&#x17b;" horiz-adv-x="552" 
d="M43 8l-3 6h488v-14h-499v14l465 638l3 -6h-461v14h472v-14zM277 802q10 0 16 -6t6 -16t-6 -16t-16 -6t-16 6t-6 16t6 16t16 6z" />
    <glyph glyph-name="zdotaccent" unicode="&#x17c;" horiz-adv-x="472" 
d="M39 0v14l331 423l40 49h-68h-311v14h398v-14l-312 -403l-57 -69h82h303v-14h-406zM237 642q10 0 16 -6t6 -16t-6 -16t-16 -6t-16 6t-6 16t6 16t16 6z" />
    <glyph glyph-name="Zcaron" unicode="&#x17d;" horiz-adv-x="552" 
d="M43 8l-3 6h488v-14h-499v14l465 638l3 -6h-461v14h472v-14zM396 885l-109 -142h-20l-109 142h17l102 -129l102 129h17z" />
    <glyph glyph-name="zcaron" unicode="&#x17e;" horiz-adv-x="472" 
d="M39 0v14l331 423l40 49h-68h-311v14h398v-14l-312 -403l-57 -69h82h303v-14h-406zM354 725l-108 -142h-18l-108 142h17l100 -129l100 129h17z" />
    <glyph glyph-name="longs" unicode="&#x17f;" horiz-adv-x="209" 
d="M81 0v592q0 48 13 79.5t37.5 47.5t58.5 16q27 0 40 -7t25 -18l-6 -12q-13 13 -24.5 18t-34.5 5q-46 0 -69.5 -32t-23.5 -97v-592h-16z" />
    <glyph glyph-name="uni018F" unicode="&#x18f;" horiz-adv-x="673" 
d="M334 -10q-87 0 -150.5 40t-98 114t-34.5 174v7v7h550v-14h-542l8 7v-2.5v-3.5q0 -98 33 -169t93 -108.5t141 -37.5q82 0 142 40t92.5 113t32.5 173q0 101 -32.5 174t-92.5 112.5t-142 39.5q-96 0 -163 -48t-99 -137l-14 6q23 63 62 106t93.5 65t120.5 22
q87 0 150.5 -41.5t98 -118t34.5 -180.5t-34.5 -180.5t-98 -118t-150.5 -41.5z" />
    <glyph glyph-name="florin" unicode="&#x192;" horiz-adv-x="399" 
d="M346 735q20 0 33.5 -2.5t28.5 -10.5l-2 -14q-25 13 -52 13q-51 0 -80.5 -31t-39.5 -96l-90 -580q-11 -70 -44.5 -106t-88.5 -36q-19 0 -32.5 3.5t-30.5 13.5l6 11q21 -14 57 -14q48 0 77 32t39 96l90 579q11 73 42.5 107.5t86.5 34.5zM373 400v-14h-346v14h346z" />
    <glyph glyph-name="Ohorn" unicode="&#x1a0;" horiz-adv-x="714" 
d="M607 767q0 -57 -43.5 -88t-116.5 -31l-10 12q77 0 116.5 29t39.5 78h14zM357 670q93 0 160.5 -41.5t104 -117.5t36.5 -181t-36.5 -181t-104 -117.5t-160.5 -41.5q-92 0 -160 41.5t-104.5 117.5t-36.5 181t36.5 181t104.5 117.5t160 41.5zM357 656q-87 0 -151 -40
t-99 -113t-35 -173t35 -173t99 -113t151 -40q88 0 151.5 40t98.5 113t35 173t-35 173t-98.5 113t-151.5 40z" />
    <glyph glyph-name="ohorn" unicode="&#x1a1;" horiz-adv-x="569" 
d="M285 510q69 0 121.5 -31t82 -89.5t29.5 -139.5t-29.5 -139.5t-82 -89.5t-121.5 -31t-121.5 31t-82.5 89.5t-30 139.5t30 139.5t82.5 89.5t121.5 31zM285 496q-64 0 -113 -29.5t-77 -84.5t-28 -132q0 -76 28 -131.5t77 -85t113 -29.5t113 29.5t76.5 85t27.5 131.5
q0 77 -27.5 132t-76.5 84.5t-113 29.5zM357 486v14q53 0 79 29t26 78h14q0 -57 -29 -89t-90 -32z" />
    <glyph glyph-name="Uhorn" unicode="&#x1af;" horiz-adv-x="664" 
d="M581 660v-425q0 -118 -66 -181.5t-183 -63.5t-183 63.5t-66 181.5v425h16v-425q0 -110 62 -170.5t171 -60.5q110 0 171.5 60.5t61.5 170.5v425h16zM686 767q0 -57 -33 -88.5t-83 -31.5v13q46 0 74 29t28 78h14z" />
    <glyph glyph-name="uhorn" unicode="&#x1b0;" horiz-adv-x="566" 
d="M254 -10q-55 0 -94.5 20.5t-60 60.5t-20.5 96v333h16v-331q0 -79 42.5 -122t119.5 -43q54 0 93 19t64 49t37 63t12 61v304h16v-500h-16v133q-17 -61 -73 -102t-136 -41zM463 492v14q53 0 79 29t26 78h14q0 -57 -29 -89t-90 -32z" />
    <glyph glyph-name="uni01C4" unicode="&#x1c4;" horiz-adv-x="1216" 
d="M302 660q161 0 243 -81t82 -239q0 -167 -82 -253.5t-243 -86.5h-203v660h203zM302 14q152 0 230.5 83t78.5 243q0 151 -78.5 228.5t-230.5 77.5h-187v-632h187zM707 8l-3 6h488v-14h-499v14l465 638l3 -6h-461v14h472v-14zM1060 885l-109 -142h-20l-109 142h17l102 -129
l102 129h17z" />
    <glyph glyph-name="uni01C5" unicode="&#x1c5;" horiz-adv-x="1155" 
d="M302 660q161 0 243 -81t82 -239q0 -167 -82 -253.5t-243 -86.5h-203v660h203zM302 14q152 0 230.5 83t78.5 243q0 151 -78.5 228.5t-230.5 77.5h-187v-632h187zM722 0v14l331 423l40 49h-68h-311v14h398v-14l-312 -403l-57 -69h82h303v-14h-406zM1037 725l-108 -142h-18
l-108 142h17l100 -129l100 129h17z" />
    <glyph glyph-name="uni01C6" unicode="&#x1c6;" horiz-adv-x="1057" 
d="M280 -10q-68 0 -120 31t-80.5 89.5t-28.5 139.5q0 82 28.5 140t80.5 89t120 31q77 0 131.5 -43t73.5 -122l-1 -2v387h16v-730h-16v159l1 -2q-11 -53 -40 -90.5t-71 -57t-94 -19.5zM283 4q58 0 103.5 30t71.5 85.5t26 130.5q0 76 -26 131t-71 85t-104 30q-97 0 -156.5 -65
t-59.5 -181t59.5 -181t156.5 -65zM624 0v14l331 423l40 49h-68h-311v14h398v-14l-312 -403l-57 -69h82h303v-14h-406zM939 725l-108 -142h-18l-108 142h17l100 -129l100 129h17z" />
    <glyph glyph-name="uni01C7" unicode="&#x1c7;" horiz-adv-x="1041" 
d="M115 14h416v-14h-432v660h16v-646zM949 660v-451q0 -100 -49 -159.5t-145 -59.5q-66 0 -109 26.5t-61.5 73.5t-9.5 110l16 8q-13 -99 30.5 -151.5t133.5 -52.5q89 0 133.5 55.5t44.5 149.5v451h16z" />
    <glyph glyph-name="uni01C8" unicode="&#x1c8;" horiz-adv-x="729" 
d="M115 14h416v-14h-432v660h16v-646zM636 598q-10 0 -16 6t-6 16t6 16t16 6t16 -6t6 -16t-6 -16t-16 -6zM644 500v-564q0 -46 -16.5 -80t-46 -52.5t-69.5 -18.5q-21 0 -40 6t-31 16l5 14q12 -11 30 -16.5t36 -5.5q53 0 84.5 37.5t31.5 99.5v564h16z" />
    <glyph glyph-name="uni01C9" unicode="&#x1c9;" horiz-adv-x="423" 
d="M97 730v-623q0 -55 18 -79t55 -24q22 0 34 3t24 9v-14q-10 -5 -24 -8.5t-34 -3.5q-44 0 -66.5 28t-22.5 89v623h16zM330 598q-10 0 -16 6t-6 16t6 16t16 6t16 -6t6 -16t-6 -16t-16 -6zM338 500v-564q0 -46 -16.5 -80t-46 -52.5t-69.5 -18.5q-21 0 -40 6t-31 16l5 14
q12 -11 30 -16.5t36 -5.5q53 0 84.5 37.5t31.5 99.5v564h16z" />
    <glyph glyph-name="uni01CA" unicode="&#x1ca;" horiz-adv-x="1192" 
d="M595 660v-660h-22l-433 605l-26 39v0l1 -57v-587h-16v660h22l433 -605l26 -39v0l-1 57v587h16zM1100 660v-451q0 -100 -49 -159.5t-145 -59.5q-66 0 -109 26.5t-61.5 73.5t-9.5 110l16 8q-13 -99 30.5 -151.5t133.5 -52.5q89 0 133.5 55.5t44.5 149.5v451h16z" />
    <glyph glyph-name="uni01CB" unicode="&#x1cb;" horiz-adv-x="880" 
d="M595 660v-660h-22l-433 605l-26 39v0l1 -57v-587h-16v660h22l433 -605l26 -39v0l-1 57v587h16zM787 598q-10 0 -16 6t-6 16t6 16t16 6t16 -6t6 -16t-6 -16t-16 -6zM795 500v-564q0 -46 -16.5 -80t-46 -52.5t-69.5 -18.5q-21 0 -40 6t-31 16l5 14q12 -11 30 -16.5t36 -5.5
q53 0 84.5 37.5t31.5 99.5v564h16z" />
    <glyph glyph-name="uni01CC" unicode="&#x1cc;" horiz-adv-x="760" 
d="M85 0v500h16v-140l-1 3q11 42 40 75.5t72 52.5t97 19q58 0 99.5 -21.5t64 -61.5t22.5 -98v-329h-16v327q0 80 -46.5 124.5t-126.5 44.5q-58 0 -104.5 -27t-73.5 -71.5t-27 -96.5v-301h-16zM667 598q-10 0 -16 6t-6 16t6 16t16 6t16 -6t6 -16t-6 -16t-16 -6zM675 500v-564
q0 -46 -16.5 -80t-46 -52.5t-69.5 -18.5q-21 0 -40 6t-31 16l5 14q12 -11 30 -16.5t36 -5.5q53 0 84.5 37.5t31.5 99.5v564h16z" />
    <glyph glyph-name="Gcaron" unicode="&#x1e6;" horiz-adv-x="676" 
d="M355 -10q-92 0 -159.5 41.5t-103.5 117.5t-36 181t36.5 181t102.5 117.5t154 41.5q104 0 167.5 -43.5t88.5 -130.5l-14 -7q-25 84 -84.5 125.5t-157.5 41.5q-83 0 -145.5 -40t-97 -113t-34.5 -173t34.5 -173t98 -113t150.5 -40q71 0 117.5 24.5t73 62.5t37.5 79t11 74v53
h-241v14h257v-311h-16v166l1 -2q-21 -79 -83 -126.5t-157 -47.5zM462 885l-109 -142h-20l-109 142h17l102 -129l102 129h17z" />
    <glyph glyph-name="gcaron" unicode="&#x1e7;" horiz-adv-x="496" 
d="M491 592l5 -14h-1.5h-1.5q-49 0 -75 -31.5t-26 -81.5l-13 5q0 37 13.5 64t38 42.5t57.5 15.5h2h1zM326 37q77 0 121.5 -30t44.5 -80q0 -42 -28.5 -74t-80 -50t-119.5 -18q-107 0 -168.5 37t-61.5 97q0 44 34.5 75t89.5 38l-1 -2q-30 8 -55.5 29t-25.5 58q0 42 32.5 66
t77.5 24l51 -8h-32q-44 0 -78.5 -19.5t-34.5 -60.5t33 -61.5t78 -20.5h123zM266 -201q59 0 106.5 16t75.5 44.5t28 65.5q0 44 -41 71t-110 27h-128q-64 0 -105.5 -28.5t-41.5 -73.5q0 -54 58 -88t158 -34zM258 510q59 0 103 -19.5t68.5 -54.5t24.5 -83q0 -47 -24.5 -82.5
t-68.5 -55t-103 -19.5q-89 0 -143.5 43t-54.5 114q0 48 24.5 83t69.5 54.5t104 19.5zM258 496q-82 0 -132 -39t-50 -104q0 -64 50 -103.5t132 -39.5t131 39.5t49 103.5q0 65 -49 104t-131 39zM370 725l-108 -142h-18l-108 142h17l100 -129l100 129h17z" />
    <glyph glyph-name="uni01EA" unicode="&#x1ea;" horiz-adv-x="714" 
d="M357 670q93 0 160.5 -41.5t104 -117.5t36.5 -181t-36.5 -181t-104 -117.5t-160.5 -41.5q-92 0 -160 41.5t-104.5 117.5t-36.5 181t36.5 181t104.5 117.5t160 41.5zM357 656q-87 0 -151 -40t-99 -113t-35 -173t35 -173t99 -113t151 -40q88 0 151.5 40t98.5 113t35 173
t-35 173t-98.5 113t-151.5 40zM365 -210q-36 0 -62 19.5t-26 58.5q0 40 30.5 72t109.5 63l16 -3q-54 -23 -84.5 -44t-43.5 -42t-13 -46q0 -32 21.5 -48t51.5 -16q28 0 44.5 6t26.5 14l6 -13q-12 -8 -29 -14.5t-48 -6.5z" />
    <glyph glyph-name="uni01EB" unicode="&#x1eb;" horiz-adv-x="569" 
d="M285 510q69 0 121.5 -31t82 -89.5t29.5 -139.5t-29.5 -139.5t-82 -89.5t-121.5 -31t-121.5 31t-82.5 89.5t-30 139.5t30 139.5t82.5 89.5t121.5 31zM285 496q-64 0 -113 -29.5t-77 -84.5t-28 -132q0 -76 28 -131.5t77 -85t113 -29.5t113 29.5t76.5 85t27.5 131.5
q0 77 -27.5 132t-76.5 84.5t-113 29.5zM313 -201q-36 0 -62 19.5t-26 58.5q0 40 30.5 72t109.5 63l16 -3q-54 -23 -84.5 -44t-43.5 -42t-13 -46q0 -32 21.5 -48t51.5 -16q28 0 44.5 6t26.5 14l6 -13q-12 -8 -29 -14.5t-48 -6.5z" />
    <glyph glyph-name="uni01F1" unicode="&#x1f1;" horiz-adv-x="1216" 
d="M302 660q161 0 243 -81t82 -239q0 -167 -82 -253.5t-243 -86.5h-203v660h203zM302 14q152 0 230.5 83t78.5 243q0 151 -78.5 228.5t-230.5 77.5h-187v-632h187zM707 8l-3 6h488v-14h-499v14l465 638l3 -6h-461v14h472v-14z" />
    <glyph glyph-name="uni01F2" unicode="&#x1f2;" horiz-adv-x="1155" 
d="M302 660q161 0 243 -81t82 -239q0 -167 -82 -253.5t-243 -86.5h-203v660h203zM302 14q152 0 230.5 83t78.5 243q0 151 -78.5 228.5t-230.5 77.5h-187v-632h187zM722 0v14l331 423l40 49h-68h-311v14h398v-14l-312 -403l-57 -69h82h303v-14h-406z" />
    <glyph glyph-name="uni01F3" unicode="&#x1f3;" horiz-adv-x="1057" 
d="M280 -10q-68 0 -120 31t-80.5 89.5t-28.5 139.5q0 82 28.5 140t80.5 89t120 31q77 0 131.5 -43t73.5 -122l-1 -2v387h16v-730h-16v159l1 -2q-11 -53 -40 -90.5t-71 -57t-94 -19.5zM283 4q58 0 103.5 30t71.5 85.5t26 130.5q0 76 -26 131t-71 85t-104 30q-97 0 -156.5 -65
t-59.5 -181t59.5 -181t156.5 -65zM624 0v14l331 423l40 49h-68h-311v14h398v-14l-312 -403l-57 -69h82h303v-14h-406z" />
    <glyph glyph-name="Aringacute" unicode="&#x1fa;" horiz-adv-x="586" 
d="M12 0l272 660h18l272 -660h-17l-247 596l-17 46v0l-17 -45l-247 -597h-17zM118 234v14h349v-14h-349zM291 806q35 0 58.5 -23t23.5 -57t-23.5 -57t-58.5 -23t-58.5 23t-23.5 57t23.5 57t58.5 23zM291 792q-28 0 -47 -19t-19 -47t19 -47t47 -19t47 19t19 47t-19 47t-47 19
zM362 1023h18l-78 -148h-15z" />
    <glyph glyph-name="aringacute" unicode="&#x1fb;" horiz-adv-x="517" 
d="M407 336q0 74 -41 117t-118 43q-63 0 -109.5 -27.5t-69.5 -90.5l-13 10q23 62 72.5 92t119.5 30q56 0 95 -20.5t59.5 -59.5t20.5 -94v-258q0 -72 59 -72q22 0 34 8l-1 -14q-14 -8 -36 -8q-15 0 -32 7t-28.5 26.5t-11.5 58.5v46l7 6q-7 -49 -38.5 -81.5t-76 -48.5
t-90.5 -16q-50 0 -86 14.5t-55 41.5t-19 66q0 56 37.5 88t106.5 45l217 42v-14l-206 -40q-70 -13 -104.5 -42.5t-34.5 -76.5q0 -53 37.5 -81.5t108.5 -28.5q30 0 63.5 9t64 28.5t49.5 50t19 73.5v171zM240 735q35 0 58.5 -23t23.5 -57t-23.5 -57t-58.5 -23t-58.5 23
t-23.5 57t23.5 57t58.5 23zM240 721q-28 0 -47 -19t-19 -47t19 -47t47 -19t47 19t19 47t-19 47t-47 19zM234 767l63 137h16l-65 -137h-14z" />
    <glyph glyph-name="AEacute" unicode="&#x1fc;" horiz-adv-x="885" 
d="M454 14h401v-14h-417v254h-264l-159 -254h-23l420 660h427v-14h-385v-304h308v-14h-308v-314zM183 268h255v378h-18zM515 891h18l-78 -148h-15z" />
    <glyph glyph-name="aeacute" unicode="&#x1fd;" horiz-adv-x="873" 
d="M209 -10q-50 0 -86 14.5t-55 41.5t-19 66q0 56 37.5 88t106.5 45l214 39v52q0 74 -41 117t-118 43q-63 0 -109.5 -27.5t-69.5 -90.5l-13 10q16 42 43 69t65 40t84 13q80 0 127 -44.5t47 -133.5l-3 3q10 54 40 93t73 60.5t92 21.5q63 0 108 -29t68.5 -81.5t23.5 -121.5v-3
v-4h-402v-21q0 -115 54 -180.5t156 -65.5q56 0 105.5 30t74.5 82l13 -7q-17 -37 -47 -63.5t-67.5 -41t-78.5 -14.5q-85 0 -142.5 47.5t-71.5 129.5l2 1q-2 -50 -22 -84.5t-51.5 -55t-67.5 -29.5t-70 -9zM211 4q33 0 67.5 9.5t63.5 29.5t47 53t18 79v95l-203 -37
q-70 -13 -104.5 -42.5t-34.5 -76.5q0 -53 37.5 -81.5t108.5 -28.5zM424 286h386q-1 59 -23 106.5t-62.5 75.5t-100.5 28q-81 0 -136 -55.5t-64 -154.5zM505 730h18l-88 -147h-15z" />
    <glyph glyph-name="Oslashacute" unicode="&#x1fe;" horiz-adv-x="714" 
d="M170 59l-10 12l382 528l13 -9zM86 -30l74 101l10 -12l-64 -89h-20zM555 590l-13 9l66 91h20zM357 670q93 0 160.5 -41.5t104 -117.5t36.5 -181t-36.5 -181t-104 -117.5t-160.5 -41.5q-92 0 -160 41.5t-104.5 117.5t-36.5 181t36.5 181t104.5 117.5t160 41.5zM357 656
q-87 0 -151 -40t-99 -113t-35 -173t35 -173t99 -113t151 -40q88 0 151.5 40t98.5 113t35 173t-35 173t-98.5 113t-151.5 40zM426 891h18l-78 -148h-15z" />
    <glyph glyph-name="oslashacute" unicode="&#x1ff;" horiz-adv-x="569" 
d="M285 510q69 0 121.5 -31t82 -89.5t29.5 -139.5t-29.5 -139.5t-82 -89.5t-121.5 -31t-121.5 31t-82.5 89.5t-30 139.5t30 139.5t82.5 89.5t121.5 31zM285 496q-64 0 -113 -29.5t-77 -84.5t-28 -132q0 -76 28 -131.5t77 -85t113 -29.5t113 29.5t76.5 85t27.5 131.5
q0 77 -27.5 132t-76.5 84.5t-113 29.5zM52 -30l446 560h19l-446 -560h-19zM363 726h18l-88 -147h-15z" />
    <glyph glyph-name="uni0200" unicode="&#x200;" horiz-adv-x="586" 
d="M12 0l272 660h18l272 -660h-17l-247 596l-17 46v0l-17 -45l-247 -597h-17zM118 234v14h349v-14h-349zM177 891l75 -148h-15l-78 148h18zM295 891l75 -148h-15l-78 148h18z" />
    <glyph glyph-name="uni0201" unicode="&#x201;" horiz-adv-x="517" 
d="M407 336q0 74 -41 117t-118 43q-63 0 -109.5 -27.5t-69.5 -90.5l-13 10q23 62 72.5 92t119.5 30q56 0 95 -20.5t59.5 -59.5t20.5 -94v-258q0 -72 59 -72q22 0 34 8l-1 -14q-14 -8 -36 -8q-15 0 -32 7t-28.5 26.5t-11.5 58.5v46l7 6q-7 -49 -38.5 -81.5t-76 -48.5
t-90.5 -16q-50 0 -86 14.5t-55 41.5t-19 66q0 56 37.5 88t106.5 45l217 42v-14l-206 -40q-70 -13 -104.5 -42.5t-34.5 -76.5q0 -53 37.5 -81.5t108.5 -28.5q30 0 63.5 9t64 28.5t49.5 50t19 73.5v171zM194 583h-15l-88 147h18zM325 583h-15l-88 147h18z" />
    <glyph glyph-name="uni0202" unicode="&#x202;" horiz-adv-x="586" 
d="M12 0l272 660h18l272 -660h-17l-247 596l-17 46v0l-17 -45l-247 -597h-17zM118 234v14h349v-14h-349zM414 732h-14q0 49 -28 78t-79 29t-79 -29t-28 -78h-14q0 57 32 89t89 32t89 -32t32 -89z" />
    <glyph glyph-name="uni0203" unicode="&#x203;" horiz-adv-x="517" 
d="M407 336q0 74 -41 117t-118 43q-63 0 -109.5 -27.5t-69.5 -90.5l-13 10q23 62 72.5 92t119.5 30q56 0 95 -20.5t59.5 -59.5t20.5 -94v-258q0 -72 59 -72q22 0 34 8l-1 -14q-14 -8 -36 -8q-15 0 -32 7t-28.5 26.5t-11.5 58.5v46l7 6q-7 -49 -38.5 -81.5t-76 -48.5
t-90.5 -16q-50 0 -86 14.5t-55 41.5t-19 66q0 56 37.5 88t106.5 45l217 42v-14l-206 -40q-70 -13 -104.5 -42.5t-34.5 -76.5q0 -53 37.5 -81.5t108.5 -28.5q30 0 63.5 9t64 28.5t49.5 50t19 73.5v171zM363 572h-14q0 49 -28 78t-79 29t-79 -29t-28 -78h-14q0 57 32 89t89 32
t89 -32t32 -89z" />
    <glyph glyph-name="uni0204" unicode="&#x204;" horiz-adv-x="583" 
d="M99 0v660h437v-14h-421v-302h338v-14h-338v-316h438v-14h-454zM202 891l75 -148h-15l-78 148h18zM320 891l75 -148h-15l-78 148h18z" />
    <glyph glyph-name="uni0205" unicode="&#x205;" horiz-adv-x="534" 
d="M283 -10q-66 0 -118.5 31t-83 89.5t-30.5 139.5q0 82 30 140t80.5 89t113.5 31q66 0 113 -30t72.5 -85.5t25.5 -132.5v-3v-4h-427v15h420l-7 -6q-1 103 -51.5 167.5t-145.5 64.5q-58 0 -105.5 -29.5t-75 -84.5t-27.5 -132t28 -132t77 -84.5t111 -29.5q61 0 111 30t75 82
l13 -7q-17 -37 -47 -63.5t-69 -41t-83 -14.5zM223 583h-15l-88 147h18zM354 583h-15l-88 147h18z" />
    <glyph glyph-name="uni0206" unicode="&#x206;" horiz-adv-x="583" 
d="M99 0v660h437v-14h-421v-302h338v-14h-338v-316h438v-14h-454zM439 732h-14q0 49 -28 78t-79 29t-79 -29t-28 -78h-14q0 57 32 89t89 32t89 -32t32 -89z" />
    <glyph glyph-name="uni0207" unicode="&#x207;" horiz-adv-x="534" 
d="M283 -10q-66 0 -118.5 31t-83 89.5t-30.5 139.5q0 82 30 140t80.5 89t113.5 31q66 0 113 -30t72.5 -85.5t25.5 -132.5v-3v-4h-427v15h420l-7 -6q-1 103 -51.5 167.5t-145.5 64.5q-58 0 -105.5 -29.5t-75 -84.5t-27.5 -132t28 -132t77 -84.5t111 -29.5q61 0 111 30t75 82
l13 -7q-17 -37 -47 -63.5t-69 -41t-83 -14.5zM392 572h-14q0 49 -28 78t-79 29t-79 -29t-28 -78h-14q0 57 32 89t89 32t89 -32t32 -89z" />
    <glyph glyph-name="uni0208" unicode="&#x208;" horiz-adv-x="214" 
d="M115 660v-660h-16v660h16zM-9 891l75 -148h-15l-78 148h18zM109 891l75 -148h-15l-78 148h18z" />
    <glyph glyph-name="uni0209" unicode="&#x209;" horiz-adv-x="186" 
d="M101 500v-500h-16v500h16zM45 583h-15l-88 147h18zM176 583h-15l-88 147h18z" />
    <glyph glyph-name="uni020A" unicode="&#x20a;" horiz-adv-x="214" 
d="M115 660v-660h-16v660h16zM228 732h-14q0 49 -28 78t-79 29t-79 -29t-28 -78h-14q0 57 32 89t89 32t89 -32t32 -89z" />
    <glyph glyph-name="uni020B" unicode="&#x20b;" horiz-adv-x="186" 
d="M101 500v-500h-16v500h16zM214 572h-14q0 49 -28 78t-79 29t-79 -29t-28 -78h-14q0 57 32 89t89 32t89 -32t32 -89z" />
    <glyph glyph-name="uni020C" unicode="&#x20c;" horiz-adv-x="714" 
d="M357 670q93 0 160.5 -41.5t104 -117.5t36.5 -181t-36.5 -181t-104 -117.5t-160.5 -41.5q-92 0 -160 41.5t-104.5 117.5t-36.5 181t36.5 181t104.5 117.5t160 41.5zM357 656q-87 0 -151 -40t-99 -113t-35 -173t35 -173t99 -113t151 -40q88 0 151.5 40t98.5 113t35 173
t-35 173t-98.5 113t-151.5 40zM241 891l75 -148h-15l-78 148h18zM359 891l75 -148h-15l-78 148h18z" />
    <glyph glyph-name="uni020D" unicode="&#x20d;" horiz-adv-x="569" 
d="M285 510q69 0 121.5 -31t82 -89.5t29.5 -139.5t-29.5 -139.5t-82 -89.5t-121.5 -31t-121.5 31t-82.5 89.5t-30 139.5t30 139.5t82.5 89.5t121.5 31zM285 496q-64 0 -113 -29.5t-77 -84.5t-28 -132q0 -76 28 -131.5t77 -85t113 -29.5t113 29.5t76.5 85t27.5 131.5
q0 77 -27.5 132t-76.5 84.5t-113 29.5zM237 579h-15l-88 147h18zM368 579h-15l-88 147h18z" />
    <glyph glyph-name="uni020E" unicode="&#x20e;" horiz-adv-x="714" 
d="M357 670q93 0 160.5 -41.5t104 -117.5t36.5 -181t-36.5 -181t-104 -117.5t-160.5 -41.5q-92 0 -160 41.5t-104.5 117.5t-36.5 181t36.5 181t104.5 117.5t160 41.5zM357 656q-87 0 -151 -40t-99 -113t-35 -173t35 -173t99 -113t151 -40q88 0 151.5 40t98.5 113t35 173
t-35 173t-98.5 113t-151.5 40zM478 732h-14q0 49 -28 78t-79 29t-79 -29t-28 -78h-14q0 57 32 89t89 32t89 -32t32 -89z" />
    <glyph glyph-name="uni020F" unicode="&#x20f;" horiz-adv-x="569" 
d="M285 510q69 0 121.5 -31t82 -89.5t29.5 -139.5t-29.5 -139.5t-82 -89.5t-121.5 -31t-121.5 31t-82.5 89.5t-30 139.5t30 139.5t82.5 89.5t121.5 31zM285 496q-64 0 -113 -29.5t-77 -84.5t-28 -132q0 -76 28 -131.5t77 -85t113 -29.5t113 29.5t76.5 85t27.5 131.5
q0 77 -27.5 132t-76.5 84.5t-113 29.5zM406 568h-14q0 49 -28 78t-79 29t-79 -29t-28 -78h-14q0 57 32 89t89 32t89 -32t32 -89z" />
    <glyph glyph-name="uni0210" unicode="&#x210;" horiz-adv-x="611" 
d="M338 660q97 0 153 -48t56 -132t-56 -132t-153 -48h-3h-220v-300h-16v660h239zM338 314q91 0 142 44t51 122t-51 122t-142 44h-223v-332h223zM369 314l207 -314h-18l-202 304zM177 891l75 -148h-15l-78 148h18zM295 891l75 -148h-15l-78 148h18z" />
    <glyph glyph-name="uni0211" unicode="&#x211;" horiz-adv-x="343" 
d="M85 0v500h16v-130q17 59 60 99.5t104 40.5q27 0 44 -6.5t27 -17.5l-9 -12q-10 10 -23 16t-41 6q-46 0 -83 -29.5t-58 -76.5t-21 -99v-291h-16zM154 583h-15l-88 147h18zM285 583h-15l-88 147h18z" />
    <glyph glyph-name="uni0212" unicode="&#x212;" horiz-adv-x="611" 
d="M338 660q97 0 153 -48t56 -132t-56 -132t-153 -48h-3h-220v-300h-16v660h239zM338 314q91 0 142 44t51 122t-51 122t-142 44h-223v-332h223zM369 314l207 -314h-18l-202 304zM414 732h-14q0 49 -28 78t-79 29t-79 -29t-28 -78h-14q0 57 32 89t89 32t89 -32t32 -89z" />
    <glyph glyph-name="uni0213" unicode="&#x213;" horiz-adv-x="343" 
d="M85 0v500h16v-130q17 59 60 99.5t104 40.5q27 0 44 -6.5t27 -17.5l-9 -12q-10 10 -23 16t-41 6q-46 0 -83 -29.5t-58 -76.5t-21 -99v-291h-16zM323 572h-14q0 49 -28 78t-79 29t-79 -29t-28 -78h-14q0 57 32 89t89 32t89 -32t32 -89z" />
    <glyph glyph-name="uni0214" unicode="&#x214;" horiz-adv-x="664" 
d="M581 660v-425q0 -118 -66 -181.5t-183 -63.5t-183 63.5t-66 181.5v425h16v-425q0 -110 62 -170.5t171 -60.5q110 0 171.5 60.5t61.5 170.5v425h16zM216 851l75 -148h-15l-78 148h18zM334 851l75 -148h-15l-78 148h18z" />
    <glyph glyph-name="uni0215" unicode="&#x215;" horiz-adv-x="564" 
d="M254 -10q-55 0 -94.5 20.5t-60 60.5t-20.5 96v333h16v-331q0 -79 42.5 -122t119.5 -43q54 0 93 19t64 49t37 63t12 61v304h16v-500h-16v133q-17 -61 -73 -102t-136 -41zM232 563h-15l-88 147h18zM363 563h-15l-88 147h18z" />
    <glyph glyph-name="uni0216" unicode="&#x216;" horiz-adv-x="664" 
d="M581 660v-425q0 -118 -66 -181.5t-183 -63.5t-183 63.5t-66 181.5v425h16v-425q0 -110 62 -170.5t171 -60.5q110 0 171.5 60.5t61.5 170.5v425h16zM453 692h-14q0 49 -28 78t-79 29t-79 -29t-28 -78h-14q0 57 32 89t89 32t89 -32t32 -89z" />
    <glyph glyph-name="uni0217" unicode="&#x217;" horiz-adv-x="564" 
d="M254 -10q-55 0 -94.5 20.5t-60 60.5t-20.5 96v333h16v-331q0 -79 42.5 -122t119.5 -43q54 0 93 19t64 49t37 63t12 61v304h16v-500h-16v133q-17 -61 -73 -102t-136 -41zM401 552h-14q0 49 -28 78t-79 29t-79 -29t-28 -78h-14q0 57 32 89t89 32t89 -32t32 -89z" />
    <glyph glyph-name="uni0218" unicode="&#x218;" horiz-adv-x="594" 
d="M295 670q94 0 156 -36.5t85 -116.5l-13 -10q-20 77 -79 113t-149 36q-66 0 -114.5 -22t-75.5 -59t-27 -83q0 -58 39 -93t135 -55l115 -24q98 -20 139.5 -56t41.5 -97q0 -53 -30.5 -93t-84 -62t-124.5 -22q-69 0 -125.5 19t-93.5 58t-48 99l15 8q9 -58 44 -96t89 -56
t119 -18q62 0 112.5 18.5t80.5 55t30 89.5t-39.5 86t-132.5 52l-115 24q-66 14 -106 35.5t-58.5 52.5t-18.5 75q0 47 28 87.5t80 65.5t125 25zM322 -68l-55 -161h-13l50 161h18z" />
    <glyph glyph-name="uni0219" unicode="&#x219;" horiz-adv-x="479" 
d="M240 -10q-78 0 -133.5 30.5t-69.5 90.5l15 7q13 -56 64 -85t127 -29q80 0 126.5 32.5t46.5 87.5q0 38 -24.5 64t-90.5 40l-114 25q-69 15 -98.5 46.5t-29.5 74.5q0 39 24 69.5t66 48.5t95 18q77 0 124 -30t61 -95l-14 -8q-13 62 -56.5 90.5t-114.5 28.5q-49 0 -87 -15.5
t-60 -42t-22 -60.5q0 -38 25.5 -66.5t87.5 -42.5l116 -26q71 -16 99.5 -45t28.5 -74q0 -41 -23.5 -71.5t-66.5 -46.5t-102 -16zM261 -68l-55 -161h-13l50 161h18z" />
    <glyph glyph-name="uni021A" unicode="&#x21a;" horiz-adv-x="544" 
d="M533 660v-14h-253v-646h-16v646h-253v14h522zM290 -68l-55 -161h-13l50 161h18z" />
    <glyph glyph-name="uni021B" unicode="&#x21b;" horiz-adv-x="329" 
d="M127 635v-509q0 -60 25 -91t79 -31q26 0 48 9t40 28l8 -13q-15 -16 -40.5 -27t-55.5 -11q-40 0 -67 15.5t-40 46t-13 74.5v504zM320 500v-14h-309v14h309zM234 -68l-55 -161h-13l50 161h18z" />
    <glyph glyph-name="uni022A" unicode="&#x22a;" horiz-adv-x="714" 
d="M357 670q93 0 160.5 -41.5t104 -117.5t36.5 -181t-36.5 -181t-104 -117.5t-160.5 -41.5q-92 0 -160 41.5t-104.5 117.5t-36.5 181t36.5 181t104.5 117.5t160 41.5zM357 656q-87 0 -151 -40t-99 -113t-35 -173t35 -173t99 -113t151 -40q88 0 151.5 40t98.5 113t35 173
t-35 173t-98.5 113t-151.5 40zM264 802q10 0 16 -6t6 -16t-6 -16t-16 -6t-16 6t-6 16t6 16t16 6zM448 802q10 0 16 -6t6 -16t-6 -16t-16 -6t-16 6t-6 16t6 16t16 6zM501 917v-14h-288v14h288z" />
    <glyph glyph-name="uni022B" unicode="&#x22b;" horiz-adv-x="569" 
d="M285 510q69 0 121.5 -31t82 -89.5t29.5 -139.5t-29.5 -139.5t-82 -89.5t-121.5 -31t-121.5 31t-82.5 89.5t-30 139.5t30 139.5t82.5 89.5t121.5 31zM285 496q-64 0 -113 -29.5t-77 -84.5t-28 -132q0 -76 28 -131.5t77 -85t113 -29.5t113 29.5t76.5 85t27.5 131.5
q0 77 -27.5 132t-76.5 84.5t-113 29.5zM192 638q10 0 16 -6t6 -16t-6 -16t-16 -6t-16 6t-6 16t6 16t16 6zM376 638q10 0 16 -6t6 -16t-6 -16t-16 -6t-16 6t-6 16t6 16t16 6zM429 753v-14h-288v14h288z" />
    <glyph glyph-name="uni022C" unicode="&#x22c;" horiz-adv-x="714" 
d="M357 670q93 0 160.5 -41.5t104 -117.5t36.5 -181t-36.5 -181t-104 -117.5t-160.5 -41.5q-92 0 -160 41.5t-104.5 117.5t-36.5 181t36.5 181t104.5 117.5t160 41.5zM357 656q-87 0 -151 -40t-99 -113t-35 -173t35 -173t99 -113t151 -40q88 0 151.5 40t98.5 113t35 173
t-35 173t-98.5 113t-151.5 40zM516 843q-5 -28 -16.5 -47t-28 -28t-38.5 -9q-26 0 -44.5 10.5t-34 24t-31.5 24t-37 10.5q-29 0 -46 -18t-25 -52h-15q8 43 31.5 63.5t55.5 20.5q24 0 42 -10.5t33.5 -24t32 -24t38.5 -10.5q30 0 45.5 18t22.5 52h15zM501 938v-14h-288v14h288
z" />
    <glyph glyph-name="uni022D" unicode="&#x22d;" horiz-adv-x="569" 
d="M285 510q69 0 121.5 -31t82 -89.5t29.5 -139.5t-29.5 -139.5t-82 -89.5t-121.5 -31t-121.5 31t-82.5 89.5t-30 139.5t30 139.5t82.5 89.5t121.5 31zM285 496q-64 0 -113 -29.5t-77 -84.5t-28 -132q0 -76 28 -131.5t77 -85t113 -29.5t113 29.5t76.5 85t27.5 131.5
q0 77 -27.5 132t-76.5 84.5t-113 29.5zM444 679q-5 -28 -16.5 -47t-28 -28t-38.5 -9q-26 0 -44.5 10.5t-34 24t-31.5 24t-37 10.5q-29 0 -46 -18t-25 -52h-15q8 43 31.5 63.5t55.5 20.5q24 0 42 -10.5t33.5 -24t32 -24t38.5 -10.5q30 0 45.5 18t22.5 52h15zM429 774v-14
h-288v14h288z" />
    <glyph glyph-name="uni0230" unicode="&#x230;" horiz-adv-x="714" 
d="M357 670q93 0 160.5 -41.5t104 -117.5t36.5 -181t-36.5 -181t-104 -117.5t-160.5 -41.5q-92 0 -160 41.5t-104.5 117.5t-36.5 181t36.5 181t104.5 117.5t160 41.5zM357 656q-87 0 -151 -40t-99 -113t-35 -173t35 -173t99 -113t151 -40q88 0 151.5 40t98.5 113t35 173
t-35 173t-98.5 113t-151.5 40zM357 802q10 0 16 -6t6 -16t-6 -16t-16 -6t-16 6t-6 16t6 16t16 6zM501 917v-14h-288v14h288z" />
    <glyph glyph-name="uni0231" unicode="&#x231;" horiz-adv-x="569" 
d="M285 510q69 0 121.5 -31t82 -89.5t29.5 -139.5t-29.5 -139.5t-82 -89.5t-121.5 -31t-121.5 31t-82.5 89.5t-30 139.5t30 139.5t82.5 89.5t121.5 31zM285 496q-64 0 -113 -29.5t-77 -84.5t-28 -132q0 -76 28 -131.5t77 -85t113 -29.5t113 29.5t76.5 85t27.5 131.5
q0 77 -27.5 132t-76.5 84.5t-113 29.5zM285 638q10 0 16 -6t6 -16t-6 -16t-16 -6t-16 6t-6 16t6 16t16 6zM429 753v-14h-288v14h288z" />
    <glyph glyph-name="uni0232" unicode="&#x232;" horiz-adv-x="512" 
d="M496 660l-232 -404v-256h-16v256l-232 404h19l129 -226l92 -161l92 161l129 226h19zM400 739v-14h-288v14h288z" />
    <glyph glyph-name="uni0233" unicode="&#x233;" horiz-adv-x="481" 
d="M459 500l-249 -601q-18 -43 -37.5 -68t-43.5 -35.5t-55 -10.5q-26 0 -46.5 8t-31.5 24l9 13q11 -17 30 -24t40 -7q39 0 67 21.5t53 81.5l40 97l-55 129l-158 372h18l185 -440l18 -42l17 43l181 439h18zM388 599v-14h-288v14h288z" />
    <glyph glyph-name="uni0237" unicode="&#x237;" horiz-adv-x="186" 
d="M101 500v-564q0 -46 -16.5 -80t-46 -52.5t-69.5 -18.5q-21 0 -40 6t-31 16l5 14q12 -11 30 -16.5t36 -5.5q53 0 84.5 37.5t31.5 99.5v564h16z" />
    <glyph glyph-name="uni0259" unicode="&#x259;" horiz-adv-x="534" 
d="M262 -10q-69 0 -115.5 30t-70 82.5t-23.5 119.5q0 10 0.5 19.5t1.5 19.5h420v-15h-413l7 6q-1 -7 -1 -13.5v-13.5q0 -104 53 -162.5t141 -58.5q98 0 151.5 65.5t53.5 180.5q0 77 -24.5 132t-67.5 84.5t-101 29.5q-75 0 -125 -32.5t-73 -89.5l-13 7q17 40 46 69t70.5 44.5
t94.5 15.5q62 0 109 -31t73.5 -89t26.5 -140q0 -122 -58 -191t-163 -69z" />
    <glyph glyph-name="uni02B9" unicode="&#x2b9;" horiz-adv-x="600" 
d="M103 680l-41 -159h-17l40 159h18z" />
    <glyph glyph-name="uni02BA" unicode="&#x2ba;" horiz-adv-x="236" 
d="M205 680l-41 -159h-17l40 159h18zM103 680l-41 -159h-17l40 159h18z" />
    <glyph glyph-name="uni02BB" unicode="&#x2bb;" horiz-adv-x="600" 
d="M36 778l-55 -191h-18l60 191h13z" />
    <glyph glyph-name="uni02BC" unicode="&#x2bc;" horiz-adv-x="600" 
d="M91 688q11 0 18.5 -6t11 -16t3.5 -23q0 -19 -6.5 -38.5t-19.5 -35.5t-33 -27l-12 9q21 9 35.5 27.5t20.5 40t-1 37.5h-2q-2 -6 -6 -9t-11 -3q-6 0 -11 3t-7.5 8t-2.5 11t3 11t8 8t12 3z" />
    <glyph glyph-name="uni02BE" unicode="&#x2be;" horiz-adv-x="253" 
d="M80 730q51 0 82.5 -29.5t31.5 -76.5t-31.5 -76.5t-82.5 -29.5h-25v14h25q45 0 71.5 25.5t26.5 66.5t-26.5 66.5t-71.5 25.5h-25v14h25z" />
    <glyph glyph-name="uni02BF" unicode="&#x2bf;" horiz-adv-x="253" 
d="M173 518q-51 0 -82.5 29.5t-31.5 76.5t31.5 76.5t82.5 29.5h25v-14h-25q-45 0 -71.5 -25.5t-26.5 -66.5t26.5 -66.5t71.5 -25.5h25v-14h-25z" />
    <glyph glyph-name="circumflex" unicode="&#x2c6;" horiz-adv-x="550" 
d="M392 583h-17l-100 129l-100 -129h-17l108 142h18z" />
    <glyph glyph-name="caron" unicode="&#x2c7;" horiz-adv-x="550" 
d="M392 725l-108 -142h-18l-108 142h17l100 -129l100 129h17z" />
    <glyph glyph-name="uni02C8" unicode="&#x2c8;" horiz-adv-x="185" 
d="M85 730h15v-270h-15v270z" />
    <glyph glyph-name="uni02C9" unicode="&#x2c9;" horiz-adv-x="550" 
d="M419 619v-14h-288v14h288z" />
    <glyph glyph-name="uni02CA" unicode="&#x2ca;" horiz-adv-x="600" 
d="M334 730h18l-88 -147h-15z" />
    <glyph glyph-name="uni02CB" unicode="&#x2cb;" horiz-adv-x="550" 
d="M242 730l85 -147h-15l-88 147h18z" />
    <glyph glyph-name="uni02CC" unicode="&#x2cc;" horiz-adv-x="185" 
d="M85 60h15v-270h-15v270z" />
    <glyph glyph-name="breve" unicode="&#x2d8;" horiz-adv-x="550" 
d="M396 702q0 -57 -32 -89t-89 -32t-89 32t-32 89h14q0 -49 28 -78t79 -29t79 29t28 78h14z" />
    <glyph glyph-name="dotaccent" unicode="&#x2d9;" horiz-adv-x="550" 
d="M275 642q10 0 16 -6t6 -16t-6 -16t-16 -6t-16 6t-6 16t6 16t16 6z" />
    <glyph glyph-name="ring" unicode="&#x2da;" horiz-adv-x="600" 
d="M300 735q35 0 58.5 -23t23.5 -57t-23.5 -57t-58.5 -23t-58.5 23t-23.5 57t23.5 57t58.5 23zM300 721q-28 0 -47 -19t-19 -47t19 -47t47 -19t47 19t19 47t-19 47t-47 19z" />
    <glyph glyph-name="ogonek" unicode="&#x2db;" horiz-adv-x="600" 
d="M306 -202q-36 0 -62 19.5t-26 58.5q0 40 30.5 72t109.5 63l16 -3q-54 -23 -84.5 -44t-43.5 -42t-13 -46q0 -32 21.5 -48t51.5 -16q28 0 44.5 6t26.5 14l6 -13q-12 -8 -29 -14.5t-48 -6.5z" />
    <glyph glyph-name="tilde" unicode="&#x2dc;" horiz-adv-x="550" 
d="M433 683q-5 -28 -16.5 -47t-28 -28t-38.5 -9q-26 0 -44.5 10.5t-34 24t-31.5 24t-37 10.5q-29 0 -46 -18t-25 -52h-15q8 43 31.5 63.5t55.5 20.5q24 0 42 -10.5t33.5 -24t32 -24t38.5 -10.5q30 0 45.5 18t22.5 52h15z" />
    <glyph glyph-name="hungarumlaut" unicode="&#x2dd;" horiz-adv-x="600" 
d="M314 583l85 147h18l-88 -147h-15zM183 583l85 147h18l-88 -147h-15z" />
    <glyph glyph-name="gravecomb" unicode="&#x300;" horiz-adv-x="0" 
d="M-74 730l85 -147h-15l-88 147h18z" />
    <glyph glyph-name="acutecomb" unicode="&#x301;" horiz-adv-x="0" 
d="M78 730h18l-88 -147h-15z" />
    <glyph glyph-name="uni0302" unicode="&#x302;" horiz-adv-x="0" 
d="M117 583h-17l-100 129l-100 -129h-17l108 142h18z" />
    <glyph glyph-name="tildecomb" unicode="&#x303;" horiz-adv-x="0" 
d="M159 683q-5 -28 -16.5 -47t-28 -28t-38.5 -9q-26 0 -44.5 10.5t-34 24t-31.5 24t-37 10.5q-29 0 -46 -18t-25 -52h-15q8 43 31.5 63.5t55.5 20.5q24 0 42 -10.5t33.5 -24t32 -24t38.5 -10.5q30 0 45.5 18t22.5 52h15z" />
    <glyph glyph-name="uni0304" unicode="&#x304;" horiz-adv-x="0" 
d="M144 619v-14h-288v14h288z" />
    <glyph glyph-name="uni0306" unicode="&#x306;" horiz-adv-x="0" 
d="M121 702q0 -57 -32 -89t-89 -32t-89 32t-32 89h14q0 -49 28 -78t79 -29t79 29t28 78h14z" />
    <glyph glyph-name="uni0307" unicode="&#x307;" horiz-adv-x="0" 
d="M0 642q10 0 16 -6t6 -16t-6 -16t-16 -6t-16 6t-6 16t6 16t16 6z" />
    <glyph glyph-name="uni0308" unicode="&#x308;" horiz-adv-x="0" 
d="M-93 642q10 0 16 -6t6 -16t-6 -16t-16 -6t-16 6t-6 16t6 16t16 6zM91 642q10 0 16 -6t6 -16t-6 -16t-16 -6t-16 6t-6 16t6 16t16 6z" />
    <glyph glyph-name="hookabovecomb" unicode="&#x309;" horiz-adv-x="0" 
d="M273 572l-7 10q30 20 44 39t14 44q0 22 -12.5 34.5t-35.5 12.5q-22 0 -35 -12.5t-20 -26.5l-14 9q5 14 21.5 30t47.5 16q20 0 34.5 -7.5t22.5 -21t8 -31.5q0 -22 -8 -38.5t-23 -29.5t-37 -28z" />
    <glyph glyph-name="uni030A" unicode="&#x30a;" horiz-adv-x="0" 
d="M-2 735q35 0 58.5 -23t23.5 -57t-23.5 -57t-58.5 -23t-58.5 23t-23.5 57t23.5 57t58.5 23zM-2 721q-28 0 -47 -19t-19 -47t19 -47t47 -19t47 19t19 47t-19 47t-47 19z" />
    <glyph glyph-name="uni030B" unicode="&#x30b;" horiz-adv-x="0" 
d="M48 583l85 147h18l-88 -147h-15zM-83 583l85 147h18l-88 -147h-15z" />
    <glyph glyph-name="uni030C" unicode="&#x30c;" horiz-adv-x="0" 
d="M117 725l-108 -142h-18l-108 142h17l100 -129l100 129h17z" />
    <glyph glyph-name="uni030F" unicode="&#x30f;" horiz-adv-x="0" 
d="M-48 583h-15l-88 147h18zM83 583h-15l-88 147h18z" />
    <glyph glyph-name="uni0311" unicode="&#x311;" horiz-adv-x="0" 
d="M121 572h-14q0 49 -28 78t-79 29t-79 -29t-28 -78h-14q0 57 32 89t89 32t89 -32t32 -89z" />
    <glyph glyph-name="uni0312" unicode="&#x312;" horiz-adv-x="0" 
d="M327 778l-55 -191h-18l60 191h13z" />
    <glyph glyph-name="uni031B" unicode="&#x31b;" horiz-adv-x="0" 
d="M255 486v14q53 0 79 29t26 78h14q0 -57 -29 -89t-90 -32z" />
    <glyph glyph-name="dotbelowcomb" unicode="&#x323;" horiz-adv-x="0" 
d="M0 -98q10 0 16 -6t6 -16t-6 -16t-16 -6t-16 6t-6 16t6 16t16 6z" />
    <glyph glyph-name="uni0324" unicode="&#x324;" horiz-adv-x="0" 
d="M-93 -98q10 0 16 -6t6 -16t-6 -16t-16 -6t-16 6t-6 16t6 16t16 6zM91 -98q10 0 16 -6t6 -16t-6 -16t-16 -6t-16 6t-6 16t6 16t16 6z" />
    <glyph glyph-name="uni0326" unicode="&#x326;" horiz-adv-x="0" 
d="M14 -68l-55 -161h-13l50 161h18z" />
    <glyph glyph-name="uni0327" unicode="&#x327;" horiz-adv-x="0" 
d="M-27 3h21q51 -25 71.5 -53.5t20.5 -63.5q0 -40 -24.5 -64t-63.5 -24q-30 0 -52.5 10t-41.5 32l8 12q20 -22 40.5 -31.5t45.5 -9.5q32 0 52.5 20t20.5 54q0 32 -20.5 59t-77.5 59z" />
    <glyph glyph-name="uni0328" unicode="&#x328;" horiz-adv-x="0" 
d="M-68 -202q-36 0 -62 19.5t-26 58.5q0 40 30.5 72t109.5 63l16 -3q-54 -23 -84.5 -44t-43.5 -42t-13 -46q0 -32 21.5 -48t51.5 -16q28 0 44.5 6t26.5 14l6 -13q-12 -8 -29 -14.5t-48 -6.5z" />
    <glyph glyph-name="uni032E" unicode="&#x32e;" horiz-adv-x="0" 
d="M121 -72q0 -57 -32 -89t-89 -32t-89 32t-32 89h14q0 -49 28 -78t79 -29t79 29t28 78h14z" />
    <glyph glyph-name="uni0331" unicode="&#x331;" horiz-adv-x="0" 
d="M144 -105v-14h-288v14h288z" />
    <glyph glyph-name="uni0335" unicode="&#x335;" horiz-adv-x="0" 
d="M175 336v-12h-351v12h351z" />
    <glyph glyph-name="uni0338" unicode="&#x338;" horiz-adv-x="0" 
d="M52 -30l446 560h19l-446 -560h-19z" />
    <glyph glyph-name="uni03A9" unicode="&#x3a9;" horiz-adv-x="725" 
d="M61 0v14h207l-3 -2q-91 40 -147 122t-56 206q0 100 37 174t105 115t159 41t158.5 -41t104.5 -115t37 -174q0 -124 -56 -206t-148 -122l-3 2h208v-14h-233v14q96 35 156 115.5t60 210.5q0 96 -35 167t-99 110t-150 39t-150.5 -39t-99.5 -110t-35 -167q0 -87 27.5 -151.5
t76 -108t112.5 -66.5v-14h-233z" />
    <glyph glyph-name="uni03BC" unicode="&#x3bc;" horiz-adv-x="570" 
d="M85 -210v710h16v-331q0 -79 45.5 -122t116.5 -43q60 0 106.5 27t73 71.5t26.5 96.5v301h16v-500h-16v133q-17 -61 -73 -102t-136 -41q-55 0 -97.5 27t-61.5 77v0v-304h-16z" />
    <glyph glyph-name="pi" unicode="&#x3c0;" horiz-adv-x="678" 
d="M172 0v486h-166v14h658v-14h-167v-392q0 -32 15.5 -49.5t41 -24t55.5 -6.5l-3 -14q-34 0 -62.5 8.5t-45.5 29t-17 56.5v392h-293v-486h-16z" />
    <glyph glyph-name="uni1E08" unicode="&#x1e08;" horiz-adv-x="649" 
d="M610 165q-16 -55 -52.5 -94.5t-89 -60t-119.5 -20.5q-87 0 -153 41.5t-103 117.5t-37 181t36.5 181t102.5 117.5t154 41.5q70 0 121 -19.5t85 -58t50 -96.5l-15 -7q-25 84 -84.5 125.5t-156.5 41.5q-83 0 -145.5 -40t-97 -113t-34.5 -173t35 -173t97.5 -113t144.5 -40
q95 0 159 44t87 123zM303 3h21q51 -25 71.5 -53.5t20.5 -63.5q0 -40 -24.5 -64t-63.5 -24q-30 0 -52.5 10t-41.5 32l8 12q20 -22 40.5 -31.5t45.5 -9.5q32 0 52.5 20t20.5 54q0 32 -20.5 59t-77.5 59zM408 891h18l-78 -148h-15z" />
    <glyph glyph-name="uni1E09" unicode="&#x1e09;" horiz-adv-x="524" 
d="M281 510q50 0 90 -16t67.5 -46.5t39.5 -74.5l-14 -7q-16 62 -64 96t-119 34q-61 0 -109.5 -29.5t-76.5 -84.5t-28 -132q0 -76 27.5 -131.5t75 -85t108.5 -29.5q47 0 87.5 17t68 48t34.5 73l14 -5q-8 -45 -37.5 -78t-72.5 -51t-94 -18q-66 0 -117 31t-80.5 89.5
t-29.5 139.5t30 139.5t82 89.5t118 31zM241 3h21q51 -25 71.5 -53.5t20.5 -63.5q0 -40 -24.5 -64t-63.5 -24q-30 0 -52.5 10t-41.5 32l8 12q20 -22 40.5 -31.5t45.5 -9.5q32 0 52.5 20t20.5 54q0 32 -20.5 59t-77.5 59zM353 730h18l-88 -147h-15z" />
    <glyph glyph-name="uni1E0C" unicode="&#x1e0c;" horiz-adv-x="683" 
d="M302 660q161 0 243 -81t82 -239q0 -167 -82 -253.5t-243 -86.5h-203v660h203zM302 14q152 0 230.5 83t78.5 243q0 151 -78.5 228.5t-230.5 77.5h-187v-632h187zM309 -98q10 0 16 -6t6 -16t-6 -16t-16 -6t-16 6t-6 16t6 16t16 6z" />
    <glyph glyph-name="uni1E0D" unicode="&#x1e0d;" horiz-adv-x="585" 
d="M280 -10q-68 0 -120 31t-80.5 89.5t-28.5 139.5q0 82 28.5 140t80.5 89t120 31q77 0 131.5 -43t73.5 -122l-1 -2v387h16v-730h-16v159l1 -2q-11 -53 -40 -90.5t-71 -57t-94 -19.5zM283 4q58 0 103.5 30t71.5 85.5t26 130.5q0 76 -26 131t-71 85t-104 30q-97 0 -156.5 -65
t-59.5 -181t59.5 -181t156.5 -65zM283 -98q10 0 16 -6t6 -16t-6 -16t-16 -6t-16 6t-6 16t6 16t16 6z" />
    <glyph glyph-name="uni1E0E" unicode="&#x1e0e;" horiz-adv-x="683" 
d="M302 660q161 0 243 -81t82 -239q0 -167 -82 -253.5t-243 -86.5h-203v660h203zM302 14q152 0 230.5 83t78.5 243q0 151 -78.5 228.5t-230.5 77.5h-187v-632h187zM453 -105v-14h-288v14h288z" />
    <glyph glyph-name="uni1E0F" unicode="&#x1e0f;" horiz-adv-x="585" 
d="M280 -10q-68 0 -120 31t-80.5 89.5t-28.5 139.5q0 82 28.5 140t80.5 89t120 31q77 0 131.5 -43t73.5 -122l-1 -2v387h16v-730h-16v159l1 -2q-11 -53 -40 -90.5t-71 -57t-94 -19.5zM283 4q58 0 103.5 30t71.5 85.5t26 130.5q0 76 -26 131t-71 85t-104 30q-97 0 -156.5 -65
t-59.5 -181t59.5 -181t156.5 -65zM427 -105v-14h-288v14h288z" />
    <glyph glyph-name="uni1E14" unicode="&#x1e14;" horiz-adv-x="583" 
d="M99 0v660h437v-14h-421v-302h338v-14h-338v-316h438v-14h-454zM462 779v-14h-288v14h288zM250 1008l75 -148h-15l-78 148h18z" />
    <glyph glyph-name="uni1E15" unicode="&#x1e15;" horiz-adv-x="534" 
d="M283 -10q-66 0 -118.5 31t-83 89.5t-30.5 139.5q0 82 30 140t80.5 89t113.5 31q66 0 113 -30t72.5 -85.5t25.5 -132.5v-3v-4h-427v15h420l-7 -6q-1 103 -51.5 167.5t-145.5 64.5q-58 0 -105.5 -29.5t-75 -84.5t-27.5 -132t28 -132t77 -84.5t111 -29.5q61 0 111 30t75 82
l13 -7q-17 -37 -47 -63.5t-69 -41t-83 -14.5zM415 619v-14h-288v14h288zM203 848l75 -148h-15l-78 148h18z" />
    <glyph glyph-name="uni1E16" unicode="&#x1e16;" horiz-adv-x="583" 
d="M99 0v660h437v-14h-421v-302h338v-14h-338v-316h438v-14h-454zM462 779v-14h-288v14h288zM387 1008h18l-78 -148h-15z" />
    <glyph glyph-name="uni1E17" unicode="&#x1e17;" horiz-adv-x="534" 
d="M283 -10q-66 0 -118.5 31t-83 89.5t-30.5 139.5q0 82 30 140t80.5 89t113.5 31q66 0 113 -30t72.5 -85.5t25.5 -132.5v-3v-4h-427v15h420l-7 -6q-1 103 -51.5 167.5t-145.5 64.5q-58 0 -105.5 -29.5t-75 -84.5t-27.5 -132t28 -132t77 -84.5t111 -29.5q61 0 111 30t75 82
l13 -7q-17 -37 -47 -63.5t-69 -41t-83 -14.5zM415 619v-14h-288v14h288zM340 848h18l-78 -148h-15z" />
    <glyph glyph-name="uni1E1C" unicode="&#x1e1c;" horiz-adv-x="583" 
d="M99 0v660h437v-14h-421v-302h338v-14h-338v-316h438v-14h-454zM297 3h21q51 -25 71.5 -53.5t20.5 -63.5q0 -40 -24.5 -64t-63.5 -24q-30 0 -52.5 10t-41.5 32l8 12q20 -22 40.5 -31.5t45.5 -9.5q32 0 52.5 20t20.5 54q0 32 -20.5 59t-77.5 59zM439 862q0 -57 -32 -89
t-89 -32t-89 32t-32 89h14q0 -49 28 -78t79 -29t79 29t28 78h14z" />
    <glyph glyph-name="uni1E1D" unicode="&#x1e1d;" horiz-adv-x="534" 
d="M283 -10q-66 0 -118.5 31t-83 89.5t-30.5 139.5q0 82 30 140t80.5 89t113.5 31q66 0 113 -30t72.5 -85.5t25.5 -132.5v-3v-4h-427v15h420l-7 -6q-1 103 -51.5 167.5t-145.5 64.5q-58 0 -105.5 -29.5t-75 -84.5t-27.5 -132t28 -132t77 -84.5t111 -29.5q61 0 111 30t75 82
l13 -7q-17 -37 -47 -63.5t-69 -41t-83 -14.5zM248 3h21q51 -25 71.5 -53.5t20.5 -63.5q0 -40 -24.5 -64t-63.5 -24q-30 0 -52.5 10t-41.5 32l8 12q20 -22 40.5 -31.5t45.5 -9.5q32 0 52.5 20t20.5 54q0 32 -20.5 59t-77.5 59zM392 702q0 -57 -32 -89t-89 -32t-89 32t-32 89
h14q0 -49 28 -78t79 -29t79 29t28 78h14z" />
    <glyph glyph-name="uni1E20" unicode="&#x1e20;" horiz-adv-x="676" 
d="M355 -10q-92 0 -159.5 41.5t-103.5 117.5t-36 181t36.5 181t102.5 117.5t154 41.5q104 0 167.5 -43.5t88.5 -130.5l-14 -7q-25 84 -84.5 125.5t-157.5 41.5q-83 0 -145.5 -40t-97 -113t-34.5 -173t34.5 -173t98 -113t150.5 -40q71 0 117.5 24.5t73 62.5t37.5 79t11 74v53
h-241v14h257v-311h-16v166l1 -2q-21 -79 -83 -126.5t-157 -47.5zM487 779v-14h-288v14h288z" />
    <glyph glyph-name="uni1E21" unicode="&#x1e21;" horiz-adv-x="496" 
d="M491 592l5 -14h-1.5h-1.5q-49 0 -75 -31.5t-26 -81.5l-13 5q0 37 13.5 64t38 42.5t57.5 15.5h2h1zM326 37q77 0 121.5 -30t44.5 -80q0 -42 -28.5 -74t-80 -50t-119.5 -18q-107 0 -168.5 37t-61.5 97q0 44 34.5 75t89.5 38l-1 -2q-30 8 -55.5 29t-25.5 58q0 42 32.5 66
t77.5 24l51 -8h-32q-44 0 -78.5 -19.5t-34.5 -60.5t33 -61.5t78 -20.5h123zM266 -201q59 0 106.5 16t75.5 44.5t28 65.5q0 44 -41 71t-110 27h-128q-64 0 -105.5 -28.5t-41.5 -73.5q0 -54 58 -88t158 -34zM258 510q59 0 103 -19.5t68.5 -54.5t24.5 -83q0 -47 -24.5 -82.5
t-68.5 -55t-103 -19.5q-89 0 -143.5 43t-54.5 114q0 48 24.5 83t69.5 54.5t104 19.5zM258 496q-82 0 -132 -39t-50 -104q0 -64 50 -103.5t132 -39.5t131 39.5t49 103.5q0 65 -49 104t-131 39zM351.807 619v-14h-197.613v14h197.613z" />
    <glyph glyph-name="uni1E24" unicode="&#x1e24;" horiz-adv-x="696" 
d="M597 660v-660h-16v660h16zM115 660v-660h-16v660h16zM590 344v-14h-483v14h483zM348 -98q10 0 16 -6t6 -16t-6 -16t-16 -6t-16 6t-6 16t6 16t16 6z" />
    <glyph glyph-name="uni1E25" unicode="&#x1e25;" horiz-adv-x="574" 
d="M85 0v730h16v-362q17 62 73 102.5t135 40.5q58 0 99.5 -21.5t64 -61.5t22.5 -98v-329h-16v327q0 80 -46.5 124.5t-126.5 44.5q-58 0 -104.5 -27t-73.5 -71.5t-27 -96.5v-302h-16zM323 -98q10 0 16 -6t6 -16t-6 -16t-16 -6t-16 6t-6 16t6 16t16 6z" />
    <glyph glyph-name="uni1E2A" unicode="&#x1e2a;" horiz-adv-x="696" 
d="M597 660v-660h-16v660h16zM115 660v-660h-16v660h16zM590 344v-14h-483v14h483zM469 -72q0 -57 -32 -89t-89 -32t-89 32t-32 89h14q0 -49 28 -78t79 -29t79 29t28 78h14z" />
    <glyph glyph-name="uni1E2B" unicode="&#x1e2b;" horiz-adv-x="574" 
d="M85 0v730h16v-362q17 62 73 102.5t135 40.5q58 0 99.5 -21.5t64 -61.5t22.5 -98v-329h-16v327q0 80 -46.5 124.5t-126.5 44.5q-58 0 -104.5 -27t-73.5 -71.5t-27 -96.5v-302h-16zM444 -72q0 -57 -32 -89t-89 -32t-89 32t-32 89h14q0 -49 28 -78t79 -29t79 29t28 78h14z
" />
    <glyph glyph-name="uni1E2E" unicode="&#x1e2e;" horiz-adv-x="214" 
d="M115 660v-660h-16v660h16zM14 802q10 0 16 -6t6 -16t-6 -16t-16 -6t-16 6t-6 16t6 16t16 6zM198 802q10 0 16 -6t6 -16t-6 -16t-16 -6t-16 6t-6 16t6 16t16 6zM176 1029h18l-78 -148h-15z" />
    <glyph glyph-name="uni1E2F" unicode="&#x1e2f;" horiz-adv-x="186" 
d="M101 500v-500h-16v500h16zM0 642q10 0 16 -6t6 -16t-6 -16t-16 -6t-16 6t-6 16t6 16t16 6zM184 642q10 0 16 -6t6 -16t-6 -16t-16 -6t-16 6t-6 16t6 16t16 6zM162 869h18l-78 -148h-15z" />
    <glyph glyph-name="uni1E36" unicode="&#x1e36;" horiz-adv-x="543" 
d="M115 14h416v-14h-432v660h16v-646zM331 -98q10 0 16 -6t6 -16t-6 -16t-16 -6t-16 6t-6 16t6 16t16 6z" />
    <glyph glyph-name="uni1E37" unicode="&#x1e37;" horiz-adv-x="237" 
d="M97 730v-623q0 -55 18 -79t55 -24q22 0 34 3t24 9v-14q-10 -5 -24 -8.5t-34 -3.5q-44 0 -66.5 28t-22.5 89v623h16zM159 -98q10 0 16 -6t6 -16t-6 -16t-16 -6t-16 6t-6 16t6 16t16 6z" />
    <glyph glyph-name="uni1E3A" unicode="&#x1e3a;" horiz-adv-x="543" 
d="M115 14h416v-14h-432v660h16v-646zM475 -105v-14h-288v14h288z" />
    <glyph glyph-name="uni1E3B" unicode="&#x1e3b;" horiz-adv-x="237" 
d="M97 730v-623q0 -55 18 -79t55 -24q22 0 34 3t24 9v-14q-10 -5 -24 -8.5t-34 -3.5q-44 0 -66.5 28t-22.5 89v623h16zM259.74 -105v-14h-201.48v14h201.48z" />
    <glyph glyph-name="uni1E42" unicode="&#x1e42;" horiz-adv-x="786" 
d="M687 660v-660h-16v580l1 57v0l-269 -637h-20l-269 637v0l1 -57v-580h-16v660h21l261 -612l12 -29v0l12 28l261 613h21zM393 -98q10 0 16 -6t6 -16t-6 -16t-16 -6t-16 6t-6 16t6 16t16 6z" />
    <glyph glyph-name="uni1E43" unicode="&#x1e43;" horiz-adv-x="968" 
d="M85 0v500h16v-133q17 62 73 102.5t135 40.5q78 0 126.5 -39t57.5 -110q10 43 39 77t73 54t98 20q58 0 99.5 -21.5t64 -61.5t22.5 -98v-329h-16v327q0 80 -46.5 124.5t-126.5 44.5q-58 0 -104.5 -27t-73.5 -71.5t-27 -96.5v-303h-16v327q0 80 -46.5 124.5t-126.5 44.5
q-58 0 -104.5 -27t-73.5 -71.5t-27 -96.5v-301h-16zM487 -98q10 0 16 -6t6 -16t-6 -16t-16 -6t-16 6t-6 16t6 16t16 6z" />
    <glyph glyph-name="uni1E44" unicode="&#x1e44;" horiz-adv-x="694" 
d="M595 660v-660h-22l-433 605l-26 39v0l1 -57v-587h-16v660h22l433 -605l26 -39v0l-1 57v587h16zM353 802q10 0 16 -6t6 -16t-6 -16t-16 -6t-16 6t-6 16t6 16t16 6z" />
    <glyph glyph-name="uni1E45" unicode="&#x1e45;" horiz-adv-x="574" 
d="M85 0v500h16v-140l-1 3q11 42 40 75.5t72 52.5t97 19q58 0 99.5 -21.5t64 -61.5t22.5 -98v-329h-16v327q0 80 -46.5 124.5t-126.5 44.5q-58 0 -104.5 -27t-73.5 -71.5t-27 -96.5v-301h-16zM293 642q10 0 16 -6t6 -16t-6 -16t-16 -6t-16 6t-6 16t6 16t16 6z" />
    <glyph glyph-name="uni1E46" unicode="&#x1e46;" horiz-adv-x="694" 
d="M595 660v-660h-22l-433 605l-26 39v0l1 -57v-587h-16v660h22l433 -605l26 -39v0l-1 57v587h16zM347 -98q10 0 16 -6t6 -16t-6 -16t-16 -6t-16 6t-6 16t6 16t16 6z" />
    <glyph glyph-name="uni1E47" unicode="&#x1e47;" horiz-adv-x="574" 
d="M85 0v500h16v-140l-1 3q11 42 40 75.5t72 52.5t97 19q58 0 99.5 -21.5t64 -61.5t22.5 -98v-329h-16v327q0 80 -46.5 124.5t-126.5 44.5q-58 0 -104.5 -27t-73.5 -71.5t-27 -96.5v-301h-16zM323 -98q10 0 16 -6t6 -16t-6 -16t-16 -6t-16 6t-6 16t6 16t16 6z" />
    <glyph glyph-name="uni1E48" unicode="&#x1e48;" horiz-adv-x="694" 
d="M595 660v-660h-22l-433 605l-26 39v0l1 -57v-587h-16v660h22l433 -605l26 -39v0l-1 57v587h16zM491 -105v-14h-288v14h288z" />
    <glyph glyph-name="uni1E49" unicode="&#x1e49;" horiz-adv-x="574" 
d="M85 0v500h16v-140l-1 3q11 42 40 75.5t72 52.5t97 19q58 0 99.5 -21.5t64 -61.5t22.5 -98v-329h-16v327q0 80 -46.5 124.5t-126.5 44.5q-58 0 -104.5 -27t-73.5 -71.5t-27 -96.5v-301h-16zM467 -105v-14h-288v14h288z" />
    <glyph glyph-name="uni1E4C" unicode="&#x1e4c;" horiz-adv-x="714" 
d="M357 670q93 0 160.5 -41.5t104 -117.5t36.5 -181t-36.5 -181t-104 -117.5t-160.5 -41.5q-92 0 -160 41.5t-104.5 117.5t-36.5 181t36.5 181t104.5 117.5t160 41.5zM357 656q-87 0 -151 -40t-99 -113t-35 -173t35 -173t99 -113t151 -40q88 0 151.5 40t98.5 113t35 173
t-35 173t-98.5 113t-151.5 40zM516 843q-5 -28 -16.5 -47t-28 -28t-38.5 -9q-26 0 -44.5 10.5t-34 24t-31.5 24t-37 10.5q-29 0 -46 -18t-25 -52h-15q8 43 31.5 63.5t55.5 20.5q24 0 42 -10.5t33.5 -24t32 -24t38.5 -10.5q30 0 45.5 18t22.5 52h15zM426 1050h18l-78 -148
h-15z" />
    <glyph glyph-name="uni1E4D" unicode="&#x1e4d;" horiz-adv-x="569" 
d="M285 510q69 0 121.5 -31t82 -89.5t29.5 -139.5t-29.5 -139.5t-82 -89.5t-121.5 -31t-121.5 31t-82.5 89.5t-30 139.5t30 139.5t82.5 89.5t121.5 31zM285 496q-64 0 -113 -29.5t-77 -84.5t-28 -132q0 -76 28 -131.5t77 -85t113 -29.5t113 29.5t76.5 85t27.5 131.5
q0 77 -27.5 132t-76.5 84.5t-113 29.5zM444 679q-5 -28 -16.5 -47t-28 -28t-38.5 -9q-26 0 -44.5 10.5t-34 24t-31.5 24t-37 10.5q-29 0 -46 -18t-25 -52h-15q8 43 31.5 63.5t55.5 20.5q24 0 42 -10.5t33.5 -24t32 -24t38.5 -10.5q30 0 45.5 18t22.5 52h15zM354 886h18
l-78 -148h-15z" />
    <glyph glyph-name="uni1E4E" unicode="&#x1e4e;" horiz-adv-x="714" 
d="M357 670q93 0 160.5 -41.5t104 -117.5t36.5 -181t-36.5 -181t-104 -117.5t-160.5 -41.5q-92 0 -160 41.5t-104.5 117.5t-36.5 181t36.5 181t104.5 117.5t160 41.5zM357 656q-87 0 -151 -40t-99 -113t-35 -173t35 -173t99 -113t151 -40q88 0 151.5 40t98.5 113t35 173
t-35 173t-98.5 113t-151.5 40zM516 843q-5 -28 -16.5 -47t-28 -28t-38.5 -9q-26 0 -44.5 10.5t-34 24t-31.5 24t-37 10.5q-29 0 -46 -18t-25 -52h-15q8 43 31.5 63.5t55.5 20.5q24 0 42 -10.5t33.5 -24t32 -24t38.5 -10.5q30 0 45.5 18t22.5 52h15zM264 961q10 0 16 -6
t6 -16t-6 -16t-16 -6t-16 6t-6 16t6 16t16 6zM448 961q10 0 16 -6t6 -16t-6 -16t-16 -6t-16 6t-6 16t6 16t16 6z" />
    <glyph glyph-name="uni1E4F" unicode="&#x1e4f;" horiz-adv-x="569" 
d="M285 510q69 0 121.5 -31t82 -89.5t29.5 -139.5t-29.5 -139.5t-82 -89.5t-121.5 -31t-121.5 31t-82.5 89.5t-30 139.5t30 139.5t82.5 89.5t121.5 31zM285 496q-64 0 -113 -29.5t-77 -84.5t-28 -132q0 -76 28 -131.5t77 -85t113 -29.5t113 29.5t76.5 85t27.5 131.5
q0 77 -27.5 132t-76.5 84.5t-113 29.5zM444 679q-5 -28 -16.5 -47t-28 -28t-38.5 -9q-26 0 -44.5 10.5t-34 24t-31.5 24t-37 10.5q-29 0 -46 -18t-25 -52h-15q8 43 31.5 63.5t55.5 20.5q24 0 42 -10.5t33.5 -24t32 -24t38.5 -10.5q30 0 45.5 18t22.5 52h15zM192 797
q10 0 16 -6t6 -16t-6 -16t-16 -6t-16 6t-6 16t6 16t16 6zM376 797q10 0 16 -6t6 -16t-6 -16t-16 -6t-16 6t-6 16t6 16t16 6z" />
    <glyph glyph-name="uni1E50" unicode="&#x1e50;" horiz-adv-x="714" 
d="M357 670q93 0 160.5 -41.5t104 -117.5t36.5 -181t-36.5 -181t-104 -117.5t-160.5 -41.5q-92 0 -160 41.5t-104.5 117.5t-36.5 181t36.5 181t104.5 117.5t160 41.5zM357 656q-87 0 -151 -40t-99 -113t-35 -173t35 -173t99 -113t151 -40q88 0 151.5 40t98.5 113t35 173
t-35 173t-98.5 113t-151.5 40zM501 779v-14h-288v14h288zM289 1008l75 -148h-15l-78 148h18z" />
    <glyph glyph-name="uni1E51" unicode="&#x1e51;" horiz-adv-x="569" 
d="M285 510q69 0 121.5 -31t82 -89.5t29.5 -139.5t-29.5 -139.5t-82 -89.5t-121.5 -31t-121.5 31t-82.5 89.5t-30 139.5t30 139.5t82.5 89.5t121.5 31zM285 496q-64 0 -113 -29.5t-77 -84.5t-28 -132q0 -76 28 -131.5t77 -85t113 -29.5t113 29.5t76.5 85t27.5 131.5
q0 77 -27.5 132t-76.5 84.5t-113 29.5zM429 615v-14h-288v14h288zM217 844l75 -148h-15l-78 148h18z" />
    <glyph glyph-name="uni1E52" unicode="&#x1e52;" horiz-adv-x="714" 
d="M357 670q93 0 160.5 -41.5t104 -117.5t36.5 -181t-36.5 -181t-104 -117.5t-160.5 -41.5q-92 0 -160 41.5t-104.5 117.5t-36.5 181t36.5 181t104.5 117.5t160 41.5zM357 656q-87 0 -151 -40t-99 -113t-35 -173t35 -173t99 -113t151 -40q88 0 151.5 40t98.5 113t35 173
t-35 173t-98.5 113t-151.5 40zM501 779v-14h-288v14h288zM426 1008h18l-78 -148h-15z" />
    <glyph glyph-name="uni1E53" unicode="&#x1e53;" horiz-adv-x="569" 
d="M285 510q69 0 121.5 -31t82 -89.5t29.5 -139.5t-29.5 -139.5t-82 -89.5t-121.5 -31t-121.5 31t-82.5 89.5t-30 139.5t30 139.5t82.5 89.5t121.5 31zM285 496q-64 0 -113 -29.5t-77 -84.5t-28 -132q0 -76 28 -131.5t77 -85t113 -29.5t113 29.5t76.5 85t27.5 131.5
q0 77 -27.5 132t-76.5 84.5t-113 29.5zM429 615v-14h-288v14h288zM354 844h18l-78 -148h-15z" />
    <glyph glyph-name="uni1E5A" unicode="&#x1e5a;" horiz-adv-x="611" 
d="M338 660q97 0 153 -48t56 -132t-56 -132t-153 -48h-3h-220v-300h-16v660h239zM338 314q91 0 142 44t51 122t-51 122t-142 44h-223v-332h223zM369 314l207 -314h-18l-202 304zM346 -98q10 0 16 -6t6 -16t-6 -16t-16 -6t-16 6t-6 16t6 16t16 6z" />
    <glyph glyph-name="uni1E5B" unicode="&#x1e5b;" horiz-adv-x="343" 
d="M85 0v500h16v-130q17 59 60 99.5t104 40.5q27 0 44 -6.5t27 -17.5l-9 -12q-10 10 -23 16t-41 6q-46 0 -83 -29.5t-58 -76.5t-21 -99v-291h-16zM93 -98q10 0 16 -6t6 -16t-6 -16t-16 -6t-16 6t-6 16t6 16t16 6z" />
    <glyph glyph-name="uni1E5E" unicode="&#x1e5e;" horiz-adv-x="611" 
d="M338 660q97 0 153 -48t56 -132t-56 -132t-153 -48h-3h-220v-300h-16v660h239zM338 314q91 0 142 44t51 122t-51 122t-142 44h-223v-332h223zM369 314l207 -314h-18l-202 304zM490 -105v-14h-288v14h288z" />
    <glyph glyph-name="uni1E5F" unicode="&#x1e5f;" horiz-adv-x="343" 
d="M85 0v500h16v-130q17 59 60 99.5t104 40.5q27 0 44 -6.5t27 -17.5l-9 -12q-10 10 -23 16t-41 6q-46 0 -83 -29.5t-58 -76.5t-21 -99v-291h-16zM188.59 -105v-14h-191.18v14h191.18z" />
    <glyph glyph-name="uni1E60" unicode="&#x1e60;" horiz-adv-x="594" 
d="M295 670q94 0 156 -36.5t85 -116.5l-13 -10q-20 77 -79 113t-149 36q-66 0 -114.5 -22t-75.5 -59t-27 -83q0 -58 39 -93t135 -55l115 -24q98 -20 139.5 -56t41.5 -97q0 -53 -30.5 -93t-84 -62t-124.5 -22q-69 0 -125.5 19t-93.5 58t-48 99l15 8q9 -58 44 -96t89 -56
t119 -18q62 0 112.5 18.5t80.5 55t30 89.5t-39.5 86t-132.5 52l-115 24q-66 14 -106 35.5t-58.5 52.5t-18.5 75q0 47 28 87.5t80 65.5t125 25zM290 802q10 0 16 -6t6 -16t-6 -16t-16 -6t-16 6t-6 16t6 16t16 6z" />
    <glyph glyph-name="uni1E61" unicode="&#x1e61;" horiz-adv-x="479" 
d="M240 -10q-78 0 -133.5 30.5t-69.5 90.5l15 7q13 -56 64 -85t127 -29q80 0 126.5 32.5t46.5 87.5q0 38 -24.5 64t-90.5 40l-114 25q-69 15 -98.5 46.5t-29.5 74.5q0 39 24 69.5t66 48.5t95 18q77 0 124 -30t61 -95l-14 -8q-13 62 -56.5 90.5t-114.5 28.5q-49 0 -87 -15.5
t-60 -42t-22 -60.5q0 -38 25.5 -66.5t87.5 -42.5l116 -26q71 -16 99.5 -45t28.5 -74q0 -41 -23.5 -71.5t-66.5 -46.5t-102 -16zM239 642q10 0 16 -6t6 -16t-6 -16t-16 -6t-16 6t-6 16t6 16t16 6z" />
    <glyph glyph-name="uni1E62" unicode="&#x1e62;" horiz-adv-x="594" 
d="M295 670q94 0 156 -36.5t85 -116.5l-13 -10q-20 77 -79 113t-149 36q-66 0 -114.5 -22t-75.5 -59t-27 -83q0 -58 39 -93t135 -55l115 -24q98 -20 139.5 -56t41.5 -97q0 -53 -30.5 -93t-84 -62t-124.5 -22q-69 0 -125.5 19t-93.5 58t-48 99l15 8q9 -58 44 -96t89 -56
t119 -18q62 0 112.5 18.5t80.5 55t30 89.5t-39.5 86t-132.5 52l-115 24q-66 14 -106 35.5t-58.5 52.5t-18.5 75q0 47 28 87.5t80 65.5t125 25zM308 -98q10 0 16 -6t6 -16t-6 -16t-16 -6t-16 6t-6 16t6 16t16 6z" />
    <glyph glyph-name="uni1E63" unicode="&#x1e63;" horiz-adv-x="479" 
d="M240 -10q-78 0 -133.5 30.5t-69.5 90.5l15 7q13 -56 64 -85t127 -29q80 0 126.5 32.5t46.5 87.5q0 38 -24.5 64t-90.5 40l-114 25q-69 15 -98.5 46.5t-29.5 74.5q0 39 24 69.5t66 48.5t95 18q77 0 124 -30t61 -95l-14 -8q-13 62 -56.5 90.5t-114.5 28.5q-49 0 -87 -15.5
t-60 -42t-22 -60.5q0 -38 25.5 -66.5t87.5 -42.5l116 -26q71 -16 99.5 -45t28.5 -74q0 -41 -23.5 -71.5t-66.5 -46.5t-102 -16zM247 -98q10 0 16 -6t6 -16t-6 -16t-16 -6t-16 6t-6 16t6 16t16 6z" />
    <glyph glyph-name="uni1E64" unicode="&#x1e64;" horiz-adv-x="594" 
d="M295 670q94 0 156 -36.5t85 -116.5l-13 -10q-20 77 -79 113t-149 36q-66 0 -114.5 -22t-75.5 -59t-27 -83q0 -58 39 -93t135 -55l115 -24q98 -20 139.5 -56t41.5 -97q0 -53 -30.5 -93t-84 -62t-124.5 -22q-69 0 -125.5 19t-93.5 58t-48 99l15 8q9 -58 44 -96t89 -56
t119 -18q62 0 112.5 18.5t80.5 55t30 89.5t-39.5 86t-132.5 52l-115 24q-66 14 -106 35.5t-58.5 52.5t-18.5 75q0 47 28 87.5t80 65.5t125 25zM359 891h18l-78 -148h-15zM290 974q10 0 16 -6t6 -16t-6 -16t-16 -6t-16 6t-6 16t6 16t16 6z" />
    <glyph glyph-name="uni1E65" unicode="&#x1e65;" horiz-adv-x="479" 
d="M240 -10q-78 0 -133.5 30.5t-69.5 90.5l15 7q13 -56 64 -85t127 -29q80 0 126.5 32.5t46.5 87.5q0 38 -24.5 64t-90.5 40l-114 25q-69 15 -98.5 46.5t-29.5 74.5q0 39 24 69.5t66 48.5t95 18q77 0 124 -30t61 -95l-14 -8q-13 62 -56.5 90.5t-114.5 28.5q-49 0 -87 -15.5
t-60 -42t-22 -60.5q0 -38 25.5 -66.5t87.5 -42.5l116 -26q71 -16 99.5 -45t28.5 -74q0 -41 -23.5 -71.5t-66.5 -46.5t-102 -16zM317 730h18l-88 -147h-15zM239 803q10 0 16 -6t6 -16t-6 -16t-16 -6t-16 6t-6 16t6 16t16 6z" />
    <glyph glyph-name="uni1E66" unicode="&#x1e66;" horiz-adv-x="594" 
d="M295 670q94 0 156 -36.5t85 -116.5l-13 -10q-20 77 -79 113t-149 36q-66 0 -114.5 -22t-75.5 -59t-27 -83q0 -58 39 -93t135 -55l115 -24q98 -20 139.5 -56t41.5 -97q0 -53 -30.5 -93t-84 -62t-124.5 -22q-69 0 -125.5 19t-93.5 58t-48 99l15 8q9 -58 44 -96t89 -56
t119 -18q62 0 112.5 18.5t80.5 55t30 89.5t-39.5 86t-132.5 52l-115 24q-66 14 -106 35.5t-58.5 52.5t-18.5 75q0 47 28 87.5t80 65.5t125 25zM409 885l-109 -142h-20l-109 142h17l102 -129l102 129h17zM290 966q10 0 16 -6t6 -16t-6 -16t-16 -6t-16 6t-6 16t6 16t16 6z" />
    <glyph glyph-name="uni1E67" unicode="&#x1e67;" horiz-adv-x="479" 
d="M240 -10q-78 0 -133.5 30.5t-69.5 90.5l15 7q13 -56 64 -85t127 -29q80 0 126.5 32.5t46.5 87.5q0 38 -24.5 64t-90.5 40l-114 25q-69 15 -98.5 46.5t-29.5 74.5q0 39 24 69.5t66 48.5t95 18q77 0 124 -30t61 -95l-14 -8q-13 62 -56.5 90.5t-114.5 28.5q-49 0 -87 -15.5
t-60 -42t-22 -60.5q0 -38 25.5 -66.5t87.5 -42.5l116 -26q71 -16 99.5 -45t28.5 -74q0 -41 -23.5 -71.5t-66.5 -46.5t-102 -16zM356 725l-108 -142h-18l-108 142h17l100 -129l100 129h17zM239 814q10 0 16 -6t6 -16t-6 -16t-16 -6t-16 6t-6 16t6 16t16 6z" />
    <glyph glyph-name="uni1E68" unicode="&#x1e68;" horiz-adv-x="594" 
d="M295 670q94 0 156 -36.5t85 -116.5l-13 -10q-20 77 -79 113t-149 36q-66 0 -114.5 -22t-75.5 -59t-27 -83q0 -58 39 -93t135 -55l115 -24q98 -20 139.5 -56t41.5 -97q0 -53 -30.5 -93t-84 -62t-124.5 -22q-69 0 -125.5 19t-93.5 58t-48 99l15 8q9 -58 44 -96t89 -56
t119 -18q62 0 112.5 18.5t80.5 55t30 89.5t-39.5 86t-132.5 52l-115 24q-66 14 -106 35.5t-58.5 52.5t-18.5 75q0 47 28 87.5t80 65.5t125 25zM290 802q10 0 16 -6t6 -16t-6 -16t-16 -6t-16 6t-6 16t6 16t16 6zM308 -98q10 0 16 -6t6 -16t-6 -16t-16 -6t-16 6t-6 16t6 16
t16 6z" />
    <glyph glyph-name="uni1E69" unicode="&#x1e69;" horiz-adv-x="479" 
d="M240 -10q-78 0 -133.5 30.5t-69.5 90.5l15 7q13 -56 64 -85t127 -29q80 0 126.5 32.5t46.5 87.5q0 38 -24.5 64t-90.5 40l-114 25q-69 15 -98.5 46.5t-29.5 74.5q0 39 24 69.5t66 48.5t95 18q77 0 124 -30t61 -95l-14 -8q-13 62 -56.5 90.5t-114.5 28.5q-49 0 -87 -15.5
t-60 -42t-22 -60.5q0 -38 25.5 -66.5t87.5 -42.5l116 -26q71 -16 99.5 -45t28.5 -74q0 -41 -23.5 -71.5t-66.5 -46.5t-102 -16zM239 642q10 0 16 -6t6 -16t-6 -16t-16 -6t-16 6t-6 16t6 16t16 6zM247 -98q10 0 16 -6t6 -16t-6 -16t-16 -6t-16 6t-6 16t6 16t16 6z" />
    <glyph glyph-name="uni1E6C" unicode="&#x1e6c;" horiz-adv-x="544" 
d="M533 660v-14h-253v-646h-16v646h-253v14h522zM272 -98q10 0 16 -6t6 -16t-6 -16t-16 -6t-16 6t-6 16t6 16t16 6z" />
    <glyph glyph-name="uni1E6D" unicode="&#x1e6d;" horiz-adv-x="329" 
d="M127 635v-509q0 -60 25 -91t79 -31q26 0 48 9t40 28l8 -13q-15 -16 -40.5 -27t-55.5 -11q-40 0 -67 15.5t-40 46t-13 74.5v504zM320 500v-14h-309v14h309zM220 -98q10 0 16 -6t6 -16t-6 -16t-16 -6t-16 6t-6 16t6 16t16 6z" />
    <glyph glyph-name="uni1E6E" unicode="&#x1e6e;" horiz-adv-x="544" 
d="M533 660v-14h-253v-646h-16v646h-253v14h522zM416 -105v-14h-288v14h288z" />
    <glyph glyph-name="uni1E6F" unicode="&#x1e6f;" horiz-adv-x="329" 
d="M127 635v-509q0 -60 25 -91t79 -31q26 0 48 9t40 28l8 -13q-15 -16 -40.5 -27t-55.5 -11q-40 0 -67 15.5t-40 46t-13 74.5v504zM320 500v-14h-309v14h309zM364 -105v-14h-288v14h288z" />
    <glyph glyph-name="uni1E78" unicode="&#x1e78;" horiz-adv-x="664" 
d="M581 660v-425q0 -118 -66 -181.5t-183 -63.5t-183 63.5t-66 181.5v425h16v-425q0 -110 62 -170.5t171 -60.5q110 0 171.5 60.5t61.5 170.5v425h16zM491 803q-5 -28 -16.5 -47t-28 -28t-38.5 -9q-26 0 -44.5 10.5t-34 24t-31.5 24t-37 10.5q-29 0 -46 -18t-25 -52h-15
q8 43 31.5 63.5t55.5 20.5q24 0 42 -10.5t33.5 -24t32 -24t38.5 -10.5q30 0 45.5 18t22.5 52h15zM401 1010h18l-78 -148h-15z" />
    <glyph glyph-name="uni1E79" unicode="&#x1e79;" horiz-adv-x="564" 
d="M254 -10q-55 0 -94.5 20.5t-60 60.5t-20.5 96v333h16v-331q0 -79 42.5 -122t119.5 -43q54 0 93 19t64 49t37 63t12 61v304h16v-500h-16v133q-17 -61 -73 -102t-136 -41zM439 663q-5 -28 -16.5 -47t-28 -28t-38.5 -9q-26 0 -44.5 10.5t-34 24t-31.5 24t-37 10.5
q-29 0 -46 -18t-25 -52h-15q8 43 31.5 63.5t55.5 20.5q24 0 42 -10.5t33.5 -24t32 -24t38.5 -10.5q30 0 45.5 18t22.5 52h15zM349 870h18l-78 -148h-15z" />
    <glyph glyph-name="uni1E7A" unicode="&#x1e7a;" horiz-adv-x="664" 
d="M581 660v-425q0 -118 -66 -181.5t-183 -63.5t-183 63.5t-66 181.5v425h16v-425q0 -110 62 -170.5t171 -60.5q110 0 171.5 60.5t61.5 170.5v425h16zM476 739v-14h-288v14h288zM239 879q10 0 16 -6t6 -16t-6 -16t-16 -6t-16 6t-6 16t6 16t16 6zM423 879q10 0 16 -6t6 -16
t-6 -16t-16 -6t-16 6t-6 16t6 16t16 6z" />
    <glyph glyph-name="uni1E7B" unicode="&#x1e7b;" horiz-adv-x="564" 
d="M254 -10q-55 0 -94.5 20.5t-60 60.5t-20.5 96v333h16v-331q0 -79 42.5 -122t119.5 -43q54 0 93 19t64 49t37 63t12 61v304h16v-500h-16v133q-17 -61 -73 -102t-136 -41zM424 599v-14h-288v14h288zM187 739q10 0 16 -6t6 -16t-6 -16t-16 -6t-16 6t-6 16t6 16t16 6z
M371 739q10 0 16 -6t6 -16t-6 -16t-16 -6t-16 6t-6 16t6 16t16 6z" />
    <glyph glyph-name="Wgrave" unicode="&#x1e80;" horiz-adv-x="909" 
d="M241 0l-218 660h17l212 -644l192 644h21l192 -644l212 644h17l-218 -660h-21l-151 502l-41 136h-1l-40 -136l-152 -502h-21zM387 891l75 -148h-15l-78 148h18z" />
    <glyph glyph-name="wgrave" unicode="&#x1e81;" horiz-adv-x="779" 
d="M733 500h17l-166 -500h-16l-178 477l-179 -477h-16l-166 500h17l157 -477l178 477h17l178 -477zM316 730l85 -147h-15l-88 147h18z" />
    <glyph glyph-name="Wacute" unicode="&#x1e82;" horiz-adv-x="909" 
d="M241 0l-218 660h17l212 -644l192 644h21l192 -644l212 644h17l-218 -660h-21l-151 502l-41 136h-1l-40 -136l-152 -502h-21zM524 891h18l-78 -148h-15z" />
    <glyph glyph-name="wacute" unicode="&#x1e83;" horiz-adv-x="779" 
d="M733 500h17l-166 -500h-16l-178 477l-179 -477h-16l-166 500h17l157 -477l178 477h17l178 -477zM468 730h18l-88 -147h-15z" />
    <glyph glyph-name="Wdieresis" unicode="&#x1e84;" horiz-adv-x="909" 
d="M241 0l-218 660h17l212 -644l192 644h21l192 -644l212 644h17l-218 -660h-21l-151 502l-41 136h-1l-40 -136l-152 -502h-21zM362 802q10 0 16 -6t6 -16t-6 -16t-16 -6t-16 6t-6 16t6 16t16 6zM546 802q10 0 16 -6t6 -16t-6 -16t-16 -6t-16 6t-6 16t6 16t16 6z" />
    <glyph glyph-name="wdieresis" unicode="&#x1e85;" horiz-adv-x="779" 
d="M733 500h17l-166 -500h-16l-178 477l-179 -477h-16l-166 500h17l157 -477l178 477h17l178 -477zM297 642q10 0 16 -6t6 -16t-6 -16t-16 -6t-16 6t-6 16t6 16t16 6zM481 642q10 0 16 -6t6 -16t-6 -16t-16 -6t-16 6t-6 16t6 16t16 6z" />
    <glyph glyph-name="uni1E8E" unicode="&#x1e8e;" horiz-adv-x="512" 
d="M496 660l-232 -404v-256h-16v256l-232 404h19l129 -226l92 -161l92 161l129 226h19zM256 762q10 0 16 -6t6 -16t-6 -16t-16 -6t-16 6t-6 16t6 16t16 6z" />
    <glyph glyph-name="uni1E8F" unicode="&#x1e8f;" horiz-adv-x="481" 
d="M459 500l-249 -601q-18 -43 -37.5 -68t-43.5 -35.5t-55 -10.5q-26 0 -46.5 8t-31.5 24l9 13q11 -17 30 -24t40 -7q39 0 67 21.5t53 81.5l40 97l-55 129l-158 372h18l185 -440l18 -42l17 43l181 439h18zM244 622q10 0 16 -6t6 -16t-6 -16t-16 -6t-16 6t-6 16t6 16t16 6z
" />
    <glyph glyph-name="uni1E92" unicode="&#x1e92;" horiz-adv-x="552" 
d="M43 8l-3 6h488v-14h-499v14l465 638l3 -6h-461v14h472v-14zM277 -98q10 0 16 -6t6 -16t-6 -16t-16 -6t-16 6t-6 16t6 16t16 6z" />
    <glyph glyph-name="uni1E93" unicode="&#x1e93;" horiz-adv-x="472" 
d="M39 0v14l331 423l40 49h-68h-311v14h398v-14l-312 -403l-57 -69h82h303v-14h-406zM237 -98q10 0 16 -6t6 -16t-6 -16t-16 -6t-16 6t-6 16t6 16t16 6z" />
    <glyph glyph-name="uni1E97" unicode="&#x1e97;" horiz-adv-x="329" 
d="M127 635v-509q0 -60 25 -91t79 -31q26 0 48 9t40 28l8 -13q-15 -16 -40.5 -27t-55.5 -11q-40 0 -67 15.5t-40 46t-13 74.5v504zM320 500v-14h-309v14h309zM26 744q10 0 16 -6t6 -16t-6 -16t-16 -6t-16 6t-6 16t6 16t16 6zM210 744q10 0 16 -6t6 -16t-6 -16t-16 -6t-16 6
t-6 16t6 16t16 6z" />
    <glyph glyph-name="uni1E9E" unicode="&#x1e9e;" horiz-adv-x="616" 
d="M400 -5q-61 0 -100 19.5t-56 40.5l11 12q18 -21 54 -39.5t91 -18.5q51 0 88.5 22.5t58 60.5t20.5 84q0 79 -43.5 116.5t-132.5 37.5h-104v14l243 302h-231q-61 0 -105 -26t-67.5 -71.5t-23.5 -106.5v-442h-16v443q0 65 25.5 114t73 76t113.5 27h249v-15l-243 -301h-5h91
q64 0 106.5 -18t64 -55.5t21.5 -94.5q0 -50 -22 -91t-62.5 -65.5t-98.5 -24.5z" />
    <glyph glyph-name="uni1EA0" unicode="&#x1ea0;" horiz-adv-x="586" 
d="M12 0l272 660h18l272 -660h-17l-247 596l-17 46v0l-17 -45l-247 -597h-17zM118 234v14h349v-14h-349zM293 -98q10 0 16 -6t6 -16t-6 -16t-16 -6t-16 6t-6 16t6 16t16 6z" />
    <glyph glyph-name="uni1EA1" unicode="&#x1ea1;" horiz-adv-x="517" 
d="M407 336q0 74 -41 117t-118 43q-63 0 -109.5 -27.5t-69.5 -90.5l-13 10q23 62 72.5 92t119.5 30q56 0 95 -20.5t59.5 -59.5t20.5 -94v-258q0 -72 59 -72q22 0 34 8l-1 -14q-14 -8 -36 -8q-15 0 -32 7t-28.5 26.5t-11.5 58.5v46l7 6q-7 -49 -38.5 -81.5t-76 -48.5
t-90.5 -16q-50 0 -86 14.5t-55 41.5t-19 66q0 56 37.5 88t106.5 45l217 42v-14l-206 -40q-70 -13 -104.5 -42.5t-34.5 -76.5q0 -53 37.5 -81.5t108.5 -28.5q30 0 63.5 9t64 28.5t49.5 50t19 73.5v171zM242 -98q10 0 16 -6t6 -16t-6 -16t-16 -6t-16 6t-6 16t6 16t16 6z" />
    <glyph glyph-name="uni1EA2" unicode="&#x1ea2;" horiz-adv-x="586" 
d="M12 0l272 660h18l272 -660h-17l-247 596l-17 46v0l-17 -45l-247 -597h-17zM118 234v14h349v-14h-349zM295 716l-8 11q30 17 43 34.5t13 39.5q0 20 -13.5 31.5t-33.5 11.5q-22 0 -35 -11.5t-18 -25.5l-14 7q8 21 26 33.5t41 12.5q18 0 32 -7t22.5 -20t8.5 -30
q0 -20 -7.5 -35.5t-22 -27.5t-34.5 -24z" />
    <glyph glyph-name="uni1EA3" unicode="&#x1ea3;" horiz-adv-x="517" 
d="M407 336q0 74 -41 117t-118 43q-63 0 -109.5 -27.5t-69.5 -90.5l-13 10q23 62 72.5 92t119.5 30q56 0 95 -20.5t59.5 -59.5t20.5 -94v-258q0 -72 59 -72q22 0 34 8l-1 -14q-14 -8 -36 -8q-15 0 -32 7t-28.5 26.5t-11.5 58.5v46l7 6q-7 -49 -38.5 -81.5t-76 -48.5
t-90.5 -16q-50 0 -86 14.5t-55 41.5t-19 66q0 56 37.5 88t106.5 45l217 42v-14l-206 -40q-70 -13 -104.5 -42.5t-34.5 -76.5q0 -53 37.5 -81.5t108.5 -28.5q30 0 63.5 9t64 28.5t49.5 50t19 73.5v171zM242 572l-7 10q30 20 44 39t14 44q0 22 -12.5 34.5t-35.5 12.5
q-22 0 -35 -12.5t-20 -26.5l-14 9q5 14 21.5 30t47.5 16q20 0 34.5 -7.5t22.5 -21t8 -31.5q0 -22 -8 -38.5t-23 -29.5t-37 -28z" />
    <glyph glyph-name="uni1EA4" unicode="&#x1ea4;" horiz-adv-x="586" 
d="M410 743h-17l-100 129l-100 -129h-17l108 142h18zM452 988h16l-70 -133h-13zM12 0l272 660h18l272 -660h-17l-247 596l-17 46v0l-17 -45l-247 -597h-17zM118 234v14h349v-14h-349z" />
    <glyph glyph-name="uni1EA5" unicode="&#x1ea5;" horiz-adv-x="517" 
d="M359 583h-17l-100 129l-100 -129h-17l108 142h18zM401 828h16l-70 -133h-13zM407 336q0 74 -41 117t-118 43q-63 0 -109.5 -27.5t-69.5 -90.5l-13 10q23 62 72.5 92t119.5 30q56 0 95 -20.5t59.5 -59.5t20.5 -94v-258q0 -72 59 -72q22 0 34 8l-1 -14q-14 -8 -36 -8
q-15 0 -32 7t-28.5 26.5t-11.5 58.5v46l7 6q-7 -49 -38.5 -81.5t-76 -48.5t-90.5 -16q-50 0 -86 14.5t-55 41.5t-19 66q0 56 37.5 88t106.5 45l217 42v-14l-206 -40q-70 -13 -104.5 -42.5t-34.5 -76.5q0 -53 37.5 -81.5t108.5 -28.5q30 0 63.5 9t64 28.5t49.5 50t19 73.5
v171z" />
    <glyph glyph-name="uni1EA6" unicode="&#x1ea6;" horiz-adv-x="586" 
d="M410 743h-17l-100 129l-100 -129h-17l108 142h18zM346 988l67 -133h-13l-70 133h16zM12 0l272 660h18l272 -660h-17l-247 596l-17 46v0l-17 -45l-247 -597h-17zM118 234v14h349v-14h-349z" />
    <glyph glyph-name="uni1EA7" unicode="&#x1ea7;" horiz-adv-x="517" 
d="M359 583h-17l-100 129l-100 -129h-17l108 142h18zM295 828l67 -133h-13l-70 133h16zM407 336q0 74 -41 117t-118 43q-63 0 -109.5 -27.5t-69.5 -90.5l-13 10q23 62 72.5 92t119.5 30q56 0 95 -20.5t59.5 -59.5t20.5 -94v-258q0 -72 59 -72q22 0 34 8l-1 -14
q-14 -8 -36 -8q-15 0 -32 7t-28.5 26.5t-11.5 58.5v46l7 6q-7 -49 -38.5 -81.5t-76 -48.5t-90.5 -16q-50 0 -86 14.5t-55 41.5t-19 66q0 56 37.5 88t106.5 45l217 42v-14l-206 -40q-70 -13 -104.5 -42.5t-34.5 -76.5q0 -53 37.5 -81.5t108.5 -28.5q30 0 63.5 9t64 28.5
t49.5 50t19 73.5v171z" />
    <glyph glyph-name="uni1EA8" unicode="&#x1ea8;" horiz-adv-x="586" 
d="M410 743h-17l-100 129l-100 -129h-17l108 142h18zM391 836l-8 11q30 17 43 34.5t13 39.5q0 20 -13.5 31.5t-33.5 11.5q-22 0 -35 -11.5t-18 -25.5l-14 7q8 21 26 33.5t41 12.5q18 0 32 -7t22.5 -20t8.5 -30q0 -20 -7.5 -35.5t-22 -27.5t-34.5 -24zM12 0l272 660h18
l272 -660h-17l-247 596l-17 46v0l-17 -45l-247 -597h-17zM118 234v14h349v-14h-349z" />
    <glyph glyph-name="uni1EA9" unicode="&#x1ea9;" horiz-adv-x="517" 
d="M359 583h-17l-100 129l-100 -129h-17l108 142h18zM340 676l-8 11q30 17 43 34.5t13 39.5q0 20 -13.5 31.5t-33.5 11.5q-22 0 -35 -11.5t-18 -25.5l-14 7q8 21 26 33.5t41 12.5q18 0 32 -7t22.5 -20t8.5 -30q0 -20 -7.5 -35.5t-22 -27.5t-34.5 -24zM407 336q0 74 -41 117
t-118 43q-63 0 -109.5 -27.5t-69.5 -90.5l-13 10q23 62 72.5 92t119.5 30q56 0 95 -20.5t59.5 -59.5t20.5 -94v-258q0 -72 59 -72q22 0 34 8l-1 -14q-14 -8 -36 -8q-15 0 -32 7t-28.5 26.5t-11.5 58.5v46l7 6q-7 -49 -38.5 -81.5t-76 -48.5t-90.5 -16q-50 0 -86 14.5
t-55 41.5t-19 66q0 56 37.5 88t106.5 45l217 42v-14l-206 -40q-70 -13 -104.5 -42.5t-34.5 -76.5q0 -53 37.5 -81.5t108.5 -28.5q30 0 63.5 9t64 28.5t49.5 50t19 73.5v171z" />
    <glyph glyph-name="uni1EAA" unicode="&#x1eaa;" horiz-adv-x="586" 
d="M410 743h-17l-100 129l-100 -129h-17l108 142h18zM443 993q-8 -43 -28 -62.5t-52 -19.5q-28 0 -44.5 10.5t-29 24t-27 24t-38.5 10.5q-28 0 -42 -17t-22 -51h-15q8 43 28.5 62.5t51.5 19.5q27 0 43.5 -10.5t29 -24t27 -24t38.5 -10.5q29 0 43.5 17t21.5 51h15zM12 0
l272 660h18l272 -660h-17l-247 596l-17 46v0l-17 -45l-247 -597h-17zM118 234v14h349v-14h-349z" />
    <glyph glyph-name="uni1EAB" unicode="&#x1eab;" horiz-adv-x="517" 
d="M359 583h-17l-100 129l-100 -129h-17l108 142h18zM392 833q-8 -43 -28 -62.5t-52 -19.5q-28 0 -44.5 10.5t-29 24t-27 24t-38.5 10.5q-28 0 -42 -17t-22 -51h-15q8 43 28.5 62.5t51.5 19.5q27 0 43.5 -10.5t29 -24t27 -24t38.5 -10.5q29 0 43.5 17t21.5 51h15zM407 336
q0 74 -41 117t-118 43q-63 0 -109.5 -27.5t-69.5 -90.5l-13 10q23 62 72.5 92t119.5 30q56 0 95 -20.5t59.5 -59.5t20.5 -94v-258q0 -72 59 -72q22 0 34 8l-1 -14q-14 -8 -36 -8q-15 0 -32 7t-28.5 26.5t-11.5 58.5v46l7 6q-7 -49 -38.5 -81.5t-76 -48.5t-90.5 -16
q-50 0 -86 14.5t-55 41.5t-19 66q0 56 37.5 88t106.5 45l217 42v-14l-206 -40q-70 -13 -104.5 -42.5t-34.5 -76.5q0 -53 37.5 -81.5t108.5 -28.5q30 0 63.5 9t64 28.5t49.5 50t19 73.5v171z" />
    <glyph glyph-name="uni1EAC" unicode="&#x1eac;" horiz-adv-x="586" 
d="M12 0l272 660h18l272 -660h-17l-247 596l-17 46v0l-17 -45l-247 -597h-17zM118 234v14h349v-14h-349zM293 -98q10 0 16 -6t6 -16t-6 -16t-16 -6t-16 6t-6 16t6 16t16 6zM412 743h-17l-102 129l-102 -129h-17l109 142h20z" />
    <glyph glyph-name="uni1EAD" unicode="&#x1ead;" horiz-adv-x="517" 
d="M407 336q0 74 -41 117t-118 43q-63 0 -109.5 -27.5t-69.5 -90.5l-13 10q23 62 72.5 92t119.5 30q56 0 95 -20.5t59.5 -59.5t20.5 -94v-258q0 -72 59 -72q22 0 34 8l-1 -14q-14 -8 -36 -8q-15 0 -32 7t-28.5 26.5t-11.5 58.5v46l7 6q-7 -49 -38.5 -81.5t-76 -48.5
t-90.5 -16q-50 0 -86 14.5t-55 41.5t-19 66q0 56 37.5 88t106.5 45l217 42v-14l-206 -40q-70 -13 -104.5 -42.5t-34.5 -76.5q0 -53 37.5 -81.5t108.5 -28.5q30 0 63.5 9t64 28.5t49.5 50t19 73.5v171zM242 -98q10 0 16 -6t6 -16t-6 -16t-16 -6t-16 6t-6 16t6 16t16 6z
M359 583h-17l-100 129l-100 -129h-17l108 142h18z" />
    <glyph glyph-name="uni1EAE" unicode="&#x1eae;" horiz-adv-x="586" 
d="M414 862q0 -57 -32 -89t-89 -32t-89 32t-32 89h14q0 -49 28 -78t79 -29t79 29t28 78h14zM287 863l63 137h16l-65 -137h-14zM12 0l272 660h18l272 -660h-17l-247 596l-17 46v0l-17 -45l-247 -597h-17zM118 234v14h349v-14h-349z" />
    <glyph glyph-name="uni1EAF" unicode="&#x1eaf;" horiz-adv-x="517" 
d="M363 702q0 -57 -32 -89t-89 -32t-89 32t-32 89h14q0 -49 28 -78t79 -29t79 29t28 78h14zM236 703l63 137h16l-65 -137h-14zM407 336q0 74 -41 117t-118 43q-63 0 -109.5 -27.5t-69.5 -90.5l-13 10q23 62 72.5 92t119.5 30q56 0 95 -20.5t59.5 -59.5t20.5 -94v-258
q0 -72 59 -72q22 0 34 8l-1 -14q-14 -8 -36 -8q-15 0 -32 7t-28.5 26.5t-11.5 58.5v46l7 6q-7 -49 -38.5 -81.5t-76 -48.5t-90.5 -16q-50 0 -86 14.5t-55 41.5t-19 66q0 56 37.5 88t106.5 45l217 42v-14l-206 -40q-70 -13 -104.5 -42.5t-34.5 -76.5q0 -53 37.5 -81.5
t108.5 -28.5q30 0 63.5 9t64 28.5t49.5 50t19 73.5v171z" />
    <glyph glyph-name="uni1EB0" unicode="&#x1eb0;" horiz-adv-x="586" 
d="M414 862q0 -57 -32 -89t-89 -32t-89 32t-32 89h14q0 -49 28 -78t79 -29t79 29t28 78h14zM299 863h-14l-65 137h16zM12 0l272 660h18l272 -660h-17l-247 596l-17 46v0l-17 -45l-247 -597h-17zM118 234v14h349v-14h-349z" />
    <glyph glyph-name="uni1EB1" unicode="&#x1eb1;" horiz-adv-x="517" 
d="M363 702q0 -57 -32 -89t-89 -32t-89 32t-32 89h14q0 -49 28 -78t79 -29t79 29t28 78h14zM248 703h-14l-65 137h16zM407 336q0 74 -41 117t-118 43q-63 0 -109.5 -27.5t-69.5 -90.5l-13 10q23 62 72.5 92t119.5 30q56 0 95 -20.5t59.5 -59.5t20.5 -94v-258q0 -72 59 -72
q22 0 34 8l-1 -14q-14 -8 -36 -8q-15 0 -32 7t-28.5 26.5t-11.5 58.5v46l7 6q-7 -49 -38.5 -81.5t-76 -48.5t-90.5 -16q-50 0 -86 14.5t-55 41.5t-19 66q0 56 37.5 88t106.5 45l217 42v-14l-206 -40q-70 -13 -104.5 -42.5t-34.5 -76.5q0 -53 37.5 -81.5t108.5 -28.5
q30 0 63.5 9t64 28.5t49.5 50t19 73.5v171z" />
    <glyph glyph-name="uni1EB2" unicode="&#x1eb2;" horiz-adv-x="586" 
d="M414 862q0 -57 -32 -89t-89 -32t-89 32t-32 89h14q0 -49 28 -78t79 -29t79 29t28 78h14zM295 858l-8 11q30 17 43 34.5t13 39.5q0 20 -13.5 31.5t-33.5 11.5q-22 0 -35 -11.5t-18 -25.5l-14 7q8 21 26 33.5t41 12.5q18 0 32 -7t22.5 -20t8.5 -30q0 -20 -7.5 -35.5
t-22 -27.5t-34.5 -24zM12 0l272 660h18l272 -660h-17l-247 596l-17 46v0l-17 -45l-247 -597h-17zM118 234v14h349v-14h-349z" />
    <glyph glyph-name="uni1EB3" unicode="&#x1eb3;" horiz-adv-x="517" 
d="M363 702q0 -57 -32 -89t-89 -32t-89 32t-32 89h14q0 -49 28 -78t79 -29t79 29t28 78h14zM244 698l-8 11q30 17 43 34.5t13 39.5q0 20 -13.5 31.5t-33.5 11.5q-22 0 -35 -11.5t-18 -25.5l-14 7q8 21 26 33.5t41 12.5q18 0 32 -7t22.5 -20t8.5 -30q0 -20 -7.5 -35.5
t-22 -27.5t-34.5 -24zM407 336q0 74 -41 117t-118 43q-63 0 -109.5 -27.5t-69.5 -90.5l-13 10q23 62 72.5 92t119.5 30q56 0 95 -20.5t59.5 -59.5t20.5 -94v-258q0 -72 59 -72q22 0 34 8l-1 -14q-14 -8 -36 -8q-15 0 -32 7t-28.5 26.5t-11.5 58.5v46l7 6q-7 -49 -38.5 -81.5
t-76 -48.5t-90.5 -16q-50 0 -86 14.5t-55 41.5t-19 66q0 56 37.5 88t106.5 45l217 42v-14l-206 -40q-70 -13 -104.5 -42.5t-34.5 -76.5q0 -53 37.5 -81.5t108.5 -28.5q30 0 63.5 9t64 28.5t49.5 50t19 73.5v171z" />
    <glyph glyph-name="uni1EB4" unicode="&#x1eb4;" horiz-adv-x="586" 
d="M413 862q0 -57 -32 -89t-89 -32t-89 32t-32 89h14q0 -49 28 -78t79 -29t79 29t28 78h14zM442 983q-8 -43 -28 -62.5t-52 -19.5q-28 0 -44.5 10.5t-29 24t-27 24t-38.5 10.5q-28 0 -42 -17t-22 -51h-15q8 43 28.5 62.5t51.5 19.5q27 0 43.5 -10.5t29 -24t27 -24
t38.5 -10.5q29 0 43.5 17t21.5 51h15zM12 0l272 660h18l272 -660h-17l-247 596l-17 46v0l-17 -45l-247 -597h-17zM118 234v14h349v-14h-349z" />
    <glyph glyph-name="uni1EB5" unicode="&#x1eb5;" horiz-adv-x="517" 
d="M362 702q0 -57 -32 -89t-89 -32t-89 32t-32 89h14q0 -49 28 -78t79 -29t79 29t28 78h14zM391 823q-8 -43 -28 -62.5t-52 -19.5q-28 0 -44.5 10.5t-29 24t-27 24t-38.5 10.5q-28 0 -42 -17t-22 -51h-15q8 43 28.5 62.5t51.5 19.5q27 0 43.5 -10.5t29 -24t27 -24
t38.5 -10.5q29 0 43.5 17t21.5 51h15zM407 336q0 74 -41 117t-118 43q-63 0 -109.5 -27.5t-69.5 -90.5l-13 10q23 62 72.5 92t119.5 30q56 0 95 -20.5t59.5 -59.5t20.5 -94v-258q0 -72 59 -72q22 0 34 8l-1 -14q-14 -8 -36 -8q-15 0 -32 7t-28.5 26.5t-11.5 58.5v46l7 6
q-7 -49 -38.5 -81.5t-76 -48.5t-90.5 -16q-50 0 -86 14.5t-55 41.5t-19 66q0 56 37.5 88t106.5 45l217 42v-14l-206 -40q-70 -13 -104.5 -42.5t-34.5 -76.5q0 -53 37.5 -81.5t108.5 -28.5q30 0 63.5 9t64 28.5t49.5 50t19 73.5v171z" />
    <glyph glyph-name="uni1EB6" unicode="&#x1eb6;" horiz-adv-x="586" 
d="M12 0l272 660h18l272 -660h-17l-247 596l-17 46v0l-17 -45l-247 -597h-17zM118 234v14h349v-14h-349zM293 -98q10 0 16 -6t6 -16t-6 -16t-16 -6t-16 6t-6 16t6 16t16 6zM414 862q0 -57 -32 -89t-89 -32t-89 32t-32 89h14q0 -49 28 -78t79 -29t79 29t28 78h14z" />
    <glyph glyph-name="uni1EB7" unicode="&#x1eb7;" horiz-adv-x="517" 
d="M407 336q0 74 -41 117t-118 43q-63 0 -109.5 -27.5t-69.5 -90.5l-13 10q23 62 72.5 92t119.5 30q56 0 95 -20.5t59.5 -59.5t20.5 -94v-258q0 -72 59 -72q22 0 34 8l-1 -14q-14 -8 -36 -8q-15 0 -32 7t-28.5 26.5t-11.5 58.5v46l7 6q-7 -49 -38.5 -81.5t-76 -48.5
t-90.5 -16q-50 0 -86 14.5t-55 41.5t-19 66q0 56 37.5 88t106.5 45l217 42v-14l-206 -40q-70 -13 -104.5 -42.5t-34.5 -76.5q0 -53 37.5 -81.5t108.5 -28.5q30 0 63.5 9t64 28.5t49.5 50t19 73.5v171zM242 -98q10 0 16 -6t6 -16t-6 -16t-16 -6t-16 6t-6 16t6 16t16 6z
M363 702q0 -57 -32 -89t-89 -32t-89 32t-32 89h14q0 -49 28 -78t79 -29t79 29t28 78h14z" />
    <glyph glyph-name="uni1EB8" unicode="&#x1eb8;" horiz-adv-x="583" 
d="M99 0v660h437v-14h-421v-302h338v-14h-338v-316h438v-14h-454zM333 -98q10 0 16 -6t6 -16t-6 -16t-16 -6t-16 6t-6 16t6 16t16 6z" />
    <glyph glyph-name="uni1EB9" unicode="&#x1eb9;" horiz-adv-x="534" 
d="M283 -10q-66 0 -118.5 31t-83 89.5t-30.5 139.5q0 82 30 140t80.5 89t113.5 31q66 0 113 -30t72.5 -85.5t25.5 -132.5v-3v-4h-427v15h420l-7 -6q-1 103 -51.5 167.5t-145.5 64.5q-58 0 -105.5 -29.5t-75 -84.5t-27.5 -132t28 -132t77 -84.5t111 -29.5q61 0 111 30t75 82
l13 -7q-17 -37 -47 -63.5t-69 -41t-83 -14.5zM284 -98q10 0 16 -6t6 -16t-6 -16t-16 -6t-16 6t-6 16t6 16t16 6z" />
    <glyph glyph-name="uni1EBA" unicode="&#x1eba;" horiz-adv-x="583" 
d="M99 0v660h437v-14h-421v-302h338v-14h-338v-316h438v-14h-454zM320 716l-8 11q30 17 43 34.5t13 39.5q0 20 -13.5 31.5t-33.5 11.5q-22 0 -35 -11.5t-18 -25.5l-14 7q8 21 26 33.5t41 12.5q18 0 32 -7t22.5 -20t8.5 -30q0 -20 -7.5 -35.5t-22 -27.5t-34.5 -24z" />
    <glyph glyph-name="uni1EBB" unicode="&#x1ebb;" horiz-adv-x="534" 
d="M283 -10q-66 0 -118.5 31t-83 89.5t-30.5 139.5q0 82 30 140t80.5 89t113.5 31q66 0 113 -30t72.5 -85.5t25.5 -132.5v-3v-4h-427v15h420l-7 -6q-1 103 -51.5 167.5t-145.5 64.5q-58 0 -105.5 -29.5t-75 -84.5t-27.5 -132t28 -132t77 -84.5t111 -29.5q61 0 111 30t75 82
l13 -7q-17 -37 -47 -63.5t-69 -41t-83 -14.5zM271 572l-7 10q30 20 44 39t14 44q0 22 -12.5 34.5t-35.5 12.5q-22 0 -35 -12.5t-20 -26.5l-14 9q5 14 21.5 30t47.5 16q20 0 34.5 -7.5t22.5 -21t8 -31.5q0 -22 -8 -38.5t-23 -29.5t-37 -28z" />
    <glyph glyph-name="uni1EBC" unicode="&#x1ebc;" horiz-adv-x="583" 
d="M99 0v660h437v-14h-421v-302h338v-14h-338v-316h438v-14h-454zM477 843q-5 -28 -16.5 -47t-28 -28t-38.5 -9q-26 0 -44.5 10.5t-34 24t-31.5 24t-37 10.5q-29 0 -46 -18t-25 -52h-15q8 43 31.5 63.5t55.5 20.5q24 0 42 -10.5t33.5 -24t32 -24t38.5 -10.5q30 0 45.5 18
t22.5 52h15z" />
    <glyph glyph-name="uni1EBD" unicode="&#x1ebd;" horiz-adv-x="534" 
d="M283 -10q-66 0 -118.5 31t-83 89.5t-30.5 139.5q0 82 30 140t80.5 89t113.5 31q66 0 113 -30t72.5 -85.5t25.5 -132.5v-3v-4h-427v15h420l-7 -6q-1 103 -51.5 167.5t-145.5 64.5q-58 0 -105.5 -29.5t-75 -84.5t-27.5 -132t28 -132t77 -84.5t111 -29.5q61 0 111 30t75 82
l13 -7q-17 -37 -47 -63.5t-69 -41t-83 -14.5zM430 683q-5 -28 -16.5 -47t-28 -28t-38.5 -9q-26 0 -44.5 10.5t-34 24t-31.5 24t-37 10.5q-29 0 -46 -18t-25 -52h-15q8 43 31.5 63.5t55.5 20.5q24 0 42 -10.5t33.5 -24t32 -24t38.5 -10.5q30 0 45.5 18t22.5 52h15z" />
    <glyph glyph-name="uni1EBE" unicode="&#x1ebe;" horiz-adv-x="583" 
d="M435 743h-17l-100 129l-100 -129h-17l108 142h18zM477 988h16l-70 -133h-13zM99 0v660h437v-14h-421v-302h338v-14h-338v-316h438v-14h-454z" />
    <glyph glyph-name="uni1EBF" unicode="&#x1ebf;" horiz-adv-x="534" 
d="M430 828h16l-70 -133h-13zM388 583h-17l-100 129l-100 -129h-17l108 142h18zM283 -10q-66 0 -118.5 31t-83 89.5t-30.5 139.5q0 82 30 140t80.5 89t113.5 31q66 0 113 -30t72.5 -85.5t25.5 -132.5v-3v-4h-427v15h420l-7 -6q-1 103 -51.5 167.5t-145.5 64.5
q-58 0 -105.5 -29.5t-75 -84.5t-27.5 -132t28 -132t77 -84.5t111 -29.5q61 0 111 30t75 82l13 -7q-17 -37 -47 -63.5t-69 -41t-83 -14.5z" />
    <glyph glyph-name="uni1EC0" unicode="&#x1ec0;" horiz-adv-x="583" 
d="M435 743h-17l-100 129l-100 -129h-17l108 142h18zM371 988l67 -133h-13l-70 133h16zM99 0v660h437v-14h-421v-302h338v-14h-338v-316h438v-14h-454z" />
    <glyph glyph-name="uni1EC1" unicode="&#x1ec1;" horiz-adv-x="534" 
d="M324 828l67 -133h-13l-70 133h16zM388 583h-17l-100 129l-100 -129h-17l108 142h18zM283 -10q-66 0 -118.5 31t-83 89.5t-30.5 139.5q0 82 30 140t80.5 89t113.5 31q66 0 113 -30t72.5 -85.5t25.5 -132.5v-3v-4h-427v15h420l-7 -6q-1 103 -51.5 167.5t-145.5 64.5
q-58 0 -105.5 -29.5t-75 -84.5t-27.5 -132t28 -132t77 -84.5t111 -29.5q61 0 111 30t75 82l13 -7q-17 -37 -47 -63.5t-69 -41t-83 -14.5z" />
    <glyph glyph-name="uni1EC2" unicode="&#x1ec2;" horiz-adv-x="583" 
d="M435 743h-17l-100 129l-100 -129h-17l108 142h18zM416 836l-8 11q30 17 43 34.5t13 39.5q0 20 -13.5 31.5t-33.5 11.5q-22 0 -35 -11.5t-18 -25.5l-14 7q8 21 26 33.5t41 12.5q18 0 32 -7t22.5 -20t8.5 -30q0 -20 -7.5 -35.5t-22 -27.5t-34.5 -24zM99 0v660h437v-14h-421
v-302h338v-14h-338v-316h438v-14h-454z" />
    <glyph glyph-name="uni1EC3" unicode="&#x1ec3;" horiz-adv-x="534" 
d="M369 676l-8 11q30 17 43 34.5t13 39.5q0 20 -13.5 31.5t-33.5 11.5q-22 0 -35 -11.5t-18 -25.5l-14 7q8 21 26 33.5t41 12.5q18 0 32 -7t22.5 -20t8.5 -30q0 -20 -7.5 -35.5t-22 -27.5t-34.5 -24zM388 583h-17l-100 129l-100 -129h-17l108 142h18zM283 -10
q-66 0 -118.5 31t-83 89.5t-30.5 139.5q0 82 30 140t80.5 89t113.5 31q66 0 113 -30t72.5 -85.5t25.5 -132.5v-3v-4h-427v15h420l-7 -6q-1 103 -51.5 167.5t-145.5 64.5q-58 0 -105.5 -29.5t-75 -84.5t-27.5 -132t28 -132t77 -84.5t111 -29.5q61 0 111 30t75 82l13 -7
q-17 -37 -47 -63.5t-69 -41t-83 -14.5z" />
    <glyph glyph-name="uni1EC4" unicode="&#x1ec4;" horiz-adv-x="583" 
d="M435 743h-17l-100 129l-100 -129h-17l108 142h18zM468 993q-8 -43 -28 -62.5t-52 -19.5q-28 0 -44.5 10.5t-29 24t-27 24t-38.5 10.5q-28 0 -42 -17t-22 -51h-15q8 43 28.5 62.5t51.5 19.5q27 0 43.5 -10.5t29 -24t27 -24t38.5 -10.5q29 0 43.5 17t21.5 51h15zM99 0v660
h437v-14h-421v-302h338v-14h-338v-316h438v-14h-454z" />
    <glyph glyph-name="uni1EC5" unicode="&#x1ec5;" horiz-adv-x="534" 
d="M388 583h-17l-100 129l-100 -129h-17l108 142h18zM421 833q-8 -43 -28 -62.5t-52 -19.5q-28 0 -44.5 10.5t-29 24t-27 24t-38.5 10.5q-28 0 -42 -17t-22 -51h-15q8 43 28.5 62.5t51.5 19.5q27 0 43.5 -10.5t29 -24t27 -24t38.5 -10.5q29 0 43.5 17t21.5 51h15zM283 -10
q-66 0 -118.5 31t-83 89.5t-30.5 139.5q0 82 30 140t80.5 89t113.5 31q66 0 113 -30t72.5 -85.5t25.5 -132.5v-3v-4h-427v15h420l-7 -6q-1 103 -51.5 167.5t-145.5 64.5q-58 0 -105.5 -29.5t-75 -84.5t-27.5 -132t28 -132t77 -84.5t111 -29.5q61 0 111 30t75 82l13 -7
q-17 -37 -47 -63.5t-69 -41t-83 -14.5z" />
    <glyph glyph-name="uni1EC6" unicode="&#x1ec6;" horiz-adv-x="583" 
d="M99 0v660h437v-14h-421v-302h338v-14h-338v-316h438v-14h-454zM333 -98q10 0 16 -6t6 -16t-6 -16t-16 -6t-16 6t-6 16t6 16t16 6zM437 743h-17l-102 129l-102 -129h-17l109 142h20z" />
    <glyph glyph-name="uni1EC7" unicode="&#x1ec7;" horiz-adv-x="534" 
d="M283 -10q-66 0 -118.5 31t-83 89.5t-30.5 139.5q0 82 30 140t80.5 89t113.5 31q66 0 113 -30t72.5 -85.5t25.5 -132.5v-3v-4h-427v15h420l-7 -6q-1 103 -51.5 167.5t-145.5 64.5q-58 0 -105.5 -29.5t-75 -84.5t-27.5 -132t28 -132t77 -84.5t111 -29.5q61 0 111 30t75 82
l13 -7q-17 -37 -47 -63.5t-69 -41t-83 -14.5zM284 -98q10 0 16 -6t6 -16t-6 -16t-16 -6t-16 6t-6 16t6 16t16 6zM388 583h-17l-100 129l-100 -129h-17l108 142h18z" />
    <glyph glyph-name="uni1EC8" unicode="&#x1ec8;" horiz-adv-x="214" 
d="M115 660v-660h-16v660h16zM109 716l-8 11q30 17 43 34.5t13 39.5q0 20 -13.5 31.5t-33.5 11.5q-22 0 -35 -11.5t-18 -25.5l-14 7q8 21 26 33.5t41 12.5q18 0 32 -7t22.5 -20t8.5 -30q0 -20 -7.5 -35.5t-22 -27.5t-34.5 -24z" />
    <glyph glyph-name="uni1EC9" unicode="&#x1ec9;" horiz-adv-x="186" 
d="M101 500v-500h-16v500h16zM93 572l-7 10q30 20 44 39t14 44q0 22 -12.5 34.5t-35.5 12.5q-22 0 -35 -12.5t-20 -26.5l-14 9q5 14 21.5 30t47.5 16q20 0 34.5 -7.5t22.5 -21t8 -31.5q0 -22 -8 -38.5t-23 -29.5t-37 -28z" />
    <glyph glyph-name="uni1ECA" unicode="&#x1eca;" horiz-adv-x="214" 
d="M115 660v-660h-16v660h16zM107 -98q10 0 16 -6t6 -16t-6 -16t-16 -6t-16 6t-6 16t6 16t16 6z" />
    <glyph glyph-name="uni1ECB" unicode="&#x1ecb;" horiz-adv-x="186" 
d="M93 598q-10 0 -16 6t-6 16t6 16t16 6t16 -6t6 -16t-6 -16t-16 -6zM101 500v-500h-16v500h16zM93 -98q10 0 16 -6t6 -16t-6 -16t-16 -6t-16 6t-6 16t6 16t16 6z" />
    <glyph glyph-name="uni1ECC" unicode="&#x1ecc;" horiz-adv-x="714" 
d="M357 670q93 0 160.5 -41.5t104 -117.5t36.5 -181t-36.5 -181t-104 -117.5t-160.5 -41.5q-92 0 -160 41.5t-104.5 117.5t-36.5 181t36.5 181t104.5 117.5t160 41.5zM357 656q-87 0 -151 -40t-99 -113t-35 -173t35 -173t99 -113t151 -40q88 0 151.5 40t98.5 113t35 173
t-35 173t-98.5 113t-151.5 40zM357 -98q10 0 16 -6t6 -16t-6 -16t-16 -6t-16 6t-6 16t6 16t16 6z" />
    <glyph glyph-name="uni1ECD" unicode="&#x1ecd;" horiz-adv-x="569" 
d="M285 510q69 0 121.5 -31t82 -89.5t29.5 -139.5t-29.5 -139.5t-82 -89.5t-121.5 -31t-121.5 31t-82.5 89.5t-30 139.5t30 139.5t82.5 89.5t121.5 31zM285 496q-64 0 -113 -29.5t-77 -84.5t-28 -132q0 -76 28 -131.5t77 -85t113 -29.5t113 29.5t76.5 85t27.5 131.5
q0 77 -27.5 132t-76.5 84.5t-113 29.5zM285 -98q10 0 16 -6t6 -16t-6 -16t-16 -6t-16 6t-6 16t6 16t16 6z" />
    <glyph glyph-name="uni1ECE" unicode="&#x1ece;" horiz-adv-x="714" 
d="M357 670q93 0 160.5 -41.5t104 -117.5t36.5 -181t-36.5 -181t-104 -117.5t-160.5 -41.5q-92 0 -160 41.5t-104.5 117.5t-36.5 181t36.5 181t104.5 117.5t160 41.5zM357 656q-87 0 -151 -40t-99 -113t-35 -173t35 -173t99 -113t151 -40q88 0 151.5 40t98.5 113t35 173
t-35 173t-98.5 113t-151.5 40zM359 716l-8 11q30 17 43 34.5t13 39.5q0 20 -13.5 31.5t-33.5 11.5q-22 0 -35 -11.5t-18 -25.5l-14 7q8 21 26 33.5t41 12.5q18 0 32 -7t22.5 -20t8.5 -30q0 -20 -7.5 -35.5t-22 -27.5t-34.5 -24z" />
    <glyph glyph-name="uni1ECF" unicode="&#x1ecf;" horiz-adv-x="569" 
d="M285 510q69 0 121.5 -31t82 -89.5t29.5 -139.5t-29.5 -139.5t-82 -89.5t-121.5 -31t-121.5 31t-82.5 89.5t-30 139.5t30 139.5t82.5 89.5t121.5 31zM285 496q-64 0 -113 -29.5t-77 -84.5t-28 -132q0 -76 28 -131.5t77 -85t113 -29.5t113 29.5t76.5 85t27.5 131.5
q0 77 -27.5 132t-76.5 84.5t-113 29.5zM285 568l-7 10q30 20 44 39t14 44q0 22 -12.5 34.5t-35.5 12.5q-22 0 -35 -12.5t-20 -26.5l-14 9q5 14 21.5 30t47.5 16q20 0 34.5 -7.5t22.5 -21t8 -31.5q0 -22 -8 -38.5t-23 -29.5t-37 -28z" />
    <glyph glyph-name="uni1ED0" unicode="&#x1ed0;" horiz-adv-x="714" 
d="M474 743h-17l-100 129l-100 -129h-17l108 142h18zM516 988h16l-70 -133h-13zM357 670q93 0 160.5 -41.5t104 -117.5t36.5 -181t-36.5 -181t-104 -117.5t-160.5 -41.5q-92 0 -160 41.5t-104.5 117.5t-36.5 181t36.5 181t104.5 117.5t160 41.5zM357 656q-87 0 -151 -40
t-99 -113t-35 -173t35 -173t99 -113t151 -40q88 0 151.5 40t98.5 113t35 173t-35 173t-98.5 113t-151.5 40z" />
    <glyph glyph-name="uni1ED1" unicode="&#x1ed1;" horiz-adv-x="569" 
d="M444 824h16l-70 -133h-13zM402 579h-17l-100 129l-100 -129h-17l108 142h18zM285 510q69 0 121.5 -31t82 -89.5t29.5 -139.5t-29.5 -139.5t-82 -89.5t-121.5 -31t-121.5 31t-82.5 89.5t-30 139.5t30 139.5t82.5 89.5t121.5 31zM285 496q-64 0 -113 -29.5t-77 -84.5
t-28 -132q0 -76 28 -131.5t77 -85t113 -29.5t113 29.5t76.5 85t27.5 131.5q0 77 -27.5 132t-76.5 84.5t-113 29.5z" />
    <glyph glyph-name="uni1ED2" unicode="&#x1ed2;" horiz-adv-x="714" 
d="M474 743h-17l-100 129l-100 -129h-17l108 142h18zM410 988l67 -133h-13l-70 133h16zM357 670q93 0 160.5 -41.5t104 -117.5t36.5 -181t-36.5 -181t-104 -117.5t-160.5 -41.5q-92 0 -160 41.5t-104.5 117.5t-36.5 181t36.5 181t104.5 117.5t160 41.5zM357 656
q-87 0 -151 -40t-99 -113t-35 -173t35 -173t99 -113t151 -40q88 0 151.5 40t98.5 113t35 173t-35 173t-98.5 113t-151.5 40z" />
    <glyph glyph-name="uni1ED3" unicode="&#x1ed3;" horiz-adv-x="569" 
d="M338 824l67 -133h-13l-70 133h16zM402 579h-17l-100 129l-100 -129h-17l108 142h18zM285 510q69 0 121.5 -31t82 -89.5t29.5 -139.5t-29.5 -139.5t-82 -89.5t-121.5 -31t-121.5 31t-82.5 89.5t-30 139.5t30 139.5t82.5 89.5t121.5 31zM285 496q-64 0 -113 -29.5
t-77 -84.5t-28 -132q0 -76 28 -131.5t77 -85t113 -29.5t113 29.5t76.5 85t27.5 131.5q0 77 -27.5 132t-76.5 84.5t-113 29.5z" />
    <glyph glyph-name="uni1ED4" unicode="&#x1ed4;" horiz-adv-x="714" 
d="M474 743h-17l-100 129l-100 -129h-17l108 142h18zM455 836l-8 11q30 17 43 34.5t13 39.5q0 20 -13.5 31.5t-33.5 11.5q-22 0 -35 -11.5t-18 -25.5l-14 7q8 21 26 33.5t41 12.5q18 0 32 -7t22.5 -20t8.5 -30q0 -20 -7.5 -35.5t-22 -27.5t-34.5 -24zM357 670
q93 0 160.5 -41.5t104 -117.5t36.5 -181t-36.5 -181t-104 -117.5t-160.5 -41.5q-92 0 -160 41.5t-104.5 117.5t-36.5 181t36.5 181t104.5 117.5t160 41.5zM357 656q-87 0 -151 -40t-99 -113t-35 -173t35 -173t99 -113t151 -40q88 0 151.5 40t98.5 113t35 173t-35 173
t-98.5 113t-151.5 40z" />
    <glyph glyph-name="uni1ED5" unicode="&#x1ed5;" horiz-adv-x="569" 
d="M383 672l-8 11q30 17 43 34.5t13 39.5q0 20 -13.5 31.5t-33.5 11.5q-22 0 -35 -11.5t-18 -25.5l-14 7q8 21 26 33.5t41 12.5q18 0 32 -7t22.5 -20t8.5 -30q0 -20 -7.5 -35.5t-22 -27.5t-34.5 -24zM402 579h-17l-100 129l-100 -129h-17l108 142h18zM285 510
q69 0 121.5 -31t82 -89.5t29.5 -139.5t-29.5 -139.5t-82 -89.5t-121.5 -31t-121.5 31t-82.5 89.5t-30 139.5t30 139.5t82.5 89.5t121.5 31zM285 496q-64 0 -113 -29.5t-77 -84.5t-28 -132q0 -76 28 -131.5t77 -85t113 -29.5t113 29.5t76.5 85t27.5 131.5q0 77 -27.5 132
t-76.5 84.5t-113 29.5z" />
    <glyph glyph-name="uni1ED6" unicode="&#x1ed6;" horiz-adv-x="714" 
d="M474 743h-17l-100 129l-100 -129h-17l108 142h18zM507 993q-8 -43 -28 -62.5t-52 -19.5q-28 0 -44.5 10.5t-29 24t-27 24t-38.5 10.5q-28 0 -42 -17t-22 -51h-15q8 43 28.5 62.5t51.5 19.5q27 0 43.5 -10.5t29 -24t27 -24t38.5 -10.5q29 0 43.5 17t21.5 51h15zM357 670
q93 0 160.5 -41.5t104 -117.5t36.5 -181t-36.5 -181t-104 -117.5t-160.5 -41.5q-92 0 -160 41.5t-104.5 117.5t-36.5 181t36.5 181t104.5 117.5t160 41.5zM357 656q-87 0 -151 -40t-99 -113t-35 -173t35 -173t99 -113t151 -40q88 0 151.5 40t98.5 113t35 173t-35 173
t-98.5 113t-151.5 40z" />
    <glyph glyph-name="uni1ED7" unicode="&#x1ed7;" horiz-adv-x="569" 
d="M402 579h-17l-100 129l-100 -129h-17l108 142h18zM435 829q-8 -43 -28 -62.5t-52 -19.5q-28 0 -44.5 10.5t-29 24t-27 24t-38.5 10.5q-28 0 -42 -17t-22 -51h-15q8 43 28.5 62.5t51.5 19.5q27 0 43.5 -10.5t29 -24t27 -24t38.5 -10.5q29 0 43.5 17t21.5 51h15zM285 510
q69 0 121.5 -31t82 -89.5t29.5 -139.5t-29.5 -139.5t-82 -89.5t-121.5 -31t-121.5 31t-82.5 89.5t-30 139.5t30 139.5t82.5 89.5t121.5 31zM285 496q-64 0 -113 -29.5t-77 -84.5t-28 -132q0 -76 28 -131.5t77 -85t113 -29.5t113 29.5t76.5 85t27.5 131.5q0 77 -27.5 132
t-76.5 84.5t-113 29.5z" />
    <glyph glyph-name="uni1ED8" unicode="&#x1ed8;" horiz-adv-x="714" 
d="M357 670q93 0 160.5 -41.5t104 -117.5t36.5 -181t-36.5 -181t-104 -117.5t-160.5 -41.5q-92 0 -160 41.5t-104.5 117.5t-36.5 181t36.5 181t104.5 117.5t160 41.5zM357 656q-87 0 -151 -40t-99 -113t-35 -173t35 -173t99 -113t151 -40q88 0 151.5 40t98.5 113t35 173
t-35 173t-98.5 113t-151.5 40zM357 -98q10 0 16 -6t6 -16t-6 -16t-16 -6t-16 6t-6 16t6 16t16 6zM476 743h-17l-102 129l-102 -129h-17l109 142h20z" />
    <glyph glyph-name="uni1ED9" unicode="&#x1ed9;" horiz-adv-x="569" 
d="M285 510q69 0 121.5 -31t82 -89.5t29.5 -139.5t-29.5 -139.5t-82 -89.5t-121.5 -31t-121.5 31t-82.5 89.5t-30 139.5t30 139.5t82.5 89.5t121.5 31zM285 496q-64 0 -113 -29.5t-77 -84.5t-28 -132q0 -76 28 -131.5t77 -85t113 -29.5t113 29.5t76.5 85t27.5 131.5
q0 77 -27.5 132t-76.5 84.5t-113 29.5zM285 -98q10 0 16 -6t6 -16t-6 -16t-16 -6t-16 6t-6 16t6 16t16 6zM402 579h-17l-100 129l-100 -129h-17l108 142h18z" />
    <glyph glyph-name="uni1EDA" unicode="&#x1eda;" horiz-adv-x="714" 
d="M607 767q0 -57 -43.5 -88t-116.5 -31l-10 12q77 0 116.5 29t39.5 78h14zM357 670q93 0 160.5 -41.5t104 -117.5t36.5 -181t-36.5 -181t-104 -117.5t-160.5 -41.5q-92 0 -160 41.5t-104.5 117.5t-36.5 181t36.5 181t104.5 117.5t160 41.5zM357 656q-87 0 -151 -40
t-99 -113t-35 -173t35 -173t99 -113t151 -40q88 0 151.5 40t98.5 113t35 173t-35 173t-98.5 113t-151.5 40zM426 891h18l-78 -148h-15z" />
    <glyph glyph-name="uni1EDB" unicode="&#x1edb;" horiz-adv-x="569" 
d="M285 510q69 0 121.5 -31t82 -89.5t29.5 -139.5t-29.5 -139.5t-82 -89.5t-121.5 -31t-121.5 31t-82.5 89.5t-30 139.5t30 139.5t82.5 89.5t121.5 31zM285 496q-64 0 -113 -29.5t-77 -84.5t-28 -132q0 -76 28 -131.5t77 -85t113 -29.5t113 29.5t76.5 85t27.5 131.5
q0 77 -27.5 132t-76.5 84.5t-113 29.5zM357 486v14q53 0 79 29t26 78h14q0 -57 -29 -89t-90 -32zM363 726h18l-88 -147h-15z" />
    <glyph glyph-name="uni1EDC" unicode="&#x1edc;" horiz-adv-x="714" 
d="M607 767q0 -57 -43.5 -88t-116.5 -31l-10 12q77 0 116.5 29t39.5 78h14zM357 670q93 0 160.5 -41.5t104 -117.5t36.5 -181t-36.5 -181t-104 -117.5t-160.5 -41.5q-92 0 -160 41.5t-104.5 117.5t-36.5 181t36.5 181t104.5 117.5t160 41.5zM357 656q-87 0 -151 -40
t-99 -113t-35 -173t35 -173t99 -113t151 -40q88 0 151.5 40t98.5 113t35 173t-35 173t-98.5 113t-151.5 40zM289 891l75 -148h-15l-78 148h18z" />
    <glyph glyph-name="uni1EDD" unicode="&#x1edd;" horiz-adv-x="569" 
d="M285 510q69 0 121.5 -31t82 -89.5t29.5 -139.5t-29.5 -139.5t-82 -89.5t-121.5 -31t-121.5 31t-82.5 89.5t-30 139.5t30 139.5t82.5 89.5t121.5 31zM285 496q-64 0 -113 -29.5t-77 -84.5t-28 -132q0 -76 28 -131.5t77 -85t113 -29.5t113 29.5t76.5 85t27.5 131.5
q0 77 -27.5 132t-76.5 84.5t-113 29.5zM357 486v14q53 0 79 29t26 78h14q0 -57 -29 -89t-90 -32zM211 726l85 -147h-15l-88 147h18z" />
    <glyph glyph-name="uni1EDE" unicode="&#x1ede;" horiz-adv-x="714" 
d="M607 767q0 -57 -43.5 -88t-116.5 -31l-10 12q77 0 116.5 29t39.5 78h14zM357 670q93 0 160.5 -41.5t104 -117.5t36.5 -181t-36.5 -181t-104 -117.5t-160.5 -41.5q-92 0 -160 41.5t-104.5 117.5t-36.5 181t36.5 181t104.5 117.5t160 41.5zM357 656q-87 0 -151 -40
t-99 -113t-35 -173t35 -173t99 -113t151 -40q88 0 151.5 40t98.5 113t35 173t-35 173t-98.5 113t-151.5 40zM359 716l-8 11q30 17 43 34.5t13 39.5q0 20 -13.5 31.5t-33.5 11.5q-22 0 -35 -11.5t-18 -25.5l-14 7q8 21 26 33.5t41 12.5q18 0 32 -7t22.5 -20t8.5 -30
q0 -20 -7.5 -35.5t-22 -27.5t-34.5 -24z" />
    <glyph glyph-name="uni1EDF" unicode="&#x1edf;" horiz-adv-x="569" 
d="M285 510q69 0 121.5 -31t82 -89.5t29.5 -139.5t-29.5 -139.5t-82 -89.5t-121.5 -31t-121.5 31t-82.5 89.5t-30 139.5t30 139.5t82.5 89.5t121.5 31zM285 496q-64 0 -113 -29.5t-77 -84.5t-28 -132q0 -76 28 -131.5t77 -85t113 -29.5t113 29.5t76.5 85t27.5 131.5
q0 77 -27.5 132t-76.5 84.5t-113 29.5zM357 486v14q53 0 79 29t26 78h14q0 -57 -29 -89t-90 -32zM285 568l-7 10q30 20 44 39t14 44q0 22 -12.5 34.5t-35.5 12.5q-22 0 -35 -12.5t-20 -26.5l-14 9q5 14 21.5 30t47.5 16q20 0 34.5 -7.5t22.5 -21t8 -31.5q0 -22 -8 -38.5
t-23 -29.5t-37 -28z" />
    <glyph glyph-name="uni1EE0" unicode="&#x1ee0;" horiz-adv-x="714" 
d="M607 767q0 -57 -43.5 -88t-116.5 -31l-10 12q77 0 116.5 29t39.5 78h14zM357 670q93 0 160.5 -41.5t104 -117.5t36.5 -181t-36.5 -181t-104 -117.5t-160.5 -41.5q-92 0 -160 41.5t-104.5 117.5t-36.5 181t36.5 181t104.5 117.5t160 41.5zM357 656q-87 0 -151 -40
t-99 -113t-35 -173t35 -173t99 -113t151 -40q88 0 151.5 40t98.5 113t35 173t-35 173t-98.5 113t-151.5 40zM490 843q-5 -28 -16.5 -47t-28 -28t-38.5 -9q-26 0 -44.5 10.5t-34 24t-31.5 24t-37 10.5q-29 0 -46 -18t-25 -52h-15q8 43 31.5 63.5t55.5 20.5q24 0 42 -10.5
t33.5 -24t32 -24t38.5 -10.5q30 0 45.5 18t22.5 52h15z" />
    <glyph glyph-name="uni1EE1" unicode="&#x1ee1;" horiz-adv-x="569" 
d="M285 510q69 0 121.5 -31t82 -89.5t29.5 -139.5t-29.5 -139.5t-82 -89.5t-121.5 -31t-121.5 31t-82.5 89.5t-30 139.5t30 139.5t82.5 89.5t121.5 31zM285 496q-64 0 -113 -29.5t-77 -84.5t-28 -132q0 -76 28 -131.5t77 -85t113 -29.5t113 29.5t76.5 85t27.5 131.5
q0 77 -27.5 132t-76.5 84.5t-113 29.5zM357 486v14q53 0 79 29t26 78h14q0 -57 -29 -89t-90 -32zM438 683q-5 -28 -16.5 -47t-28 -28t-38.5 -9q-26 0 -44.5 10.5t-34 24t-31.5 24t-37 10.5q-29 0 -46 -18t-25 -52h-15q8 43 31.5 63.5t55.5 20.5q24 0 42 -10.5t33.5 -24
t32 -24t38.5 -10.5q30 0 45.5 18t22.5 52h15z" />
    <glyph glyph-name="uni1EE2" unicode="&#x1ee2;" horiz-adv-x="714" 
d="M607 767q0 -57 -43.5 -88t-116.5 -31l-10 12q77 0 116.5 29t39.5 78h14zM357 670q93 0 160.5 -41.5t104 -117.5t36.5 -181t-36.5 -181t-104 -117.5t-160.5 -41.5q-92 0 -160 41.5t-104.5 117.5t-36.5 181t36.5 181t104.5 117.5t160 41.5zM357 656q-87 0 -151 -40
t-99 -113t-35 -173t35 -173t99 -113t151 -40q88 0 151.5 40t98.5 113t35 173t-35 173t-98.5 113t-151.5 40zM357 -98q10 0 16 -6t6 -16t-6 -16t-16 -6t-16 6t-6 16t6 16t16 6z" />
    <glyph glyph-name="uni1EE3" unicode="&#x1ee3;" horiz-adv-x="569" 
d="M285 510q69 0 121.5 -31t82 -89.5t29.5 -139.5t-29.5 -139.5t-82 -89.5t-121.5 -31t-121.5 31t-82.5 89.5t-30 139.5t30 139.5t82.5 89.5t121.5 31zM285 496q-64 0 -113 -29.5t-77 -84.5t-28 -132q0 -76 28 -131.5t77 -85t113 -29.5t113 29.5t76.5 85t27.5 131.5
q0 77 -27.5 132t-76.5 84.5t-113 29.5zM357 486v14q53 0 79 29t26 78h14q0 -57 -29 -89t-90 -32zM285 -98q10 0 16 -6t6 -16t-6 -16t-16 -6t-16 6t-6 16t6 16t16 6z" />
    <glyph glyph-name="uni1EE4" unicode="&#x1ee4;" horiz-adv-x="664" 
d="M581 660v-425q0 -118 -66 -181.5t-183 -63.5t-183 63.5t-66 181.5v425h16v-425q0 -110 62 -170.5t171 -60.5q110 0 171.5 60.5t61.5 170.5v425h16zM332 -98q10 0 16 -6t6 -16t-6 -16t-16 -6t-16 6t-6 16t6 16t16 6z" />
    <glyph glyph-name="uni1EE5" unicode="&#x1ee5;" horiz-adv-x="564" 
d="M254 -10q-55 0 -94.5 20.5t-60 60.5t-20.5 96v333h16v-331q0 -79 42.5 -122t119.5 -43q54 0 93 19t64 49t37 63t12 61v304h16v-500h-16v133q-17 -61 -73 -102t-136 -41zM280 -98q10 0 16 -6t6 -16t-6 -16t-16 -6t-16 6t-6 16t6 16t16 6z" />
    <glyph glyph-name="uni1EE6" unicode="&#x1ee6;" horiz-adv-x="664" 
d="M581 660v-425q0 -118 -66 -181.5t-183 -63.5t-183 63.5t-66 181.5v425h16v-425q0 -110 62 -170.5t171 -60.5q110 0 171.5 60.5t61.5 170.5v425h16zM334 676l-8 11q30 17 43 34.5t13 39.5q0 20 -13.5 31.5t-33.5 11.5q-22 0 -35 -11.5t-18 -25.5l-14 7q8 21 26 33.5
t41 12.5q18 0 32 -7t22.5 -20t8.5 -30q0 -20 -7.5 -35.5t-22 -27.5t-34.5 -24z" />
    <glyph glyph-name="uni1EE7" unicode="&#x1ee7;" horiz-adv-x="564" 
d="M254 -10q-55 0 -94.5 20.5t-60 60.5t-20.5 96v333h16v-331q0 -79 42.5 -122t119.5 -43q54 0 93 19t64 49t37 63t12 61v304h16v-500h-16v133q-17 -61 -73 -102t-136 -41zM280 552l-7 10q30 20 44 39t14 44q0 22 -12.5 34.5t-35.5 12.5q-22 0 -35 -12.5t-20 -26.5l-14 9
q5 14 21.5 30t47.5 16q20 0 34.5 -7.5t22.5 -21t8 -31.5q0 -22 -8 -38.5t-23 -29.5t-37 -28z" />
    <glyph glyph-name="uni1EE8" unicode="&#x1ee8;" horiz-adv-x="664" 
d="M581 660v-425q0 -118 -66 -181.5t-183 -63.5t-183 63.5t-66 181.5v425h16v-425q0 -110 62 -170.5t171 -60.5q110 0 171.5 60.5t61.5 170.5v425h16zM686 767q0 -57 -33 -88.5t-83 -31.5v13q46 0 74 29t28 78h14zM401 851h18l-78 -148h-15z" />
    <glyph glyph-name="uni1EE9" unicode="&#x1ee9;" horiz-adv-x="566" 
d="M254 -10q-55 0 -94.5 20.5t-60 60.5t-20.5 96v333h16v-331q0 -79 42.5 -122t119.5 -43q54 0 93 19t64 49t37 63t12 61v304h16v-500h-16v133q-17 -61 -73 -102t-136 -41zM463 492v14q53 0 79 29t26 78h14q0 -57 -29 -89t-90 -32zM358 710h18l-88 -147h-15z" />
    <glyph glyph-name="uni1EEA" unicode="&#x1eea;" horiz-adv-x="664" 
d="M581 660v-425q0 -118 -66 -181.5t-183 -63.5t-183 63.5t-66 181.5v425h16v-425q0 -110 62 -170.5t171 -60.5q110 0 171.5 60.5t61.5 170.5v425h16zM686 767q0 -57 -33 -88.5t-83 -31.5v13q46 0 74 29t28 78h14zM264 851l75 -148h-15l-78 148h18z" />
    <glyph glyph-name="uni1EEB" unicode="&#x1eeb;" horiz-adv-x="566" 
d="M254 -10q-55 0 -94.5 20.5t-60 60.5t-20.5 96v333h16v-331q0 -79 42.5 -122t119.5 -43q54 0 93 19t64 49t37 63t12 61v304h16v-500h-16v133q-17 -61 -73 -102t-136 -41zM463 492v14q53 0 79 29t26 78h14q0 -57 -29 -89t-90 -32zM206 710l85 -147h-15l-88 147h18z" />
    <glyph glyph-name="uni1EEC" unicode="&#x1eec;" horiz-adv-x="664" 
d="M581 660v-425q0 -118 -66 -181.5t-183 -63.5t-183 63.5t-66 181.5v425h16v-425q0 -110 62 -170.5t171 -60.5q110 0 171.5 60.5t61.5 170.5v425h16zM686 767q0 -57 -33 -88.5t-83 -31.5v13q46 0 74 29t28 78h14zM334 676l-8 11q30 17 43 34.5t13 39.5q0 20 -13.5 31.5
t-33.5 11.5q-22 0 -35 -11.5t-18 -25.5l-14 7q8 21 26 33.5t41 12.5q18 0 32 -7t22.5 -20t8.5 -30q0 -20 -7.5 -35.5t-22 -27.5t-34.5 -24z" />
    <glyph glyph-name="uni1EED" unicode="&#x1eed;" horiz-adv-x="566" 
d="M254 -10q-55 0 -94.5 20.5t-60 60.5t-20.5 96v333h16v-331q0 -79 42.5 -122t119.5 -43q54 0 93 19t64 49t37 63t12 61v304h16v-500h-16v133q-17 -61 -73 -102t-136 -41zM463 492v14q53 0 79 29t26 78h14q0 -57 -29 -89t-90 -32zM280 552l-7 10q30 20 44 39t14 44
q0 22 -12.5 34.5t-35.5 12.5q-22 0 -35 -12.5t-20 -26.5l-14 9q5 14 21.5 30t47.5 16q20 0 34.5 -7.5t22.5 -21t8 -31.5q0 -22 -8 -38.5t-23 -29.5t-37 -28z" />
    <glyph glyph-name="uni1EEE" unicode="&#x1eee;" horiz-adv-x="664" 
d="M581 660v-425q0 -118 -66 -181.5t-183 -63.5t-183 63.5t-66 181.5v425h16v-425q0 -110 62 -170.5t171 -60.5q110 0 171.5 60.5t61.5 170.5v425h16zM686 767q0 -57 -33 -88.5t-83 -31.5v13q46 0 74 29t28 78h14zM491 803q-5 -28 -16.5 -47t-28 -28t-38.5 -9
q-26 0 -44.5 10.5t-34 24t-31.5 24t-37 10.5q-29 0 -46 -18t-25 -52h-15q8 43 31.5 63.5t55.5 20.5q24 0 42 -10.5t33.5 -24t32 -24t38.5 -10.5q30 0 45.5 18t22.5 52h15z" />
    <glyph glyph-name="uni1EEF" unicode="&#x1eef;" horiz-adv-x="566" 
d="M254 -10q-55 0 -94.5 20.5t-60 60.5t-20.5 96v333h16v-331q0 -79 42.5 -122t119.5 -43q54 0 93 19t64 49t37 63t12 61v304h16v-500h-16v133q-17 -61 -73 -102t-136 -41zM463 492v14q53 0 79 29t26 78h14q0 -57 -29 -89t-90 -32zM439 663q-5 -28 -16.5 -47t-28 -28
t-38.5 -9q-26 0 -44.5 10.5t-34 24t-31.5 24t-37 10.5q-29 0 -46 -18t-25 -52h-15q8 43 31.5 63.5t55.5 20.5q24 0 42 -10.5t33.5 -24t32 -24t38.5 -10.5q30 0 45.5 18t22.5 52h15z" />
    <glyph glyph-name="uni1EF0" unicode="&#x1ef0;" horiz-adv-x="664" 
d="M581 660v-425q0 -118 -66 -181.5t-183 -63.5t-183 63.5t-66 181.5v425h16v-425q0 -110 62 -170.5t171 -60.5q110 0 171.5 60.5t61.5 170.5v425h16zM686 767q0 -57 -33 -88.5t-83 -31.5v13q46 0 74 29t28 78h14zM332 -98q10 0 16 -6t6 -16t-6 -16t-16 -6t-16 6t-6 16t6 16
t16 6z" />
    <glyph glyph-name="uni1EF1" unicode="&#x1ef1;" horiz-adv-x="566" 
d="M254 -10q-55 0 -94.5 20.5t-60 60.5t-20.5 96v333h16v-331q0 -79 42.5 -122t119.5 -43q54 0 93 19t64 49t37 63t12 61v304h16v-500h-16v133q-17 -61 -73 -102t-136 -41zM463 492v14q53 0 79 29t26 78h14q0 -57 -29 -89t-90 -32zM280 -98q10 0 16 -6t6 -16t-6 -16t-16 -6
t-16 6t-6 16t6 16t16 6z" />
    <glyph glyph-name="Ygrave" unicode="&#x1ef2;" horiz-adv-x="512" 
d="M496 660l-232 -404v-256h-16v256l-232 404h19l129 -226l92 -161l92 161l129 226h19zM188 851l75 -148h-15l-78 148h18z" />
    <glyph glyph-name="ygrave" unicode="&#x1ef3;" horiz-adv-x="481" 
d="M459 500l-249 -601q-18 -43 -37.5 -68t-43.5 -35.5t-55 -10.5q-26 0 -46.5 8t-31.5 24l9 13q11 -17 30 -24t40 -7q39 0 67 21.5t53 81.5l40 97l-55 129l-158 372h18l185 -440l18 -42l17 43l181 439h18zM170 710l85 -147h-15l-88 147h18z" />
    <glyph glyph-name="uni1EF4" unicode="&#x1ef4;" horiz-adv-x="512" 
d="M496 660l-232 -404v-256h-16v256l-232 404h19l129 -226l92 -161l92 161l129 226h19zM256 -98q10 0 16 -6t6 -16t-6 -16t-16 -6t-16 6t-6 16t6 16t16 6z" />
    <glyph glyph-name="uni1EF5" unicode="&#x1ef5;" horiz-adv-x="481" 
d="M459 500l-249 -601q-18 -43 -37.5 -68t-43.5 -35.5t-55 -10.5q-26 0 -46.5 8t-31.5 24l9 13q11 -17 30 -24t40 -7q39 0 67 21.5t53 81.5l40 97l-55 129l-158 372h18l185 -440l18 -42l17 43l181 439h18zM361 -173q10 0 16 -6t6 -16t-6 -16t-16 -6t-16 6t-6 16t6 16t16 6z
" />
    <glyph glyph-name="uni1EF6" unicode="&#x1ef6;" horiz-adv-x="512" 
d="M496 660l-232 -404v-256h-16v256l-232 404h19l129 -226l92 -161l92 161l129 226h19zM258 676l-8 11q30 17 43 34.5t13 39.5q0 20 -13.5 31.5t-33.5 11.5q-22 0 -35 -11.5t-18 -25.5l-14 7q8 21 26 33.5t41 12.5q18 0 32 -7t22.5 -20t8.5 -30q0 -20 -7.5 -35.5t-22 -27.5
t-34.5 -24z" />
    <glyph glyph-name="uni1EF7" unicode="&#x1ef7;" horiz-adv-x="481" 
d="M459 500l-249 -601q-18 -43 -37.5 -68t-43.5 -35.5t-55 -10.5q-26 0 -46.5 8t-31.5 24l9 13q11 -17 30 -24t40 -7q39 0 67 21.5t53 81.5l40 97l-55 129l-158 372h18l185 -440l18 -42l17 43l181 439h18zM251 499l-7 10q30 20 44 39t14 44q0 22 -12.5 34.5t-35.5 12.5
q-22 0 -35 -12.5t-20 -26.5l-14 9q5 14 21.5 30t47.5 16q20 0 34.5 -7.5t22.5 -21t8 -31.5q0 -22 -8 -38.5t-23 -29.5t-37 -28z" />
    <glyph glyph-name="uni1EF8" unicode="&#x1ef8;" horiz-adv-x="512" 
d="M496 660l-232 -404v-256h-16v256l-232 404h19l129 -226l92 -161l92 161l129 226h19zM415 803q-5 -28 -16.5 -47t-28 -28t-38.5 -9q-26 0 -44.5 10.5t-34 24t-31.5 24t-37 10.5q-29 0 -46 -18t-25 -52h-15q8 43 31.5 63.5t55.5 20.5q24 0 42 -10.5t33.5 -24t32 -24
t38.5 -10.5q30 0 45.5 18t22.5 52h15z" />
    <glyph glyph-name="uni1EF9" unicode="&#x1ef9;" horiz-adv-x="481" 
d="M459 500l-249 -601q-18 -43 -37.5 -68t-43.5 -35.5t-55 -10.5q-26 0 -46.5 8t-31.5 24l9 13q11 -17 30 -24t40 -7q39 0 67 21.5t53 81.5l40 97l-55 129l-158 372h18l185 -440l18 -42l17 43l181 439h18zM403 663q-5 -28 -16.5 -47t-28 -28t-38.5 -9q-26 0 -44.5 10.5
t-34 24t-31.5 24t-37 10.5q-29 0 -46 -18t-25 -52h-15q8 43 31.5 63.5t55.5 20.5q24 0 42 -10.5t33.5 -24t32 -24t38.5 -10.5q30 0 45.5 18t22.5 52h15z" />
    <glyph glyph-name="uni2007" unicode="&#x2007;" horiz-adv-x="590" 
 />
    <glyph glyph-name="uni2008" unicode="&#x2008;" horiz-adv-x="168" 
 />
    </font>
</defs>
</svg>
