<?xml version="1.0" standalone="no"?>
<!DOCTYPE svg PUBLIC "-//W3C//DTD SVG 1.1//EN" "http://www.w3.org/Graphics/SVG/1.1/DTD/svg11.dtd" >
<svg xmlns="http://www.w3.org/2000/svg" xmlns:xlink="http://www.w3.org/1999/xlink" version="1.1">
<metadata>
Created by FontForge 20170731 at Wed Feb 26 09:24:02 2020
 By Aleksey,,,
Copyright 2019 The Work Sans Project Authors (https://github.com/weiweihuanghuang/Work-Sans)
</metadata>
<defs>
<font id="WorkSans-ExtraLightItalic" horiz-adv-x="588" >
  <font-face 
    font-family="Work Sans ExtraLight"
    font-weight="250"
    font-style="italic"
    font-stretch="normal"
    units-per-em="1000"
    panose-1="0 0 0 0 0 0 0 0 0 0"
    ascent="800"
    descent="-200"
    x-height="500"
    cap-height="660"
    bbox="-225 -270 1267 1059"
    underline-thickness="50"
    underline-position="-175"
    slope="-13"
    unicode-range="U+000D-FB02"
  />
<missing-glyph horiz-adv-x="500" 
d="M130 80h240v500h-240v-500zM50 0v660h400v-660h-400z" />
    <glyph glyph-name="fi" unicode="fi" horiz-adv-x="525" 
d="M55 0l137 591q12 46 32 78t51.5 49t76.5 17q24 0 43.5 -7t32.5 -19l-11 -24q-12 13 -29 19t-36 6q-58 0 -88.5 -33t-46.5 -100l-18 -77l-2 -12l-114 -488h-28zM64 476l6 24h300l-6 -24h-300zM510 598q-12 0 -19 7.5t-7 18.5q0 14 8.5 23t21.5 9q12 0 19.5 -7.5t7.5 -18.5
q0 -15 -8.5 -23.5t-22.5 -8.5zM497 500l-116 -500h-28l116 500h28z" />
    <glyph glyph-name="fl" unicode="fl" horiz-adv-x="573" 
d="M55 0l137 591q12 46 32 78t51.5 49t76.5 17q24 0 43.5 -7t32.5 -19l-11 -24q-12 13 -29 19t-36 6q-58 0 -88.5 -33t-46.5 -100l-18 -77l-2 -12l-114 -488h-28zM64 476l6 24h300l-6 -24h-300zM451 -9q-52 0 -69.5 35t-3.5 98l140 606h28l-141 -609q-12 -53 0.5 -79
t53.5 -26q17 0 29 2t23 6l-6 -23q-9 -5 -23 -7.5t-31 -2.5z" />
    <glyph glyph-name="f_f" unicode="ff" horiz-adv-x="618" 
d="M55 0l137 591q12 46 32 78t51.5 49t76.5 17q24 0 43.5 -7t32.5 -19l-11 -24q-12 13 -29 19t-36 6q-58 0 -88.5 -33t-46.5 -100l-18 -77l-2 -12l-114 -488h-28zM64 476l6 24h300l-6 -24h-300zM346 0l137 591q12 46 32 78t51.5 49t76.5 17q24 0 43.5 -7t32.5 -19l-11 -24
q-12 13 -29 19t-36 6q-58 0 -88.5 -33t-46.5 -100l-18 -77l-2 -12l-114 -488h-28zM355 476l6 24h300l-6 -24h-300z" />
    <glyph glyph-name="f_f_i" unicode="ffi" horiz-adv-x="816" 
d="M55 0l137 591q12 46 32 78t51.5 49t76.5 17q24 0 43.5 -7t32.5 -19l-11 -24q-12 13 -29 19t-36 6q-58 0 -88.5 -33t-46.5 -100l-18 -77l-2 -12l-114 -488h-28zM64 476l6 24h300l-6 -24h-300zM346 0l137 591q12 46 32 78t51.5 49t76.5 17q24 0 43.5 -7t32.5 -19l-11 -24
q-12 13 -29 19t-36 6q-58 0 -88.5 -33t-46.5 -100l-18 -77l-2 -12l-114 -488h-28zM355 476l6 24h300l-6 -24h-300zM801 598q-12 0 -19 7.5t-7 18.5q0 14 8.5 23t21.5 9q12 0 19.5 -7.5t7.5 -18.5q0 -15 -8.5 -23.5t-22.5 -8.5zM788 500l-116 -500h-28l116 500h28z" />
    <glyph glyph-name="f_f_l" unicode="ffl" horiz-adv-x="863" 
d="M55 0l137 591q12 46 32 78t51.5 49t76.5 17q24 0 43.5 -7t32.5 -19l-11 -24q-12 13 -29 19t-36 6q-58 0 -88.5 -33t-46.5 -100l-18 -77l-2 -12l-114 -488h-28zM64 476l6 24h300l-6 -24h-300zM346 0l137 591q12 46 32 78t51.5 49t76.5 17q24 0 43.5 -7t32.5 -19l-11 -24
q-12 13 -29 19t-36 6q-58 0 -88.5 -33t-46.5 -100l-18 -77l-2 -12l-114 -488h-28zM355 476l6 24h300l-6 -24h-300zM742 -9q-52 0 -69.5 35t-3.5 98l140 606h28l-141 -609q-12 -53 0.5 -79t53.5 -26q17 0 29 2t23 6l-6 -23q-9 -5 -23 -7.5t-31 -2.5z" />
    <glyph glyph-name=".notdef" horiz-adv-x="500" 
d="M130 80h240v500h-240v-500zM50 0v660h400v-660h-400z" />
    <glyph glyph-name=".null" horiz-adv-x="0" 
 />
    <glyph glyph-name="nonmarkingreturn" horiz-adv-x="333" 
 />
    <glyph glyph-name="NULL" horiz-adv-x="0" 
 />
    <glyph glyph-name="NULL" horiz-adv-x="0" 
 />
    <glyph glyph-name="CR" unicode="&#xd;" horiz-adv-x="289" 
 />
    <glyph glyph-name="space" unicode=" " horiz-adv-x="289" 
 />
    <glyph glyph-name="exclam" unicode="!" horiz-adv-x="198" 
d="M70 177l29 139l80 344h29l-80 -344l-34 -139h-24zM46 -6q-12 0 -19.5 7.5t-7.5 19.5q0 14 8.5 23.5t21.5 9.5q12 0 19.5 -7.5t7.5 -19.5q0 -14 -8.5 -23.5t-21.5 -9.5z" />
    <glyph glyph-name="quotedbl" unicode="&#x22;" horiz-adv-x="270" 
d="M305 682l-46 -176h-25l40 176h31zM199 682l-46 -176h-25l40 176h31z" />
    <glyph glyph-name="numbersign" unicode="#" horiz-adv-x="609" 
d="M293 0l223 660h27l-223 -660h-27zM34 208v23h524v-23h-524zM80 0l223 660h27l-223 -660h-27zM92 438v22h520v-22h-520z" />
    <glyph glyph-name="dollar" unicode="$" horiz-adv-x="602" 
d="M304 0q-68 0 -123.5 25t-91.5 68t-48 97l26 11q11 -51 44 -91t83.5 -63t111.5 -23q58 0 101.5 20t67 54.5t23.5 77.5q0 54 -40 83t-105 46l-56 16q-50 13 -89 34t-61 53.5t-22 77.5q0 53 27.5 92t77.5 60.5t118 21.5q66 0 111.5 -20t74 -55t42.5 -81l-26 -13
q-12 44 -38 76.5t-66.5 50.5t-99.5 18q-88 0 -141 -40.5t-53 -106.5q0 -39 19.5 -66t53.5 -45t78 -30l61 -17q72 -19 116.5 -54.5t44.5 -98.5q0 -53 -27.5 -93t-77.5 -62.5t-116 -22.5zM207 -100l200 860h25l-199 -860h-26z" />
    <glyph glyph-name="percent" unicode="%" horiz-adv-x="780" 
d="M93 0l597 660h33l-597 -660h-33zM218 323q-40 0 -68.5 17.5t-43.5 49t-15 71.5q0 57 20.5 102t58.5 72t91 27q40 0 67 -18t41 -48.5t14 -71.5q0 -53 -19.5 -99.5t-56 -74t-89.5 -27.5zM221 346q44 0 74 25t46 65t16 86q0 52 -25.5 84.5t-72.5 32.5q-45 0 -76.5 -24
t-48 -63.5t-16.5 -87.5q0 -54 28 -86t75 -32zM560 -2q-40 0 -68.5 17.5t-43.5 49t-15 71.5q0 57 20 102t58.5 72t91.5 27q40 0 67 -18t41 -48.5t14 -70.5q0 -54 -19.5 -100.5t-56.5 -74t-89 -27.5zM562 21q45 0 75 25t46 65t16 86q0 53 -26 85t-72 32q-45 0 -76.5 -24
t-48.5 -63.5t-17 -87.5q0 -54 28 -86t75 -32z" />
    <glyph glyph-name="ampersand" unicode="&#x26;" horiz-adv-x="561" 
d="M217 -10q-58 0 -101 20t-67 56.5t-24 86.5q0 55 24.5 92.5t71 63.5t111.5 49l11 5q59 22 103.5 46.5t69 58t24.5 79.5q0 42 -27.5 69.5t-75.5 27.5q-54 0 -88.5 -36t-34.5 -90q0 -23 6 -55t18.5 -69.5t31 -79.5t42.5 -85q46 -81 84.5 -128.5t72.5 -67.5t67 -20l-6 -23v0
q-38 0 -76 23t-78 72.5t-87 129.5q-30 56 -53 111.5t-35.5 105t-12.5 85.5q0 44 19 78t53 53t78 19q61 0 94.5 -33.5t33.5 -84.5q0 -54 -27.5 -92t-76.5 -65.5t-114 -51.5l-6 -1q-58 -22 -100.5 -45.5t-66 -56.5t-23.5 -83q0 -65 46.5 -102.5t118.5 -37.5q52 0 95.5 18.5
t78.5 51.5l8 7q47 45 76 114t37 151l26 -1q-8 -85 -40.5 -159.5t-84.5 -124.5l-6 -5q-26 -23 -56 -40t-63 -26.5t-71 -9.5z" />
    <glyph glyph-name="quotesingle" unicode="'" horiz-adv-x="164" 
d="M199 682l-46 -176h-25l40 176h31z" />
    <glyph glyph-name="parenleft" unicode="(" horiz-adv-x="270" 
d="M140 -174q-42 72 -63.5 163t-21.5 187q0 86 21 170.5t60 159.5t95 136t124 100l12 -18q-92 -58 -155.5 -146t-96 -191.5t-32.5 -212.5q0 -89 18 -174t58 -161z" />
    <glyph glyph-name="parenright" unicode=")" horiz-adv-x="271" 
d="M146 743q42 -72 63.5 -163t21.5 -187q0 -86 -21 -170.5t-60 -159.5t-95 -136t-124 -100l-12 18q92 58 155.5 146t96 191.5t32.5 212.5q0 89 -18 174t-58 161z" />
    <glyph glyph-name="asterisk" unicode="*" horiz-adv-x="514" 
d="M396 309l-54 114l-28 67l-56 -60l-100 -97l-18 18l100 97l61 54l-68 29l-113 54l12 22l113 -53l65 -36l14 80l27 132h26l-29 -135l-20 -79l76 19l131 26l2 -25l-131 -26l-76 -12l34 -64l55 -114z" />
    <glyph glyph-name="plus" unicode="+" horiz-adv-x="604" 
d="M384 549l-108 -472h-27l108 472h27zM554 329l-5 -26h-468l5 26h468z" />
    <glyph glyph-name="comma" unicode="," horiz-adv-x="184" 
d="M44 54q17 0 26 -11t9 -29q0 -26 -13.5 -53.5t-36.5 -48t-53 -27.5l-9 21q28 6 47.5 22t31 37t12.5 40l-1 1q-4 -7 -9.5 -9.5t-12.5 -2.5q-12 0 -18.5 8t-6.5 19q0 14 9.5 23.5t24.5 9.5z" />
    <glyph glyph-name="hyphen" unicode="-" horiz-adv-x="434" 
d="M369 283l-6 -29h-290l6 29h290z" />
    <glyph glyph-name="period" unicode="." horiz-adv-x="185" 
d="M39 -6q-12 0 -19.5 7.5t-7.5 19.5q0 14 8.5 23.5t21.5 9.5q12 0 19.5 -7.5t7.5 -19.5q0 -14 -8.5 -23.5t-21.5 -9.5z" />
    <glyph glyph-name="slash" unicode="/" horiz-adv-x="362" 
d="M439 730l-450 -800h-30l450 800h30z" />
    <glyph glyph-name="zero" unicode="0" horiz-adv-x="605" 
d="M285 -6q-72 0 -120 32.5t-72 89.5t-24 129q0 38 4 74.5t12 71.5q14 57 38 107.5t59 88.5t81 59.5t101 21.5q69 0 115.5 -33t70.5 -90t24 -128q0 -37 -4 -73t-12 -71q-13 -58 -37.5 -109t-59.5 -89t-79 -59.5t-97 -21.5zM287 18q64 0 112.5 35.5t81.5 94t49 129.5
q8 34 12 69t4 70q0 106 -48 166.5t-136 60.5q-67 0 -117 -35t-83 -93t-49 -129q-8 -34 -12 -69.5t-4 -71.5q0 -71 22.5 -122t65 -78t102.5 -27z" />
    <glyph glyph-name="one" unicode="1" horiz-adv-x="323" 
d="M143 0l126 549q5 19 9 35t11 36q-26 -29 -59 -53t-69.5 -40.5t-71.5 -24.5l-1 26q37 11 75.5 29.5t74 45t60.5 57.5h26l-153 -660h-28z" />
    <glyph glyph-name="two" unicode="2" horiz-adv-x="539" 
d="M8 0l6 26q101 71 186 132.5t147.5 118t96.5 111.5t34 114q0 78 -43 110t-111 32q-77 0 -131.5 -48t-73.5 -124l-23 16q15 53 46 94t77.5 64.5t105.5 23.5q55 0 95.5 -18t63 -53.5t22.5 -90.5q0 -51 -22.5 -99t-64 -94.5t-98.5 -93.5t-124.5 -95t-141.5 -100v-1h18h18h356
l-6 -25h-433z" />
    <glyph glyph-name="three" unicode="3" horiz-adv-x="519" 
d="M236 -10q-86 0 -142.5 47t-73.5 129l29 8q11 -70 61 -114.5t128 -44.5q55 0 98 21t67 59.5t24 89.5q0 62 -40.5 99t-116.5 37h-12.5t-15.5 -1l6 28q10 -1 17 -1h14q60 0 102.5 20.5t65 56.5t22.5 80q0 46 -20 77.5t-55 48t-79 16.5q-70 0 -118.5 -32t-72.5 -90l-25 16
q27 63 84.5 97t134.5 34q53 0 93 -20t63 -56.5t23 -86.5q0 -49 -22 -86.5t-59 -60t-81 -28.5v-1q35 -6 62.5 -25.5t43 -49.5t15.5 -69q0 -62 -29.5 -106t-79 -68t-111.5 -24z" />
    <glyph glyph-name="four" unicode="4" horiz-adv-x="524" 
d="M287 0l47 199h-312l5 24q7 8 15 18t21 24l366 395h41l-103 -437h129l-5 -24h-129l-47 -199h-28zM56 223h283l96 409l-338 -365q-12 -14 -22 -24t-19 -20z" />
    <glyph glyph-name="five" unicode="5" horiz-adv-x="533" 
d="M254 -10q-61 0 -107.5 25t-73.5 64.5t-32 85.5l28 7q4 -41 27.5 -77t64.5 -58t96 -22q62 0 105 29t65.5 75.5t22.5 99.5q0 55 -22.5 91t-60.5 54.5t-86 18.5q-52 0 -90 -18t-64 -40l-24 9l101 326h336l-6 -25h-312l-86 -283q24 22 65.5 38.5t89.5 16.5q53 0 95.5 -21.5
t67.5 -62.5t25 -100q0 -64 -27 -117t-77 -84.5t-121 -31.5z" />
    <glyph glyph-name="six" unicode="6" horiz-adv-x="542" 
d="M280 -10q-70 0 -117 32t-71 90t-24 136q0 80 19.5 154.5t58.5 134.5t97.5 95.5t135.5 35.5q62 0 110 -32.5t63 -93.5l-26 -10q-13 53 -55 81.5t-93 28.5q-67 0 -119 -31t-87.5 -85.5t-55 -125t-21.5 -150.5q19 68 75 107t133 39q84 0 137 -50t53 -139q0 -65 -27 -114
t-75 -76t-111 -27zM281 15q55 0 96.5 24t64 66t22.5 98q0 79 -46 123.5t-124 44.5q-54 0 -97 -24t-68 -64.5t-25 -88.5q0 -29 10 -60.5t31.5 -58t55 -43.5t80.5 -17z" />
    <glyph glyph-name="seven" unicode="7" horiz-adv-x="489" 
d="M111 660h451l-6 -25q-95 -85 -169 -181.5t-126.5 -209t-83.5 -244.5h-32q30 124 82.5 238t129 216.5t179.5 191.5v-11h-432z" />
    <glyph glyph-name="eight" unicode="8" horiz-adv-x="579" 
d="M269 -9q-48 0 -89 12.5t-72 36.5t-48 57.5t-17 73.5q0 60 31.5 99.5t81 60t103.5 22.5l18 -8q-35 7 -65.5 28.5t-49 53t-18.5 67.5q0 51 25 90.5t71 63t109 23.5q59 0 103.5 -21t69.5 -57t25 -84q0 -72 -48 -119.5t-137 -54.5l-8 7q39 -6 73 -30t54.5 -58.5t20.5 -73.5
q0 -62 -29 -103.5t-81.5 -63.5t-122.5 -22zM274 16q58 0 103 18t71 53t26 87q0 46 -26.5 81.5t-71.5 56t-104 20.5q-52 0 -97.5 -18.5t-74 -54t-28.5 -86.5q0 -49 27 -84t73 -54t102 -19zM344 354q52 0 91.5 19.5t61.5 54t22 78.5q0 61 -46.5 100.5t-123.5 39.5
q-55 0 -94.5 -20t-60.5 -54.5t-21 -76.5q0 -37 22.5 -69.5t61.5 -52t87 -19.5z" />
    <glyph glyph-name="nine" unicode="9" horiz-adv-x="556" 
d="M231 -10q-55 0 -97 19.5t-69.5 55t-39.5 80.5l27 9q11 -40 35 -71.5t61 -49.5t84 -18q62 0 111 32t83 87.5t52 127t19 151.5q-11 -47 -40 -81t-70.5 -51.5t-90.5 -17.5q-59 0 -103.5 24t-68.5 68t-24 103q0 57 26.5 105.5t74.5 77.5t113 29q62 0 109.5 -28.5t74 -83.5
t26.5 -137q0 -84 -19 -161.5t-56.5 -138t-92 -96t-125.5 -35.5zM299 287q53 0 96 24.5t68.5 66t25.5 93.5q0 46 -22 86t-61.5 64t-91.5 24q-57 0 -98.5 -24.5t-64.5 -66t-23 -92.5q0 -53 21 -92t59.5 -61t90.5 -22z" />
    <glyph glyph-name="colon" unicode=":" horiz-adv-x="212" 
d="M101 22q-12 0 -19.5 7.5t-7.5 19.5q0 14 8.5 23.5t21.5 9.5q12 0 19.5 -7.5t7.5 -19.5q0 -14 -8.5 -23.5t-21.5 -9.5zM205 469q-12 0 -19.5 7.5t-7.5 19.5q0 14 8.5 23.5t21.5 9.5q12 0 19.5 -7.5t7.5 -19.5q0 -14 -8.5 -23.5t-21.5 -9.5z" />
    <glyph glyph-name="semicolon" unicode=";" horiz-adv-x="212" 
d="M56 54q17 0 26 -11t9 -29q0 -26 -13.5 -53.5t-36.5 -48t-53 -27.5l-9 21q28 6 47.5 22t31 37t12.5 40l-1 1q-4 -7 -9.5 -9.5t-12.5 -2.5q-12 0 -18.5 8t-6.5 19q0 14 9.5 23.5t24.5 9.5zM160 502q12 0 19.5 -7.5t7.5 -19.5q0 -14 -8.5 -23.5t-21.5 -9.5q-12 0 -19.5 7.5
t-7.5 19.5q0 14 8.5 23.5t21.5 9.5z" />
    <glyph glyph-name="less" unicode="&#x3c;" horiz-adv-x="605" 
d="M589 547l-8 -33l-476 -216l376 -218l-7 -28l-395 231l8 33z" />
    <glyph glyph-name="equal" unicode="=" horiz-adv-x="604" 
d="M562 426l-6 -26h-439l6 26h439zM515 222l-6 -25h-439l7 25h438z" />
    <glyph glyph-name="greater" unicode="&#x3e;" horiz-adv-x="605" 
d="M39 52l8 33l476 216l-376 218l7 28l395 -231l-8 -33z" />
    <glyph glyph-name="question" unicode="?" horiz-adv-x="485" 
d="M197 161l36 155q81 1 133 23t77.5 63t25.5 95q0 68 -43 107t-118 39q-78 0 -125.5 -38t-66.5 -91l-23 15q16 40 44 71.5t70.5 49.5t100.5 18t101 -21t66 -59t23 -90q0 -62 -29.5 -107.5t-83.5 -71.5t-129 -27l-31 -131h-28zM178 -6q-12 0 -19.5 7.5t-7.5 19.5
q0 14 8.5 23.5t21.5 9.5q12 0 19.5 -7.5t7.5 -19.5q0 -14 -8.5 -23.5t-21.5 -9.5z" />
    <glyph glyph-name="at" unicode="@" horiz-adv-x="918" 
d="M453 -176q-114 0 -200.5 46t-134.5 132t-48 207q0 106 34.5 188t93.5 139t136 86.5t162 29.5q93 0 161.5 -28.5t114 -79t67.5 -117.5t22 -144q0 -55 -13 -105.5t-37 -90.5t-57 -63t-73 -23q-34 0 -54 16t-27.5 42t-4.5 52q-23 -44 -65 -72.5t-102 -28.5q-55 0 -94.5 26.5
t-60.5 72.5t-21 102q0 55 16.5 103t46.5 84t70.5 56t88.5 20q50 0 85.5 -20.5t56 -59.5t21.5 -92l38 162h26l-77 -330q-3 -11 -4 -21t-1 -19q0 -41 21.5 -56t44.5 -15q34 0 61.5 22t48 59.5t31.5 83.5t11 94q0 72 -20.5 135.5t-63 111t-107 74t-151.5 26.5
q-80 0 -151.5 -27.5t-127 -81t-88 -131.5t-32.5 -180q0 -85 26 -152.5t74 -114t113 -71t144 -24.5q76 0 139.5 19t98.5 43l13 -20q-26 -16 -64 -31t-85 -24.5t-102 -9.5zM429 33q58 0 101 31.5t67 87t24 126.5q0 61 -19.5 99t-53 55.5t-74.5 17.5q-40 0 -75.5 -18
t-62.5 -49.5t-42.5 -75t-15.5 -96.5q0 -54 20 -94.5t54 -62t77 -21.5z" />
    <glyph glyph-name="A" unicode="A" 
d="M-44 0l415 660h36l109 -660h-28l-96 572l-9 57v0l-33 -54l-362 -575h-32zM116 227l6 26h343l-6 -26h-343z" />
    <glyph glyph-name="B" unicode="B" horiz-adv-x="633" 
d="M41 0l153 660h216q90 0 136 -40.5t46 -108.5q0 -47 -21 -86t-59 -64t-90 -32v0q67 -7 102 -43.5t35 -89.5q0 -63 -29 -107t-83.5 -66.5t-132.5 -22.5h-273zM74 25h240q105 0 160.5 44.5t55.5 126.5q0 33 -15 60.5t-52.5 44t-104.5 16.5h-216zM148 343h224q61 0 104 23.5
t65.5 61.5t22.5 81q0 59 -40.5 92.5t-119.5 33.5h-188z" />
    <glyph glyph-name="C" unicode="C" horiz-adv-x="663" 
d="M347 -10q-75 0 -137 33t-98 96.5t-36 156.5q0 77 21 148t63 126t105 87.5t145 32.5q60 0 108.5 -21t83.5 -61t52 -99l-28 -8q-23 80 -80.5 122t-137.5 42q-75 0 -131.5 -30.5t-95 -82.5t-57.5 -117t-19 -134q0 -84 33 -143.5t88.5 -91t122.5 -31.5q79 0 135.5 34t90.5 96
l25 -15q-39 -66 -102 -103t-151 -37z" />
    <glyph glyph-name="D" unicode="D" horiz-adv-x="690" 
d="M45 0l153 660h193q85 0 143 -35t88.5 -96t30.5 -139q0 -83 -25.5 -154t-73 -124t-115.5 -82.5t-151 -29.5h-243zM79 25h212q76 0 137.5 28t105.5 77.5t67 115.5t23 141q0 71 -26.5 127t-78.5 88.5t-132 32.5h-167z" />
    <glyph glyph-name="E" unicode="E" horiz-adv-x="582" 
d="M41 0l153 660h431l-7 -25h-403l-65 -286h323l-6 -25h-324l-68 -299h421l-6 -25h-449z" />
    <glyph glyph-name="F" unicode="F" horiz-adv-x="540" 
d="M605 635h-390l-65 -286h320l-6 -25h-321l-74 -324h-28l153 660h417z" />
    <glyph glyph-name="G" unicode="G" horiz-adv-x="692" 
d="M343 -9q-73 0 -134 33t-97 96.5t-36 155.5q0 77 21.5 148t65 126.5t108.5 87.5t151 32q57 0 105.5 -19.5t85.5 -58.5t58 -97l-27 -9q-30 79 -88 119t-136 40t-137 -30.5t-99 -82.5t-59.5 -117.5t-19.5 -134.5q0 -83 32.5 -142.5t87.5 -90t122 -30.5q56 0 106.5 20.5
t88.5 68t55 126.5l12 51h-230l6 26h256l-72 -309h-24l40 176l9 8q-18 -71 -56 -113t-88 -61t-107 -19z" />
    <glyph glyph-name="H" unicode="H" horiz-adv-x="689" 
d="M685 660l-153 -660h-28l153 660h28zM222 660l-153 -660h-28l153 660h28zM600 349l-7 -25h-463l6 25h464z" />
    <glyph glyph-name="I" unicode="I" horiz-adv-x="225" 
d="M222 660l-153 -660h-28l153 660h28z" />
    <glyph glyph-name="J" unicode="J" horiz-adv-x="495" 
d="M184 -10q-49 0 -85 17t-57 47.5t-24.5 73.5t13.5 95l26 2q-19 -65 -9.5 -112t45.5 -72.5t93 -25.5q73 0 117.5 43.5t65.5 137.5l107 464h28l-109 -469q-14 -67 -42 -111.5t-69.5 -67t-99.5 -22.5z" />
    <glyph glyph-name="K" unicode="K" horiz-adv-x="563" 
d="M41 0l153 660h28l-91 -388l460 388h43l-315 -265l170 -395h-31l-162 375l-175 -148l-52 -227h-28z" />
    <glyph glyph-name="L" unicode="L" horiz-adv-x="542" 
d="M75 25h400l-6 -25h-428l153 660h28z" />
    <glyph glyph-name="M" unicode="M" horiz-adv-x="783" 
d="M41 0l153 660h38l100 -572l7 -56v0l30 53l368 575h42l-153 -660h-27l128 551l20 77h-1l-399 -628h-28l-108 628h-1l-15 -77l-127 -551h-27z" />
    <glyph glyph-name="N" unicode="N" horiz-adv-x="687" 
d="M41 0l153 660h35l260 -573l23 -57v0l14 66l131 564h27l-153 -660h-35l-261 574l-23 57v0l-13 -67l-131 -564h-27z" />
    <glyph glyph-name="O" unicode="O" horiz-adv-x="718" 
d="M347 -10q-74 0 -136 33.5t-98 98.5t-36 158q0 77 21 147t63 124.5t105 86.5t145 32q74 0 134.5 -34t96.5 -98.5t36 -157.5q0 -76 -21 -146t-63 -125t-103.5 -87t-143.5 -32zM349 16q74 0 130 30t94 81t57 116.5t19 135.5q0 85 -32.5 144.5t-86.5 90t-122 30.5
q-74 0 -130.5 -30t-95 -81t-57.5 -116t-19 -136q0 -85 32.5 -144.5t88 -90t122.5 -30.5z" />
    <glyph glyph-name="P" unicode="P" horiz-adv-x="577" 
d="M41 0l153 660h174q95 0 151.5 -45t56.5 -125q0 -61 -28.5 -109.5t-84 -77t-133.5 -28.5h-209l4 26h211q68 0 115 25.5t72 68t25 94.5q0 68 -48 107t-133 39h-151l-147 -635h-28z" />
    <glyph glyph-name="Q" unicode="Q" horiz-adv-x="718" 
d="M459 -195q-34 0 -62.5 10t-49.5 28.5t-32.5 44.5t-11.5 58q0 14 2.5 28.5t6.5 30.5l25 -1q-5 -15 -6.5 -28t-1.5 -26q0 -56 36.5 -87.5t96.5 -31.5q25 0 50 6.5t45 18.5l6 -25q-21 -13 -48 -19.5t-56 -6.5zM347 -10q-74 0 -136 33.5t-98 98.5t-36 158q0 77 21 147
t63 124.5t105 86.5t145 32q74 0 134.5 -34t96.5 -98.5t36 -157.5q0 -76 -21 -146t-63 -125t-103.5 -87t-143.5 -32zM349 16q74 0 130 30t94 81t57 116.5t19 135.5q0 85 -32.5 144.5t-86.5 90t-122 30.5q-74 0 -130.5 -30t-95 -81t-57.5 -116t-19 -136q0 -85 32.5 -144.5
t88 -90t122.5 -30.5z" />
    <glyph glyph-name="R" unicode="R" horiz-adv-x="612" 
d="M41 0l153 660h204q93 0 143 -44t50 -120q0 -58 -25.5 -103.5t-74.5 -72.5t-121 -28l-10 -2h-234l3 26h231q69 0 113.5 24t66.5 64.5t22 90.5q0 63 -41.5 101.5t-125.5 38.5h-179l-147 -635h-28zM488 0l-119 303l29 2l120 -305h-30z" />
    <glyph glyph-name="S" unicode="S" horiz-adv-x="604" 
d="M308 -8q-72 0 -130 24t-94.5 67t-47.5 102l28 12q8 -55 42 -95.5t87 -62.5t116 -22q56 0 102 18t74.5 52.5t28.5 83.5t-38 81.5t-109 50.5l-84 23q-50 14 -85 38t-53 57t-18 73q0 50 27 90t78 63.5t122 23.5q91 0 155 -39.5t86 -120.5l-27 -12q-14 52 -44.5 84.5
t-74 47.5t-97.5 15q-61 0 -105 -20t-68 -53.5t-24 -75.5q0 -51 34.5 -88t101.5 -56l83 -22q82 -22 125.5 -61t43.5 -95q0 -60 -32.5 -100.5t-86 -61.5t-116.5 -21z" />
    <glyph glyph-name="T" unicode="T" horiz-adv-x="545" 
d="M625 660l-6 -25h-243l-146 -635h-28l146 635h-245l7 25h515z" />
    <glyph glyph-name="U" unicode="U" horiz-adv-x="663" 
d="M310 -10q-87 0 -143.5 35t-76 99.5t0.5 153.5l90 382h28l-91 -390q-19 -81 -0.5 -138t69 -87t124.5 -30q97 0 155 61.5t84 173.5l95 410h28l-96 -419q-28 -118 -92.5 -184.5t-174.5 -66.5z" />
    <glyph glyph-name="V" unicode="V" horiz-adv-x="577" 
d="M654 660l-405 -660h-35l-101 660h28l84 -549l12 -83l44 78l341 554h32z" />
    <glyph glyph-name="W" unicode="W" horiz-adv-x="901" 
d="M177 0l-57 660h27l53 -629l324 629h37l34 -631l345 631h31l-363 -660h-36l-29 498l-7 131h-1l-70 -141l-254 -488h-34z" />
    <glyph glyph-name="X" unicode="X" horiz-adv-x="530" 
d="M-40 0l313 342l-140 318h30l130 -299l267 299h35l-290 -323l147 -337h-29l-138 318l-289 -318h-36z" />
    <glyph glyph-name="Y" unicode="Y" horiz-adv-x="514" 
d="M185 0l59 256l-133 404h30l77 -239l45 -138l115 149l181 228h34l-321 -406l-59 -254h-28z" />
    <glyph glyph-name="Z" unicode="Z" horiz-adv-x="551" 
d="M-24 0l6 25l571 610h-430l6 25h466l-6 -25l-572 -610h457l-7 -25h-491z" />
    <glyph glyph-name="bracketleft" unicode="[" horiz-adv-x="282" 
d="M373 706h-163l-197 -849h164l-6 -25h-190l208 898h190z" />
    <glyph glyph-name="backslash" unicode="\" horiz-adv-x="391" 
d="M144 730h26l115 -800h-27z" />
    <glyph glyph-name="bracketright" unicode="]" horiz-adv-x="283" 
d="M-76 -144h163l197 849h-164l6 25h190l-208 -898h-190z" />
    <glyph glyph-name="asciicircum" unicode="^" horiz-adv-x="538" 
d="M59 355l305 375h30l133 -375h-29l-123 349l-283 -349h-33z" />
    <glyph glyph-name="underscore" unicode="_" horiz-adv-x="507" 
d="M427 -97l-6 -25h-507l6 25h507z" />
    <glyph glyph-name="grave" unicode="`" horiz-adv-x="541" 
d="M354 734l51 -151h-23l-57 151h29z" />
    <glyph glyph-name="a" unicode="a" 
d="M253 -10q-63 0 -108.5 29.5t-70.5 80t-25 116.5q0 62 18 115t51.5 93.5t81 63t105.5 22.5q59 0 100.5 -22.5t64.5 -63.5t24 -95l39 171h28l-116 -500h-26l27 120q-26 -55 -74.5 -92.5t-118.5 -37.5zM260 15q49 0 89.5 24.5t69 65.5t44.5 91.5t16 103.5q0 66 -24.5 106.5
t-63.5 60t-86 19.5q-51 0 -92.5 -20t-72 -56.5t-47 -85.5t-16.5 -109q0 -63 24 -108t65.5 -68.5t93.5 -23.5z" />
    <glyph glyph-name="b" unicode="b" 
d="M343 510q61 0 105 -29.5t67.5 -80t23.5 -115.5q0 -60 -17 -113.5t-48.5 -94t-77 -64t-101.5 -23.5q-60 0 -103.5 24.5t-67.5 67.5t-27 98l-41 -180h-28l168 730h28l-79 -338q29 55 81 86.5t117 31.5zM295 14q48 0 87.5 21t68.5 58t44.5 86t15.5 107q0 63 -22.5 107.5
t-62 68t-88.5 23.5q-53 0 -94 -21t-70 -59.5t-44 -90t-15 -111.5q0 -87 49.5 -138t130.5 -51z" />
    <glyph glyph-name="c" unicode="c" horiz-adv-x="520" 
d="M262 -10q-61 0 -109.5 28t-76 79t-27.5 118q0 82 31 149t88 106.5t135 39.5q49 0 87.5 -18t64.5 -51t36 -79l-28 -7q-13 61 -54 96t-107 35q-53 0 -94 -21t-70.5 -58.5t-45 -85.5t-15.5 -104q0 -62 25 -107.5t67.5 -70t96.5 -24.5q59 0 103.5 31.5t67.5 81.5l24 -11
q-26 -57 -77.5 -92t-121.5 -35z" />
    <glyph glyph-name="d" unicode="d" 
d="M253 -10q-63 0 -108.5 29.5t-70.5 80t-25 116.5q0 62 18 115t51.5 93.5t81 63t105.5 22.5q57 0 99.5 -22.5t65.5 -63.5t23 -99l93 405h28l-169 -730h-26l27 120q-26 -55 -74.5 -92.5t-118.5 -37.5zM260 15q49 0 89.5 24.5t69 65.5t44.5 91.5t16 103.5q0 66 -24.5 106.5
t-63.5 60t-86 19.5q-51 0 -92.5 -20t-72 -56.5t-47 -85.5t-16.5 -109q0 -63 24 -108t65.5 -68.5t93.5 -23.5z" />
    <glyph glyph-name="e" unicode="e" horiz-adv-x="535" 
d="M263 -9q-68 0 -116.5 30.5t-73 82t-24.5 113.5q0 78 29.5 144.5t86.5 107t137 40.5q58 0 100.5 -26.5t65 -72t22.5 -103.5q0 -12 -1 -25.5t-4 -26.5h-420v24h405l-10 -8q1 9 1.5 18t0.5 16q0 50 -19 91t-55 65t-89 24q-52 0 -93.5 -21.5t-70.5 -58.5t-43.5 -85.5
t-14.5 -103.5q0 -58 23 -103.5t65 -71.5t100 -26q60 1 106 29.5t73 73.5l23 -14q-21 -32 -50.5 -58t-68 -40.5t-85.5 -14.5z" />
    <glyph glyph-name="f" unicode="f" horiz-adv-x="327" 
d="M55 0l137 591q12 46 32 78t51.5 49t76.5 17q24 0 43.5 -7t32.5 -19l-11 -24q-12 13 -29 19t-36 6q-58 0 -88.5 -33t-46.5 -100l-18 -77l-2 -12l-114 -488h-28zM64 476l6 24h300l-6 -24h-300z" />
    <glyph glyph-name="g" unicode="g" horiz-adv-x="589" 
d="M210 -215q-42 0 -79 11t-65 32.5t-46.5 52t-26.5 68.5l27 10q15 -73 66.5 -111t126.5 -38q51 0 91.5 18t68.5 59.5t44 107.5l36 157l-1 -18q-24 -53 -76.5 -88t-123.5 -35q-58 0 -104 26t-72 75.5t-26 119.5q0 56 17 106.5t48.5 89t78 60.5t105.5 22q68 0 114 -33.5
t65.5 -89.5t7.5 -125l-6 8l53 230h28l-118 -510q-16 -72 -48 -117.5t-78 -66.5t-107 -21zM257 35q70 0 118 36.5t73 95.5t25 126t-24.5 109.5t-64 63t-85.5 20.5q-70 0 -119.5 -36t-75.5 -94t-26 -125q0 -93 49 -144.5t130 -51.5z" />
    <glyph glyph-name="h" unicode="h" horiz-adv-x="569" 
d="M27 0l170 730h28l-85 -362l-6 -1q15 41 45 73.5t73.5 51t98.5 18.5q58 0 97.5 -26t54.5 -74t0 -115l-69 -295h-28l68 294q21 93 -15.5 142.5t-112.5 49.5q-63 0 -108 -26t-73.5 -69.5t-41.5 -96.5l-68 -294h-28z" />
    <glyph glyph-name="i" unicode="i" horiz-adv-x="198" 
d="M183 598q-12 0 -19 7.5t-7 18.5q0 14 8.5 23t21.5 9q12 0 19.5 -7.5t7.5 -18.5q0 -15 -8.5 -23.5t-22.5 -8.5zM170 500l-116 -500h-28l116 500h28z" />
    <glyph glyph-name="j" unicode="j" horiz-adv-x="196" 
d="M183 598q-12 0 -19 7.5t-7 18.5q0 14 8.5 23t21.5 9q12 0 19.5 -7.5t7.5 -18.5q0 -15 -8.5 -23.5t-22.5 -8.5zM-110 -215q-21 0 -39 6t-30 15l11 24q12 -8 26.5 -13.5t30.5 -5.5q47 0 77 31t45 95l131 563h28l-133 -574q-15 -67 -51.5 -104t-95.5 -37z" />
    <glyph glyph-name="k" unicode="k" horiz-adv-x="487" 
d="M524 500l-264 -207l-9 -6l-178 -140l8 38l401 315h42zM224 730l-169 -730h-28l169 730h28zM261 306l153 -306h-30l-146 293z" />
    <glyph glyph-name="l" unicode="l" horiz-adv-x="245" 
d="M124 -9q-52 0 -69.5 35t-3.5 98l140 606h28l-141 -609q-12 -53 0.5 -79t53.5 -26q17 0 29 2t23 6l-6 -23q-9 -5 -23 -7.5t-31 -2.5z" />
    <glyph glyph-name="m" unicode="m" horiz-adv-x="936" 
d="M27 0l116 500h26l-30 -135l-5 2q22 62 77.5 102.5t138.5 40.5q59 0 96.5 -26t50.5 -73.5t-3 -115.5l-68 -295h-28l67 294q22 92 -11.5 142t-108.5 50q-62 0 -107.5 -26t-73.5 -69.5t-41 -96.5l-68 -294h-28zM769 0l67 294q21 92 -12 142t-108 50q-63 0 -108.5 -27
t-74 -71.5t-41.5 -99.5l3 71q29 70 85.5 110.5t140.5 40.5q59 0 96 -26t50.5 -73.5t-2.5 -115.5l-68 -295h-28z" />
    <glyph glyph-name="n" unicode="n" horiz-adv-x="569" 
d="M27 0l116 500h26l-30 -135l-5 2q22 62 78 102.5t139 40.5q59 0 98.5 -26t54 -74t-0.5 -115l-69 -295h-28l68 294q21 93 -15.5 142.5t-112.5 49.5q-63 0 -108 -26t-73.5 -69.5t-41.5 -96.5l-68 -294h-28z" />
    <glyph glyph-name="o" unicode="o" horiz-adv-x="567" 
d="M267 -9q-70 0 -118.5 30.5t-73.5 82t-25 112.5q0 86 31.5 152t88.5 103.5t132 37.5q70 0 118 -30.5t73 -81t25 -112.5q0 -85 -31.5 -151.5t-88 -104.5t-131.5 -38zM267 15q49 0 90 19.5t70.5 55.5t46 85.5t16.5 108.5q0 61 -23 105.5t-65 70t-101 25.5q-49 0 -90 -19.5
t-71 -55t-46 -85t-16 -108.5q0 -60 23 -105.5t66 -71t100 -25.5z" />
    <glyph glyph-name="p" unicode="p" 
d="M-21 -210l164 710h26l-34 -152l-6 5q16 50 47.5 84.5t74.5 53.5t92 19q61 0 105 -29.5t67.5 -80t23.5 -114.5q0 -61 -17 -114.5t-49 -94t-77 -64t-102 -23.5q-63 0 -108 27.5t-68 76t-22 111.5l13 26l-102 -441h-28zM295 14q48 0 87.5 21t68.5 58t44.5 86.5t15.5 107.5
q0 62 -22.5 106.5t-62 68t-89.5 23.5q-52 0 -93 -21t-69.5 -59.5t-44 -90t-15.5 -111.5q0 -87 49.5 -138t130.5 -51z" />
    <glyph glyph-name="q" unicode="q" 
d="M369 -210l83 360l-3 -29q-25 -57 -72.5 -94t-120.5 -37q-65 0 -111.5 29.5t-71 81t-24.5 115.5q0 62 17.5 115.5t50.5 93.5t79 62.5t103 22.5q72 0 117 -35t62.5 -91t5.5 -121l-4 8l53 229h28l-164 -710h-28zM257 15q49 0 89 20t68.5 57.5t43.5 87.5t15 110
q0 69 -24 112.5t-64 63.5t-85 20q-49 0 -90 -20t-70.5 -56.5t-46 -85.5t-16.5 -109q0 -61 23 -106t63.5 -69.5t93.5 -24.5z" />
    <glyph glyph-name="r" unicode="r" horiz-adv-x="347" 
d="M27 0l116 500h25l-30 -144l-7 7q19 42 45.5 75t62 52.5t82.5 19.5q17 0 33 -3t27 -11l-11 -25q-10 8 -24.5 11t-31.5 3q-48 0 -87 -25.5t-65 -68.5t-38 -96l-69 -295h-28z" />
    <glyph glyph-name="s" unicode="s" horiz-adv-x="493" 
d="M237 -10q-61 0 -106.5 19t-72 54t-31.5 82l27 9q6 -64 53 -102t130 -38q73 0 113 33.5t40 85.5q0 36 -20.5 58.5t-66.5 35.5l-101 28q-55 16 -83.5 44t-28.5 74q0 42 22.5 72.5t63 47t92.5 16.5q73 0 125.5 -33.5t64.5 -106.5l-25 -11q-6 44 -30 72.5t-60 41.5t-78 13
q-67 0 -107.5 -30t-40.5 -79q0 -39 24.5 -61t68.5 -35l104 -29q53 -16 78.5 -43.5t25.5 -71.5q0 -43 -22.5 -76.5t-63 -51.5t-95.5 -18z" />
    <glyph glyph-name="t" unicode="t" horiz-adv-x="343" 
d="M194 -10q-44 0 -71.5 18t-37 52t1.5 82l112 484l30 9l-115 -495q-13 -60 8 -92.5t76 -32.5q25 0 45.5 7t38.5 20l7 -23q-18 -14 -43 -21.5t-52 -7.5zM60 476l6 24h297l-7 -24h-296z" />
    <glyph glyph-name="u" unicode="u" horiz-adv-x="569" 
d="M227 -10q-63 0 -104.5 25.5t-56 74.5t0.5 118l68 292h28l-67 -293q-22 -94 16 -143t120 -49q58 0 101.5 25.5t71.5 69t41 96.5l68 294h28l-116 -500h-26l30 135l5 -2q-25 -64 -78 -103.5t-130 -39.5z" />
    <glyph glyph-name="v" unicode="v" horiz-adv-x="477" 
d="M484 500h32l-321 -500h-29l-89 500h28l84 -478l-7 3z" />
    <glyph glyph-name="w" unicode="w" horiz-adv-x="771" 
d="M132 0l-48 500h28l42 -462l272 462h28l61 -462l255 462h31l-279 -500h-28l-62 460l-271 -460h-29z" />
    <glyph glyph-name="x" unicode="x" horiz-adv-x="474" 
d="M-37 0l264 267l6 6l223 227h37l-243 -246l-10 -10l-240 -244h-37zM369 0l-139 247l-3 6l-140 247h32l127 -225l4 -7l151 -268h-32z" />
    <glyph glyph-name="y" unicode="y" horiz-adv-x="478" 
d="M-23 -215q-28 0 -49 8t-31 24l16 21q21 -28 65 -28q37 0 68.5 23.5t65.5 78.5l56 89l-90 499h28l74 -414l9 -55l36 58l260 411h32l-382 -600q-26 -42 -51 -67.5t-50.5 -36.5t-56.5 -11z" />
    <glyph glyph-name="z" unicode="z" horiz-adv-x="473" 
d="M-15 0l5 24l407 406l49 46h-70h-285l6 24h388l-5 -24l-383 -382l-71 -70h85h280l-5 -24h-401z" />
    <glyph glyph-name="braceleft" unicode="{" horiz-adv-x="273" 
d="M139 -174q-51 0 -75 32.5t-11 85.5l54 235q11 47 -13.5 71t-68.5 23h-7l5 24h9q49 0 81 23t40 61l59 257q11 47 43 75.5t83 28.5h21l-5 -22h-17q-42 0 -66 -23.5t-33 -64.5l-58 -255q-7 -31 -34 -59t-71 -35q38 -10 52.5 -37.5t6.5 -67.5l-55 -237q-10 -43 8.5 -67.5
t57.5 -26.5h8l-5 -21h-9z" />
    <glyph glyph-name="bar" unicode="|" horiz-adv-x="179" 
d="M213 730l-208 -898h-25l208 898h25z" />
    <glyph glyph-name="braceright" unicode="}" horiz-adv-x="273" 
d="M-71 -174l5 22h18q43 0 66 24t33 65l58 255q7 31 34 59t71 35q-38 10 -53 37.5t-6 66.5l55 237q10 43 -8.5 68t-57.5 26h-9l6 21h9q34 0 55.5 -14t30 -40.5t0.5 -62.5l-55 -236q-10 -45 14.5 -69.5t68.5 -23.5h7l-6 -24h-8q-50 0 -81.5 -23t-40.5 -61l-59 -257
q-10 -47 -41.5 -76t-83.5 -29h-22z" />
    <glyph glyph-name="asciitilde" unicode="~" horiz-adv-x="490" 
d="M478 393q-12 -36 -30.5 -59t-42.5 -34t-51 -11q-31 0 -53.5 11t-41.5 26t-38.5 26t-44.5 11q-33 0 -57 -19.5t-39 -59.5h-27q12 35 30.5 58t43 34.5t52.5 11.5q29 0 49.5 -11t39 -26t39.5 -26t49 -11q32 0 56 19.5t38 59.5h28z" />
    <glyph glyph-name="uni00A0" unicode="&#xa0;" horiz-adv-x="289" 
 />
    <glyph glyph-name="exclamdown" unicode="&#xa1;" horiz-adv-x="191" 
d="M123 323l-29 -139l-80 -344h-29l80 344l34 139h24zM147 506q12 0 19.5 -7.5t7.5 -19.5q0 -14 -8.5 -23.5t-21.5 -9.5q-12 0 -19.5 7.5t-7.5 19.5q0 14 8.5 23.5t21.5 9.5z" />
    <glyph glyph-name="cent" unicode="&#xa2;" horiz-adv-x="546" 
d="M277 -10q-63 0 -112.5 28t-77.5 78.5t-28 117.5q0 83 31.5 150t89 106.5t138.5 39.5q51 0 90.5 -18t66 -51t36.5 -79l-27 -7q-12 61 -55 96t-112 35q-71 0 -123 -36.5t-80 -97t-28 -135.5q0 -62 25.5 -108t69.5 -70.5t100 -24.5q61 0 108 32t69 82l24 -11
q-27 -57 -80 -92t-125 -35zM190 -100l162 700h24l-162 -700h-24z" />
    <glyph glyph-name="sterling" unicode="&#xa3;" horiz-adv-x="566" 
d="M76 298l5 24h343l-6 -24h-342zM354 -4q-42 0 -73 12t-55.5 29.5t-46 35.5t-44 30t-51.5 12q-25 0 -41 -14t-16 -35q0 -23 15.5 -35.5t36.5 -12.5q37 0 65.5 24.5t45 64t16.5 83.5q0 42 -6.5 76.5t-14 66t-14 63t-6.5 67.5q0 61 26.5 107.5t71.5 73.5t102 27
q48 0 84 -19.5t58 -54t25 -81.5l-26 -8q-5 62 -42 100t-99 38q-51 0 -90.5 -24.5t-61 -66t-21.5 -93.5q0 -47 9.5 -86.5t19 -82.5t9.5 -102q0 -37 -11 -71.5t-31.5 -62.5t-48.5 -44t-62 -16q-31 0 -53.5 19t-22.5 49q0 32 24.5 52t59.5 20q32 0 57 -12t47 -29.5t45 -35
t52 -29.5t67 -12q52 0 80.5 28.5t40.5 78.5l24 -9q-10 -36 -28 -63t-46.5 -42.5t-69.5 -15.5z" />
    <glyph glyph-name="currency" unicode="&#xa4;" horiz-adv-x="613" 
d="M325 520q55 0 96 -23t63.5 -65.5t22.5 -99.5t-22.5 -99.5t-63.5 -66.5t-96 -24q-54 0 -95.5 24t-64.5 66.5t-23 99.5t23 99.5t64.5 65.5t95.5 23zM325 495q-70 0 -112.5 -44.5t-42.5 -118.5q0 -75 42.5 -120t112.5 -45q71 0 112.5 45t41.5 120q0 74 -41.5 118.5
t-112.5 44.5zM101 573l108 -109l-19 -18l-108 108zM191 216l19 -20l-109 -110l-19 20zM457 215l111 -110l-18 -19l-110 110zM550 573l18 -18l-108 -110l-19 20z" />
    <glyph glyph-name="yen" unicode="&#xa5;" horiz-adv-x="574" 
d="M216 0l30 128h-200l5 22h200l23 102h-199l5 23h153l39 -1l-135 386h31l114 -340l11 -38h2l28 38l271 340h33l-312 -386l38 1h154l-6 -23h-201l-23 -102h200l-4 -22h-201l-30 -128h-26z" />
    <glyph glyph-name="brokenbar" unicode="&#xa6;" horiz-adv-x="179" 
d="M213 730l-85 -365h-25l85 365h25zM90 197l-85 -365h-25l85 365h25z" />
    <glyph glyph-name="section" unicode="&#xa7;" horiz-adv-x="559" 
d="M247 -110q-47 0 -86 12t-68 37t-46 62l25 14q22 -50 69 -75.5t109 -25.5q81 0 120 34.5t39 86.5q0 42 -23.5 67t-66.5 39l-136 45q-57 18 -92 47t-35 82q0 30 15.5 56.5t48.5 43t85 19.5l14 -15q-73 -4 -104.5 -33.5t-31.5 -67.5q0 -44 30 -68.5t83 -41.5l131 -43
q52 -17 81 -46.5t29 -78.5q0 -43 -21 -77t-63 -53.5t-106 -19.5zM366 130l-11 16q42 -2 72.5 11.5t47 39.5t16.5 58q0 37 -24 59t-87 43l-105 34q-49 16 -75 36.5t-36 45.5t-10 53q0 38 21.5 71t64.5 53t106 20q42 0 79 -10.5t66 -33t46 -59.5l-24 -14q-24 51 -68.5 72
t-100.5 21q-53 0 -89 -17t-54 -43.5t-18 -57.5q0 -35 19.5 -63.5t83.5 -50.5l108 -35q66 -22 94.5 -49.5t28.5 -71.5q0 -34 -17.5 -63.5t-51 -47t-82.5 -17.5z" />
    <glyph glyph-name="dieresis" unicode="&#xa8;" horiz-adv-x="541" 
d="M448 595q-11 0 -18.5 7.5t-7.5 17.5q0 14 8.5 23t21.5 9q12 0 19 -7t7 -18q0 -14 -8.5 -23t-21.5 -9zM262 595q-11 0 -18 7.5t-7 17.5q0 14 8 23t21 9q12 0 19 -7t7 -18q0 -14 -8.5 -23t-21.5 -9z" />
    <glyph glyph-name="copyright" unicode="&#xa9;" horiz-adv-x="792" 
d="M415 -10q-100 0 -175.5 44.5t-117 122t-41.5 173.5q0 97 41.5 174t117 121.5t175.5 44.5t175 -44.5t117 -121.5t42 -174q0 -96 -42 -173.5t-117 -122t-175 -44.5zM415 14q92 0 161 41.5t107.5 113t38.5 161.5t-38.5 161.5t-107.5 113t-161 41.5t-161.5 -41.5t-108 -113
t-38.5 -161.5t38.5 -161.5t108 -113t161.5 -41.5zM426 143q-85 0 -133.5 49t-48.5 136t48.5 136t133.5 49q57 0 95.5 -25t54.5 -74l-22 -11q-14 44 -46.5 65.5t-82.5 21.5q-73 0 -114.5 -43t-41.5 -119t41.5 -119t114.5 -43q50 0 86 25.5t47 69.5l23 -9q-14 -50 -56 -79.5
t-99 -29.5z" />
    <glyph glyph-name="ordfeminine" unicode="&#xaa;" horiz-adv-x="371" 
d="M215 327q-59 0 -93 39.5t-34 106.5q0 39 11.5 73.5t33 61.5t50.5 42.5t65 15.5q40 0 66 -18t37.5 -51t7.5 -79l-7 -14l37 156h26l-77 -324h-24l22 95l3 -6q-13 -41 -46 -69.5t-78 -28.5zM41 219l5 21h271l-5 -21h-271zM219 349q41 0 69.5 24.5t43.5 64.5t15 85
q0 61 -26 91t-73 30q-43 0 -73.5 -25t-46.5 -64t-16 -81q0 -57 28.5 -91t78.5 -34z" />
    <glyph glyph-name="guillemotleft" unicode="&#xab;" horiz-adv-x="401" 
d="M271 461l-197 -205v20l100 -207h-29l-95 196l186 196h35zM400 461l-197 -205v20l100 -207h-29l-95 196l186 196h35z" />
    <glyph glyph-name="logicalnot" unicode="&#xac;" horiz-adv-x="604" 
d="M546 317l-34 -149h-28l34 149h28zM549 329l-6 -26h-457l6 26h457z" />
    <glyph glyph-name="uni00AD" unicode="&#xad;" horiz-adv-x="434" 
d="M369 283l-6 -29h-290l6 29h290z" />
    <glyph glyph-name="registered" unicode="&#xae;" horiz-adv-x="811" 
d="M424 670q103 0 179.5 -42.5t119.5 -119t43 -178.5t-43 -178.5t-119.5 -119t-179.5 -42.5t-180 42.5t-119.5 119t-42.5 178.5t42.5 178.5t119.5 119t180 42.5zM326 513v-370h-25v370h25zM468 321l116 -178h-29l-109 169zM424 646q-94 0 -165.5 -39.5t-111 -110.5
t-39.5 -166t39.5 -166t111 -110.5t165.5 -39.5q95 0 165.5 39.5t110.5 110.5t40 166t-40 166t-110.5 110.5t-165.5 39.5zM455 513q40 0 67 -12t41.5 -35t14.5 -57q0 -50 -31.5 -77t-91.5 -27h-142v20h142q49 1 73.5 22t24.5 62q0 42 -24.5 62.5t-73.5 20.5h-142v21h142z" />
    <glyph glyph-name="macron" unicode="&#xaf;" horiz-adv-x="541" 
d="M495 627l-5 -24h-277l6 24h276z" />
    <glyph glyph-name="degree" unicode="&#xb0;" horiz-adv-x="375" 
d="M252 389q-42 0 -74 17.5t-49.5 49.5t-17.5 73q0 42 17.5 74t49.5 49.5t74 17.5t73.5 -17.5t49.5 -49.5t18 -74q0 -41 -18 -73t-49.5 -49.5t-73.5 -17.5zM252 412q52 0 83 33t31 84q0 52 -31 84.5t-83 32.5t-83.5 -32.5t-31.5 -84.5q0 -51 31.5 -84t83.5 -33z" />
    <glyph glyph-name="plusminus" unicode="&#xb1;" horiz-adv-x="604" 
d="M402 625l-117 -510h-27l118 510h26zM562 385l-7 -25h-456l6 25h457zM479 25l-7 -25h-456l6 25h457z" />
    <glyph glyph-name="uni00B2" unicode="&#xb2;" horiz-adv-x="381" 
d="M97 333l5 23q42 30 87.5 61.5t84.5 64.5t63.5 70.5t24.5 80.5q0 39 -22.5 59.5t-60.5 20.5q-44 0 -75.5 -27.5t-40.5 -73.5l-23 12q13 50 49 80.5t91 30.5q50 0 79 -28t29 -72q0 -47 -24 -86t-62.5 -72.5t-82.5 -63.5t-83 -58v0h18.5h18.5h187l-5 -22h-258z" />
    <glyph glyph-name="uni00B3" unicode="&#xb3;" horiz-adv-x="371" 
d="M226 327q-52 0 -88.5 26.5t-47.5 80.5l24 7q9 -48 39 -69.5t73 -21.5q45 0 71.5 25t26.5 67q0 40 -25.5 60t-62.5 20h-8t-9 -1l6 24q6 -1 11.5 -1h10.5q42 0 71 25.5t29 67.5q0 37 -23 56.5t-64 19.5q-35 0 -62.5 -17t-39.5 -48l-23 12q17 35 49.5 55t76.5 20
q51 0 81.5 -26t30.5 -69q0 -47 -27.5 -74t-63.5 -34l-1 -2q26 -7 47.5 -27.5t21.5 -60.5q0 -35 -16.5 -61t-44.5 -40t-63 -14z" />
    <glyph glyph-name="acute" unicode="&#xb4;" horiz-adv-x="600" 
d="M437 734h34l-126 -151h-27z" />
    <glyph glyph-name="uni00B5" unicode="&#xb5;" horiz-adv-x="577" 
d="M-21 -210l164 710h28l-68 -296q-20 -87 17.5 -138t119.5 -51q58 0 101.5 25.5t71.5 69t41 96.5l68 294h28l-116 -500h-26l25 110q-28 -54 -77.5 -87t-118.5 -33q-64 0 -106 32t-49 87v0l-75 -319h-28z" />
    <glyph glyph-name="paragraph" unicode="&#xb6;" horiz-adv-x="547" 
d="M193 -100l79 342q-46 1 -82 14t-60.5 37.5t-37.5 59t-13 77.5q0 68 27 119.5t82.5 81t139.5 29.5h231l-176 -760h-26l169 736h-137l-170 -736h-26zM277 266l85 370h-40q-73 0 -121.5 -26.5t-71.5 -72.5t-23 -106q0 -75 44 -120t127 -45z" />
    <glyph glyph-name="periodcentered" unicode="&#xb7;" horiz-adv-x="197" 
d="M122 329q-12 0 -19.5 7.5t-7.5 19.5q0 14 8.5 23.5t21.5 9.5q12 0 19.5 -7.5t7.5 -19.5q0 -14 -8.5 -23.5t-21.5 -9.5z" />
    <glyph glyph-name="cedilla" unicode="&#xb8;" horiz-adv-x="581" 
d="M215 2l22 6q29 -19 46 -45t17 -59q0 -34 -14 -58t-38.5 -37t-55.5 -13q-36 0 -57 14t-31 32l14 18q10 -17 27.5 -29t47.5 -12q36 0 59.5 23t23.5 61q0 30 -15.5 54.5t-45.5 44.5z" />
    <glyph glyph-name="uni00B9" unicode="&#xb9;" horiz-adv-x="221" 
d="M147 333l70 301q3 12 5.5 23.5t5.5 21.5t5 17q-18 -18 -49.5 -36.5t-73.5 -30.5l2 22q20 7 45.5 18.5t49 27.5t37.5 33h21l-92 -397h-26z" />
    <glyph glyph-name="ordmasculine" unicode="&#xba;" horiz-adv-x="373" 
d="M228 325q-57 0 -93.5 36t-36.5 111q0 54 20 98t56.5 69.5t84.5 25.5q58 0 93.5 -35.5t35.5 -110.5q0 -53 -20 -97t-55.5 -70.5t-84.5 -26.5zM47 219l5 21h265l-5 -21h-265zM228 347q41 0 71 24t46.5 63t16.5 84q0 65 -28.5 95.5t-74.5 30.5q-41 0 -71 -24t-47 -63
t-17 -84q0 -66 29.5 -96t74.5 -30z" />
    <glyph glyph-name="guillemotright" unicode="&#xbb;" horiz-adv-x="402" 
d="M8 69l196 205l1 -20l-101 207h29l96 -196l-187 -196h-34zM137 69l196 205l1 -20l-101 207h29l96 -196l-187 -196h-34z" />
    <glyph glyph-name="onequarter" unicode="&#xbc;" horiz-adv-x="714" 
d="M132 268l70 301q3 12 5.5 23.5t5.5 21.5t5 17q-18 -18 -49.5 -36.5t-73.5 -30.5l2 22q20 7 45.5 18.5t49 27.5t37.5 33h21l-92 -397h-26zM30 0l616 660h33l-616 -660h-33zM522 -4l27 116h-191l4 21q7 8 13 14.5t12.5 14t14.5 14.5l201 217h35l-61 -260h78l-4 -21h-78
l-27 -116h-24zM389 133h164l55 235l-181 -196q-9 -9 -18.5 -19t-19.5 -20z" />
    <glyph glyph-name="onehalf" unicode="&#xbd;" horiz-adv-x="832" 
d="M132 268l70 301q3 12 5.5 23.5t5.5 21.5t5 17q-18 -18 -49.5 -36.5t-73.5 -30.5l2 22q20 7 45.5 18.5t49 27.5t37.5 33h21l-92 -397h-26zM30 0l616 660h33l-616 -660h-33zM470 -4l5 23q42 30 87.5 61.5t84.5 64.5t63.5 70.5t24.5 80.5q0 39 -22.5 59.5t-60.5 20.5
q-44 0 -75.5 -27.5t-40.5 -73.5l-23 12q13 50 49 80.5t91 30.5q50 0 79 -28t29 -72q0 -47 -24 -86t-62.5 -72.5t-82.5 -63.5t-83 -58v0h18.5h18.5h187l-5 -22h-258z" />
    <glyph glyph-name="threequarters" unicode="&#xbe;" horiz-adv-x="863" 
d="M211 262q-52 0 -88.5 26.5t-47.5 80.5l24 7q9 -48 39 -69.5t73 -21.5q45 0 71.5 25t26.5 67q0 40 -25.5 60t-62.5 20h-8t-9 -1l6 24q6 -1 11.5 -1h10.5q42 0 71 25.5t29 67.5q0 37 -23 56.5t-64 19.5q-35 0 -62.5 -17t-39.5 -48l-23 12q17 35 49.5 55t76.5 20
q51 0 81.5 -26t30.5 -69q0 -47 -27.5 -74t-63.5 -34l-1 -2q26 -7 47.5 -27.5t21.5 -60.5q0 -35 -16.5 -61t-44.5 -40t-63 -14zM180 0l616 660h33l-616 -660h-33zM672 -4l27 116h-191l4 21q7 8 13 14.5t12.5 14t14.5 14.5l201 217h35l-61 -260h78l-4 -21h-78l-27 -116h-24z
M539 133h164l55 235l-181 -196q-9 -9 -18.5 -19t-19.5 -20z" />
    <glyph glyph-name="questiondown" unicode="&#xbf;" horiz-adv-x="457" 
d="M289 335l-36 -155q-81 -1 -133 -23t-77.5 -63t-25.5 -95q0 -68 43 -107t118 -39q78 0 125.5 38t66.5 91l23 -15q-16 -40 -44 -71.5t-70.5 -49.5t-100.5 -18t-101 21t-66 59t-23 90q0 62 29.5 107.5t83.5 71.5t129 27l31 131h28zM308 502q12 0 19.5 -7.5t7.5 -19.5
q0 -14 -8.5 -23.5t-21.5 -9.5q-12 0 -19.5 7.5t-7.5 19.5q0 14 8.5 23.5t21.5 9.5z" />
    <glyph glyph-name="Agrave" unicode="&#xc0;" 
d="M-44 0l415 660h36l109 -660h-28l-96 572l-9 57v0l-33 -54l-362 -575h-32zM116 227l6 26h343l-6 -26h-343zM376 893l42 -150h-22l-49 150h29z" />
    <glyph glyph-name="Aacute" unicode="&#xc1;" 
d="M-44 0l415 660h36l109 -660h-28l-96 572l-9 57v0l-33 -54l-362 -575h-32zM116 227l6 26h343l-6 -26h-343zM491 893h33l-113 -150h-26z" />
    <glyph glyph-name="Acircumflex" unicode="&#xc2;" 
d="M-44 0l415 660h36l109 -660h-28l-96 572l-9 57v0l-33 -54l-362 -575h-32zM116 227l6 26h343l-6 -26h-343zM452 888l75 -145h-26l-67 125l-125 -125h-30l142 145h31z" />
    <glyph glyph-name="Atilde" unicode="&#xc3;" 
d="M-44 0l415 660h36l109 -660h-28l-96 572l-9 57v0l-33 -54l-362 -575h-32zM116 227l6 26h343l-6 -26h-343zM575 849q-13 -48 -38 -70.5t-54 -22.5q-25 0 -41 10.5t-28.5 24t-26 24t-33.5 10.5q-27 0 -42 -18t-28 -52h-24q13 48 37.5 70.5t59.5 22.5q24 0 40 -10.5
t28.5 -24t26 -24t33.5 -10.5q22 0 38.5 18.5t28.5 51.5h23z" />
    <glyph glyph-name="Adieresis" unicode="&#xc4;" 
d="M-44 0l415 660h36l109 -660h-28l-96 572l-9 57v0l-33 -54l-362 -575h-32zM116 227l6 26h343l-6 -26h-343zM498 755q-11 0 -18.5 7.5t-7.5 17.5q0 14 8.5 23t21.5 9q12 0 19 -7t7 -18q0 -14 -8.5 -23t-21.5 -9zM312 755q-11 0 -18 7.5t-7 17.5q0 14 8 23t21 9q12 0 19 -7
t7 -18q0 -14 -8.5 -23t-21.5 -9z" />
    <glyph glyph-name="Aring" unicode="&#xc5;" 
d="M-44 0l415 660h36l109 -660h-28l-96 572l-9 57v0l-33 -54l-362 -575h-32zM116 227l6 26h343l-6 -26h-343zM400 814q38 0 62 -22.5t24 -57.5q0 -42 -27 -68.5t-66 -26.5q-38 0 -62.5 23t-24.5 57q0 41 26.5 68t67.5 27zM399 793q-30 0 -50 -21t-20 -52q0 -26 18 -43
t46 -17t48.5 19.5t20.5 53.5q0 26 -17 43t-46 17z" />
    <glyph glyph-name="AE" unicode="&#xc6;" horiz-adv-x="881" 
d="M-63 0l556 660h433l-7 -25h-371l-66 -287h295l-6 -26h-295l-68 -297h387l-6 -25h-416l58 246h-252l-204 -246h-38zM200 272h236l84 363h-15z" />
    <glyph glyph-name="Ccedilla" unicode="&#xc7;" horiz-adv-x="663" 
d="M347 -10q-75 0 -137 33t-98 96.5t-36 156.5q0 77 21 148t63 126t105 87.5t145 32.5q60 0 108.5 -21t83.5 -61t52 -99l-28 -8q-23 80 -80.5 122t-137.5 42q-75 0 -131.5 -30.5t-95 -82.5t-57.5 -117t-19 -134q0 -84 33 -143.5t88.5 -91t122.5 -31.5q79 0 135.5 34t90.5 96
l25 -15q-39 -66 -102 -103t-151 -37zM313 2l22 6q29 -19 46 -45t17 -59q0 -34 -14 -58t-38.5 -37t-55.5 -13q-36 0 -57 14t-31 32l14 18q10 -17 27.5 -29t47.5 -12q36 0 59.5 23t23.5 61q0 30 -15.5 54.5t-45.5 44.5z" />
    <glyph glyph-name="Egrave" unicode="&#xc8;" horiz-adv-x="582" 
d="M41 0l153 660h431l-7 -25h-403l-65 -286h323l-6 -25h-324l-68 -299h421l-6 -25h-449zM389 893l42 -150h-22l-49 150h29z" />
    <glyph glyph-name="Eacute" unicode="&#xc9;" horiz-adv-x="582" 
d="M41 0l153 660h431l-7 -25h-403l-65 -286h323l-6 -25h-324l-68 -299h421l-6 -25h-449zM507 893h33l-113 -150h-26z" />
    <glyph glyph-name="Ecircumflex" unicode="&#xca;" horiz-adv-x="582" 
d="M41 0l153 660h431l-7 -25h-403l-65 -286h323l-6 -25h-324l-68 -299h421l-6 -25h-449zM468 888l75 -145h-26l-67 125l-125 -125h-30l142 145h31z" />
    <glyph glyph-name="Edieresis" unicode="&#xcb;" horiz-adv-x="582" 
d="M41 0l153 660h431l-7 -25h-403l-65 -286h323l-6 -25h-324l-68 -299h421l-6 -25h-449zM514 755q-11 0 -18.5 7.5t-7.5 17.5q0 14 8.5 23t21.5 9q12 0 19 -7t7 -18q0 -14 -8.5 -23t-21.5 -9zM328 755q-11 0 -18 7.5t-7 17.5q0 14 8 23t21 9q12 0 19 -7t7 -18
q0 -14 -8.5 -23t-21.5 -9z" />
    <glyph glyph-name="Igrave" unicode="&#xcc;" horiz-adv-x="225" 
d="M222 660l-153 -660h-28l153 660h28zM194 893l42 -150h-22l-49 150h29z" />
    <glyph glyph-name="Iacute" unicode="&#xcd;" horiz-adv-x="225" 
d="M222 660l-153 -660h-28l153 660h28zM316 893h33l-113 -150h-26z" />
    <glyph glyph-name="Icircumflex" unicode="&#xce;" horiz-adv-x="225" 
d="M222 660l-153 -660h-28l153 660h28zM275 888l75 -145h-26l-67 125l-125 -125h-30l142 145h31z" />
    <glyph glyph-name="Idieresis" unicode="&#xcf;" horiz-adv-x="224" 
d="M294 755q-11 0 -18 7t-7 18q0 14 8 23t21 9q12 0 19 -7t7 -18q0 -14 -8.5 -23t-21.5 -9zM161 755q-11 0 -18.5 7t-7.5 18q0 14 8.5 23t21.5 9q12 0 18.5 -7t6.5 -18q0 -14 -8 -23t-21 -9zM222 660l-153 -660h-28l153 660h28z" />
    <glyph glyph-name="Eth" unicode="&#xd0;" horiz-adv-x="699" 
d="M23 321l6 26h337l-5 -26h-338zM54 0l153 660h193q85 0 143 -35t88.5 -96t30.5 -139q0 -83 -25 -154t-73 -124t-115.5 -82.5t-151.5 -29.5h-243zM88 25h212q77 0 138.5 28t105 77.5t66.5 115.5t23 141q0 71 -26.5 127t-78.5 88.5t-132 32.5h-167z" />
    <glyph glyph-name="Ntilde" unicode="&#xd1;" horiz-adv-x="687" 
d="M41 0l153 660h35l260 -573l23 -57v0l14 66l131 564h27l-153 -660h-35l-261 574l-23 57v0l-13 -67l-131 -564h-27zM624 849q-13 -48 -38 -70.5t-54 -22.5q-25 0 -41 10.5t-28.5 24t-26 24t-33.5 10.5q-27 0 -42 -18t-28 -52h-24q13 48 37.5 70.5t59.5 22.5q24 0 40 -10.5
t28.5 -24t26 -24t33.5 -10.5q22 0 38.5 18.5t28.5 51.5h23z" />
    <glyph glyph-name="Ograve" unicode="&#xd2;" horiz-adv-x="718" 
d="M347 -10q-74 0 -136 33.5t-98 98.5t-36 158q0 77 21 147t63 124.5t105 86.5t145 32q74 0 134.5 -34t96.5 -98.5t36 -157.5q0 -76 -21 -146t-63 -125t-103.5 -87t-143.5 -32zM349 16q74 0 130 30t94 81t57 116.5t19 135.5q0 85 -32.5 144.5t-86.5 90t-122 30.5
q-74 0 -130.5 -30t-95 -81t-57.5 -116t-19 -136q0 -85 32.5 -144.5t88 -90t122.5 -30.5zM411 893l42 -150h-22l-49 150h29z" />
    <glyph glyph-name="Oacute" unicode="&#xd3;" horiz-adv-x="718" 
d="M347 -10q-74 0 -136 33.5t-98 98.5t-36 158q0 77 21 147t63 124.5t105 86.5t145 32q74 0 134.5 -34t96.5 -98.5t36 -157.5q0 -76 -21 -146t-63 -125t-103.5 -87t-143.5 -32zM349 16q74 0 130 30t94 81t57 116.5t19 135.5q0 85 -32.5 144.5t-86.5 90t-122 30.5
q-74 0 -130.5 -30t-95 -81t-57.5 -116t-19 -136q0 -85 32.5 -144.5t88 -90t122.5 -30.5zM529 893h33l-113 -150h-26z" />
    <glyph glyph-name="Ocircumflex" unicode="&#xd4;" horiz-adv-x="718" 
d="M347 -10q-74 0 -136 33.5t-98 98.5t-36 158q0 77 21 147t63 124.5t105 86.5t145 32q74 0 134.5 -34t96.5 -98.5t36 -157.5q0 -76 -21 -146t-63 -125t-103.5 -87t-143.5 -32zM349 16q74 0 130 30t94 81t57 116.5t19 135.5q0 85 -32.5 144.5t-86.5 90t-122 30.5
q-74 0 -130.5 -30t-95 -81t-57.5 -116t-19 -136q0 -85 32.5 -144.5t88 -90t122.5 -30.5zM490 888l75 -145h-26l-67 125l-125 -125h-30l142 145h31z" />
    <glyph glyph-name="Otilde" unicode="&#xd5;" horiz-adv-x="718" 
d="M347 -10q-74 0 -136 33.5t-98 98.5t-36 158q0 77 21 147t63 124.5t105 86.5t145 32q74 0 134.5 -34t96.5 -98.5t36 -157.5q0 -76 -21 -146t-63 -125t-103.5 -87t-143.5 -32zM349 16q74 0 130 30t94 81t57 116.5t19 135.5q0 85 -32.5 144.5t-86.5 90t-122 30.5
q-74 0 -130.5 -30t-95 -81t-57.5 -116t-19 -136q0 -85 32.5 -144.5t88 -90t122.5 -30.5zM613 849q-13 -48 -38 -70.5t-54 -22.5q-25 0 -41 10.5t-28.5 24t-26 24t-33.5 10.5q-27 0 -42 -18t-28 -52h-24q13 48 37.5 70.5t59.5 22.5q24 0 40 -10.5t28.5 -24t26 -24t33.5 -10.5
q22 0 38.5 18.5t28.5 51.5h23z" />
    <glyph glyph-name="Odieresis" unicode="&#xd6;" horiz-adv-x="718" 
d="M347 -10q-74 0 -136 33.5t-98 98.5t-36 158q0 77 21 147t63 124.5t105 86.5t145 32q74 0 134.5 -34t96.5 -98.5t36 -157.5q0 -76 -21 -146t-63 -125t-103.5 -87t-143.5 -32zM349 16q74 0 130 30t94 81t57 116.5t19 135.5q0 85 -32.5 144.5t-86.5 90t-122 30.5
q-74 0 -130.5 -30t-95 -81t-57.5 -116t-19 -136q0 -85 32.5 -144.5t88 -90t122.5 -30.5zM536 755q-11 0 -18.5 7.5t-7.5 17.5q0 14 8.5 23t21.5 9q12 0 19 -7t7 -18q0 -14 -8.5 -23t-21.5 -9zM350 755q-11 0 -18 7.5t-7 17.5q0 14 8 23t21 9q12 0 19 -7t7 -18
q0 -14 -8.5 -23t-21.5 -9z" />
    <glyph glyph-name="multiply" unicode="&#xd7;" horiz-adv-x="604" 
d="M106 127l-17 22l432 350l16 -22zM437 127l-269 355l22 17l268 -355z" />
    <glyph glyph-name="Oslash" unicode="&#xd8;" horiz-adv-x="718" 
d="M171 75l-15 17l439 483l14 -17zM61 -12l95 104l15 -17l-79 -87h-31zM609 558l-14 17l89 99h31zM347 -10q-74 0 -136 33.5t-98 98.5t-36 158q0 77 21 147t63 124.5t105 86.5t145 32q74 0 134.5 -34t96.5 -98.5t36 -157.5q0 -76 -21 -146t-63 -125t-103.5 -87t-143.5 -32z
M349 16q74 0 130 30t94 81t57 116.5t19 135.5q0 85 -32.5 144.5t-86.5 90t-122 30.5q-74 0 -130.5 -30t-95 -81t-57.5 -116t-19 -136q0 -85 32.5 -144.5t88 -90t122.5 -30.5z" />
    <glyph glyph-name="Ugrave" unicode="&#xd9;" horiz-adv-x="663" 
d="M310 -10q-87 0 -143.5 35t-76 99.5t0.5 153.5l90 382h28l-91 -390q-19 -81 -0.5 -138t69 -87t124.5 -30q97 0 155 61.5t84 173.5l95 410h28l-96 -419q-28 -118 -92.5 -184.5t-174.5 -66.5zM410 857l42 -150h-22l-49 150h29z" />
    <glyph glyph-name="Uacute" unicode="&#xda;" horiz-adv-x="663" 
d="M310 -10q-87 0 -143.5 35t-76 99.5t0.5 153.5l90 382h28l-91 -390q-19 -81 -0.5 -138t69 -87t124.5 -30q97 0 155 61.5t84 173.5l95 410h28l-96 -419q-28 -118 -92.5 -184.5t-174.5 -66.5zM512 857h33l-113 -150h-26z" />
    <glyph glyph-name="Ucircumflex" unicode="&#xdb;" horiz-adv-x="663" 
d="M310 -10q-87 0 -143.5 35t-76 99.5t0.5 153.5l90 382h28l-91 -390q-19 -81 -0.5 -138t69 -87t124.5 -30q97 0 155 61.5t84 173.5l95 410h28l-96 -419q-28 -118 -92.5 -184.5t-174.5 -66.5zM489 852l75 -145h-26l-67 125l-125 -125h-30l142 145h31z" />
    <glyph glyph-name="Udieresis" unicode="&#xdc;" horiz-adv-x="663" 
d="M310 -10q-87 0 -143.5 35t-76 99.5t0.5 153.5l90 382h28l-91 -390q-19 -81 -0.5 -138t69 -87t124.5 -30q97 0 155 61.5t84 173.5l95 410h28l-96 -419q-28 -118 -92.5 -184.5t-174.5 -66.5zM535 719q-11 0 -18.5 7.5t-7.5 17.5q0 14 8.5 23t21.5 9q12 0 19 -7t7 -18
q0 -14 -8.5 -23t-21.5 -9zM349 719q-11 0 -18 7.5t-7 17.5q0 14 8 23t21 9q12 0 19 -7t7 -18q0 -14 -8.5 -23t-21.5 -9z" />
    <glyph glyph-name="Yacute" unicode="&#xdd;" horiz-adv-x="514" 
d="M185 0l59 256l-133 404h30l77 -239l45 -138l115 149l181 228h34l-321 -406l-59 -254h-28zM438 857h33l-113 -150h-26z" />
    <glyph glyph-name="Thorn" unicode="&#xde;" horiz-adv-x="567" 
d="M93 134l4 25h213q69 0 116 26t71.5 69t24.5 95q0 67 -48 105.5t-132 38.5h-166l3 26h164q95 0 151.5 -45.5t56.5 -124.5q0 -61 -29 -109.5t-83 -77t-131 -28.5h-215zM41 0l153 660h28l-153 -660h-28z" />
    <glyph glyph-name="germandbls" unicode="&#xdf;" horiz-adv-x="554" 
d="M283 -10q-39 0 -68 11t-46 25l12 24q18 -15 43 -25t61 -10q60 0 101 26t62 69t21 97q0 76 -46 117t-136 42h-6h-6l6 26q11 -1 20 -1.5t18 -0.5q62 0 108 23t71 63t25 91q0 39 -15.5 71t-48 52t-87.5 20q-78 0 -127 -44t-69 -134l-122 -532h-28l124 541q23 97 79.5 145.5
t145.5 48.5q62 0 100.5 -23t57 -60.5t18.5 -81.5q0 -54 -24.5 -96t-68.5 -67.5t-103 -30.5v-2q43 -5 74.5 -27t49 -57t17.5 -82q0 -63 -24.5 -112.5t-72 -77.5t-116.5 -28z" />
    <glyph glyph-name="agrave" unicode="&#xe0;" 
d="M253 -10q-63 0 -108.5 29.5t-70.5 80t-25 116.5q0 62 18 115t51.5 93.5t81 63t105.5 22.5q59 0 100.5 -22.5t64.5 -63.5t24 -95l39 171h28l-116 -500h-26l27 120q-26 -55 -74.5 -92.5t-118.5 -37.5zM260 15q49 0 89.5 24.5t69 65.5t44.5 91.5t16 103.5q0 66 -24.5 106.5
t-63.5 60t-86 19.5q-51 0 -92.5 -20t-72 -56.5t-47 -85.5t-16.5 -109q0 -63 24 -108t65.5 -68.5t93.5 -23.5zM298 734l51 -151h-23l-57 151h29z" />
    <glyph glyph-name="aacute" unicode="&#xe1;" 
d="M253 -10q-63 0 -108.5 29.5t-70.5 80t-25 116.5q0 62 18 115t51.5 93.5t81 63t105.5 22.5q59 0 100.5 -22.5t64.5 -63.5t24 -95l39 171h28l-116 -500h-26l27 120q-26 -55 -74.5 -92.5t-118.5 -37.5zM260 15q49 0 89.5 24.5t69 65.5t44.5 91.5t16 103.5q0 66 -24.5 106.5
t-63.5 60t-86 19.5q-51 0 -92.5 -20t-72 -56.5t-47 -85.5t-16.5 -109q0 -63 24 -108t65.5 -68.5t93.5 -23.5zM440 734h34l-126 -151h-27z" />
    <glyph glyph-name="acircumflex" unicode="&#xe2;" 
d="M253 -10q-63 0 -108.5 29.5t-70.5 80t-25 116.5q0 62 18 115t51.5 93.5t81 63t105.5 22.5q59 0 100.5 -22.5t64.5 -63.5t24 -95l39 171h28l-116 -500h-26l27 120q-26 -55 -74.5 -92.5t-118.5 -37.5zM260 15q49 0 89.5 24.5t69 65.5t44.5 91.5t16 103.5q0 66 -24.5 106.5
t-63.5 60t-86 19.5q-51 0 -92.5 -20t-72 -56.5t-47 -85.5t-16.5 -109q0 -63 24 -108t65.5 -68.5t93.5 -23.5zM211 582l143 146h32l75 -146h-26l-67 126l-127 -126h-30z" />
    <glyph glyph-name="atilde" unicode="&#xe3;" 
d="M253 -10q-63 0 -108.5 29.5t-70.5 80t-25 116.5q0 62 18 115t51.5 93.5t81 63t105.5 22.5q59 0 100.5 -22.5t64.5 -63.5t24 -95l39 171h28l-116 -500h-26l27 120q-26 -55 -74.5 -92.5t-118.5 -37.5zM260 15q49 0 89.5 24.5t69 65.5t44.5 91.5t16 103.5q0 66 -24.5 106.5
t-63.5 60t-86 19.5q-51 0 -92.5 -20t-72 -56.5t-47 -85.5t-16.5 -109q0 -63 24 -108t65.5 -68.5t93.5 -23.5zM508 689q-13 -48 -38 -70.5t-54 -22.5q-25 0 -41 10.5t-28.5 24t-26 24t-33.5 10.5q-27 0 -42 -18t-28 -52h-24q13 48 37.5 70.5t59.5 22.5q24 0 40 -10.5
t28.5 -24t26 -24t33.5 -10.5q22 0 38.5 18.5t28.5 51.5h23z" />
    <glyph glyph-name="adieresis" unicode="&#xe4;" 
d="M253 -10q-63 0 -108.5 29.5t-70.5 80t-25 116.5q0 62 18 115t51.5 93.5t81 63t105.5 22.5q59 0 100.5 -22.5t64.5 -63.5t24 -95l39 171h28l-116 -500h-26l27 120q-26 -55 -74.5 -92.5t-118.5 -37.5zM260 15q49 0 89.5 24.5t69 65.5t44.5 91.5t16 103.5q0 66 -24.5 106.5
t-63.5 60t-86 19.5q-51 0 -92.5 -20t-72 -56.5t-47 -85.5t-16.5 -109q0 -63 24 -108t65.5 -68.5t93.5 -23.5zM431 595q-11 0 -18.5 7.5t-7.5 17.5q0 14 8.5 23t21.5 9q12 0 19 -7t7 -18q0 -14 -8.5 -23t-21.5 -9zM245 595q-11 0 -18 7.5t-7 17.5q0 14 8 23t21 9q12 0 19 -7
t7 -18q0 -14 -8.5 -23t-21.5 -9z" />
    <glyph glyph-name="aring" unicode="&#xe5;" 
d="M253 -10q-63 0 -108.5 29.5t-70.5 80t-25 116.5q0 62 18 115t51.5 93.5t81 63t105.5 22.5q59 0 100.5 -22.5t64.5 -63.5t24 -95l39 171h28l-116 -500h-26l27 120q-26 -55 -74.5 -92.5t-118.5 -37.5zM260 15q49 0 89.5 24.5t69 65.5t44.5 91.5t16 103.5q0 66 -24.5 106.5
t-63.5 60t-86 19.5q-51 0 -92.5 -20t-72 -56.5t-47 -85.5t-16.5 -109q0 -63 24 -108t65.5 -68.5t93.5 -23.5zM352 750q38 0 62 -22.5t24 -57.5q0 -42 -27 -68.5t-66 -26.5q-38 0 -62.5 23t-24.5 57q0 41 26.5 68t67.5 27zM351 729q-30 0 -50 -21t-20 -52q0 -26 18 -43
t46 -17t48.5 19.5t20.5 53.5q0 26 -17 43t-46 17z" />
    <glyph glyph-name="ae" unicode="&#xe6;" horiz-adv-x="855" 
d="M175 -10q-67 0 -109 32t-42 92q0 41 23 72t68.5 50t111.5 25l175 18v-23l-162 -16q-93 -10 -140 -41t-47 -84q0 -50 34.5 -75.5t88.5 -25.5q79 0 129.5 46t73.5 154l21 97q3 13 5 25t2 22q0 62 -40 94.5t-102 32.5q-63 0 -102 -27t-65 -80l-20 13q27 56 71.5 87t116.5 31
q49 0 85 -17t56 -48t20 -75l-5 1q17 40 47 71t70.5 49.5t90.5 18.5q56 0 95.5 -26t61 -71.5t21.5 -103.5q0 -13 -1.5 -26.5t-4.5 -26.5h-392l1 24h369q2 7 2 14v13q0 51 -18.5 91.5t-52.5 64t-82 23.5q-49 0 -88.5 -20.5t-68 -57.5t-44 -85.5t-15.5 -105.5q0 -55 19.5 -101
t58 -73t95.5 -27q62 0 106.5 29t70.5 74l23 -14q-21 -32 -49.5 -58t-66 -40.5t-85.5 -14.5q-65 0 -107.5 29.5t-63.5 76.5t-23 99l5 5q-15 -77 -46 -123t-75 -67t-100 -21z" />
    <glyph glyph-name="ccedilla" unicode="&#xe7;" horiz-adv-x="520" 
d="M262 -10q-61 0 -109.5 28t-76 79t-27.5 118q0 82 31 149t88 106.5t135 39.5q49 0 87.5 -18t64.5 -51t36 -79l-28 -7q-13 61 -54 96t-107 35q-53 0 -94 -21t-70.5 -58.5t-45 -85.5t-15.5 -104q0 -62 25 -107.5t67.5 -70t96.5 -24.5q59 0 103.5 31.5t67.5 81.5l24 -11
q-26 -57 -77.5 -92t-121.5 -35zM219 2l22 6q29 -19 46 -45t17 -59q0 -34 -14 -58t-38.5 -37t-55.5 -13q-36 0 -57 14t-31 32l14 18q10 -17 27.5 -29t47.5 -12q36 0 59.5 23t23.5 61q0 30 -15.5 54.5t-45.5 44.5z" />
    <glyph glyph-name="egrave" unicode="&#xe8;" horiz-adv-x="535" 
d="M263 -9q-68 0 -116.5 30.5t-73 82t-24.5 113.5q0 78 29.5 144.5t86.5 107t137 40.5q58 0 100.5 -26.5t65 -72t22.5 -103.5q0 -12 -1 -25.5t-4 -26.5h-420v24h405l-10 -8q1 9 1.5 18t0.5 16q0 50 -19 91t-55 65t-89 24q-52 0 -93.5 -21.5t-70.5 -58.5t-43.5 -85.5
t-14.5 -103.5q0 -58 23 -103.5t65 -71.5t100 -26q60 1 106 29.5t73 73.5l23 -14q-21 -32 -50.5 -58t-68 -40.5t-85.5 -14.5zM283 734l51 -151h-23l-57 151h29z" />
    <glyph glyph-name="eacute" unicode="&#xe9;" horiz-adv-x="535" 
d="M263 -9q-68 0 -116.5 30.5t-73 82t-24.5 113.5q0 78 29.5 144.5t86.5 107t137 40.5q58 0 100.5 -26.5t65 -72t22.5 -103.5q0 -12 -1 -25.5t-4 -26.5h-420v24h405l-10 -8q1 9 1.5 18t0.5 16q0 50 -19 91t-55 65t-89 24q-52 0 -93.5 -21.5t-70.5 -58.5t-43.5 -85.5
t-14.5 -103.5q0 -58 23 -103.5t65 -71.5t100 -26q60 1 106 29.5t73 73.5l23 -14q-21 -32 -50.5 -58t-68 -40.5t-85.5 -14.5zM425 734h34l-126 -151h-27z" />
    <glyph glyph-name="ecircumflex" unicode="&#xea;" horiz-adv-x="535" 
d="M263 -9q-68 0 -116.5 30.5t-73 82t-24.5 113.5q0 78 29.5 144.5t86.5 107t137 40.5q58 0 100.5 -26.5t65 -72t22.5 -103.5q0 -12 -1 -25.5t-4 -26.5h-420v24h405l-10 -8q1 9 1.5 18t0.5 16q0 50 -19 91t-55 65t-89 24q-52 0 -93.5 -21.5t-70.5 -58.5t-43.5 -85.5
t-14.5 -103.5q0 -58 23 -103.5t65 -71.5t100 -26q60 1 106 29.5t73 73.5l23 -14q-21 -32 -50.5 -58t-68 -40.5t-85.5 -14.5zM196 582l143 146h32l75 -146h-26l-67 126l-127 -126h-30z" />
    <glyph glyph-name="edieresis" unicode="&#xeb;" horiz-adv-x="535" 
d="M263 -9q-68 0 -116.5 30.5t-73 82t-24.5 113.5q0 78 29.5 144.5t86.5 107t137 40.5q58 0 100.5 -26.5t65 -72t22.5 -103.5q0 -12 -1 -25.5t-4 -26.5h-420v24h405l-10 -8q1 9 1.5 18t0.5 16q0 50 -19 91t-55 65t-89 24q-52 0 -93.5 -21.5t-70.5 -58.5t-43.5 -85.5
t-14.5 -103.5q0 -58 23 -103.5t65 -71.5t100 -26q60 1 106 29.5t73 73.5l23 -14q-21 -32 -50.5 -58t-68 -40.5t-85.5 -14.5zM416 595q-11 0 -18.5 7.5t-7.5 17.5q0 14 8.5 23t21.5 9q12 0 19 -7t7 -18q0 -14 -8.5 -23t-21.5 -9zM230 595q-11 0 -18 7.5t-7 17.5q0 14 8 23
t21 9q12 0 19 -7t7 -18q0 -14 -8.5 -23t-21.5 -9z" />
    <glyph glyph-name="igrave" unicode="&#xec;" horiz-adv-x="196" 
d="M170 500l-116 -500h-28l116 500h28zM136 734l51 -151h-23l-57 151h29z" />
    <glyph glyph-name="iacute" unicode="&#xed;" horiz-adv-x="196" 
d="M170 500l-116 -500h-28l116 500h28zM278 734h34l-126 -151h-27z" />
    <glyph glyph-name="icircumflex" unicode="&#xee;" horiz-adv-x="196" 
d="M170 500l-116 -500h-28l116 500h28zM49 582l143 146h32l75 -146h-26l-67 126l-127 -126h-30z" />
    <glyph glyph-name="idieresis" unicode="&#xef;" horiz-adv-x="196" 
d="M235 595q-12 0 -19 7t-7 18q0 14 8.5 23t21.5 9q12 0 18.5 -7t6.5 -18q0 -14 -8 -23t-21 -9zM118 595q-12 0 -19 7t-7 18q0 14 8.5 23t21.5 9q12 0 18.5 -7t6.5 -18q0 -14 -8 -23t-21 -9zM170 500l-116 -500h-28l116 500h28z" />
    <glyph glyph-name="eth" unicode="&#xf0;" horiz-adv-x="571" 
d="M257 -10q-69 0 -115 32.5t-69.5 84.5t-23.5 109q0 77 33.5 138.5t90.5 97t124 35.5q58 0 102 -25.5t69.5 -72t25.5 -110.5l-6 -7q10 44 13 85.5t3 69.5q0 75 -21 133.5t-60 100.5t-93 69h41q36 -17 65.5 -46.5t50.5 -68.5t33 -85.5t12 -98.5q0 -91 -16.5 -171t-50 -140.5
t-85.5 -95t-123 -34.5zM257 15q51 0 92 21.5t69.5 57.5t44 80t15.5 90q0 62 -23 106t-64 68.5t-94 24.5q-43 0 -82.5 -18.5t-70.5 -51.5t-49 -78.5t-18 -98.5q0 -57 23 -102.5t64 -72t93 -26.5zM284 567l-3 21l188 39l10 -19zM479 608l-10 19l130 29l4 -21z" />
    <glyph glyph-name="ntilde" unicode="&#xf1;" horiz-adv-x="569" 
d="M27 0l116 500h26l-30 -135l-5 2q22 62 78 102.5t139 40.5q59 0 98.5 -26t54 -74t-0.5 -115l-69 -295h-28l68 294q21 93 -15.5 142.5t-112.5 49.5q-63 0 -108 -26t-73.5 -69.5t-41.5 -96.5l-68 -294h-28zM527 689q-13 -48 -38 -70.5t-54 -22.5q-25 0 -41 10.5t-28.5 24
t-26 24t-33.5 10.5q-27 0 -42 -18t-28 -52h-24q13 48 37.5 70.5t59.5 22.5q24 0 40 -10.5t28.5 -24t26 -24t33.5 -10.5q22 0 38.5 18.5t28.5 51.5h23z" />
    <glyph glyph-name="ograve" unicode="&#xf2;" horiz-adv-x="567" 
d="M267 -9q-70 0 -118.5 30.5t-73.5 82t-25 112.5q0 86 31.5 152t88.5 103.5t132 37.5q70 0 118 -30.5t73 -81t25 -112.5q0 -85 -31.5 -151.5t-88 -104.5t-131.5 -38zM267 15q49 0 90 19.5t70.5 55.5t46 85.5t16.5 108.5q0 61 -23 105.5t-65 70t-101 25.5q-49 0 -90 -19.5
t-71 -55t-46 -85t-16 -108.5q0 -60 23 -105.5t66 -71t100 -25.5zM295 734l51 -151h-23l-57 151h29z" />
    <glyph glyph-name="oacute" unicode="&#xf3;" horiz-adv-x="567" 
d="M267 -9q-70 0 -118.5 30.5t-73.5 82t-25 112.5q0 86 31.5 152t88.5 103.5t132 37.5q70 0 118 -30.5t73 -81t25 -112.5q0 -85 -31.5 -151.5t-88 -104.5t-131.5 -38zM267 15q49 0 90 19.5t70.5 55.5t46 85.5t16.5 108.5q0 61 -23 105.5t-65 70t-101 25.5q-49 0 -90 -19.5
t-71 -55t-46 -85t-16 -108.5q0 -60 23 -105.5t66 -71t100 -25.5zM437 734h34l-126 -151h-27z" />
    <glyph glyph-name="ocircumflex" unicode="&#xf4;" horiz-adv-x="567" 
d="M267 -9q-70 0 -118.5 30.5t-73.5 82t-25 112.5q0 86 31.5 152t88.5 103.5t132 37.5q70 0 118 -30.5t73 -81t25 -112.5q0 -85 -31.5 -151.5t-88 -104.5t-131.5 -38zM267 15q49 0 90 19.5t70.5 55.5t46 85.5t16.5 108.5q0 61 -23 105.5t-65 70t-101 25.5q-49 0 -90 -19.5
t-71 -55t-46 -85t-16 -108.5q0 -60 23 -105.5t66 -71t100 -25.5zM208 582l143 146h32l75 -146h-26l-67 126l-127 -126h-30z" />
    <glyph glyph-name="otilde" unicode="&#xf5;" horiz-adv-x="567" 
d="M267 -9q-70 0 -118.5 30.5t-73.5 82t-25 112.5q0 86 31.5 152t88.5 103.5t132 37.5q70 0 118 -30.5t73 -81t25 -112.5q0 -85 -31.5 -151.5t-88 -104.5t-131.5 -38zM267 15q49 0 90 19.5t70.5 55.5t46 85.5t16.5 108.5q0 61 -23 105.5t-65 70t-101 25.5q-49 0 -90 -19.5
t-71 -55t-46 -85t-16 -108.5q0 -60 23 -105.5t66 -71t100 -25.5zM505 689q-13 -48 -38 -70.5t-54 -22.5q-25 0 -41 10.5t-28.5 24t-26 24t-33.5 10.5q-27 0 -42 -18t-28 -52h-24q13 48 37.5 70.5t59.5 22.5q24 0 40 -10.5t28.5 -24t26 -24t33.5 -10.5q22 0 38.5 18.5
t28.5 51.5h23z" />
    <glyph glyph-name="odieresis" unicode="&#xf6;" horiz-adv-x="567" 
d="M267 -9q-70 0 -118.5 30.5t-73.5 82t-25 112.5q0 86 31.5 152t88.5 103.5t132 37.5q70 0 118 -30.5t73 -81t25 -112.5q0 -85 -31.5 -151.5t-88 -104.5t-131.5 -38zM267 15q49 0 90 19.5t70.5 55.5t46 85.5t16.5 108.5q0 61 -23 105.5t-65 70t-101 25.5q-49 0 -90 -19.5
t-71 -55t-46 -85t-16 -108.5q0 -60 23 -105.5t66 -71t100 -25.5zM428 595q-11 0 -18.5 7.5t-7.5 17.5q0 14 8.5 23t21.5 9q12 0 19 -7t7 -18q0 -14 -8.5 -23t-21.5 -9zM242 595q-11 0 -18 7.5t-7 17.5q0 14 8 23t21 9q12 0 19 -7t7 -18q0 -14 -8.5 -23t-21.5 -9z" />
    <glyph glyph-name="divide" unicode="&#xf7;" horiz-adv-x="604" 
d="M549 329l-6 -26h-457l6 26h457zM273 100q-12 0 -19.5 7t-7.5 19q0 15 8.5 24.5t21.5 9.5q12 0 19.5 -7.5t7.5 -19.5q0 -14 -8.5 -23.5t-21.5 -9.5zM359 474q-12 0 -19.5 7t-7.5 19q0 15 8.5 24.5t21.5 9.5q12 0 19.5 -7.5t7.5 -19.5q0 -14 -8.5 -23.5t-21.5 -9.5z" />
    <glyph glyph-name="oslash" unicode="&#xf8;" horiz-adv-x="567" 
d="M267 -9q-70 0 -118.5 30.5t-73.5 82t-25 112.5q0 86 31.5 152t88.5 103.5t132 37.5q70 0 118 -30.5t73 -81t25 -112.5q0 -85 -31.5 -151.5t-88 -104.5t-131.5 -38zM267 15q49 0 90 19.5t70.5 55.5t46 85.5t16.5 108.5q0 61 -23 105.5t-65 70t-101 25.5q-49 0 -90 -19.5
t-71 -55t-46 -85t-16 -108.5q0 -60 23 -105.5t66 -71t100 -25.5zM-10 -26l556 553h31l-557 -553h-30z" />
    <glyph glyph-name="ugrave" unicode="&#xf9;" horiz-adv-x="569" 
d="M227 -10q-63 0 -104.5 25.5t-56 74.5t0.5 118l68 292h28l-67 -293q-22 -94 16 -143t120 -49q58 0 101.5 25.5t71.5 69t41 96.5l68 294h28l-116 -500h-26l30 135l5 -2q-25 -64 -78 -103.5t-130 -39.5zM308 716l51 -151h-23l-57 151h29z" />
    <glyph glyph-name="uacute" unicode="&#xfa;" horiz-adv-x="569" 
d="M227 -10q-63 0 -104.5 25.5t-56 74.5t0.5 118l68 292h28l-67 -293q-22 -94 16 -143t120 -49q58 0 101.5 25.5t71.5 69t41 96.5l68 294h28l-116 -500h-26l30 135l5 -2q-25 -64 -78 -103.5t-130 -39.5zM450 716h34l-126 -151h-27z" />
    <glyph glyph-name="ucircumflex" unicode="&#xfb;" horiz-adv-x="569" 
d="M227 -10q-63 0 -104.5 25.5t-56 74.5t0.5 118l68 292h28l-67 -293q-22 -94 16 -143t120 -49q58 0 101.5 25.5t71.5 69t41 96.5l68 294h28l-116 -500h-26l30 135l5 -2q-25 -64 -78 -103.5t-130 -39.5zM221 564l143 146h32l75 -146h-26l-67 126l-127 -126h-30z" />
    <glyph glyph-name="udieresis" unicode="&#xfc;" horiz-adv-x="569" 
d="M227 -10q-63 0 -104.5 25.5t-56 74.5t0.5 118l68 292h28l-67 -293q-22 -94 16 -143t120 -49q58 0 101.5 25.5t71.5 69t41 96.5l68 294h28l-116 -500h-26l30 135l5 -2q-25 -64 -78 -103.5t-130 -39.5zM441 577q-11 0 -18.5 7.5t-7.5 17.5q0 14 8.5 23t21.5 9q12 0 19 -7
t7 -18q0 -14 -8.5 -23t-21.5 -9zM255 577q-11 0 -18 7.5t-7 17.5q0 14 8 23t21 9q12 0 19 -7t7 -18q0 -14 -8.5 -23t-21.5 -9z" />
    <glyph glyph-name="yacute" unicode="&#xfd;" horiz-adv-x="478" 
d="M-23 -215q-28 0 -49 8t-31 24l16 21q21 -28 65 -28q37 0 68.5 23.5t65.5 78.5l56 89l-90 499h28l74 -414l9 -55l36 58l260 411h32l-382 -600q-26 -42 -51 -67.5t-50.5 -36.5t-56.5 -11zM409 716h34l-126 -151h-27z" />
    <glyph glyph-name="thorn" unicode="&#xfe;" 
d="M-21 -210l217 940h28l-88 -380l-6 3q23 75 81 116t133 41q60 0 104 -29.5t67.5 -80t23.5 -114.5q0 -61 -17 -114.5t-49 -94t-77 -64t-102 -23.5q-63 0 -108 27.5t-68 76t-22 111.5l13 26l-102 -441h-28zM295 14q48 0 87.5 21t68.5 58t44.5 86.5t15.5 107.5
q0 62 -22.5 106.5t-62 68t-89.5 23.5q-52 0 -93 -21t-69.5 -59.5t-44 -90t-15.5 -111.5q0 -87 49.5 -138t130.5 -51z" />
    <glyph glyph-name="ydieresis" unicode="&#xff;" horiz-adv-x="478" 
d="M-23 -215q-28 0 -49 8t-31 24l16 21q21 -28 65 -28q37 0 68.5 23.5t65.5 78.5l56 89l-90 499h28l74 -414l9 -55l36 58l260 411h32l-382 -600q-26 -42 -51 -67.5t-50.5 -36.5t-56.5 -11zM400 577q-11 0 -18.5 7.5t-7.5 17.5q0 14 8.5 23t21.5 9q12 0 19 -7t7 -18
q0 -14 -8.5 -23t-21.5 -9zM214 577q-11 0 -18 7.5t-7 17.5q0 14 8 23t21 9q12 0 19 -7t7 -18q0 -14 -8.5 -23t-21.5 -9z" />
    <glyph glyph-name="Amacron" unicode="&#x100;" 
d="M-44 0l415 660h36l109 -660h-28l-96 572l-9 57v0l-33 -54l-362 -575h-32zM116 227l6 26h343l-6 -26h-343zM545 787l-5 -24h-277l6 24h276z" />
    <glyph glyph-name="amacron" unicode="&#x101;" 
d="M253 -10q-63 0 -108.5 29.5t-70.5 80t-25 116.5q0 62 18 115t51.5 93.5t81 63t105.5 22.5q59 0 100.5 -22.5t64.5 -63.5t24 -95l39 171h28l-116 -500h-26l27 120q-26 -55 -74.5 -92.5t-118.5 -37.5zM260 15q49 0 89.5 24.5t69 65.5t44.5 91.5t16 103.5q0 66 -24.5 106.5
t-63.5 60t-86 19.5q-51 0 -92.5 -20t-72 -56.5t-47 -85.5t-16.5 -109q0 -63 24 -108t65.5 -68.5t93.5 -23.5zM478 627l-5 -24h-277l6 24h276z" />
    <glyph glyph-name="Abreve" unicode="&#x102;" 
d="M-44 0l415 660h36l109 -660h-28l-96 572l-9 57v0l-33 -54l-362 -575h-32zM116 227l6 26h343l-6 -26h-343zM557 866q-11 -64 -51 -95t-97 -31q-51 0 -80 26t-29 68q0 8 1 16.5t3 15.5h21q-1 -6 -1.5 -13t-0.5 -14q0 -35 24.5 -55.5t63.5 -20.5q49 0 81.5 27t40.5 76h24z
" />
    <glyph glyph-name="abreve" unicode="&#x103;" 
d="M253 -10q-63 0 -108.5 29.5t-70.5 80t-25 116.5q0 62 18 115t51.5 93.5t81 63t105.5 22.5q59 0 100.5 -22.5t64.5 -63.5t24 -95l39 171h28l-116 -500h-26l27 120q-26 -55 -74.5 -92.5t-118.5 -37.5zM260 15q49 0 89.5 24.5t69 65.5t44.5 91.5t16 103.5q0 66 -24.5 106.5
t-63.5 60t-86 19.5q-51 0 -92.5 -20t-72 -56.5t-47 -85.5t-16.5 -109q0 -63 24 -108t65.5 -68.5t93.5 -23.5zM491 706q-11 -64 -51 -95t-97 -31q-51 0 -80 26t-29 68q0 8 1 16.5t3 15.5h21q-1 -6 -1.5 -13t-0.5 -14q0 -35 24.5 -55.5t63.5 -20.5q49 0 81.5 27t40.5 76h24z
" />
    <glyph glyph-name="Aogonek" unicode="&#x104;" 
d="M437 -207q-23 0 -42 8.5t-30 25t-11 41.5q0 32 18.5 58t51 47.5t74.5 37.5l18 -11q-37 -15 -68.5 -34.5t-50.5 -43t-19 -51.5q0 -29 18.5 -42.5t43.5 -13.5q13 0 26 3t23 7l-3 -23q-8 -4 -21 -6.5t-28 -2.5zM-44 0l415 660h36l109 -660h-28l-96 572l-9 57v0l-33 -54
l-362 -575h-32zM116 227l6 26h343l-6 -26h-343z" />
    <glyph glyph-name="aogonek" unicode="&#x105;" 
d="M373 -207q-21 0 -39.5 7.5t-30 24t-11.5 41.5q0 31 17 57.5t47.5 48.5t71.5 39l17 -11q-57 -27 -93 -59t-36 -72q0 -30 18.5 -42t40.5 -12q17 0 26 3t18 7l-2 -23q-7 -4 -16.5 -6.5t-27.5 -2.5zM253 -10q-63 0 -108.5 29.5t-70.5 80t-25 116.5q0 62 18 115t51.5 93.5
t81 63t105.5 22.5q59 0 100.5 -22.5t64.5 -63.5t24 -95l39 171h28l-116 -500h-26l27 120q-26 -55 -74.5 -92.5t-118.5 -37.5zM260 15q49 0 89.5 24.5t69 65.5t44.5 91.5t16 103.5q0 66 -24.5 106.5t-63.5 60t-86 19.5q-51 0 -92.5 -20t-72 -56.5t-47 -85.5t-16.5 -109
q0 -63 24 -108t65.5 -68.5t93.5 -23.5z" />
    <glyph glyph-name="Cacute" unicode="&#x106;" horiz-adv-x="663" 
d="M347 -10q-75 0 -137 33t-98 96.5t-36 156.5q0 77 21 148t63 126t105 87.5t145 32.5q60 0 108.5 -21t83.5 -61t52 -99l-28 -8q-23 80 -80.5 122t-137.5 42q-75 0 -131.5 -30.5t-95 -82.5t-57.5 -117t-19 -134q0 -84 33 -143.5t88.5 -91t122.5 -31.5q79 0 135.5 34t90.5 96
l25 -15q-39 -66 -102 -103t-151 -37zM530 893h33l-113 -150h-26z" />
    <glyph glyph-name="cacute" unicode="&#x107;" horiz-adv-x="520" 
d="M262 -10q-61 0 -109.5 28t-76 79t-27.5 118q0 82 31 149t88 106.5t135 39.5q49 0 87.5 -18t64.5 -51t36 -79l-28 -7q-13 61 -54 96t-107 35q-53 0 -94 -21t-70.5 -58.5t-45 -85.5t-15.5 -104q0 -62 25 -107.5t67.5 -70t96.5 -24.5q59 0 103.5 31.5t67.5 81.5l24 -11
q-26 -57 -77.5 -92t-121.5 -35zM431 734h34l-126 -151h-27z" />
    <glyph glyph-name="Ccircumflex" unicode="&#x108;" horiz-adv-x="663" 
d="M347 -10q-75 0 -137 33t-98 96.5t-36 156.5q0 77 21 148t63 126t105 87.5t145 32.5q60 0 108.5 -21t83.5 -61t52 -99l-28 -8q-23 80 -80.5 122t-137.5 42q-75 0 -131.5 -30.5t-95 -82.5t-57.5 -117t-19 -134q0 -84 33 -143.5t88.5 -91t122.5 -31.5q79 0 135.5 34t90.5 96
l25 -15q-39 -66 -102 -103t-151 -37zM491 888l75 -145h-26l-67 125l-125 -125h-30l142 145h31z" />
    <glyph glyph-name="ccircumflex" unicode="&#x109;" horiz-adv-x="520" 
d="M262 -10q-61 0 -109.5 28t-76 79t-27.5 118q0 82 31 149t88 106.5t135 39.5q49 0 87.5 -18t64.5 -51t36 -79l-28 -7q-13 61 -54 96t-107 35q-53 0 -94 -21t-70.5 -58.5t-45 -85.5t-15.5 -104q0 -62 25 -107.5t67.5 -70t96.5 -24.5q59 0 103.5 31.5t67.5 81.5l24 -11
q-26 -57 -77.5 -92t-121.5 -35zM202 582l143 146h32l75 -146h-26l-67 126l-127 -126h-30z" />
    <glyph glyph-name="Cdotaccent" unicode="&#x10a;" horiz-adv-x="663" 
d="M347 -10q-75 0 -137 33t-98 96.5t-36 156.5q0 77 21 148t63 126t105 87.5t145 32.5q60 0 108.5 -21t83.5 -61t52 -99l-28 -8q-23 80 -80.5 122t-137.5 42q-75 0 -131.5 -30.5t-95 -82.5t-57.5 -117t-19 -134q0 -84 33 -143.5t88.5 -91t122.5 -31.5q79 0 135.5 34t90.5 96
l25 -15q-39 -66 -102 -103t-151 -37zM451 758q-12 0 -19 7t-7 19q0 14 8 23t21 9q12 0 19.5 -7.5t7.5 -18.5q0 -14 -9 -23t-21 -9z" />
    <glyph glyph-name="cdotaccent" unicode="&#x10b;" horiz-adv-x="520" 
d="M262 -10q-61 0 -109.5 28t-76 79t-27.5 118q0 82 31 149t88 106.5t135 39.5q49 0 87.5 -18t64.5 -51t36 -79l-28 -7q-13 61 -54 96t-107 35q-53 0 -94 -21t-70.5 -58.5t-45 -85.5t-15.5 -104q0 -62 25 -107.5t67.5 -70t96.5 -24.5q59 0 103.5 31.5t67.5 81.5l24 -11
q-26 -57 -77.5 -92t-121.5 -35zM336 598q-12 0 -19 7t-7 19q0 14 8 23t21 9q12 0 19.5 -7.5t7.5 -18.5q0 -14 -9 -23t-21 -9z" />
    <glyph glyph-name="Ccaron" unicode="&#x10c;" horiz-adv-x="663" 
d="M347 -10q-75 0 -137 33t-98 96.5t-36 156.5q0 77 21 148t63 126t105 87.5t145 32.5q60 0 108.5 -21t83.5 -61t52 -99l-28 -8q-23 80 -80.5 122t-137.5 42q-75 0 -131.5 -30.5t-95 -82.5t-57.5 -117t-19 -134q0 -84 33 -143.5t88.5 -91t122.5 -31.5q79 0 135.5 34t90.5 96
l25 -15q-39 -66 -102 -103t-151 -37zM427 743l-74 145h26l66 -124l125 124h31l-142 -145h-32z" />
    <glyph glyph-name="ccaron" unicode="&#x10d;" horiz-adv-x="520" 
d="M262 -10q-61 0 -109.5 28t-76 79t-27.5 118q0 82 31 149t88 106.5t135 39.5q49 0 87.5 -18t64.5 -51t36 -79l-28 -7q-13 61 -54 96t-107 35q-53 0 -94 -21t-70.5 -58.5t-45 -85.5t-15.5 -104q0 -62 25 -107.5t67.5 -70t96.5 -24.5q59 0 103.5 31.5t67.5 81.5l24 -11
q-26 -57 -77.5 -92t-121.5 -35zM312 583l-75 147h25l68 -126l126 126h30l-143 -147h-31z" />
    <glyph glyph-name="Dcaron" unicode="&#x10e;" horiz-adv-x="690" 
d="M45 0l153 660h193q85 0 143 -35t88.5 -96t30.5 -139q0 -83 -25.5 -154t-73 -124t-115.5 -82.5t-151 -29.5h-243zM79 25h212q76 0 137.5 28t105.5 77.5t67 115.5t23 141q0 71 -26.5 127t-78.5 88.5t-132 32.5h-167zM404 743l-74 145h26l66 -124l125 124h31l-142 -145h-32z
" />
    <glyph glyph-name="dcaron" unicode="&#x10f;" horiz-adv-x="606" 
d="M736 730l-76 -197h-24l71 197h29zM253 -10q-63 0 -108.5 29.5t-70.5 80t-25 116.5q0 62 18 115t51.5 93.5t81 63t105.5 22.5q57 0 99.5 -22.5t65.5 -63.5t23 -99l93 405h28l-169 -730h-26l27 120q-26 -55 -74.5 -92.5t-118.5 -37.5zM260 15q49 0 89.5 24.5t69 65.5
t44.5 91.5t16 103.5q0 66 -24.5 106.5t-63.5 60t-86 19.5q-51 0 -92.5 -20t-72 -56.5t-47 -85.5t-16.5 -109q0 -63 24 -108t65.5 -68.5t93.5 -23.5z" />
    <glyph glyph-name="Dcroat" unicode="&#x110;" horiz-adv-x="699" 
d="M23 321l6 26h337l-5 -26h-338zM54 0l153 660h193q85 0 143 -35t88.5 -96t30.5 -139q0 -83 -25 -154t-73 -124t-115.5 -82.5t-151.5 -29.5h-243zM88 25h212q77 0 138.5 28t105 77.5t66.5 115.5t23 141q0 71 -26.5 127t-78.5 88.5t-132 32.5h-167z" />
    <glyph glyph-name="dcroat" unicode="&#x111;" horiz-adv-x="584" 
d="M435 610l235 -11l-66 -10l-236 11zM253 -10q-63 0 -108.5 29.5t-70.5 80t-25 116.5q0 62 18 115t51.5 93.5t81 63t105.5 22.5q57 0 99.5 -22.5t65.5 -63.5t23 -99l93 405h28l-169 -730h-26l27 120q-26 -55 -74.5 -92.5t-118.5 -37.5zM260 15q49 0 89.5 24.5t69 65.5
t44.5 91.5t16 103.5q0 66 -24.5 106.5t-63.5 60t-86 19.5q-51 0 -92.5 -20t-72 -56.5t-47 -85.5t-16.5 -109q0 -63 24 -108t65.5 -68.5t93.5 -23.5z" />
    <glyph glyph-name="Emacron" unicode="&#x112;" horiz-adv-x="582" 
d="M41 0l153 660h431l-7 -25h-403l-65 -286h323l-6 -25h-324l-68 -299h421l-6 -25h-449zM561 787l-5 -24h-277l6 24h276z" />
    <glyph glyph-name="emacron" unicode="&#x113;" horiz-adv-x="535" 
d="M263 -9q-68 0 -116.5 30.5t-73 82t-24.5 113.5q0 78 29.5 144.5t86.5 107t137 40.5q58 0 100.5 -26.5t65 -72t22.5 -103.5q0 -12 -1 -25.5t-4 -26.5h-420v24h405l-10 -8q1 9 1.5 18t0.5 16q0 50 -19 91t-55 65t-89 24q-52 0 -93.5 -21.5t-70.5 -58.5t-43.5 -85.5
t-14.5 -103.5q0 -58 23 -103.5t65 -71.5t100 -26q60 1 106 29.5t73 73.5l23 -14q-21 -32 -50.5 -58t-68 -40.5t-85.5 -14.5zM463 627l-5 -24h-277l6 24h276z" />
    <glyph glyph-name="Ebreve" unicode="&#x114;" horiz-adv-x="582" 
d="M41 0l153 660h431l-7 -25h-403l-65 -286h323l-6 -25h-324l-68 -299h421l-6 -25h-449zM572 866q-11 -64 -51 -95t-97 -31q-51 0 -80 26t-29 68q0 8 1 16.5t3 15.5h21q-1 -6 -1.5 -13t-0.5 -14q0 -35 24.5 -55.5t63.5 -20.5q49 0 81.5 27t40.5 76h24z" />
    <glyph glyph-name="ebreve" unicode="&#x115;" horiz-adv-x="535" 
d="M263 -9q-68 0 -116.5 30.5t-73 82t-24.5 113.5q0 78 29.5 144.5t86.5 107t137 40.5q58 0 100.5 -26.5t65 -72t22.5 -103.5q0 -12 -1 -25.5t-4 -26.5h-420v24h405l-10 -8q1 9 1.5 18t0.5 16q0 50 -19 91t-55 65t-89 24q-52 0 -93.5 -21.5t-70.5 -58.5t-43.5 -85.5
t-14.5 -103.5q0 -58 23 -103.5t65 -71.5t100 -26q60 1 106 29.5t73 73.5l23 -14q-21 -32 -50.5 -58t-68 -40.5t-85.5 -14.5zM476 706q-11 -64 -51 -95t-97 -31q-51 0 -80 26t-29 68q0 8 1 16.5t3 15.5h21q-1 -6 -1.5 -13t-0.5 -14q0 -35 24.5 -55.5t63.5 -20.5q49 0 81.5 27
t40.5 76h24z" />
    <glyph glyph-name="Edotaccent" unicode="&#x116;" horiz-adv-x="582" 
d="M41 0l153 660h431l-7 -25h-403l-65 -286h323l-6 -25h-324l-68 -299h421l-6 -25h-449zM428 758q-12 0 -19 7t-7 19q0 14 8 23t21 9q12 0 19.5 -7.5t7.5 -18.5q0 -14 -9 -23t-21 -9z" />
    <glyph glyph-name="edotaccent" unicode="&#x117;" horiz-adv-x="535" 
d="M263 -9q-68 0 -116.5 30.5t-73 82t-24.5 113.5q0 78 29.5 144.5t86.5 107t137 40.5q58 0 100.5 -26.5t65 -72t22.5 -103.5q0 -12 -1 -25.5t-4 -26.5h-420v24h405l-10 -8q1 9 1.5 18t0.5 16q0 50 -19 91t-55 65t-89 24q-52 0 -93.5 -21.5t-70.5 -58.5t-43.5 -85.5
t-14.5 -103.5q0 -58 23 -103.5t65 -71.5t100 -26q60 1 106 29.5t73 73.5l23 -14q-21 -32 -50.5 -58t-68 -40.5t-85.5 -14.5zM330 598q-12 0 -19 7t-7 19q0 14 8 23t21 9q12 0 19.5 -7.5t7.5 -18.5q0 -14 -9 -23t-21 -9z" />
    <glyph glyph-name="Eogonek" unicode="&#x118;" horiz-adv-x="582" 
d="M404 -207q-24 0 -43 8.5t-30 25t-11 41.5q0 32 20.5 58t55 47.5t77.5 37.5l17 -11q-37 -15 -70.5 -34.5t-54.5 -43t-21 -51.5q0 -29 18.5 -42.5t43.5 -13.5q14 0 26.5 3t22.5 7l-3 -23q-7 -4 -20.5 -6.5t-27.5 -2.5zM41 0l153 660h431l-7 -25h-403l-65 -286h323l-6 -25
h-324l-68 -299h421l-6 -25h-449z" />
    <glyph glyph-name="eogonek" unicode="&#x119;" horiz-adv-x="535" 
d="M263 -9q-68 0 -116.5 30.5t-73 82t-24.5 113.5q0 78 29.5 144.5t86.5 107t137 40.5q58 0 100.5 -26.5t65 -72t22.5 -103.5q0 -12 -1 -25.5t-4 -26.5h-420v24h405l-10 -8q1 9 1.5 18t0.5 16q0 50 -19 91t-55 65t-89 24q-52 0 -93.5 -21.5t-70.5 -58.5t-43.5 -85.5
t-14.5 -103.5q0 -58 23 -103.5t65 -71.5t100 -26q60 1 106 29.5t73 73.5l23 -14q-21 -32 -50.5 -58t-68 -40.5t-85.5 -14.5zM255 -206q-23 0 -42 8.5t-30 25t-11 41.5q0 32 18.5 58t51 47.5t74.5 37.5l18 -11q-37 -15 -68.5 -34.5t-50.5 -43t-19 -51.5q0 -29 18 -42.5
t44 -13.5q13 0 26 3t23 7l-3 -23q-8 -4 -21 -6.5t-28 -2.5z" />
    <glyph glyph-name="Ecaron" unicode="&#x11a;" horiz-adv-x="582" 
d="M41 0l153 660h431l-7 -25h-403l-65 -286h323l-6 -25h-324l-68 -299h421l-6 -25h-449zM404 743l-74 145h26l66 -124l125 124h31l-142 -145h-32z" />
    <glyph glyph-name="ecaron" unicode="&#x11b;" horiz-adv-x="535" 
d="M263 -9q-68 0 -116.5 30.5t-73 82t-24.5 113.5q0 78 29.5 144.5t86.5 107t137 40.5q58 0 100.5 -26.5t65 -72t22.5 -103.5q0 -12 -1 -25.5t-4 -26.5h-420v24h405l-10 -8q1 9 1.5 18t0.5 16q0 50 -19 91t-55 65t-89 24q-52 0 -93.5 -21.5t-70.5 -58.5t-43.5 -85.5
t-14.5 -103.5q0 -58 23 -103.5t65 -71.5t100 -26q60 1 106 29.5t73 73.5l23 -14q-21 -32 -50.5 -58t-68 -40.5t-85.5 -14.5zM306 583l-75 147h25l68 -126l126 126h30l-143 -147h-31z" />
    <glyph glyph-name="Gcircumflex" unicode="&#x11c;" horiz-adv-x="692" 
d="M343 -9q-73 0 -134 33t-97 96.5t-36 155.5q0 77 21.5 148t65 126.5t108.5 87.5t151 32q57 0 105.5 -19.5t85.5 -58.5t58 -97l-27 -9q-30 79 -88 119t-136 40t-137 -30.5t-99 -82.5t-59.5 -117.5t-19.5 -134.5q0 -83 32.5 -142.5t87.5 -90t122 -30.5q56 0 106.5 20.5
t88.5 68t55 126.5l12 51h-230l6 26h256l-72 -309h-24l40 176l9 8q-18 -71 -56 -113t-88 -61t-107 -19zM492 888l75 -145h-26l-67 125l-125 -125h-30l142 145h31z" />
    <glyph glyph-name="gcircumflex" unicode="&#x11d;" horiz-adv-x="589" 
d="M210 -215q-42 0 -79 11t-65 32.5t-46.5 52t-26.5 68.5l27 10q15 -73 66.5 -111t126.5 -38q51 0 91.5 18t68.5 59.5t44 107.5l36 157l-1 -18q-24 -53 -76.5 -88t-123.5 -35q-58 0 -104 26t-72 75.5t-26 119.5q0 56 17 106.5t48.5 89t78 60.5t105.5 22q68 0 114 -33.5
t65.5 -89.5t7.5 -125l-6 8l53 230h28l-118 -510q-16 -72 -48 -117.5t-78 -66.5t-107 -21zM257 35q70 0 118 36.5t73 95.5t25 126t-24.5 109.5t-64 63t-85.5 20.5q-70 0 -119.5 -36t-75.5 -94t-26 -125q0 -93 49 -144.5t130 -51.5zM204 582l143 146h32l75 -146h-26l-67 126
l-127 -126h-30z" />
    <glyph glyph-name="Gbreve" unicode="&#x11e;" horiz-adv-x="692" 
d="M343 -9q-73 0 -134 33t-97 96.5t-36 155.5q0 77 21.5 148t65 126.5t108.5 87.5t151 32q57 0 105.5 -19.5t85.5 -58.5t58 -97l-27 -9q-30 79 -88 119t-136 40t-137 -30.5t-99 -82.5t-59.5 -117.5t-19.5 -134.5q0 -83 32.5 -142.5t87.5 -90t122 -30.5q56 0 106.5 20.5
t88.5 68t55 126.5l12 51h-230l6 26h256l-72 -309h-24l40 176l9 8q-18 -71 -56 -113t-88 -61t-107 -19zM597 866q-11 -64 -51 -95t-97 -31q-51 0 -80 26t-29 68q0 8 1 16.5t3 15.5h21q-1 -6 -1.5 -13t-0.5 -14q0 -35 24.5 -55.5t63.5 -20.5q49 0 81.5 27t40.5 76h24z" />
    <glyph glyph-name="gbreve" unicode="&#x11f;" horiz-adv-x="589" 
d="M210 -215q-42 0 -79 11t-65 32.5t-46.5 52t-26.5 68.5l27 10q15 -73 66.5 -111t126.5 -38q51 0 91.5 18t68.5 59.5t44 107.5l36 157l-1 -18q-24 -53 -76.5 -88t-123.5 -35q-58 0 -104 26t-72 75.5t-26 119.5q0 56 17 106.5t48.5 89t78 60.5t105.5 22q68 0 114 -33.5
t65.5 -89.5t7.5 -125l-6 8l53 230h28l-118 -510q-16 -72 -48 -117.5t-78 -66.5t-107 -21zM257 35q70 0 118 36.5t73 95.5t25 126t-24.5 109.5t-64 63t-85.5 20.5q-70 0 -119.5 -36t-75.5 -94t-26 -125q0 -93 49 -144.5t130 -51.5zM484 706q-11 -64 -51 -95t-97 -31
q-51 0 -80 26t-29 68q0 8 1 16.5t3 15.5h21q-1 -6 -1.5 -13t-0.5 -14q0 -35 24.5 -55.5t63.5 -20.5q49 0 81.5 27t40.5 76h24z" />
    <glyph glyph-name="Gdotaccent" unicode="&#x120;" horiz-adv-x="692" 
d="M343 -9q-73 0 -134 33t-97 96.5t-36 155.5q0 77 21.5 148t65 126.5t108.5 87.5t151 32q57 0 105.5 -19.5t85.5 -58.5t58 -97l-27 -9q-30 79 -88 119t-136 40t-137 -30.5t-99 -82.5t-59.5 -117.5t-19.5 -134.5q0 -83 32.5 -142.5t87.5 -90t122 -30.5q56 0 106.5 20.5
t88.5 68t55 126.5l12 51h-230l6 26h256l-72 -309h-24l40 176l9 8q-18 -71 -56 -113t-88 -61t-107 -19zM452 758q-12 0 -19 7t-7 19q0 14 8 23t21 9q12 0 19.5 -7.5t7.5 -18.5q0 -14 -9 -23t-21 -9z" />
    <glyph glyph-name="gdotaccent" unicode="&#x121;" horiz-adv-x="589" 
d="M210 -215q-42 0 -79 11t-65 32.5t-46.5 52t-26.5 68.5l27 10q15 -73 66.5 -111t126.5 -38q51 0 91.5 18t68.5 59.5t44 107.5l36 157l-1 -18q-24 -53 -76.5 -88t-123.5 -35q-58 0 -104 26t-72 75.5t-26 119.5q0 56 17 106.5t48.5 89t78 60.5t105.5 22q68 0 114 -33.5
t65.5 -89.5t7.5 -125l-6 8l53 230h28l-118 -510q-16 -72 -48 -117.5t-78 -66.5t-107 -21zM257 35q70 0 118 36.5t73 95.5t25 126t-24.5 109.5t-64 63t-85.5 20.5q-70 0 -119.5 -36t-75.5 -94t-26 -125q0 -93 49 -144.5t130 -51.5zM338 598q-12 0 -19 7t-7 19q0 14 8 23t21 9
q12 0 19.5 -7.5t7.5 -18.5q0 -14 -9 -23t-21 -9z" />
    <glyph glyph-name="uni0122" unicode="&#x122;" horiz-adv-x="692" 
d="M343 -9q-73 0 -134 33t-97 96.5t-36 155.5q0 77 21.5 148t65 126.5t108.5 87.5t151 32q57 0 105.5 -19.5t85.5 -58.5t58 -97l-27 -9q-30 79 -88 119t-136 40t-137 -30.5t-99 -82.5t-59.5 -117.5t-19.5 -134.5q0 -83 32.5 -142.5t87.5 -90t122 -30.5q56 0 106.5 20.5
t88.5 68t55 126.5l12 51h-230l6 26h256l-72 -309h-24l40 176l9 8q-18 -71 -56 -113t-88 -61t-107 -19zM362 -69l-94 -161h-25l86 161h33z" />
    <glyph glyph-name="uni0123" unicode="&#x123;" horiz-adv-x="589" 
d="M210 -215q-42 0 -79 11t-65 32.5t-46.5 52t-26.5 68.5l27 10q15 -73 66.5 -111t126.5 -38q51 0 91.5 18t68.5 59.5t44 107.5l36 157l-1 -18q-24 -53 -76.5 -88t-123.5 -35q-58 0 -104 26t-72 75.5t-26 119.5q0 56 17 106.5t48.5 89t78 60.5t105.5 22q68 0 114 -33.5
t65.5 -89.5t7.5 -125l-6 8l53 230h28l-118 -510q-16 -72 -48 -117.5t-78 -66.5t-107 -21zM257 35q70 0 118 36.5t73 95.5t25 126t-24.5 109.5t-64 63t-85.5 20.5q-70 0 -119.5 -36t-75.5 -94t-26 -125q0 -93 49 -144.5t130 -51.5zM449 778l-96 -191h-33l106 191h23z" />
    <glyph glyph-name="Hcircumflex" unicode="&#x124;" horiz-adv-x="689" 
d="M685 660l-153 -660h-28l153 660h28zM222 660l-153 -660h-28l153 660h28zM600 349l-7 -25h-463l6 25h464zM510 888l75 -145h-26l-67 125l-125 -125h-30l142 145h31z" />
    <glyph glyph-name="hcircumflex" unicode="&#x125;" horiz-adv-x="569" 
d="M27 0l170 730h28l-85 -362l-6 -1q15 41 45 73.5t73.5 51t98.5 18.5q58 0 97.5 -26t54.5 -74t0 -115l-69 -295h-28l68 294q21 93 -15.5 142.5t-112.5 49.5q-63 0 -108 -26t-73.5 -69.5t-41.5 -96.5l-68 -294h-28zM265 914l75 -145h-26l-67 125l-125 -125h-30l142 145h31z
" />
    <glyph glyph-name="Hbar" unicode="&#x126;" horiz-adv-x="689" 
d="M685 660l-153 -660h-28l153 660h28zM222 660l-153 -660h-28l153 660h28zM600 349l-7 -25h-463l6 25h464zM730 515l-6 -25h-640l5 25h641z" />
    <glyph glyph-name="hbar" unicode="&#x127;" horiz-adv-x="569" 
d="M76 610h297l-5 -21h-297zM27 0l170 730h28l-85 -362l-6 -1q15 41 45 73.5t73.5 51t98.5 18.5q58 0 97.5 -26t54.5 -74t0 -115l-69 -295h-28l68 294q21 93 -15.5 142.5t-112.5 49.5q-63 0 -108 -26t-73.5 -69.5t-41.5 -96.5l-68 -294h-28z" />
    <glyph glyph-name="Itilde" unicode="&#x128;" horiz-adv-x="225" 
d="M222 660l-153 -660h-28l153 660h28zM398 849q-13 -48 -38 -70.5t-54 -22.5q-25 0 -41 10.5t-28.5 24t-26 24t-33.5 10.5q-27 0 -42 -18t-28 -52h-24q13 48 37.5 70.5t59.5 22.5q24 0 40 -10.5t28.5 -24t26 -24t33.5 -10.5q22 0 38.5 18.5t28.5 51.5h23z" />
    <glyph glyph-name="itilde" unicode="&#x129;" horiz-adv-x="196" 
d="M170 500l-116 -500h-28l116 500h28zM346 689q-13 -48 -38 -70.5t-54 -22.5q-25 0 -41 10.5t-28.5 24t-26 24t-33.5 10.5q-27 0 -42 -18t-28 -52h-24q13 48 37.5 70.5t59.5 22.5q24 0 40 -10.5t28.5 -24t26 -24t33.5 -10.5q22 0 38.5 18.5t28.5 51.5h23z" />
    <glyph glyph-name="Imacron" unicode="&#x12a;" horiz-adv-x="226" 
d="M345 787l-5 -24h-216l5 24h216zM222 660l-153 -660h-28l153 660h28z" />
    <glyph glyph-name="imacron" unicode="&#x12b;" horiz-adv-x="196" 
d="M272 627l-6 -24h-174l5 24h175zM170 500l-116 -500h-28l116 500h28z" />
    <glyph glyph-name="Ibreve" unicode="&#x12c;" horiz-adv-x="225" 
d="M222 660l-153 -660h-28l153 660h28zM379 866q-11 -64 -51 -95t-97 -31q-51 0 -80 26t-29 68q0 8 1 16.5t3 15.5h21q-1 -6 -1.5 -13t-0.5 -14q0 -35 24.5 -55.5t63.5 -20.5q49 0 81.5 27t40.5 76h24z" />
    <glyph glyph-name="ibreve" unicode="&#x12d;" horiz-adv-x="196" 
d="M170 500l-116 -500h-28l116 500h28zM329 706q-11 -64 -51 -95t-97 -31q-51 0 -80 26t-29 68q0 8 1 16.5t3 15.5h21q-1 -6 -1.5 -13t-0.5 -14q0 -35 24.5 -55.5t63.5 -20.5q49 0 81.5 27t40.5 76h24z" />
    <glyph glyph-name="Iogonek" unicode="&#x12e;" horiz-adv-x="225" 
d="M6 -207q-21 0 -40.5 8t-31 25t-11.5 44q0 31 15.5 57t44.5 47t68 37l18 -11q-35 -15 -62.5 -34t-43.5 -42t-16 -51q0 -33 20.5 -45.5t43.5 -12.5q11 0 20 1.5t17 5.5l-3 -22q-6 -3 -15.5 -5t-23.5 -2zM222 660l-153 -660h-28l153 660h28z" />
    <glyph glyph-name="iogonek" unicode="&#x12f;" horiz-adv-x="198" 
d="M-8 -207q-22 0 -41 8t-30.5 25t-11.5 44q0 31 15.5 57t44 47t68.5 37l17 -11q-34 -15 -62 -34t-43.5 -42t-15.5 -51q0 -33 20.5 -45.5t43.5 -12.5q11 0 20 1.5t17 5.5l-3 -22q-6 -3 -15.5 -5t-23.5 -2zM183 598q-12 0 -19 7.5t-7 18.5q0 14 8.5 23t21.5 9q12 0 19.5 -7.5
t7.5 -18.5q0 -15 -8.5 -23.5t-22.5 -8.5zM170 500l-116 -500h-28l116 500h28z" />
    <glyph glyph-name="Idotaccent" unicode="&#x130;" horiz-adv-x="225" 
d="M222 660l-153 -660h-28l153 660h28zM235 758q-12 0 -19 7t-7 19q0 14 8 23t21 9q12 0 19.5 -7.5t7.5 -18.5q0 -14 -9 -23t-21 -9z" />
    <glyph glyph-name="dotlessi" unicode="&#x131;" horiz-adv-x="196" 
d="M170 500l-116 -500h-28l116 500h28z" />
    <glyph glyph-name="IJ" unicode="&#x132;" horiz-adv-x="720" 
d="M222 660l-153 -660h-28l153 660h28zM409 -10q-49 0 -85 17t-57 47.5t-24.5 73.5t13.5 95l26 2q-19 -65 -9.5 -112t45.5 -72.5t93 -25.5q73 0 117.5 43.5t65.5 137.5l107 464h28l-109 -469q-14 -67 -42 -111.5t-69.5 -67t-99.5 -22.5z" />
    <glyph glyph-name="ij" unicode="&#x133;" horiz-adv-x="394" 
d="M183 598q-12 0 -19 7.5t-7 18.5q0 14 8.5 23t21.5 9q12 0 19.5 -7.5t7.5 -18.5q0 -15 -8.5 -23.5t-22.5 -8.5zM170 500l-116 -500h-28l116 500h28zM381 598q-12 0 -19 7.5t-7 18.5q0 14 8.5 23t21.5 9q12 0 19.5 -7.5t7.5 -18.5q0 -15 -8.5 -23.5t-22.5 -8.5zM88 -215
q-21 0 -39 6t-30 15l11 24q12 -8 26.5 -13.5t30.5 -5.5q47 0 77 31t45 95l131 563h28l-133 -574q-15 -67 -51.5 -104t-95.5 -37z" />
    <glyph glyph-name="Jcircumflex" unicode="&#x134;" horiz-adv-x="495" 
d="M184 -10q-49 0 -85 17t-57 47.5t-24.5 73.5t13.5 95l26 2q-19 -65 -9.5 -112t45.5 -72.5t93 -25.5q73 0 117.5 43.5t65.5 137.5l107 464h28l-109 -469q-14 -67 -42 -111.5t-69.5 -67t-99.5 -22.5zM557 888l75 -145h-26l-67 125l-125 -125h-30l142 145h31z" />
    <glyph glyph-name="jcircumflex" unicode="&#x135;" horiz-adv-x="196" 
d="M-110 -215q-21 0 -39 6t-30 15l11 24q12 -8 26.5 -13.5t30.5 -5.5q47 0 77 31t45 95l131 563h28l-133 -574q-15 -67 -51.5 -104t-95.5 -37zM49 582l143 146h32l75 -146h-26l-67 126l-127 -126h-30z" />
    <glyph glyph-name="uni0136" unicode="&#x136;" horiz-adv-x="563" 
d="M41 0l153 660h28l-91 -388l460 388h43l-315 -265l170 -395h-31l-162 375l-175 -148l-52 -227h-28zM275 -69l-94 -161h-25l86 161h33z" />
    <glyph glyph-name="uni0137" unicode="&#x137;" horiz-adv-x="487" 
d="M524 500l-264 -207l-9 -6l-178 -140l8 38l401 315h42zM224 730l-169 -730h-28l169 730h28zM261 306l153 -306h-30l-146 293zM253 -69l-94 -161h-25l86 161h33z" />
    <glyph glyph-name="kgreenlandic" unicode="&#x138;" horiz-adv-x="487" 
d="M524 500l-264 -207l-9 -6l-178 -140l8 38l401 315h42zM171 500l-116 -500h-28l116 500h28zM261 306l153 -306h-30l-146 293z" />
    <glyph glyph-name="Lacute" unicode="&#x139;" horiz-adv-x="542" 
d="M75 25h400l-6 -25h-428l153 660h28zM314 893h33l-113 -150h-26z" />
    <glyph glyph-name="lacute" unicode="&#x13a;" horiz-adv-x="245" 
d="M124 -9q-52 0 -69.5 35t-3.5 98l140 606h28l-141 -609q-12 -53 0.5 -79t53.5 -26q17 0 29 2t23 6l-6 -23q-9 -5 -23 -7.5t-31 -2.5zM204 794l92 136h30l-98 -136h-24z" />
    <glyph glyph-name="uni013B" unicode="&#x13b;" horiz-adv-x="542" 
d="M75 25h400l-6 -25h-428l153 660h28zM283 -69l-94 -161h-25l86 161h33z" />
    <glyph glyph-name="uni013C" unicode="&#x13c;" horiz-adv-x="245" 
d="M124 -9q-52 0 -69.5 35t-3.5 98l140 606h28l-141 -609q-12 -53 0.5 -79t53.5 -26q17 0 29 2t23 6l-6 -23q-9 -5 -23 -7.5t-31 -2.5zM110 -69l-94 -161h-25l86 161h33z" />
    <glyph glyph-name="Lcaron" unicode="&#x13d;" horiz-adv-x="542" 
d="M431 660l-77 -197h-24l71 197h30zM75 25h400l-6 -25h-428l153 660h28z" />
    <glyph glyph-name="lcaron" unicode="&#x13e;" horiz-adv-x="248" 
d="M354 730l-77 -197h-23l71 197h29zM124 -9q-52 0 -69.5 35t-3.5 98l140 606h28l-141 -609q-12 -53 0.5 -79t53.5 -26q17 0 29 2t23 6l-6 -23q-9 -5 -23 -7.5t-31 -2.5z" />
    <glyph glyph-name="Ldot" unicode="&#x13f;" horiz-adv-x="548" 
d="M75 25h400l-6 -25h-428l153 660h28zM405 317q-12 0 -19.5 7.5t-7.5 19.5q0 14 8.5 23.5t21.5 9.5q12 0 19.5 -7.5t7.5 -19.5q0 -14 -8.5 -23.5t-21.5 -9.5z" />
    <glyph glyph-name="ldot" unicode="&#x140;" horiz-adv-x="305" 
d="M124 -9q-52 0 -69.5 35t-3.5 98l140 606h28l-141 -609q-12 -53 0.5 -79t53.5 -26q17 0 29 2t23 6l-6 -23q-9 -5 -23 -7.5t-31 -2.5zM273 333q-12 0 -19.5 7.5t-7.5 19.5q0 14 8.5 23.5t21.5 9.5q12 0 19.5 -7.5t7.5 -19.5q0 -14 -8.5 -23.5t-21.5 -9.5z" />
    <glyph glyph-name="Lslash" unicode="&#x141;" horiz-adv-x="555" 
d="M380 449l-8 -35l-369 -204l8 34zM88 25h400l-7 -25h-428l153 660h28z" />
    <glyph glyph-name="lslash" unicode="&#x142;" horiz-adv-x="289" 
d="M24 261l8 32l116 73l8 3l148 94l-8 -34l-145 -91h-5zM156 -9q-52 0 -69.5 35t-3.5 98l140 606h28l-141 -609q-12 -53 0.5 -79t53.5 -26q17 0 29 2t23 6l-6 -23q-9 -5 -23 -7.5t-31 -2.5z" />
    <glyph glyph-name="Nacute" unicode="&#x143;" horiz-adv-x="687" 
d="M41 0l153 660h35l260 -573l23 -57v0l14 66l131 564h27l-153 -660h-35l-261 574l-23 57v0l-13 -67l-131 -564h-27zM540 893h33l-113 -150h-26z" />
    <glyph glyph-name="nacute" unicode="&#x144;" horiz-adv-x="569" 
d="M27 0l116 500h26l-30 -135l-5 2q22 62 78 102.5t139 40.5q59 0 98.5 -26t54 -74t-0.5 -115l-69 -295h-28l68 294q21 93 -15.5 142.5t-112.5 49.5q-63 0 -108 -26t-73.5 -69.5t-41.5 -96.5l-68 -294h-28zM459 734h34l-126 -151h-27z" />
    <glyph glyph-name="uni0145" unicode="&#x145;" horiz-adv-x="687" 
d="M41 0l153 660h35l260 -573l23 -57v0l14 66l131 564h27l-153 -660h-35l-261 574l-23 57v0l-13 -67l-131 -564h-27zM301 -69l-94 -161h-25l86 161h33z" />
    <glyph glyph-name="uni0146" unicode="&#x146;" horiz-adv-x="569" 
d="M27 0l116 500h26l-30 -135l-5 2q22 62 78 102.5t139 40.5q59 0 98.5 -26t54 -74t-0.5 -115l-69 -295h-28l68 294q21 93 -15.5 142.5t-112.5 49.5q-63 0 -108 -26t-73.5 -69.5t-41.5 -96.5l-68 -294h-28zM261 -69l-94 -161h-25l86 161h33z" />
    <glyph glyph-name="Ncaron" unicode="&#x147;" horiz-adv-x="687" 
d="M41 0l153 660h35l260 -573l23 -57v0l14 66l131 564h27l-153 -660h-35l-261 574l-23 57v0l-13 -67l-131 -564h-27zM437 743l-74 145h26l66 -124l125 124h31l-142 -145h-32z" />
    <glyph glyph-name="ncaron" unicode="&#x148;" horiz-adv-x="569" 
d="M27 0l116 500h26l-30 -135l-5 2q22 62 78 102.5t139 40.5q59 0 98.5 -26t54 -74t-0.5 -115l-69 -295h-28l68 294q21 93 -15.5 142.5t-112.5 49.5q-63 0 -108 -26t-73.5 -69.5t-41.5 -96.5l-68 -294h-28zM340 583l-75 147h25l68 -126l126 126h30l-143 -147h-31z" />
    <glyph glyph-name="Eng" unicode="&#x14a;" horiz-adv-x="688" 
d="M368 -215q-22 0 -41.5 6t-31.5 16l12 25q11 -9 27 -15t33 -6q47 0 77.5 31t45.5 95l15 63l-269 576l-23 55v0l-14 -67l-131 -564h-27l153 660h35l265 -568l20 -50h1l12 59l130 559h27l-170 -734q-15 -65 -51 -103t-95 -38z" />
    <glyph glyph-name="eng" unicode="&#x14b;" horiz-adv-x="569" 
d="M270 -215q-22 0 -41 6t-31 16l11 25q12 -9 28 -15t32 -6q47 0 77.5 31t45.5 95l82 357q21 93 -15.5 142.5t-112.5 49.5q-63 0 -108 -26t-73.5 -69.5t-41.5 -96.5l-68 -294h-28l116 500h26l-25 -109q27 53 80 86t127 33q59 0 98.5 -26t54 -74t-0.5 -115l-86 -369
q-15 -67 -51.5 -104t-95.5 -37z" />
    <glyph glyph-name="Omacron" unicode="&#x14c;" horiz-adv-x="718" 
d="M347 -10q-74 0 -136 33.5t-98 98.5t-36 158q0 77 21 147t63 124.5t105 86.5t145 32q74 0 134.5 -34t96.5 -98.5t36 -157.5q0 -76 -21 -146t-63 -125t-103.5 -87t-143.5 -32zM349 16q74 0 130 30t94 81t57 116.5t19 135.5q0 85 -32.5 144.5t-86.5 90t-122 30.5
q-74 0 -130.5 -30t-95 -81t-57.5 -116t-19 -136q0 -85 32.5 -144.5t88 -90t122.5 -30.5zM583 787l-5 -24h-277l6 24h276z" />
    <glyph glyph-name="omacron" unicode="&#x14d;" horiz-adv-x="567" 
d="M267 -9q-70 0 -118.5 30.5t-73.5 82t-25 112.5q0 86 31.5 152t88.5 103.5t132 37.5q70 0 118 -30.5t73 -81t25 -112.5q0 -85 -31.5 -151.5t-88 -104.5t-131.5 -38zM267 15q49 0 90 19.5t70.5 55.5t46 85.5t16.5 108.5q0 61 -23 105.5t-65 70t-101 25.5q-49 0 -90 -19.5
t-71 -55t-46 -85t-16 -108.5q0 -60 23 -105.5t66 -71t100 -25.5zM475 627l-5 -24h-277l6 24h276z" />
    <glyph glyph-name="Obreve" unicode="&#x14e;" horiz-adv-x="718" 
d="M347 -10q-74 0 -136 33.5t-98 98.5t-36 158q0 77 21 147t63 124.5t105 86.5t145 32q74 0 134.5 -34t96.5 -98.5t36 -157.5q0 -76 -21 -146t-63 -125t-103.5 -87t-143.5 -32zM349 16q74 0 130 30t94 81t57 116.5t19 135.5q0 85 -32.5 144.5t-86.5 90t-122 30.5
q-74 0 -130.5 -30t-95 -81t-57.5 -116t-19 -136q0 -85 32.5 -144.5t88 -90t122.5 -30.5zM595 866q-11 -64 -51 -95t-97 -31q-51 0 -80 26t-29 68q0 8 1 16.5t3 15.5h21q-1 -6 -1.5 -13t-0.5 -14q0 -35 24.5 -55.5t63.5 -20.5q49 0 81.5 27t40.5 76h24z" />
    <glyph glyph-name="obreve" unicode="&#x14f;" horiz-adv-x="567" 
d="M267 -9q-70 0 -118.5 30.5t-73.5 82t-25 112.5q0 86 31.5 152t88.5 103.5t132 37.5q70 0 118 -30.5t73 -81t25 -112.5q0 -85 -31.5 -151.5t-88 -104.5t-131.5 -38zM267 15q49 0 90 19.5t70.5 55.5t46 85.5t16.5 108.5q0 61 -23 105.5t-65 70t-101 25.5q-49 0 -90 -19.5
t-71 -55t-46 -85t-16 -108.5q0 -60 23 -105.5t66 -71t100 -25.5zM488 706q-11 -64 -51 -95t-97 -31q-51 0 -80 26t-29 68q0 8 1 16.5t3 15.5h21q-1 -6 -1.5 -13t-0.5 -14q0 -35 24.5 -55.5t63.5 -20.5q49 0 81.5 27t40.5 76h24z" />
    <glyph glyph-name="Ohungarumlaut" unicode="&#x150;" horiz-adv-x="718" 
d="M347 -10q-74 0 -136 33.5t-98 98.5t-36 158q0 77 21 147t63 124.5t105 86.5t145 32q74 0 134.5 -34t96.5 -98.5t36 -157.5q0 -76 -21 -146t-63 -125t-103.5 -87t-143.5 -32zM349 16q74 0 130 30t94 81t57 116.5t19 135.5q0 85 -32.5 144.5t-86.5 90t-122 30.5
q-74 0 -130.5 -30t-95 -81t-57.5 -116t-19 -136q0 -85 32.5 -144.5t88 -90t122.5 -30.5zM488 743l106 150h33l-112 -150h-27zM359 743l106 150h33l-113 -150h-26z" />
    <glyph glyph-name="ohungarumlaut" unicode="&#x151;" horiz-adv-x="567" 
d="M267 -9q-70 0 -118.5 30.5t-73.5 82t-25 112.5q0 86 31.5 152t88.5 103.5t132 37.5q70 0 118 -30.5t73 -81t25 -112.5q0 -85 -31.5 -151.5t-88 -104.5t-131.5 -38zM267 15q49 0 90 19.5t70.5 55.5t46 85.5t16.5 108.5q0 61 -23 105.5t-65 70t-101 25.5q-49 0 -90 -19.5
t-71 -55t-46 -85t-16 -108.5q0 -60 23 -105.5t66 -71t100 -25.5zM381 583l120 151h34l-126 -151h-28zM241 583l119 151h35l-126 -151h-28z" />
    <glyph glyph-name="OE" unicode="&#x152;" horiz-adv-x="1044" 
d="M326 -10q-74 0 -130 34t-88 99.5t-32 157.5q0 76 22 146t64.5 124.5t103 86.5t135.5 32q76 0 125.5 -31.5t74.5 -88.5t25 -133l57 243h404l-7 -25h-377l-66 -286h298l-6 -25h-298l-68 -299h396l-7 -25h-422l29 130q-38 -68 -96.5 -104t-136.5 -36zM328 16q66 0 116.5 28
t85.5 78t54 116.5t22 142.5q4 75 -17 134.5t-68 94t-123 34.5q-68 0 -122 -30t-92 -81t-58.5 -115.5t-20.5 -133.5q0 -85 28 -145t78 -91.5t117 -31.5z" />
    <glyph glyph-name="oe" unicode="&#x153;" horiz-adv-x="948" 
d="M261 -9q-70 0 -117.5 30.5t-70.5 82t-23 112.5q0 86 30.5 152t87 103.5t134.5 37.5q56 0 97 -23t66 -62t33 -89q26 76 79.5 125t133.5 49q61 0 103.5 -26.5t65 -72t22.5 -102.5q0 -13 -1.5 -26t-4.5 -27h-391q-1 -9 -1 -19.5v-19.5q0 -58 21 -103.5t61 -71.5t95 -26
q58 0 103.5 29t71.5 74l23 -14q-31 -49 -81.5 -81t-117.5 -32q-56 0 -97 22.5t-66 61.5t-34 88q-26 -78 -85.5 -125t-136.5 -47zM262 15q46 0 85.5 19.5t69.5 55.5t46 85.5t16 108.5q0 61 -22 106t-61.5 70t-94.5 25q-52 0 -93.5 -19.5t-70 -55.5t-43.5 -85t-15 -109
q0 -89 47.5 -145t135.5 -56zM509 279h364q1 8 1 14.5v12.5q0 50 -18.5 90.5t-55.5 64.5t-91 24q-55 0 -97 -27.5t-68 -74t-35 -104.5z" />
    <glyph glyph-name="Racute" unicode="&#x154;" horiz-adv-x="612" 
d="M41 0l153 660h204q93 0 143 -44t50 -120q0 -58 -25.5 -103.5t-74.5 -72.5t-121 -28l-10 -2h-234l3 26h231q69 0 113.5 24t66.5 64.5t22 90.5q0 63 -41.5 101.5t-125.5 38.5h-179l-147 -635h-28zM488 0l-119 303l29 2l120 -305h-30zM485 893h33l-113 -150h-26z" />
    <glyph glyph-name="racute" unicode="&#x155;" horiz-adv-x="347" 
d="M27 0l116 500h25l-30 -144l-7 7q19 42 45.5 75t62 52.5t82.5 19.5q17 0 33 -3t27 -11l-11 -25q-10 8 -24.5 11t-31.5 3q-48 0 -87 -25.5t-65 -68.5t-38 -96l-69 -295h-28zM379 734h34l-126 -151h-27z" />
    <glyph glyph-name="uni0156" unicode="&#x156;" horiz-adv-x="612" 
d="M41 0l153 660h204q93 0 143 -44t50 -120q0 -58 -25.5 -103.5t-74.5 -72.5t-121 -28l-10 -2h-234l3 26h231q69 0 113.5 24t66.5 64.5t22 90.5q0 63 -41.5 101.5t-125.5 38.5h-179l-147 -635h-28zM488 0l-119 303l29 2l120 -305h-30zM294 -69l-94 -161h-25l86 161h33z" />
    <glyph glyph-name="uni0157" unicode="&#x157;" horiz-adv-x="347" 
d="M27 0l116 500h25l-30 -144l-7 7q19 42 45.5 75t62 52.5t82.5 19.5q17 0 33 -3t27 -11l-11 -25q-10 8 -24.5 11t-31.5 3q-48 0 -87 -25.5t-65 -68.5t-38 -96l-69 -295h-28zM49 -69l-94 -161h-25l86 161h33z" />
    <glyph glyph-name="Rcaron" unicode="&#x158;" horiz-adv-x="612" 
d="M41 0l153 660h204q93 0 143 -44t50 -120q0 -58 -25.5 -103.5t-74.5 -72.5t-121 -28l-10 -2h-234l3 26h231q69 0 113.5 24t66.5 64.5t22 90.5q0 63 -41.5 101.5t-125.5 38.5h-179l-147 -635h-28zM488 0l-119 303l29 2l120 -305h-30zM382 743l-74 145h26l66 -124l125 124
h31l-142 -145h-32z" />
    <glyph glyph-name="rcaron" unicode="&#x159;" horiz-adv-x="347" 
d="M27 0l116 500h25l-30 -144l-7 7q19 42 45.5 75t62 52.5t82.5 19.5q17 0 33 -3t27 -11l-11 -25q-10 8 -24.5 11t-31.5 3q-48 0 -87 -25.5t-65 -68.5t-38 -96l-69 -295h-28zM260 583l-75 147h25l68 -126l126 126h30l-143 -147h-31z" />
    <glyph glyph-name="Sacute" unicode="&#x15a;" horiz-adv-x="604" 
d="M308 -8q-72 0 -130 24t-94.5 67t-47.5 102l28 12q8 -55 42 -95.5t87 -62.5t116 -22q56 0 102 18t74.5 52.5t28.5 83.5t-38 81.5t-109 50.5l-84 23q-50 14 -85 38t-53 57t-18 73q0 50 27 90t78 63.5t122 23.5q91 0 155 -39.5t86 -120.5l-27 -12q-14 52 -44.5 84.5
t-74 47.5t-97.5 15q-61 0 -105 -20t-68 -53.5t-24 -75.5q0 -51 34.5 -88t101.5 -56l83 -22q82 -22 125.5 -61t43.5 -95q0 -60 -32.5 -100.5t-86 -61.5t-116.5 -21zM477 893h33l-113 -150h-26z" />
    <glyph glyph-name="sacute" unicode="&#x15b;" horiz-adv-x="493" 
d="M237 -10q-61 0 -106.5 19t-72 54t-31.5 82l27 9q6 -64 53 -102t130 -38q73 0 113 33.5t40 85.5q0 36 -20.5 58.5t-66.5 35.5l-101 28q-55 16 -83.5 44t-28.5 74q0 42 22.5 72.5t63 47t92.5 16.5q73 0 125.5 -33.5t64.5 -106.5l-25 -11q-6 44 -30 72.5t-60 41.5t-78 13
q-67 0 -107.5 -30t-40.5 -79q0 -39 24.5 -61t68.5 -35l104 -29q53 -16 78.5 -43.5t25.5 -71.5q0 -43 -22.5 -76.5t-63 -51.5t-95.5 -18zM398 734h34l-126 -151h-27z" />
    <glyph glyph-name="Scircumflex" unicode="&#x15c;" horiz-adv-x="604" 
d="M308 -8q-72 0 -130 24t-94.5 67t-47.5 102l28 12q8 -55 42 -95.5t87 -62.5t116 -22q56 0 102 18t74.5 52.5t28.5 83.5t-38 81.5t-109 50.5l-84 23q-50 14 -85 38t-53 57t-18 73q0 50 27 90t78 63.5t122 23.5q91 0 155 -39.5t86 -120.5l-27 -12q-14 52 -44.5 84.5
t-74 47.5t-97.5 15q-61 0 -105 -20t-68 -53.5t-24 -75.5q0 -51 34.5 -88t101.5 -56l83 -22q82 -22 125.5 -61t43.5 -95q0 -60 -32.5 -100.5t-86 -61.5t-116.5 -21zM438 888l75 -145h-26l-67 125l-125 -125h-30l142 145h31z" />
    <glyph glyph-name="scircumflex" unicode="&#x15d;" horiz-adv-x="493" 
d="M237 -10q-61 0 -106.5 19t-72 54t-31.5 82l27 9q6 -64 53 -102t130 -38q73 0 113 33.5t40 85.5q0 36 -20.5 58.5t-66.5 35.5l-101 28q-55 16 -83.5 44t-28.5 74q0 42 22.5 72.5t63 47t92.5 16.5q73 0 125.5 -33.5t64.5 -106.5l-25 -11q-6 44 -30 72.5t-60 41.5t-78 13
q-67 0 -107.5 -30t-40.5 -79q0 -39 24.5 -61t68.5 -35l104 -29q53 -16 78.5 -43.5t25.5 -71.5q0 -43 -22.5 -76.5t-63 -51.5t-95.5 -18zM169 582l143 146h32l75 -146h-26l-67 126l-127 -126h-30z" />
    <glyph glyph-name="Scedilla" unicode="&#x15e;" horiz-adv-x="604" 
d="M308 -8q-72 0 -130 24t-94.5 67t-47.5 102l28 12q8 -55 42 -95.5t87 -62.5t116 -22q56 0 102 18t74.5 52.5t28.5 83.5t-38 81.5t-109 50.5l-84 23q-50 14 -85 38t-53 57t-18 73q0 50 27 90t78 63.5t122 23.5q91 0 155 -39.5t86 -120.5l-27 -12q-14 52 -44.5 84.5
t-74 47.5t-97.5 15q-61 0 -105 -20t-68 -53.5t-24 -75.5q0 -51 34.5 -88t101.5 -56l83 -22q82 -22 125.5 -61t43.5 -95q0 -60 -32.5 -100.5t-86 -61.5t-116.5 -21zM249 2l22 6q29 -19 46 -45t17 -59q0 -34 -14 -58t-38.5 -37t-55.5 -13q-36 0 -57 14t-31 32l14 18
q10 -17 27.5 -29t47.5 -12q36 0 59.5 23t23.5 61q0 30 -15.5 54.5t-45.5 44.5z" />
    <glyph glyph-name="scedilla" unicode="&#x15f;" horiz-adv-x="493" 
d="M237 -10q-61 0 -106.5 19t-72 54t-31.5 82l27 9q6 -64 53 -102t130 -38q73 0 113 33.5t40 85.5q0 36 -20.5 58.5t-66.5 35.5l-101 28q-55 16 -83.5 44t-28.5 74q0 42 22.5 72.5t63 47t92.5 16.5q73 0 125.5 -33.5t64.5 -106.5l-25 -11q-6 44 -30 72.5t-60 41.5t-78 13
q-67 0 -107.5 -30t-40.5 -79q0 -39 24.5 -61t68.5 -35l104 -29q53 -16 78.5 -43.5t25.5 -71.5q0 -43 -22.5 -76.5t-63 -51.5t-95.5 -18zM193 2l22 6q29 -19 46 -45t17 -59q0 -34 -14 -58t-38.5 -37t-55.5 -13q-36 0 -57 14t-31 32l14 18q10 -17 27.5 -29t47.5 -12
q36 0 59.5 23t23.5 61q0 30 -15.5 54.5t-45.5 44.5z" />
    <glyph glyph-name="Scaron" unicode="&#x160;" horiz-adv-x="604" 
d="M308 -8q-72 0 -130 24t-94.5 67t-47.5 102l28 12q8 -55 42 -95.5t87 -62.5t116 -22q56 0 102 18t74.5 52.5t28.5 83.5t-38 81.5t-109 50.5l-84 23q-50 14 -85 38t-53 57t-18 73q0 50 27 90t78 63.5t122 23.5q91 0 155 -39.5t86 -120.5l-27 -12q-14 52 -44.5 84.5
t-74 47.5t-97.5 15q-61 0 -105 -20t-68 -53.5t-24 -75.5q0 -51 34.5 -88t101.5 -56l83 -22q82 -22 125.5 -61t43.5 -95q0 -60 -32.5 -100.5t-86 -61.5t-116.5 -21zM374 743l-74 145h26l66 -124l125 124h31l-142 -145h-32z" />
    <glyph glyph-name="scaron" unicode="&#x161;" horiz-adv-x="493" 
d="M237 -10q-61 0 -106.5 19t-72 54t-31.5 82l27 9q6 -64 53 -102t130 -38q73 0 113 33.5t40 85.5q0 36 -20.5 58.5t-66.5 35.5l-101 28q-55 16 -83.5 44t-28.5 74q0 42 22.5 72.5t63 47t92.5 16.5q73 0 125.5 -33.5t64.5 -106.5l-25 -11q-6 44 -30 72.5t-60 41.5t-78 13
q-67 0 -107.5 -30t-40.5 -79q0 -39 24.5 -61t68.5 -35l104 -29q53 -16 78.5 -43.5t25.5 -71.5q0 -43 -22.5 -76.5t-63 -51.5t-95.5 -18zM279 583l-75 147h25l68 -126l126 126h30l-143 -147h-31z" />
    <glyph glyph-name="uni0162" unicode="&#x162;" horiz-adv-x="545" 
d="M175 -204q-37 0 -58 14t-30 32l14 18q10 -17 27.5 -29t47.5 -12q36 0 59 23t23 61q0 30 -14.5 54.5t-41.5 42.5l18 8q28 -19 45 -45t17 -59q0 -34 -14 -58t-38 -37t-55 -13zM625 660l-6 -25h-243l-146 -635h-28l146 635h-245l7 25h515z" />
    <glyph glyph-name="uni0163" unicode="&#x163;" horiz-adv-x="343" 
d="M194 -10q-44 0 -71.5 18t-37 52t1.5 82l112 484l30 9l-115 -495q-13 -60 8 -92.5t76 -32.5q25 0 45.5 7t38.5 20l7 -23q-18 -14 -43 -21.5t-52 -7.5zM60 476l6 24h297l-7 -24h-296zM157 2l22 6q29 -19 46 -45t17 -59q0 -34 -14 -58t-38.5 -37t-55.5 -13q-36 0 -57 14
t-31 32l14 18q10 -17 27.5 -29t47.5 -12q36 0 59.5 23t23.5 61q0 30 -15.5 54.5t-45.5 44.5z" />
    <glyph glyph-name="Tcaron" unicode="&#x164;" horiz-adv-x="545" 
d="M625 660l-6 -25h-243l-146 -635h-28l146 635h-245l7 25h515zM371 743l-74 145h26l66 -124l125 124h31l-142 -145h-32z" />
    <glyph glyph-name="tcaron" unicode="&#x165;" horiz-adv-x="343" 
d="M398 767l-77 -197h-23l71 197h29zM194 -10q-44 0 -71.5 18t-37 52t1.5 82l112 484l30 9l-115 -495q-13 -60 8 -92.5t76 -32.5q25 0 45.5 7t38.5 20l7 -23q-18 -14 -43 -21.5t-52 -7.5zM60 476l6 24h297l-7 -24h-296z" />
    <glyph glyph-name="Tbar" unicode="&#x166;" horiz-adv-x="545" 
d="M625 660l-6 -25h-243l-146 -635h-28l146 635h-245l7 25h515zM474 350l-5 -26h-354l5 26h354z" />
    <glyph glyph-name="tbar" unicode="&#x167;" horiz-adv-x="343" 
d="M340 355l-5 -23h-304l5 23h304zM194 -10q-44 0 -71.5 18t-37 52t1.5 82l112 484l30 9l-115 -495q-13 -60 8 -92.5t76 -32.5q25 0 45.5 7t38.5 20l7 -23q-18 -14 -43 -21.5t-52 -7.5zM60 476l6 24h297l-7 -24h-296z" />
    <glyph glyph-name="Utilde" unicode="&#x168;" horiz-adv-x="663" 
d="M310 -10q-87 0 -143.5 35t-76 99.5t0.5 153.5l90 382h28l-91 -390q-19 -81 -0.5 -138t69 -87t124.5 -30q97 0 155 61.5t84 173.5l95 410h28l-96 -419q-28 -118 -92.5 -184.5t-174.5 -66.5zM612 813q-13 -48 -38 -70.5t-54 -22.5q-25 0 -41 10.5t-28.5 24t-26 24
t-33.5 10.5q-27 0 -42 -18t-28 -52h-24q13 48 37.5 70.5t59.5 22.5q24 0 40 -10.5t28.5 -24t26 -24t33.5 -10.5q22 0 38.5 18.5t28.5 51.5h23z" />
    <glyph glyph-name="utilde" unicode="&#x169;" horiz-adv-x="569" 
d="M227 -10q-63 0 -104.5 25.5t-56 74.5t0.5 118l68 292h28l-67 -293q-22 -94 16 -143t120 -49q58 0 101.5 25.5t71.5 69t41 96.5l68 294h28l-116 -500h-26l30 135l5 -2q-25 -64 -78 -103.5t-130 -39.5zM518 671q-13 -48 -38 -70.5t-54 -22.5q-25 0 -41 10.5t-28.5 24
t-26 24t-33.5 10.5q-27 0 -42 -18t-28 -52h-24q13 48 37.5 70.5t59.5 22.5q24 0 40 -10.5t28.5 -24t26 -24t33.5 -10.5q22 0 38.5 18.5t28.5 51.5h23z" />
    <glyph glyph-name="Umacron" unicode="&#x16a;" horiz-adv-x="663" 
d="M310 -10q-87 0 -143.5 35t-76 99.5t0.5 153.5l90 382h28l-91 -390q-19 -81 -0.5 -138t69 -87t124.5 -30q97 0 155 61.5t84 173.5l95 410h28l-96 -419q-28 -118 -92.5 -184.5t-174.5 -66.5zM582 751l-5 -24h-277l6 24h276z" />
    <glyph glyph-name="umacron" unicode="&#x16b;" horiz-adv-x="569" 
d="M227 -10q-63 0 -104.5 25.5t-56 74.5t0.5 118l68 292h28l-67 -293q-22 -94 16 -143t120 -49q58 0 101.5 25.5t71.5 69t41 96.5l68 294h28l-116 -500h-26l30 135l5 -2q-25 -64 -78 -103.5t-130 -39.5zM488 609l-5 -24h-277l6 24h276z" />
    <glyph glyph-name="Ubreve" unicode="&#x16c;" horiz-adv-x="663" 
d="M310 -10q-87 0 -143.5 35t-76 99.5t0.5 153.5l90 382h28l-91 -390q-19 -81 -0.5 -138t69 -87t124.5 -30q97 0 155 61.5t84 173.5l95 410h28l-96 -419q-28 -118 -92.5 -184.5t-174.5 -66.5zM594 830q-11 -64 -51 -95t-97 -31q-51 0 -80 26t-29 68q0 8 1 16.5t3 15.5h21
q-1 -6 -1.5 -13t-0.5 -14q0 -35 24.5 -55.5t63.5 -20.5q49 0 81.5 27t40.5 76h24z" />
    <glyph glyph-name="ubreve" unicode="&#x16d;" horiz-adv-x="569" 
d="M227 -10q-63 0 -104.5 25.5t-56 74.5t0.5 118l68 292h28l-67 -293q-22 -94 16 -143t120 -49q58 0 101.5 25.5t71.5 69t41 96.5l68 294h28l-116 -500h-26l30 135l5 -2q-25 -64 -78 -103.5t-130 -39.5zM500 688q-11 -64 -51 -95t-97 -31q-51 0 -80 26t-29 68q0 8 1 16.5
t3 15.5h21q-1 -6 -1.5 -13t-0.5 -14q0 -35 24.5 -55.5t63.5 -20.5q49 0 81.5 27t40.5 76h24z" />
    <glyph glyph-name="Uring" unicode="&#x16e;" horiz-adv-x="663" 
d="M310 -10q-87 0 -143.5 35t-76 99.5t0.5 153.5l90 382h28l-91 -390q-19 -81 -0.5 -138t69 -87t124.5 -30q97 0 155 61.5t84 173.5l95 410h28l-96 -419q-28 -118 -92.5 -184.5t-174.5 -66.5zM449 850q38 0 62 -22.5t24 -57.5q0 -42 -27 -68.5t-66 -26.5q-38 0 -62.5 23
t-24.5 57q0 41 26.5 68t67.5 27zM448 829q-30 0 -50 -21t-20 -52q0 -26 18 -43t46 -17t48.5 19.5t20.5 53.5q0 26 -17 43t-46 17z" />
    <glyph glyph-name="uring" unicode="&#x16f;" horiz-adv-x="569" 
d="M227 -10q-63 0 -104.5 25.5t-56 74.5t0.5 118l68 292h28l-67 -293q-22 -94 16 -143t120 -49q58 0 101.5 25.5t71.5 69t41 96.5l68 294h28l-116 -500h-26l30 135l5 -2q-25 -64 -78 -103.5t-130 -39.5zM362 732q38 0 62 -22.5t24 -57.5q0 -42 -27 -68.5t-66 -26.5
q-38 0 -62.5 23t-24.5 57q0 41 26.5 68t67.5 27zM361 711q-30 0 -50 -21t-20 -52q0 -26 18 -43t46 -17t48.5 19.5t20.5 53.5q0 26 -17 43t-46 17z" />
    <glyph glyph-name="Uhungarumlaut" unicode="&#x170;" horiz-adv-x="663" 
d="M310 -10q-87 0 -143.5 35t-76 99.5t0.5 153.5l90 382h28l-91 -390q-19 -81 -0.5 -138t69 -87t124.5 -30q97 0 155 61.5t84 173.5l95 410h28l-96 -419q-28 -118 -92.5 -184.5t-174.5 -66.5zM487 707l106 150h33l-112 -150h-27zM358 707l106 150h33l-113 -150h-26z" />
    <glyph glyph-name="uhungarumlaut" unicode="&#x171;" horiz-adv-x="569" 
d="M227 -10q-63 0 -104.5 25.5t-56 74.5t0.5 118l68 292h28l-67 -293q-22 -94 16 -143t120 -49q58 0 101.5 25.5t71.5 69t41 96.5l68 294h28l-116 -500h-26l30 135l5 -2q-25 -64 -78 -103.5t-130 -39.5zM394 565l120 151h34l-126 -151h-28zM254 565l119 151h35l-126 -151
h-28z" />
    <glyph glyph-name="Uogonek" unicode="&#x172;" horiz-adv-x="663" 
d="M310 -10q-87 0 -143.5 35t-76 99.5t0.5 153.5l90 382h28l-91 -390q-19 -81 -0.5 -138t69 -87t124.5 -30q97 0 155 61.5t84 173.5l95 410h28l-96 -419q-28 -118 -92.5 -184.5t-174.5 -66.5zM272 -213q-23 0 -42 8.5t-30 25t-11 41.5q0 32 18.5 58t51 47.5t74.5 37.5
l18 -11q-37 -15 -68.5 -34.5t-50.5 -43t-19 -51.5q0 -29 18 -42.5t44 -13.5q13 0 26 3t23 7l-3 -23q-8 -4 -21 -6.5t-28 -2.5z" />
    <glyph glyph-name="uogonek" unicode="&#x173;" horiz-adv-x="569" 
d="M353 -207q-21 0 -39 7.5t-30 24t-12 41.5q0 31 17 57.5t47.5 48.5t71.5 39l18 -11q-58 -27 -94 -59t-36 -72q0 -30 19 -42t41 -12q17 0 26 3t18 7l-3 -23q-7 -4 -16.5 -6.5t-27.5 -2.5zM227 -10q-63 0 -104.5 25.5t-56 74.5t0.5 118l68 292h28l-67 -293q-22 -94 16 -143
t120 -49q58 0 101.5 25.5t71.5 69t41 96.5l68 294h28l-116 -500h-26l30 135l5 -2q-25 -64 -78 -103.5t-130 -39.5z" />
    <glyph glyph-name="Wcircumflex" unicode="&#x174;" horiz-adv-x="901" 
d="M177 0l-57 660h27l53 -629l324 629h37l34 -631l345 631h31l-363 -660h-36l-29 498l-7 131h-1l-70 -141l-254 -488h-34zM611 888l75 -145h-26l-67 125l-125 -125h-30l142 145h31z" />
    <glyph glyph-name="wcircumflex" unicode="&#x175;" horiz-adv-x="771" 
d="M132 0l-48 500h28l42 -462l272 462h28l61 -462l255 462h31l-279 -500h-28l-62 460l-271 -460h-29zM332 582l143 146h32l75 -146h-26l-67 126l-127 -126h-30z" />
    <glyph glyph-name="Ycircumflex" unicode="&#x176;" horiz-adv-x="514" 
d="M185 0l59 256l-133 404h30l77 -239l45 -138l115 149l181 228h34l-321 -406l-59 -254h-28zM407 852l75 -145h-26l-67 125l-125 -125h-30l142 145h31z" />
    <glyph glyph-name="ycircumflex" unicode="&#x177;" horiz-adv-x="478" 
d="M-23 -215q-28 0 -49 8t-31 24l16 21q21 -28 65 -28q37 0 68.5 23.5t65.5 78.5l56 89l-90 499h28l74 -414l9 -55l36 58l260 411h32l-382 -600q-26 -42 -51 -67.5t-50.5 -36.5t-56.5 -11zM180 564l143 146h32l75 -146h-26l-67 126l-127 -126h-30z" />
    <glyph glyph-name="Ydieresis" unicode="&#x178;" horiz-adv-x="514" 
d="M185 0l59 256l-133 404h30l77 -239l45 -138l115 149l181 228h34l-321 -406l-59 -254h-28zM453 719q-11 0 -18.5 7.5t-7.5 17.5q0 14 8.5 23t21.5 9q12 0 19 -7t7 -18q0 -14 -8.5 -23t-21.5 -9zM267 719q-11 0 -18 7.5t-7 17.5q0 14 8 23t21 9q12 0 19 -7t7 -18
q0 -14 -8.5 -23t-21.5 -9z" />
    <glyph glyph-name="Zacute" unicode="&#x179;" horiz-adv-x="551" 
d="M-24 0l6 25l571 610h-430l6 25h466l-6 -25l-572 -610h457l-7 -25h-491zM463 893h33l-113 -150h-26z" />
    <glyph glyph-name="zacute" unicode="&#x17a;" horiz-adv-x="473" 
d="M-15 0l5 24l407 406l49 46h-70h-285l6 24h388l-5 -24l-383 -382l-71 -70h85h280l-5 -24h-401zM400 734h34l-126 -151h-27z" />
    <glyph glyph-name="Zdotaccent" unicode="&#x17b;" horiz-adv-x="551" 
d="M-24 0l6 25l571 610h-430l6 25h466l-6 -25l-572 -610h457l-7 -25h-491zM384 758q-12 0 -19 7t-7 19q0 14 8 23t21 9q12 0 19.5 -7.5t7.5 -18.5q0 -14 -9 -23t-21 -9z" />
    <glyph glyph-name="zdotaccent" unicode="&#x17c;" horiz-adv-x="473" 
d="M-15 0l5 24l407 406l49 46h-70h-285l6 24h388l-5 -24l-383 -382l-71 -70h85h280l-5 -24h-401zM305 598q-12 0 -19 7t-7 19q0 14 8 23t21 9q12 0 19.5 -7.5t7.5 -18.5q0 -14 -9 -23t-21 -9z" />
    <glyph glyph-name="Zcaron" unicode="&#x17d;" horiz-adv-x="551" 
d="M-24 0l6 25l571 610h-430l6 25h466l-6 -25l-572 -610h457l-7 -25h-491zM360 743l-74 145h26l66 -124l125 124h31l-142 -145h-32z" />
    <glyph glyph-name="zcaron" unicode="&#x17e;" horiz-adv-x="473" 
d="M-15 0l5 24l407 406l49 46h-70h-285l6 24h388l-5 -24l-383 -382l-71 -70h85h280l-5 -24h-401zM281 583l-75 147h25l68 -126l126 126h30l-143 -147h-31z" />
    <glyph glyph-name="longs" unicode="&#x17f;" horiz-adv-x="215" 
d="M22 0l138 595q11 44 30 75.5t47.5 48t65.5 16.5q23 0 37.5 -5t24.5 -15l-12 -22q-21 17 -50 17q-43 0 -72.5 -30.5t-44.5 -92.5l-136 -587h-28z" />
    <glyph glyph-name="uni018F" unicode="&#x18f;" horiz-adv-x="695" 
d="M323 -10q-82 0 -139 36.5t-86.5 100t-29.5 141.5q0 15 1.5 31t2.5 31h551q2 12 2.5 24.5t0.5 24.5q0 87 -31 145.5t-85 89t-124 30.5q-85 0 -149.5 -38.5t-97.5 -103.5l-24 15q35 69 107 111t167 42q75 0 135 -33t95 -96.5t36 -155.5q0 -79 -20.5 -150t-61.5 -126
t-103.5 -87t-146.5 -32zM326 16q88 0 149.5 39t97.5 104.5t48 143.5h-523q-6 -84 19 -149t78 -101.5t131 -36.5z" />
    <glyph glyph-name="florin" unicode="&#x192;" horiz-adv-x="416" 
d="M464 735q22 0 36.5 -3t28.5 -12l-9 -25q-11 8 -24 11.5t-28 3.5q-48 0 -82.5 -29t-58.5 -90l-221 -575q-28 -71 -70.5 -107.5t-97.5 -36.5q-21 0 -36 4t-30 14l12 23q20 -16 57 -16q45 0 78.5 30t56.5 90l222 574q28 74 69 109t97 35zM419 400l-6 -24h-352l6 24h352z" />
    <glyph glyph-name="Ohorn" unicode="&#x1a0;" horiz-adv-x="718" 
d="M494 644l-19 19q56 -9 92 -2.5t57 23t31.5 38.5t14.5 45h26q-5 -42 -28 -74.5t-65.5 -46.5t-108.5 -2zM347 -10q-74 0 -136 33.5t-98 98.5t-36 158q0 77 21 147t63 124.5t105 86.5t145 32q74 0 134.5 -34t96.5 -98.5t36 -157.5q0 -76 -21 -146t-63 -125t-103.5 -87
t-143.5 -32zM349 16q74 0 130 30t94 81t57 116.5t19 135.5q0 85 -32.5 144.5t-86.5 90t-122 30.5q-74 0 -130.5 -30t-95 -81t-57.5 -116t-19 -136q0 -85 32.5 -144.5t88 -90t122.5 -30.5z" />
    <glyph glyph-name="ohorn" unicode="&#x1a1;" horiz-adv-x="567" 
d="M376 484l-11 17q51 -9 81 4t46 41t23 63h26q-8 -48 -30 -80t-56.5 -43.5t-78.5 -1.5zM267 -9q-70 0 -118.5 30.5t-73.5 82t-25 112.5q0 86 31.5 152t88.5 103.5t132 37.5q70 0 118 -30.5t73 -81t25 -112.5q0 -85 -31.5 -151.5t-88 -104.5t-131.5 -38zM267 15
q49 0 90 19.5t70.5 55.5t46 85.5t16.5 108.5q0 61 -23 105.5t-65 70t-101 25.5q-49 0 -90 -19.5t-71 -55t-46 -85t-16 -108.5q0 -60 23 -105.5t66 -71t100 -25.5z" />
    <glyph glyph-name="Uhorn" unicode="&#x1af;" horiz-adv-x="663" 
d="M310 -10q-87 0 -143.5 35t-76 99.5t0.5 153.5l90 382h28l-91 -390q-19 -81 -0.5 -138t69 -87t124.5 -30q97 0 155 61.5t84 173.5l95 410h28l-96 -419q-28 -118 -92.5 -184.5t-174.5 -66.5zM647 642l2 18q40 0 67 28t37 79h27q-7 -46 -26.5 -74t-47 -40.5t-59.5 -10.5z
" />
    <glyph glyph-name="uhorn" unicode="&#x1b0;" horiz-adv-x="577" 
d="M227 -10q-63 0 -104.5 25.5t-56 74.5t0.5 118l68 292h28l-67 -293q-22 -94 16 -143t120 -49q58 0 101.5 25.5t71.5 69t41 96.5l68 294h28l-116 -500h-26l30 135l5 -2q-25 -64 -78 -103.5t-130 -39.5zM524 482l-6 18q46 0 73.5 30.5t35.5 78.5h25q-5 -43 -23.5 -71.5
t-45.5 -42t-59 -13.5z" />
    <glyph glyph-name="uni01C4" unicode="&#x1c4;" horiz-adv-x="1223" 
d="M45 0l153 660h193q85 0 143 -35t88.5 -96t30.5 -139q0 -83 -25.5 -154t-73 -124t-115.5 -82.5t-151 -29.5h-243zM79 25h212q76 0 137.5 28t105.5 77.5t67 115.5t23 141q0 71 -26.5 127t-78.5 88.5t-132 32.5h-167zM648 0l6 25l571 610h-430l6 25h466l-6 -25l-572 -610
h457l-7 -25h-491zM1032 743l-74 145h26l66 -124l125 124h31l-142 -145h-32z" />
    <glyph glyph-name="uni01C5" unicode="&#x1c5;" horiz-adv-x="1162" 
d="M45 0l153 660h193q85 0 143 -35t88.5 -96t30.5 -139q0 -83 -25.5 -154t-73 -124t-115.5 -82.5t-151 -29.5h-243zM79 25h212q76 0 137.5 28t105.5 77.5t67 115.5t23 141q0 71 -26.5 127t-78.5 88.5t-132 32.5h-167zM674 0l5 24l407 406l49 46h-70h-285l6 24h388l-5 -24
l-383 -382l-71 -70h85h280l-5 -24h-401zM970 583l-75 147h25l68 -126l126 126h30l-143 -147h-31z" />
    <glyph glyph-name="uni01C6" unicode="&#x1c6;" horiz-adv-x="1062" 
d="M253 -10q-63 0 -108.5 29.5t-70.5 80t-25 116.5q0 62 18 115t51.5 93.5t81 63t105.5 22.5q57 0 99.5 -22.5t65.5 -63.5t23 -99l93 405h28l-169 -730h-26l27 120q-26 -55 -74.5 -92.5t-118.5 -37.5zM260 15q49 0 89.5 24.5t69 65.5t44.5 91.5t16 103.5q0 66 -24.5 106.5
t-63.5 60t-86 19.5q-51 0 -92.5 -20t-72 -56.5t-47 -85.5t-16.5 -109q0 -63 24 -108t65.5 -68.5t93.5 -23.5zM573 0l5 24l407 406l49 46h-70h-285l6 24h388l-5 -24l-383 -382l-71 -70h85h280l-5 -24h-401zM869 583l-75 147h25l68 -126l126 126h30l-143 -147h-31z" />
    <glyph glyph-name="uni01C7" unicode="&#x1c7;" horiz-adv-x="1038" 
d="M75 25h400l-6 -25h-428l153 660h28zM726 -10q-49 0 -85 17t-57 47.5t-24.5 73.5t13.5 95l26 2q-19 -65 -9.5 -112t45.5 -72.5t93 -25.5q73 0 117.5 43.5t65.5 137.5l107 464h28l-109 -469q-14 -67 -42 -111.5t-69.5 -67t-99.5 -22.5z" />
    <glyph glyph-name="uni01C8" unicode="&#x1c8;" horiz-adv-x="738" 
d="M75 25h400l-6 -25h-428l153 660h28zM725 598q-12 0 -19 7.5t-7 18.5q0 14 8.5 23t21.5 9q12 0 19.5 -7.5t7.5 -18.5q0 -15 -8.5 -23.5t-22.5 -8.5zM432 -215q-21 0 -39 6t-30 15l11 24q12 -8 26.5 -13.5t30.5 -5.5q47 0 77 31t45 95l131 563h28l-133 -574
q-15 -67 -51.5 -104t-95.5 -37z" />
    <glyph glyph-name="uni01C9" unicode="&#x1c9;" horiz-adv-x="442" 
d="M124 -9q-52 0 -69.5 35t-3.5 98l140 606h28l-141 -609q-12 -53 0.5 -79t53.5 -26q17 0 29 2t23 6l-6 -23q-9 -5 -23 -7.5t-31 -2.5zM428 598q-12 0 -19 7.5t-7 18.5q0 14 8.5 23t21.5 9q12 0 19.5 -7.5t7.5 -18.5q0 -15 -8.5 -23.5t-22.5 -8.5zM135 -215q-21 0 -39 6
t-30 15l11 24q12 -8 26.5 -13.5t30.5 -5.5q47 0 77 31t45 95l131 563h28l-133 -574q-15 -67 -51.5 -104t-95.5 -37z" />
    <glyph glyph-name="uni01CA" unicode="&#x1ca;" horiz-adv-x="1183" 
d="M41 0l153 660h35l260 -573l23 -57v0l14 66l131 564h27l-153 -660h-35l-261 574l-23 57v0l-13 -67l-131 -564h-27zM871 -10q-49 0 -85 17t-57 47.5t-24.5 73.5t13.5 95l26 2q-19 -65 -9.5 -112t45.5 -72.5t93 -25.5q73 0 117.5 43.5t65.5 137.5l107 464h28l-109 -469
q-14 -67 -42 -111.5t-69.5 -67t-99.5 -22.5z" />
    <glyph glyph-name="uni01CB" unicode="&#x1cb;" horiz-adv-x="884" 
d="M41 0l153 660h35l260 -573l23 -57v0l14 66l131 564h27l-153 -660h-35l-261 574l-23 57v0l-13 -67l-131 -564h-27zM870 598q-12 0 -19 7.5t-7 18.5q0 14 8.5 23t21.5 9q12 0 19.5 -7.5t7.5 -18.5q0 -15 -8.5 -23.5t-22.5 -8.5zM577 -215q-21 0 -39 6t-30 15l11 24
q12 -8 26.5 -13.5t30.5 -5.5q47 0 77 31t45 95l131 563h28l-133 -574q-15 -67 -51.5 -104t-95.5 -37z" />
    <glyph glyph-name="uni01CC" unicode="&#x1cc;" horiz-adv-x="765" 
d="M27 0l116 500h26l-30 -135l-5 2q22 62 78 102.5t139 40.5q59 0 98.5 -26t54 -74t-0.5 -115l-69 -295h-28l68 294q21 93 -15.5 142.5t-112.5 49.5q-63 0 -108 -26t-73.5 -69.5t-41.5 -96.5l-68 -294h-28zM752 598q-12 0 -19 7.5t-7 18.5q0 14 8.5 23t21.5 9
q12 0 19.5 -7.5t7.5 -18.5q0 -15 -8.5 -23.5t-22.5 -8.5zM459 -215q-21 0 -39 6t-30 15l11 24q12 -8 26.5 -13.5t30.5 -5.5q47 0 77 31t45 95l131 563h28l-133 -574q-15 -67 -51.5 -104t-95.5 -37z" />
    <glyph glyph-name="Gcaron" unicode="&#x1e6;" horiz-adv-x="692" 
d="M343 -9q-73 0 -134 33t-97 96.5t-36 155.5q0 77 21.5 148t65 126.5t108.5 87.5t151 32q57 0 105.5 -19.5t85.5 -58.5t58 -97l-27 -9q-30 79 -88 119t-136 40t-137 -30.5t-99 -82.5t-59.5 -117.5t-19.5 -134.5q0 -83 32.5 -142.5t87.5 -90t122 -30.5q56 0 106.5 20.5
t88.5 68t55 126.5l12 51h-230l6 26h256l-72 -309h-24l40 176l9 8q-18 -71 -56 -113t-88 -61t-107 -19zM428 743l-74 145h26l66 -124l125 124h31l-142 -145h-32z" />
    <glyph glyph-name="gcaron" unicode="&#x1e7;" horiz-adv-x="589" 
d="M210 -215q-42 0 -79 11t-65 32.5t-46.5 52t-26.5 68.5l27 10q15 -73 66.5 -111t126.5 -38q51 0 91.5 18t68.5 59.5t44 107.5l36 157l-1 -18q-24 -53 -76.5 -88t-123.5 -35q-58 0 -104 26t-72 75.5t-26 119.5q0 56 17 106.5t48.5 89t78 60.5t105.5 22q68 0 114 -33.5
t65.5 -89.5t7.5 -125l-6 8l53 230h28l-118 -510q-16 -72 -48 -117.5t-78 -66.5t-107 -21zM257 35q70 0 118 36.5t73 95.5t25 126t-24.5 109.5t-64 63t-85.5 20.5q-70 0 -119.5 -36t-75.5 -94t-26 -125q0 -93 49 -144.5t130 -51.5zM314 583l-75 147h25l68 -126l126 126h30
l-143 -147h-31z" />
    <glyph glyph-name="uni01EA" unicode="&#x1ea;" horiz-adv-x="718" 
d="M347 -10q-74 0 -136 33.5t-98 98.5t-36 158q0 77 21 147t63 124.5t105 86.5t145 32q74 0 134.5 -34t96.5 -98.5t36 -157.5q0 -76 -21 -146t-63 -125t-103.5 -87t-143.5 -32zM349 16q74 0 130 30t94 81t57 116.5t19 135.5q0 85 -32.5 144.5t-86.5 90t-122 30.5
q-74 0 -130.5 -30t-95 -81t-57.5 -116t-19 -136q0 -85 32.5 -144.5t88 -90t122.5 -30.5zM326 -211q-23 0 -42 8.5t-30 25t-11 41.5q0 32 18.5 58t51 47.5t74.5 37.5l18 -11q-37 -15 -68.5 -34.5t-50.5 -43t-19 -51.5q0 -29 18 -42.5t44 -13.5q13 0 26 3t23 7l-3 -23
q-8 -4 -21 -6.5t-28 -2.5z" />
    <glyph glyph-name="uni01EB" unicode="&#x1eb;" horiz-adv-x="567" 
d="M267 -9q-70 0 -118.5 30.5t-73.5 82t-25 112.5q0 86 31.5 152t88.5 103.5t132 37.5q70 0 118 -30.5t73 -81t25 -112.5q0 -85 -31.5 -151.5t-88 -104.5t-131.5 -38zM267 15q49 0 90 19.5t70.5 55.5t46 85.5t16.5 108.5q0 61 -23 105.5t-65 70t-101 25.5q-49 0 -90 -19.5
t-71 -55t-46 -85t-16 -108.5q0 -60 23 -105.5t66 -71t100 -25.5zM247 -208q-23 0 -42 8.5t-30 25t-11 41.5q0 32 18.5 58t51 47.5t74.5 37.5l18 -11q-37 -15 -68.5 -34.5t-50.5 -43t-19 -51.5q0 -29 18 -42.5t44 -13.5q13 0 26 3t23 7l-3 -23q-8 -4 -21 -6.5t-28 -2.5z" />
    <glyph glyph-name="uni01F1" unicode="&#x1f1;" horiz-adv-x="1223" 
d="M45 0l153 660h193q85 0 143 -35t88.5 -96t30.5 -139q0 -83 -25.5 -154t-73 -124t-115.5 -82.5t-151 -29.5h-243zM79 25h212q76 0 137.5 28t105.5 77.5t67 115.5t23 141q0 71 -26.5 127t-78.5 88.5t-132 32.5h-167zM648 0l6 25l571 610h-430l6 25h466l-6 -25l-572 -610
h457l-7 -25h-491z" />
    <glyph glyph-name="uni01F2" unicode="&#x1f2;" horiz-adv-x="1162" 
d="M45 0l153 660h193q85 0 143 -35t88.5 -96t30.5 -139q0 -83 -25.5 -154t-73 -124t-115.5 -82.5t-151 -29.5h-243zM79 25h212q76 0 137.5 28t105.5 77.5t67 115.5t23 141q0 71 -26.5 127t-78.5 88.5t-132 32.5h-167zM674 0l5 24l407 406l49 46h-70h-285l6 24h388l-5 -24
l-383 -382l-71 -70h85h280l-5 -24h-401z" />
    <glyph glyph-name="uni01F3" unicode="&#x1f3;" horiz-adv-x="1062" 
d="M253 -10q-63 0 -108.5 29.5t-70.5 80t-25 116.5q0 62 18 115t51.5 93.5t81 63t105.5 22.5q57 0 99.5 -22.5t65.5 -63.5t23 -99l93 405h28l-169 -730h-26l27 120q-26 -55 -74.5 -92.5t-118.5 -37.5zM260 15q49 0 89.5 24.5t69 65.5t44.5 91.5t16 103.5q0 66 -24.5 106.5
t-63.5 60t-86 19.5q-51 0 -92.5 -20t-72 -56.5t-47 -85.5t-16.5 -109q0 -63 24 -108t65.5 -68.5t93.5 -23.5zM573 0l5 24l407 406l49 46h-70h-285l6 24h388l-5 -24l-383 -382l-71 -70h85h280l-5 -24h-401z" />
    <glyph glyph-name="Aringacute" unicode="&#x1fa;" 
d="M-44 0l415 660h36l109 -660h-28l-96 572l-9 57v0l-33 -54l-362 -575h-32zM116 227l6 26h343l-6 -26h-343zM400 814q38 0 62 -22.5t24 -57.5q0 -42 -27 -68.5t-66 -26.5q-38 0 -62.5 23t-24.5 57q0 41 26.5 68t67.5 27zM399 793q-30 0 -50 -21t-20 -52q0 -26 18 -43
t46 -17t48.5 19.5t20.5 53.5q0 26 -17 43t-46 17zM515 1030h33l-113 -150h-26z" />
    <glyph glyph-name="aringacute" unicode="&#x1fb;" 
d="M253 -10q-63 0 -108.5 29.5t-70.5 80t-25 116.5q0 62 18 115t51.5 93.5t81 63t105.5 22.5q59 0 100.5 -22.5t64.5 -63.5t24 -95l39 171h28l-116 -500h-26l27 120q-26 -55 -74.5 -92.5t-118.5 -37.5zM260 15q49 0 89.5 24.5t69 65.5t44.5 91.5t16 103.5q0 66 -24.5 106.5
t-63.5 60t-86 19.5q-51 0 -92.5 -20t-72 -56.5t-47 -85.5t-16.5 -109q0 -63 24 -108t65.5 -68.5t93.5 -23.5zM352 750q38 0 62 -22.5t24 -57.5q0 -42 -27 -68.5t-66 -26.5q-38 0 -62.5 23t-24.5 57q0 41 26.5 68t67.5 27zM351 729q-30 0 -50 -21t-20 -52q0 -26 18 -43
t46 -17t48.5 19.5t20.5 53.5q0 26 -17 43t-46 17zM349 783l92 136h30l-98 -136h-24z" />
    <glyph glyph-name="AEacute" unicode="&#x1fc;" horiz-adv-x="881" 
d="M-63 0l556 660h433l-7 -25h-371l-66 -287h295l-6 -26h-295l-68 -297h387l-6 -25h-416l58 246h-252l-204 -246h-38zM200 272h236l84 363h-15zM646 893h33l-113 -150h-26z" />
    <glyph glyph-name="aeacute" unicode="&#x1fd;" horiz-adv-x="855" 
d="M175 -10q-67 0 -109 32t-42 92q0 41 23 72t68.5 50t111.5 25l175 18v-23l-162 -16q-93 -10 -140 -41t-47 -84q0 -50 34.5 -75.5t88.5 -25.5q79 0 129.5 46t73.5 154l21 97q3 13 5 25t2 22q0 62 -40 94.5t-102 32.5q-63 0 -102 -27t-65 -80l-20 13q27 56 71.5 87t116.5 31
q49 0 85 -17t56 -48t20 -75l-5 1q17 40 47 71t70.5 49.5t90.5 18.5q56 0 95.5 -26t61 -71.5t21.5 -103.5q0 -13 -1.5 -26.5t-4.5 -26.5h-392l1 24h369q2 7 2 14v13q0 51 -18.5 91.5t-52.5 64t-82 23.5q-49 0 -88.5 -20.5t-68 -57.5t-44 -85.5t-15.5 -105.5q0 -55 19.5 -101
t58 -73t95.5 -27q62 0 106.5 29t70.5 74l23 -14q-21 -32 -49.5 -58t-66 -40.5t-85.5 -14.5q-65 0 -107.5 29.5t-63.5 76.5t-23 99l5 5q-15 -77 -46 -123t-75 -67t-100 -21zM568 734h34l-126 -151h-27z" />
    <glyph glyph-name="Oslashacute" unicode="&#x1fe;" horiz-adv-x="718" 
d="M171 75l-15 17l439 483l14 -17zM61 -12l95 104l15 -17l-79 -87h-31zM609 558l-14 17l89 99h31zM347 -10q-74 0 -136 33.5t-98 98.5t-36 158q0 77 21 147t63 124.5t105 86.5t145 32q74 0 134.5 -34t96.5 -98.5t36 -157.5q0 -76 -21 -146t-63 -125t-103.5 -87t-143.5 -32z
M349 16q74 0 130 30t94 81t57 116.5t19 135.5q0 85 -32.5 144.5t-86.5 90t-122 30.5q-74 0 -130.5 -30t-95 -81t-57.5 -116t-19 -136q0 -85 32.5 -144.5t88 -90t122.5 -30.5zM529 893h33l-113 -150h-26z" />
    <glyph glyph-name="oslashacute" unicode="&#x1ff;" horiz-adv-x="567" 
d="M267 -9q-70 0 -118.5 30.5t-73.5 82t-25 112.5q0 86 31.5 152t88.5 103.5t132 37.5q70 0 118 -30.5t73 -81t25 -112.5q0 -85 -31.5 -151.5t-88 -104.5t-131.5 -38zM267 15q49 0 90 19.5t70.5 55.5t46 85.5t16.5 108.5q0 61 -23 105.5t-65 70t-101 25.5q-49 0 -90 -19.5
t-71 -55t-46 -85t-16 -108.5q0 -60 23 -105.5t66 -71t100 -25.5zM-10 -26l556 553h31l-557 -553h-30zM437 734h34l-126 -151h-27z" />
    <glyph glyph-name="uni0200" unicode="&#x200;" 
d="M-44 0l415 660h36l109 -660h-28l-96 572l-9 57v0l-33 -54l-362 -575h-32zM116 227l6 26h343l-6 -26h-343zM310 893l42 -150h-22l-49 150h29zM430 893l42 -150h-22l-49 150h29z" />
    <glyph glyph-name="uni0201" unicode="&#x201;" 
d="M253 -10q-63 0 -108.5 29.5t-70.5 80t-25 116.5q0 62 18 115t51.5 93.5t81 63t105.5 22.5q59 0 100.5 -22.5t64.5 -63.5t24 -95l39 171h28l-116 -500h-26l27 120q-26 -55 -74.5 -92.5t-118.5 -37.5zM260 15q49 0 89.5 24.5t69 65.5t44.5 91.5t16 103.5q0 66 -24.5 106.5
t-63.5 60t-86 19.5q-51 0 -92.5 -20t-72 -56.5t-47 -85.5t-16.5 -109q0 -63 24 -108t65.5 -68.5t93.5 -23.5zM232 733l51 -151h-23l-57 151h29zM367 733l50 -151h-22l-57 151h29z" />
    <glyph glyph-name="uni0202" unicode="&#x202;" 
d="M-44 0l415 660h36l109 -660h-28l-96 572l-9 57v0l-33 -54l-362 -575h-32zM116 227l6 26h343l-6 -26h-343zM270 733q10 63 49.5 94.5t92.5 31.5q52 0 83 -28t31 -72q0 -7 -0.5 -13t-2.5 -13h-23q1 6 1.5 11.5t0.5 10.5q0 40 -26 60.5t-65 20.5q-47 0 -77.5 -27.5
t-39.5 -75.5h-24z" />
    <glyph glyph-name="uni0203" unicode="&#x203;" 
d="M253 -10q-63 0 -108.5 29.5t-70.5 80t-25 116.5q0 62 18 115t51.5 93.5t81 63t105.5 22.5q59 0 100.5 -22.5t64.5 -63.5t24 -95l39 171h28l-116 -500h-26l27 120q-26 -55 -74.5 -92.5t-118.5 -37.5zM260 15q49 0 89.5 24.5t69 65.5t44.5 91.5t16 103.5q0 66 -24.5 106.5
t-63.5 60t-86 19.5q-51 0 -92.5 -20t-72 -56.5t-47 -85.5t-16.5 -109q0 -63 24 -108t65.5 -68.5t93.5 -23.5zM203 573q10 63 49.5 94.5t92.5 31.5q52 0 83 -28t31 -72q0 -7 -0.5 -13t-2.5 -13h-23q1 6 1.5 11.5t0.5 10.5q0 40 -26 60.5t-65 20.5q-47 0 -77.5 -27.5
t-39.5 -75.5h-24z" />
    <glyph glyph-name="uni0204" unicode="&#x204;" horiz-adv-x="582" 
d="M41 0l153 660h431l-7 -25h-403l-65 -286h323l-6 -25h-324l-68 -299h421l-6 -25h-449zM326 893l42 -150h-22l-49 150h29zM446 893l42 -150h-22l-49 150h29z" />
    <glyph glyph-name="uni0205" unicode="&#x205;" horiz-adv-x="535" 
d="M263 -9q-68 0 -116.5 30.5t-73 82t-24.5 113.5q0 78 29.5 144.5t86.5 107t137 40.5q58 0 100.5 -26.5t65 -72t22.5 -103.5q0 -12 -1 -25.5t-4 -26.5h-420v24h405l-10 -8q1 9 1.5 18t0.5 16q0 50 -19 91t-55 65t-89 24q-52 0 -93.5 -21.5t-70.5 -58.5t-43.5 -85.5
t-14.5 -103.5q0 -58 23 -103.5t65 -71.5t100 -26q60 1 106 29.5t73 73.5l23 -14q-21 -32 -50.5 -58t-68 -40.5t-85.5 -14.5zM217 733l51 -151h-23l-57 151h29zM352 733l50 -151h-22l-57 151h29z" />
    <glyph glyph-name="uni0206" unicode="&#x206;" horiz-adv-x="582" 
d="M41 0l153 660h431l-7 -25h-403l-65 -286h323l-6 -25h-324l-68 -299h421l-6 -25h-449zM286 733q10 63 49.5 94.5t92.5 31.5q52 0 83 -28t31 -72q0 -7 -0.5 -13t-2.5 -13h-23q1 6 1.5 11.5t0.5 10.5q0 40 -26 60.5t-65 20.5q-47 0 -77.5 -27.5t-39.5 -75.5h-24z" />
    <glyph glyph-name="uni0207" unicode="&#x207;" horiz-adv-x="535" 
d="M263 -9q-68 0 -116.5 30.5t-73 82t-24.5 113.5q0 78 29.5 144.5t86.5 107t137 40.5q58 0 100.5 -26.5t65 -72t22.5 -103.5q0 -12 -1 -25.5t-4 -26.5h-420v24h405l-10 -8q1 9 1.5 18t0.5 16q0 50 -19 91t-55 65t-89 24q-52 0 -93.5 -21.5t-70.5 -58.5t-43.5 -85.5
t-14.5 -103.5q0 -58 23 -103.5t65 -71.5t100 -26q60 1 106 29.5t73 73.5l23 -14q-21 -32 -50.5 -58t-68 -40.5t-85.5 -14.5zM188 573q10 63 49.5 94.5t92.5 31.5q52 0 83 -28t31 -72q0 -7 -0.5 -13t-2.5 -13h-23q1 6 1.5 11.5t0.5 10.5q0 40 -26 60.5t-65 20.5
q-47 0 -77.5 -27.5t-39.5 -75.5h-24z" />
    <glyph glyph-name="uni0208" unicode="&#x208;" horiz-adv-x="225" 
d="M222 660l-153 -660h-28l153 660h28zM133 893l42 -150h-22l-49 150h29zM253 893l42 -150h-22l-49 150h29z" />
    <glyph glyph-name="uni0209" unicode="&#x209;" horiz-adv-x="196" 
d="M170 500l-116 -500h-28l116 500h28zM70 733l51 -151h-23l-57 151h29zM205 733l50 -151h-22l-57 151h29z" />
    <glyph glyph-name="uni020A" unicode="&#x20a;" horiz-adv-x="225" 
d="M222 660l-153 -660h-28l153 660h28zM93 733q10 63 49.5 94.5t92.5 31.5q52 0 83 -28t31 -72q0 -7 -0.5 -13t-2.5 -13h-23q1 6 1.5 11.5t0.5 10.5q0 40 -26 60.5t-65 20.5q-47 0 -77.5 -27.5t-39.5 -75.5h-24z" />
    <glyph glyph-name="uni020B" unicode="&#x20b;" horiz-adv-x="196" 
d="M170 500l-116 -500h-28l116 500h28zM41 573q10 63 49.5 94.5t92.5 31.5q52 0 83 -28t31 -72q0 -7 -0.5 -13t-2.5 -13h-23q1 6 1.5 11.5t0.5 10.5q0 40 -26 60.5t-65 20.5q-47 0 -77.5 -27.5t-39.5 -75.5h-24z" />
    <glyph glyph-name="uni020C" unicode="&#x20c;" horiz-adv-x="718" 
d="M347 -10q-74 0 -136 33.5t-98 98.5t-36 158q0 77 21 147t63 124.5t105 86.5t145 32q74 0 134.5 -34t96.5 -98.5t36 -157.5q0 -76 -21 -146t-63 -125t-103.5 -87t-143.5 -32zM349 16q74 0 130 30t94 81t57 116.5t19 135.5q0 85 -32.5 144.5t-86.5 90t-122 30.5
q-74 0 -130.5 -30t-95 -81t-57.5 -116t-19 -136q0 -85 32.5 -144.5t88 -90t122.5 -30.5zM348 893l42 -150h-22l-49 150h29zM468 893l42 -150h-22l-49 150h29z" />
    <glyph glyph-name="uni020D" unicode="&#x20d;" horiz-adv-x="567" 
d="M267 -9q-70 0 -118.5 30.5t-73.5 82t-25 112.5q0 86 31.5 152t88.5 103.5t132 37.5q70 0 118 -30.5t73 -81t25 -112.5q0 -85 -31.5 -151.5t-88 -104.5t-131.5 -38zM267 15q49 0 90 19.5t70.5 55.5t46 85.5t16.5 108.5q0 61 -23 105.5t-65 70t-101 25.5q-49 0 -90 -19.5
t-71 -55t-46 -85t-16 -108.5q0 -60 23 -105.5t66 -71t100 -25.5zM229 733l51 -151h-23l-57 151h29zM364 733l50 -151h-22l-57 151h29z" />
    <glyph glyph-name="uni020E" unicode="&#x20e;" horiz-adv-x="718" 
d="M347 -10q-74 0 -136 33.5t-98 98.5t-36 158q0 77 21 147t63 124.5t105 86.5t145 32q74 0 134.5 -34t96.5 -98.5t36 -157.5q0 -76 -21 -146t-63 -125t-103.5 -87t-143.5 -32zM349 16q74 0 130 30t94 81t57 116.5t19 135.5q0 85 -32.5 144.5t-86.5 90t-122 30.5
q-74 0 -130.5 -30t-95 -81t-57.5 -116t-19 -136q0 -85 32.5 -144.5t88 -90t122.5 -30.5zM308 733q10 63 49.5 94.5t92.5 31.5q52 0 83 -28t31 -72q0 -7 -0.5 -13t-2.5 -13h-23q1 6 1.5 11.5t0.5 10.5q0 40 -26 60.5t-65 20.5q-47 0 -77.5 -27.5t-39.5 -75.5h-24z" />
    <glyph glyph-name="uni020F" unicode="&#x20f;" horiz-adv-x="567" 
d="M267 -9q-70 0 -118.5 30.5t-73.5 82t-25 112.5q0 86 31.5 152t88.5 103.5t132 37.5q70 0 118 -30.5t73 -81t25 -112.5q0 -85 -31.5 -151.5t-88 -104.5t-131.5 -38zM267 15q49 0 90 19.5t70.5 55.5t46 85.5t16.5 108.5q0 61 -23 105.5t-65 70t-101 25.5q-49 0 -90 -19.5
t-71 -55t-46 -85t-16 -108.5q0 -60 23 -105.5t66 -71t100 -25.5zM200 573q10 63 49.5 94.5t92.5 31.5q52 0 83 -28t31 -72q0 -7 -0.5 -13t-2.5 -13h-23q1 6 1.5 11.5t0.5 10.5q0 40 -26 60.5t-65 20.5q-47 0 -77.5 -27.5t-39.5 -75.5h-24z" />
    <glyph glyph-name="uni0210" unicode="&#x210;" horiz-adv-x="612" 
d="M41 0l153 660h204q93 0 143 -44t50 -120q0 -58 -25.5 -103.5t-74.5 -72.5t-121 -28l-10 -2h-234l3 26h231q69 0 113.5 24t66.5 64.5t22 90.5q0 63 -41.5 101.5t-125.5 38.5h-179l-147 -635h-28zM488 0l-119 303l29 2l120 -305h-30zM304 893l42 -150h-22l-49 150h29z
M424 893l42 -150h-22l-49 150h29z" />
    <glyph glyph-name="uni0211" unicode="&#x211;" horiz-adv-x="347" 
d="M27 0l116 500h25l-30 -144l-7 7q19 42 45.5 75t62 52.5t82.5 19.5q17 0 33 -3t27 -11l-11 -25q-10 8 -24.5 11t-31.5 3q-48 0 -87 -25.5t-65 -68.5t-38 -96l-69 -295h-28zM171 733l51 -151h-23l-57 151h29zM306 733l50 -151h-22l-57 151h29z" />
    <glyph glyph-name="uni0212" unicode="&#x212;" horiz-adv-x="612" 
d="M41 0l153 660h204q93 0 143 -44t50 -120q0 -58 -25.5 -103.5t-74.5 -72.5t-121 -28l-10 -2h-234l3 26h231q69 0 113.5 24t66.5 64.5t22 90.5q0 63 -41.5 101.5t-125.5 38.5h-179l-147 -635h-28zM488 0l-119 303l29 2l120 -305h-30zM264 733q10 63 49.5 94.5t92.5 31.5
q52 0 83 -28t31 -72q0 -7 -0.5 -13t-2.5 -13h-23q1 6 1.5 11.5t0.5 10.5q0 40 -26 60.5t-65 20.5q-47 0 -77.5 -27.5t-39.5 -75.5h-24z" />
    <glyph glyph-name="uni0213" unicode="&#x213;" horiz-adv-x="347" 
d="M27 0l116 500h25l-30 -144l-7 7q19 42 45.5 75t62 52.5t82.5 19.5q17 0 33 -3t27 -11l-11 -25q-10 8 -24.5 11t-31.5 3q-48 0 -87 -25.5t-65 -68.5t-38 -96l-69 -295h-28zM142 573q10 63 49.5 94.5t92.5 31.5q52 0 83 -28t31 -72q0 -7 -0.5 -13t-2.5 -13h-23
q1 6 1.5 11.5t0.5 10.5q0 40 -26 60.5t-65 20.5q-47 0 -77.5 -27.5t-39.5 -75.5h-24z" />
    <glyph glyph-name="uni0214" unicode="&#x214;" horiz-adv-x="663" 
d="M310 -10q-87 0 -143.5 35t-76 99.5t0.5 153.5l90 382h28l-91 -390q-19 -81 -0.5 -138t69 -87t124.5 -30q97 0 155 61.5t84 173.5l95 410h28l-96 -419q-28 -118 -92.5 -184.5t-174.5 -66.5zM347 857l42 -150h-22l-49 150h29zM467 857l42 -150h-22l-49 150h29z" />
    <glyph glyph-name="uni0215" unicode="&#x215;" horiz-adv-x="569" 
d="M227 -10q-63 0 -104.5 25.5t-56 74.5t0.5 118l68 292h28l-67 -293q-22 -94 16 -143t120 -49q58 0 101.5 25.5t71.5 69t41 96.5l68 294h28l-116 -500h-26l30 135l5 -2q-25 -64 -78 -103.5t-130 -39.5zM242 715l51 -151h-23l-57 151h29zM377 715l50 -151h-22l-57 151h29z
" />
    <glyph glyph-name="uni0216" unicode="&#x216;" horiz-adv-x="663" 
d="M310 -10q-87 0 -143.5 35t-76 99.5t0.5 153.5l90 382h28l-91 -390q-19 -81 -0.5 -138t69 -87t124.5 -30q97 0 155 61.5t84 173.5l95 410h28l-96 -419q-28 -118 -92.5 -184.5t-174.5 -66.5zM307 697q10 63 49.5 94.5t92.5 31.5q52 0 83 -28t31 -72q0 -7 -0.5 -13t-2.5 -13
h-23q1 6 1.5 11.5t0.5 10.5q0 40 -26 60.5t-65 20.5q-47 0 -77.5 -27.5t-39.5 -75.5h-24z" />
    <glyph glyph-name="uni0217" unicode="&#x217;" horiz-adv-x="569" 
d="M227 -10q-63 0 -104.5 25.5t-56 74.5t0.5 118l68 292h28l-67 -293q-22 -94 16 -143t120 -49q58 0 101.5 25.5t71.5 69t41 96.5l68 294h28l-116 -500h-26l30 135l5 -2q-25 -64 -78 -103.5t-130 -39.5zM213 555q10 63 49.5 94.5t92.5 31.5q52 0 83 -28t31 -72
q0 -7 -0.5 -13t-2.5 -13h-23q1 6 1.5 11.5t0.5 10.5q0 40 -26 60.5t-65 20.5q-47 0 -77.5 -27.5t-39.5 -75.5h-24z" />
    <glyph glyph-name="uni0218" unicode="&#x218;" horiz-adv-x="604" 
d="M308 -8q-72 0 -130 24t-94.5 67t-47.5 102l28 12q8 -55 42 -95.5t87 -62.5t116 -22q56 0 102 18t74.5 52.5t28.5 83.5t-38 81.5t-109 50.5l-84 23q-50 14 -85 38t-53 57t-18 73q0 50 27 90t78 63.5t122 23.5q91 0 155 -39.5t86 -120.5l-27 -12q-14 52 -44.5 84.5
t-74 47.5t-97.5 15q-61 0 -105 -20t-68 -53.5t-24 -75.5q0 -51 34.5 -88t101.5 -56l83 -22q82 -22 125.5 -61t43.5 -95q0 -60 -32.5 -100.5t-86 -61.5t-116.5 -21zM274 -69l-94 -161h-25l86 161h33z" />
    <glyph glyph-name="uni0219" unicode="&#x219;" horiz-adv-x="493" 
d="M237 -10q-61 0 -106.5 19t-72 54t-31.5 82l27 9q6 -64 53 -102t130 -38q73 0 113 33.5t40 85.5q0 36 -20.5 58.5t-66.5 35.5l-101 28q-55 16 -83.5 44t-28.5 74q0 42 22.5 72.5t63 47t92.5 16.5q73 0 125.5 -33.5t64.5 -106.5l-25 -11q-6 44 -30 72.5t-60 41.5t-78 13
q-67 0 -107.5 -30t-40.5 -79q0 -39 24.5 -61t68.5 -35l104 -29q53 -16 78.5 -43.5t25.5 -71.5q0 -43 -22.5 -76.5t-63 -51.5t-95.5 -18zM218 -69l-94 -161h-25l86 161h33z" />
    <glyph glyph-name="uni021A" unicode="&#x21a;" horiz-adv-x="545" 
d="M625 660l-6 -25h-243l-146 -635h-28l146 635h-245l7 25h515zM229 -69l-94 -161h-25l86 161h33z" />
    <glyph glyph-name="uni021B" unicode="&#x21b;" horiz-adv-x="343" 
d="M194 -10q-44 0 -71.5 18t-37 52t1.5 82l112 484l30 9l-115 -495q-13 -60 8 -92.5t76 -32.5q25 0 45.5 7t38.5 20l7 -23q-18 -14 -43 -21.5t-52 -7.5zM60 476l6 24h297l-7 -24h-296zM182 -69l-94 -161h-25l86 161h33z" />
    <glyph glyph-name="uni022A" unicode="&#x22a;" horiz-adv-x="718" 
d="M347 -10q-74 0 -136 33.5t-98 98.5t-36 158q0 77 21 147t63 124.5t105 86.5t145 32q74 0 134.5 -34t96.5 -98.5t36 -157.5q0 -76 -21 -146t-63 -125t-103.5 -87t-143.5 -32zM349 16q74 0 130 30t94 81t57 116.5t19 135.5q0 85 -32.5 144.5t-86.5 90t-122 30.5
q-74 0 -130.5 -30t-95 -81t-57.5 -116t-19 -136q0 -85 32.5 -144.5t88 -90t122.5 -30.5zM536 755q-11 0 -18.5 7.5t-7.5 17.5q0 14 8.5 23t21.5 9q12 0 19 -7t7 -18q0 -14 -8.5 -23t-21.5 -9zM350 755q-11 0 -18 7.5t-7 17.5q0 14 8 23t21 9q12 0 19 -7t7 -18
q0 -14 -8.5 -23t-21.5 -9zM609 931l-5 -24h-277l6 24h276z" />
    <glyph glyph-name="uni022B" unicode="&#x22b;" horiz-adv-x="567" 
d="M267 -9q-70 0 -118.5 30.5t-73.5 82t-25 112.5q0 86 31.5 152t88.5 103.5t132 37.5q70 0 118 -30.5t73 -81t25 -112.5q0 -85 -31.5 -151.5t-88 -104.5t-131.5 -38zM267 15q49 0 90 19.5t70.5 55.5t46 85.5t16.5 108.5q0 61 -23 105.5t-65 70t-101 25.5q-49 0 -90 -19.5
t-71 -55t-46 -85t-16 -108.5q0 -60 23 -105.5t66 -71t100 -25.5zM428 595q-11 0 -18.5 7.5t-7.5 17.5q0 14 8.5 23t21.5 9q12 0 19 -7t7 -18q0 -14 -8.5 -23t-21.5 -9zM242 595q-11 0 -18 7.5t-7 17.5q0 14 8 23t21 9q12 0 19 -7t7 -18q0 -14 -8.5 -23t-21.5 -9zM501 771
l-5 -24h-277l6 24h276z" />
    <glyph glyph-name="uni022C" unicode="&#x22c;" horiz-adv-x="718" 
d="M347 -10q-74 0 -136 33.5t-98 98.5t-36 158q0 77 21 147t63 124.5t105 86.5t145 32q74 0 134.5 -34t96.5 -98.5t36 -157.5q0 -76 -21 -146t-63 -125t-103.5 -87t-143.5 -32zM349 16q74 0 130 30t94 81t57 116.5t19 135.5q0 85 -32.5 144.5t-86.5 90t-122 30.5
q-74 0 -130.5 -30t-95 -81t-57.5 -116t-19 -136q0 -85 32.5 -144.5t88 -90t122.5 -30.5zM613 849q-13 -48 -38 -70.5t-54 -22.5q-25 0 -41 10.5t-28.5 24t-26 24t-33.5 10.5q-27 0 -42 -18t-28 -52h-24q13 48 37.5 70.5t59.5 22.5q24 0 40 -10.5t28.5 -24t26 -24t33.5 -10.5
q22 0 38.5 18.5t28.5 51.5h23zM618 953l-5 -24h-277l6 24h276z" />
    <glyph glyph-name="uni022D" unicode="&#x22d;" horiz-adv-x="567" 
d="M267 -9q-70 0 -118.5 30.5t-73.5 82t-25 112.5q0 86 31.5 152t88.5 103.5t132 37.5q70 0 118 -30.5t73 -81t25 -112.5q0 -85 -31.5 -151.5t-88 -104.5t-131.5 -38zM267 15q49 0 90 19.5t70.5 55.5t46 85.5t16.5 108.5q0 61 -23 105.5t-65 70t-101 25.5q-49 0 -90 -19.5
t-71 -55t-46 -85t-16 -108.5q0 -60 23 -105.5t66 -71t100 -25.5zM505 689q-13 -48 -38 -70.5t-54 -22.5q-25 0 -41 10.5t-28.5 24t-26 24t-33.5 10.5q-27 0 -42 -18t-28 -52h-24q13 48 37.5 70.5t59.5 22.5q24 0 40 -10.5t28.5 -24t26 -24t33.5 -10.5q22 0 38.5 18.5
t28.5 51.5h23zM510 793l-5 -24h-277l6 24h276z" />
    <glyph glyph-name="uni0230" unicode="&#x230;" horiz-adv-x="718" 
d="M347 -10q-74 0 -136 33.5t-98 98.5t-36 158q0 77 21 147t63 124.5t105 86.5t145 32q74 0 134.5 -34t96.5 -98.5t36 -157.5q0 -76 -21 -146t-63 -125t-103.5 -87t-143.5 -32zM349 16q74 0 130 30t94 81t57 116.5t19 135.5q0 85 -32.5 144.5t-86.5 90t-122 30.5
q-74 0 -130.5 -30t-95 -81t-57.5 -116t-19 -136q0 -85 32.5 -144.5t88 -90t122.5 -30.5zM450 758q-12 0 -19 7t-7 19q0 14 8 23t21 9q12 0 19.5 -7.5t7.5 -18.5q0 -14 -9 -23t-21 -9zM618 935l-5 -24h-277l6 24h276z" />
    <glyph glyph-name="uni0231" unicode="&#x231;" horiz-adv-x="567" 
d="M267 -9q-70 0 -118.5 30.5t-73.5 82t-25 112.5q0 86 31.5 152t88.5 103.5t132 37.5q70 0 118 -30.5t73 -81t25 -112.5q0 -85 -31.5 -151.5t-88 -104.5t-131.5 -38zM267 15q49 0 90 19.5t70.5 55.5t46 85.5t16.5 108.5q0 61 -23 105.5t-65 70t-101 25.5q-49 0 -90 -19.5
t-71 -55t-46 -85t-16 -108.5q0 -60 23 -105.5t66 -71t100 -25.5zM342 598q-12 0 -19 7t-7 19q0 14 8 23t21 9q12 0 19.5 -7.5t7.5 -18.5q0 -14 -9 -23t-21 -9zM510 775l-5 -24h-277l6 24h276z" />
    <glyph glyph-name="uni0232" unicode="&#x232;" horiz-adv-x="514" 
d="M185 0l59 256l-133 404h30l77 -239l45 -138l115 149l181 228h34l-321 -406l-59 -254h-28zM500 751l-5 -24h-277l6 24h276z" />
    <glyph glyph-name="uni0233" unicode="&#x233;" horiz-adv-x="478" 
d="M-23 -215q-28 0 -49 8t-31 24l16 21q21 -28 65 -28q37 0 68.5 23.5t65.5 78.5l56 89l-90 499h28l74 -414l9 -55l36 58l260 411h32l-382 -600q-26 -42 -51 -67.5t-50.5 -36.5t-56.5 -11zM447 609l-5 -24h-277l6 24h276z" />
    <glyph glyph-name="uni0237" unicode="&#x237;" horiz-adv-x="196" 
d="M-110 -215q-21 0 -39 6t-30 15l11 24q12 -8 26.5 -13.5t30.5 -5.5q47 0 77 31t45 95l131 563h28l-133 -574q-15 -67 -51.5 -104t-95.5 -37z" />
    <glyph glyph-name="uni0259" unicode="&#x259;" horiz-adv-x="544" 
d="M250 -9q-63 0 -106.5 27t-66 73t-22.5 102q0 14 2 29.5t5 31.5h418v-25h-405l11 12q-3 -12 -4 -23.5t-1 -22.5q0 -50 19.5 -91t57.5 -65t95 -24q49 0 88.5 21.5t68 58.5t44 85.5t15.5 103.5q0 58 -22 103.5t-62 71.5t-97 26q-62 0 -110.5 -31t-74.5 -80l-22 14
q29 52 82 86.5t126 34.5q66 0 111.5 -30t70 -81.5t24.5 -114.5q0 -78 -30 -144.5t-85 -107t-130 -40.5z" />
    <glyph glyph-name="uni02B9" unicode="&#x2b9;" horiz-adv-x="581" 
d="M244 682l-86 -176h-28l81 176h33z" />
    <glyph glyph-name="uni02BA" unicode="&#x2ba;" horiz-adv-x="268" 
d="M334 682l-86 -176h-28l81 176h33zM219 682l-86 -176h-28l81 176h33z" />
    <glyph glyph-name="uni02BB" unicode="&#x2bb;" horiz-adv-x="581" 
d="M207 778l-96 -191h-33l106 191h23z" />
    <glyph glyph-name="uni02BC" unicode="&#x2bc;" horiz-adv-x="600" 
d="M194 690q17 0 26 -11t9 -29q0 -26 -13.5 -53.5t-36.5 -48t-53 -27.5l-9 21q28 6 47.5 22t31 37t12.5 40l-1 1q-4 -7 -9.5 -9.5t-12.5 -2.5q-12 0 -18.5 8t-6.5 19q0 14 9.5 23.5t24.5 9.5z" />
    <glyph glyph-name="uni02BE" unicode="&#x2be;" horiz-adv-x="262" 
d="M185 730q34 0 57 -12.5t35.5 -35t12.5 -49.5q0 -59 -41.5 -91t-101.5 -32h-29l5 22h28q49 0 81.5 26.5t32.5 73.5q0 33 -21.5 54.5t-63.5 21.5h-16l5 22h16z" />
    <glyph glyph-name="uni02BF" unicode="&#x2bf;" horiz-adv-x="262" 
d="M248 510q-34 0 -57 12.5t-35.5 35t-12.5 49.5q0 59 41.5 91t101.5 32h29l-5 -22h-28q-49 0 -81.5 -26.5t-32.5 -73.5q0 -33 21.5 -54.5t63.5 -21.5h16l-5 -22h-16z" />
    <glyph glyph-name="circumflex" unicode="&#x2c6;" horiz-adv-x="559" 
d="M231 582l143 146h32l75 -146h-26l-67 126l-127 -126h-30z" />
    <glyph glyph-name="caron" unicode="&#x2c7;" horiz-adv-x="541" 
d="M332 583l-75 147h25l68 -126l126 126h30l-143 -147h-31z" />
    <glyph glyph-name="uni02C8" unicode="&#x2c8;" horiz-adv-x="190" 
d="M192 730h27l-62 -268h-26z" />
    <glyph glyph-name="uni02C9" unicode="&#x2c9;" horiz-adv-x="541" 
d="M495 627l-5 -24h-277l6 24h276z" />
    <glyph glyph-name="uni02CA" unicode="&#x2ca;" horiz-adv-x="581" 
d="M428 734h34l-126 -151h-27z" />
    <glyph glyph-name="uni02CB" unicode="&#x2cb;" horiz-adv-x="541" 
d="M349 734l51 -151h-23l-57 151h29z" />
    <glyph glyph-name="uni02CC" unicode="&#x2cc;" horiz-adv-x="189" 
d="M37 60h27l-62 -268h-26z" />
    <glyph glyph-name="breve" unicode="&#x2d8;" horiz-adv-x="541" 
d="M503 706q-11 -64 -51 -95t-97 -31q-51 0 -80 26t-29 68q0 8 1 16.5t3 15.5h21q-1 -6 -1.5 -13t-0.5 -14q0 -35 24.5 -55.5t63.5 -20.5q49 0 81.5 27t40.5 76h24z" />
    <glyph glyph-name="dotaccent" unicode="&#x2d9;" horiz-adv-x="541" 
d="M356 598q-12 0 -19 7t-7 19q0 14 8 23t21 9q12 0 19.5 -7.5t7.5 -18.5q0 -14 -9 -23t-21 -9z" />
    <glyph glyph-name="ring" unicode="&#x2da;" horiz-adv-x="581" 
d="M390 750q38 0 62 -22.5t24 -57.5q0 -42 -27 -68.5t-66 -26.5q-38 0 -62.5 23t-24.5 57q0 41 26.5 68t67.5 27zM389 729q-30 0 -50 -21t-20 -52q0 -26 18 -43t46 -17t48.5 19.5t20.5 53.5q0 26 -17 43t-46 17z" />
    <glyph glyph-name="ogonek" unicode="&#x2db;" horiz-adv-x="581" 
d="M214 -207q-23 0 -42 8.5t-30 25t-11 41.5q0 32 18.5 58t51 47.5t74.5 37.5l18 -11q-37 -15 -68.5 -34.5t-50.5 -43t-19 -51.5q0 -29 18 -42.5t44 -13.5q13 0 26 3t23 7l-3 -23q-8 -4 -21 -6.5t-28 -2.5z" />
    <glyph glyph-name="tilde" unicode="&#x2dc;" horiz-adv-x="541" 
d="M519 689q-13 -48 -38 -70.5t-54 -22.5q-25 0 -41 10.5t-28.5 24t-26 24t-33.5 10.5q-27 0 -42 -18t-28 -52h-24q13 48 37.5 70.5t59.5 22.5q24 0 40 -10.5t28.5 -24t26 -24t33.5 -10.5q22 0 38.5 18.5t28.5 51.5h23z" />
    <glyph glyph-name="hungarumlaut" unicode="&#x2dd;" horiz-adv-x="581" 
d="M378 583l120 151h34l-126 -151h-28zM238 583l119 151h35l-126 -151h-28z" />
    <glyph glyph-name="gravecomb" unicode="&#x300;" horiz-adv-x="0" 
d="M38 734l51 -151h-23l-57 151h29z" />
    <glyph glyph-name="acutecomb" unicode="&#x301;" horiz-adv-x="0" 
d="M180 734h34l-126 -151h-27z" />
    <glyph glyph-name="uni0302" unicode="&#x302;" horiz-adv-x="0" 
d="M-49 582l143 146h32l75 -146h-26l-67 126l-127 -126h-30z" />
    <glyph glyph-name="tildecomb" unicode="&#x303;" horiz-adv-x="0" 
d="M248 689q-13 -48 -38 -70.5t-54 -22.5q-25 0 -41 10.5t-28.5 24t-26 24t-33.5 10.5q-27 0 -42 -18t-28 -52h-24q13 48 37.5 70.5t59.5 22.5q24 0 40 -10.5t28.5 -24t26 -24t33.5 -10.5q22 0 38.5 18.5t28.5 51.5h23z" />
    <glyph glyph-name="uni0304" unicode="&#x304;" horiz-adv-x="0" 
d="M218 627l-5 -24h-277l6 24h276z" />
    <glyph glyph-name="uni0306" unicode="&#x306;" horiz-adv-x="0" 
d="M232 706q-11 -64 -51 -95t-97 -31q-51 0 -80 26t-29 68q0 8 1 16.5t3 15.5h21q-1 -6 -1.5 -13t-0.5 -14q0 -35 24.5 -55.5t63.5 -20.5q49 0 81.5 27t40.5 76h24z" />
    <glyph glyph-name="uni0307" unicode="&#x307;" horiz-adv-x="0" 
d="M85 598q-12 0 -19 7t-7 19q0 14 8 23t21 9q12 0 19.5 -7.5t7.5 -18.5q0 -14 -9 -23t-21 -9z" />
    <glyph glyph-name="uni0308" unicode="&#x308;" horiz-adv-x="0" 
d="M171 595q-11 0 -18.5 7.5t-7.5 17.5q0 14 8.5 23t21.5 9q12 0 19 -7t7 -18q0 -14 -8.5 -23t-21.5 -9zM-15 595q-11 0 -18 7.5t-7 17.5q0 14 8 23t21 9q12 0 19 -7t7 -18q0 -14 -8.5 -23t-21.5 -9z" />
    <glyph glyph-name="hookabovecomb" unicode="&#x309;" horiz-adv-x="0" 
d="M341 575l-7 18q34 8 54.5 26t20.5 47q0 20 -11.5 31t-32.5 11q-18 0 -31.5 -8.5t-24.5 -23.5l-14 17q11 17 30 28.5t44 11.5q31 0 48.5 -18.5t17.5 -46.5q0 -23 -11.5 -42.5t-32.5 -32.5t-50 -18z" />
    <glyph glyph-name="uni030A" unicode="&#x30a;" horiz-adv-x="0" 
d="M97 750q38 0 62 -22.5t24 -57.5q0 -42 -27 -68.5t-66 -26.5q-38 0 -62.5 23t-24.5 57q0 41 26.5 68t67.5 27zM96 729q-30 0 -50 -21t-20 -52q0 -26 18 -43t46 -17t48.5 19.5t20.5 53.5q0 26 -17 43t-46 17z" />
    <glyph glyph-name="uni030B" unicode="&#x30b;" horiz-adv-x="0" 
d="M124 583l120 151h34l-126 -151h-28zM-16 583l119 151h35l-126 -151h-28z" />
    <glyph glyph-name="uni030C" unicode="&#x30c;" horiz-adv-x="0" 
d="M61 583l-75 147h25l68 -126l126 126h30l-143 -147h-31z" />
    <glyph glyph-name="uni030F" unicode="&#x30f;" horiz-adv-x="0" 
d="M-28 733l51 -151h-23l-57 151h29zM107 733l50 -151h-22l-57 151h29z" />
    <glyph glyph-name="uni0311" unicode="&#x311;" horiz-adv-x="0" 
d="M-57 573q10 63 49.5 94.5t92.5 31.5q52 0 83 -28t31 -72q0 -7 -0.5 -13t-2.5 -13h-23q1 6 1.5 11.5t0.5 10.5q0 40 -26 60.5t-65 20.5q-47 0 -77.5 -27.5t-39.5 -75.5h-24z" />
    <glyph glyph-name="uni0312" unicode="&#x312;" horiz-adv-x="0" 
d="M451 778l-96 -191h-33l106 191h23z" />
    <glyph glyph-name="uni031B" unicode="&#x31b;" horiz-adv-x="0" 
d="M320 482l-6 18q46 0 73.5 30.5t35.5 78.5h25q-5 -43 -23.5 -71.5t-45.5 -42t-59 -13.5z" />
    <glyph glyph-name="dotbelowcomb" unicode="&#x323;" horiz-adv-x="0" 
d="M-87 -120q3 0 4.5 -2t1.5 -5q0 -2 -2 -4t-4 -2q-3 0 -4.5 1.5t-1.5 4.5q0 2 1.5 4.5t4.5 2.5z" />
    <glyph glyph-name="uni0324" unicode="&#x324;" horiz-adv-x="0" 
d="M5 -152q-11 0 -18.5 7.5t-7.5 17.5q0 14 8.5 23t21.5 9q12 0 19 -7t7 -18q0 -14 -8.5 -23t-21.5 -9zM-181 -152q-11 0 -18 7.5t-7 17.5q0 14 8 23t21 9q12 0 19 -7t7 -18q0 -14 -8.5 -23t-21.5 -9z" />
    <glyph glyph-name="uni0326" unicode="&#x326;" horiz-adv-x="0" 
d="M-51 -69l-94 -161h-25l86 161h33z" />
    <glyph glyph-name="uni0327" unicode="&#x327;" horiz-adv-x="0" 
d="M-67 2l22 6q29 -19 46 -45t17 -59q0 -34 -14 -58t-38.5 -37t-55.5 -13q-36 0 -57 14t-31 32l14 18q10 -17 27.5 -29t47.5 -12q36 0 59.5 23t23.5 61q0 30 -15.5 54.5t-45.5 44.5z" />
    <glyph glyph-name="uni0328" unicode="&#x328;" horiz-adv-x="0" 
d="M-142 -207q-23 0 -42 8.5t-30 25t-11 41.5q0 32 18.5 58t51 47.5t74.5 37.5l18 -11q-37 -15 -68.5 -34.5t-50.5 -43t-19 -51.5q0 -29 18 -42.5t44 -13.5q13 0 26 3t23 7l-3 -23q-8 -4 -21 -6.5t-28 -2.5z" />
    <glyph glyph-name="uni032E" unicode="&#x32e;" horiz-adv-x="0" 
d="M48 -73q-11 -64 -51 -95t-97 -31q-51 0 -80 26t-29 68q0 8 1 16.5t3 15.5h21q-1 -6 -1.5 -13t-0.5 -14q0 -35 24.5 -55.5t63.5 -20.5q49 0 81.5 27t40.5 76h24z" />
    <glyph glyph-name="uni0331" unicode="&#x331;" horiz-adv-x="0" 
d="M58 -104l-5 -24h-277l6 24h276z" />
    <glyph glyph-name="uni0335" unicode="&#x335;" horiz-adv-x="0" 
d="M200 341l-5 -21h-359l5 21h359z" />
    <glyph glyph-name="uni0338" unicode="&#x338;" horiz-adv-x="0" 
d="M-7 -26l556 553h31l-557 -553h-30z" />
    <glyph glyph-name="uni03A9" unicode="&#x3a9;" horiz-adv-x="728" 
d="M16 0l5 24h199v-5q-39 21 -69.5 61t-48.5 95t-18 117q0 83 23.5 152.5t67.5 120t105.5 78t138.5 27.5q83 0 141.5 -39.5t90 -106.5t31.5 -151q0 -88 -26.5 -160t-77.5 -122t-127 -71l-8 4h203l-6 -24h-229l5 25q55 14 99 43.5t75 74t47 102t16 125.5q0 77 -28 139
t-80.5 98.5t-127.5 36.5q-72 0 -128 -26t-96 -74t-60 -112.5t-20 -140.5q0 -62 17.5 -116t48.5 -93t72 -57l-6 -25h-229z" />
    <glyph glyph-name="uni03BC" unicode="&#x3bc;" horiz-adv-x="577" 
d="M-21 -210l164 710h28l-68 -296q-20 -87 17.5 -138t119.5 -51q58 0 101.5 25.5t71.5 69t41 96.5l68 294h28l-116 -500h-26l25 110q-28 -54 -77.5 -87t-118.5 -33q-64 0 -106 32t-49 87v0l-75 -319h-28z" />
    <glyph glyph-name="pi" unicode="&#x3c0;" horiz-adv-x="676" 
d="M114 0l110 476h-162l7 24h646l-6 -24h-152l-87 -376q-6 -28 4 -46.5t33.5 -25.5t54.5 -4l-11 -24q-40 -4 -67 6t-38 35t-3 65l85 370h-276l-110 -476h-28z" />
    <glyph glyph-name="uni1E08" unicode="&#x1e08;" horiz-adv-x="663" 
d="M347 -10q-75 0 -137 33t-98 96.5t-36 156.5q0 77 21 148t63 126t105 87.5t145 32.5q60 0 108.5 -21t83.5 -61t52 -99l-28 -8q-23 80 -80.5 122t-137.5 42q-75 0 -131.5 -30.5t-95 -82.5t-57.5 -117t-19 -134q0 -84 33 -143.5t88.5 -91t122.5 -31.5q79 0 135.5 34t90.5 96
l25 -15q-39 -66 -102 -103t-151 -37zM313 2l22 6q29 -19 46 -45t17 -59q0 -34 -14 -58t-38.5 -37t-55.5 -13q-36 0 -57 14t-31 32l14 18q10 -17 27.5 -29t47.5 -12q36 0 59.5 23t23.5 61q0 30 -15.5 54.5t-45.5 44.5zM530 893h33l-113 -150h-26z" />
    <glyph glyph-name="uni1E09" unicode="&#x1e09;" horiz-adv-x="520" 
d="M262 -10q-61 0 -109.5 28t-76 79t-27.5 118q0 82 31 149t88 106.5t135 39.5q49 0 87.5 -18t64.5 -51t36 -79l-28 -7q-13 61 -54 96t-107 35q-53 0 -94 -21t-70.5 -58.5t-45 -85.5t-15.5 -104q0 -62 25 -107.5t67.5 -70t96.5 -24.5q59 0 103.5 31.5t67.5 81.5l24 -11
q-26 -57 -77.5 -92t-121.5 -35zM219 2l22 6q29 -19 46 -45t17 -59q0 -34 -14 -58t-38.5 -37t-55.5 -13q-36 0 -57 14t-31 32l14 18q10 -17 27.5 -29t47.5 -12q36 0 59.5 23t23.5 61q0 30 -15.5 54.5t-45.5 44.5zM431 734h34l-126 -151h-27z" />
    <glyph glyph-name="uni1E0C" unicode="&#x1e0c;" horiz-adv-x="690" 
d="M45 0l153 660h193q85 0 143 -35t88.5 -96t30.5 -139q0 -83 -25.5 -154t-73 -124t-115.5 -82.5t-151 -29.5h-243zM79 25h212q76 0 137.5 28t105.5 77.5t67 115.5t23 141q0 71 -26.5 127t-78.5 88.5t-132 32.5h-167zM264 -120q3 0 4.5 -2t1.5 -5q0 -2 -2 -4t-4 -2
q-3 0 -4.5 1.5t-1.5 4.5q0 2 1.5 4.5t4.5 2.5z" />
    <glyph glyph-name="uni1E0D" unicode="&#x1e0d;" 
d="M253 -10q-63 0 -108.5 29.5t-70.5 80t-25 116.5q0 62 18 115t51.5 93.5t81 63t105.5 22.5q57 0 99.5 -22.5t65.5 -63.5t23 -99l93 405h28l-169 -730h-26l27 120q-26 -55 -74.5 -92.5t-118.5 -37.5zM260 15q49 0 89.5 24.5t69 65.5t44.5 91.5t16 103.5q0 66 -24.5 106.5
t-63.5 60t-86 19.5q-51 0 -92.5 -20t-72 -56.5t-47 -85.5t-16.5 -109q0 -63 24 -108t65.5 -68.5t93.5 -23.5zM221 -120q3 0 4.5 -2t1.5 -5q0 -2 -2 -4t-4 -2q-3 0 -4.5 1.5t-1.5 4.5q0 2 1.5 4.5t4.5 2.5z" />
    <glyph glyph-name="uni1E0E" unicode="&#x1e0e;" horiz-adv-x="690" 
d="M45 0l153 660h193q85 0 143 -35t88.5 -96t30.5 -139q0 -83 -25.5 -154t-73 -124t-115.5 -82.5t-151 -29.5h-243zM79 25h212q76 0 137.5 28t105.5 77.5t67 115.5t23 141q0 71 -26.5 127t-78.5 88.5t-132 32.5h-167zM409 -104l-5 -24h-277l6 24h276z" />
    <glyph glyph-name="uni1E0F" unicode="&#x1e0f;" 
d="M253 -10q-63 0 -108.5 29.5t-70.5 80t-25 116.5q0 62 18 115t51.5 93.5t81 63t105.5 22.5q57 0 99.5 -22.5t65.5 -63.5t23 -99l93 405h28l-169 -730h-26l27 120q-26 -55 -74.5 -92.5t-118.5 -37.5zM260 15q49 0 89.5 24.5t69 65.5t44.5 91.5t16 103.5q0 66 -24.5 106.5
t-63.5 60t-86 19.5q-51 0 -92.5 -20t-72 -56.5t-47 -85.5t-16.5 -109q0 -63 24 -108t65.5 -68.5t93.5 -23.5zM366 -104l-5 -24h-277l6 24h276z" />
    <glyph glyph-name="uni1E14" unicode="&#x1e14;" horiz-adv-x="582" 
d="M41 0l153 660h431l-7 -25h-403l-65 -286h323l-6 -25h-324l-68 -299h421l-6 -25h-449zM561 787l-5 -24h-277l6 24h276zM418 1018l42 -150h-22l-49 150h29z" />
    <glyph glyph-name="uni1E15" unicode="&#x1e15;" horiz-adv-x="535" 
d="M263 -9q-68 0 -116.5 30.5t-73 82t-24.5 113.5q0 78 29.5 144.5t86.5 107t137 40.5q58 0 100.5 -26.5t65 -72t22.5 -103.5q0 -12 -1 -25.5t-4 -26.5h-420v24h405l-10 -8q1 9 1.5 18t0.5 16q0 50 -19 91t-55 65t-89 24q-52 0 -93.5 -21.5t-70.5 -58.5t-43.5 -85.5
t-14.5 -103.5q0 -58 23 -103.5t65 -71.5t100 -26q60 1 106 29.5t73 73.5l23 -14q-21 -32 -50.5 -58t-68 -40.5t-85.5 -14.5zM463 627l-5 -24h-277l6 24h276zM321 858l42 -150h-22l-49 150h29z" />
    <glyph glyph-name="uni1E16" unicode="&#x1e16;" horiz-adv-x="582" 
d="M41 0l153 660h431l-7 -25h-403l-65 -286h323l-6 -25h-324l-68 -299h421l-6 -25h-449zM561 787l-5 -24h-277l6 24h276zM536 1018h33l-113 -150h-26z" />
    <glyph glyph-name="uni1E17" unicode="&#x1e17;" horiz-adv-x="535" 
d="M263 -9q-68 0 -116.5 30.5t-73 82t-24.5 113.5q0 78 29.5 144.5t86.5 107t137 40.5q58 0 100.5 -26.5t65 -72t22.5 -103.5q0 -12 -1 -25.5t-4 -26.5h-420v24h405l-10 -8q1 9 1.5 18t0.5 16q0 50 -19 91t-55 65t-89 24q-52 0 -93.5 -21.5t-70.5 -58.5t-43.5 -85.5
t-14.5 -103.5q0 -58 23 -103.5t65 -71.5t100 -26q60 1 106 29.5t73 73.5l23 -14q-21 -32 -50.5 -58t-68 -40.5t-85.5 -14.5zM463 627l-5 -24h-277l6 24h276zM439 858h33l-113 -150h-26z" />
    <glyph glyph-name="uni1E1C" unicode="&#x1e1c;" horiz-adv-x="582" 
d="M41 0l153 660h431l-7 -25h-403l-65 -286h323l-6 -25h-324l-68 -299h421l-6 -25h-449zM270 2l22 6q29 -19 46 -45t17 -59q0 -34 -14 -58t-38.5 -37t-55.5 -13q-36 0 -57 14t-31 32l14 18q10 -17 27.5 -29t47.5 -12q36 0 59.5 23t23.5 61q0 30 -15.5 54.5t-45.5 44.5z
M572 866q-11 -64 -51 -95t-97 -31q-51 0 -80 26t-29 68q0 8 1 16.5t3 15.5h21q-1 -6 -1.5 -13t-0.5 -14q0 -35 24.5 -55.5t63.5 -20.5q49 0 81.5 27t40.5 76h24z" />
    <glyph glyph-name="uni1E1D" unicode="&#x1e1d;" horiz-adv-x="535" 
d="M263 -9q-68 0 -116.5 30.5t-73 82t-24.5 113.5q0 78 29.5 144.5t86.5 107t137 40.5q58 0 100.5 -26.5t65 -72t22.5 -103.5q0 -12 -1 -25.5t-4 -26.5h-420v24h405l-10 -8q1 9 1.5 18t0.5 16q0 50 -19 91t-55 65t-89 24q-52 0 -93.5 -21.5t-70.5 -58.5t-43.5 -85.5
t-14.5 -103.5q0 -58 23 -103.5t65 -71.5t100 -26q60 1 106 29.5t73 73.5l23 -14q-21 -32 -50.5 -58t-68 -40.5t-85.5 -14.5zM237 2l22 6q29 -19 46 -45t17 -59q0 -34 -14 -58t-38.5 -37t-55.5 -13q-36 0 -57 14t-31 32l14 18q10 -17 27.5 -29t47.5 -12q36 0 59.5 23t23.5 61
q0 30 -15.5 54.5t-45.5 44.5zM476 706q-11 -64 -51 -95t-97 -31q-51 0 -80 26t-29 68q0 8 1 16.5t3 15.5h21q-1 -6 -1.5 -13t-0.5 -14q0 -35 24.5 -55.5t63.5 -20.5q49 0 81.5 27t40.5 76h24z" />
    <glyph glyph-name="uni1E20" unicode="&#x1e20;" horiz-adv-x="692" 
d="M343 -9q-73 0 -134 33t-97 96.5t-36 155.5q0 77 21.5 148t65 126.5t108.5 87.5t151 32q57 0 105.5 -19.5t85.5 -58.5t58 -97l-27 -9q-30 79 -88 119t-136 40t-137 -30.5t-99 -82.5t-59.5 -117.5t-19.5 -134.5q0 -83 32.5 -142.5t87.5 -90t122 -30.5q56 0 106.5 20.5
t88.5 68t55 126.5l12 51h-230l6 26h256l-72 -309h-24l40 176l9 8q-18 -71 -56 -113t-88 -61t-107 -19zM585 787l-5 -24h-277l6 24h276z" />
    <glyph glyph-name="uni1E21" unicode="&#x1e21;" horiz-adv-x="589" 
d="M210 -215q-42 0 -79 11t-65 32.5t-46.5 52t-26.5 68.5l27 10q15 -73 66.5 -111t126.5 -38q51 0 91.5 18t68.5 59.5t44 107.5l36 157l-1 -18q-24 -53 -76.5 -88t-123.5 -35q-58 0 -104 26t-72 75.5t-26 119.5q0 56 17 106.5t48.5 89t78 60.5t105.5 22q68 0 114 -33.5
t65.5 -89.5t7.5 -125l-6 8l53 230h28l-118 -510q-16 -72 -48 -117.5t-78 -66.5t-107 -21zM257 35q70 0 118 36.5t73 95.5t25 126t-24.5 109.5t-64 63t-85.5 20.5q-70 0 -119.5 -36t-75.5 -94t-26 -125q0 -93 49 -144.5t130 -51.5zM488 627l-5 -24h-277l6 24h276z" />
    <glyph glyph-name="uni1E24" unicode="&#x1e24;" horiz-adv-x="689" 
d="M685 660l-153 -660h-28l153 660h28zM222 660l-153 -660h-28l153 660h28zM600 349l-7 -25h-463l6 25h464zM262 -120q3 0 4.5 -2t1.5 -5q0 -2 -2 -4t-4 -2q-3 0 -4.5 1.5t-1.5 4.5q0 2 1.5 4.5t4.5 2.5z" />
    <glyph glyph-name="uni1E25" unicode="&#x1e25;" horiz-adv-x="569" 
d="M27 0l170 730h28l-85 -362l-6 -1q15 41 45 73.5t73.5 51t98.5 18.5q58 0 97.5 -26t54.5 -74t0 -115l-69 -295h-28l68 294q21 93 -15.5 142.5t-112.5 49.5q-63 0 -108 -26t-73.5 -69.5t-41.5 -96.5l-68 -294h-28zM209 -120q3 0 4.5 -2t1.5 -5q0 -2 -2 -4t-4 -2
q-3 0 -4.5 1.5t-1.5 4.5q0 2 1.5 4.5t4.5 2.5z" />
    <glyph glyph-name="uni1E2A" unicode="&#x1e2a;" horiz-adv-x="689" 
d="M685 660l-153 -660h-28l153 660h28zM222 660l-153 -660h-28l153 660h28zM600 349l-7 -25h-463l6 25h464zM397 -73q-11 -64 -51 -95t-97 -31q-51 0 -80 26t-29 68q0 8 1 16.5t3 15.5h21q-1 -6 -1.5 -13t-0.5 -14q0 -35 24.5 -55.5t63.5 -20.5q49 0 81.5 27t40.5 76h24z
" />
    <glyph glyph-name="uni1E2B" unicode="&#x1e2b;" horiz-adv-x="569" 
d="M27 0l170 730h28l-85 -362l-6 -1q15 41 45 73.5t73.5 51t98.5 18.5q58 0 97.5 -26t54.5 -74t0 -115l-69 -295h-28l68 294q21 93 -15.5 142.5t-112.5 49.5q-63 0 -108 -26t-73.5 -69.5t-41.5 -96.5l-68 -294h-28zM344 -73q-11 -64 -51 -95t-97 -31q-51 0 -80 26t-29 68
q0 8 1 16.5t3 15.5h21q-1 -6 -1.5 -13t-0.5 -14q0 -35 24.5 -55.5t63.5 -20.5q49 0 81.5 27t40.5 76h24z" />
    <glyph glyph-name="uni1E2E" unicode="&#x1e2e;" horiz-adv-x="225" 
d="M222 660l-153 -660h-28l153 660h28zM321 755q-11 0 -18.5 7.5t-7.5 17.5q0 14 8.5 23t21.5 9q12 0 19 -7t7 -18q0 -14 -8.5 -23t-21.5 -9zM135 755q-11 0 -18 7.5t-7 17.5q0 14 8 23t21 9q12 0 19 -7t7 -18q0 -14 -8.5 -23t-21.5 -9zM340 1037h33l-113 -150h-26z" />
    <glyph glyph-name="uni1E2F" unicode="&#x1e2f;" horiz-adv-x="196" 
d="M170 500l-116 -500h-28l116 500h28zM269 595q-11 0 -18.5 7.5t-7.5 17.5q0 14 8.5 23t21.5 9q12 0 19 -7t7 -18q0 -14 -8.5 -23t-21.5 -9zM83 595q-11 0 -18 7.5t-7 17.5q0 14 8 23t21 9q12 0 19 -7t7 -18q0 -14 -8.5 -23t-21.5 -9zM288 877h33l-113 -150h-26z" />
    <glyph glyph-name="uni1E36" unicode="&#x1e36;" horiz-adv-x="542" 
d="M75 25h400l-6 -25h-428l153 660h28zM247 -120q3 0 4.5 -2t1.5 -5q0 -2 -2 -4t-4 -2q-3 0 -4.5 1.5t-1.5 4.5q0 2 1.5 4.5t4.5 2.5z" />
    <glyph glyph-name="uni1E37" unicode="&#x1e37;" horiz-adv-x="245" 
d="M124 -9q-52 0 -69.5 35t-3.5 98l140 606h28l-141 -609q-12 -53 0.5 -79t53.5 -26q17 0 29 2t23 6l-6 -23q-9 -5 -23 -7.5t-31 -2.5zM74 -120q3 0 4.5 -2t1.5 -5q0 -2 -2 -4t-4 -2q-3 0 -4.5 1.5t-1.5 4.5q0 2 1.5 4.5t4.5 2.5z" />
    <glyph glyph-name="uni1E3A" unicode="&#x1e3a;" horiz-adv-x="542" 
d="M75 25h400l-6 -25h-428l153 660h28zM392 -104l-5 -24h-277l6 24h276z" />
    <glyph glyph-name="uni1E3B" unicode="&#x1e3b;" horiz-adv-x="245" 
d="M-18 -127l5 24h178l-5 -24h-178zM124 -9q-52 0 -69.5 35t-3.5 98l140 606h28l-141 -609q-12 -53 0.5 -79t53.5 -26q17 0 29 2t23 6l-6 -23q-9 -5 -23 -7.5t-31 -2.5z" />
    <glyph glyph-name="uni1E42" unicode="&#x1e42;" horiz-adv-x="783" 
d="M41 0l153 660h38l100 -572l7 -56v0l30 53l368 575h42l-153 -660h-27l128 551l20 77h-1l-399 -628h-28l-108 628h-1l-15 -77l-127 -551h-27zM306 -120q3 0 4.5 -2t1.5 -5q0 -2 -2 -4t-4 -2q-3 0 -4.5 1.5t-1.5 4.5q0 2 1.5 4.5t4.5 2.5z" />
    <glyph glyph-name="uni1E43" unicode="&#x1e43;" horiz-adv-x="936" 
d="M27 0l116 500h26l-30 -135l-5 2q22 62 77.5 102.5t138.5 40.5q59 0 96.5 -26t50.5 -73.5t-3 -115.5l-68 -295h-28l67 294q22 92 -11.5 142t-108.5 50q-62 0 -107.5 -26t-73.5 -69.5t-41 -96.5l-68 -294h-28zM769 0l67 294q21 92 -12 142t-108 50q-63 0 -108.5 -27
t-74 -71.5t-41.5 -99.5l3 71q29 70 85.5 110.5t140.5 40.5q59 0 96 -26t50.5 -73.5t-2.5 -115.5l-68 -295h-28zM388 -120q3 0 4.5 -2t1.5 -5q0 -2 -2 -4t-4 -2q-3 0 -4.5 1.5t-1.5 4.5q0 2 1.5 4.5t4.5 2.5z" />
    <glyph glyph-name="uni1E44" unicode="&#x1e44;" horiz-adv-x="687" 
d="M41 0l153 660h35l260 -573l23 -57v0l14 66l131 564h27l-153 -660h-35l-261 574l-23 57v0l-13 -67l-131 -564h-27zM461 758q-12 0 -19 7t-7 19q0 14 8 23t21 9q12 0 19.5 -7.5t7.5 -18.5q0 -14 -9 -23t-21 -9z" />
    <glyph glyph-name="uni1E45" unicode="&#x1e45;" horiz-adv-x="569" 
d="M27 0l116 500h26l-30 -135l-5 2q22 62 78 102.5t139 40.5q59 0 98.5 -26t54 -74t-0.5 -115l-69 -295h-28l68 294q21 93 -15.5 142.5t-112.5 49.5q-63 0 -108 -26t-73.5 -69.5t-41.5 -96.5l-68 -294h-28zM364 598q-12 0 -19 7t-7 19q0 14 8 23t21 9q12 0 19.5 -7.5
t7.5 -18.5q0 -14 -9 -23t-21 -9z" />
    <glyph glyph-name="uni1E46" unicode="&#x1e46;" horiz-adv-x="687" 
d="M41 0l153 660h35l260 -573l23 -57v0l14 66l131 564h27l-153 -660h-35l-261 574l-23 57v0l-13 -67l-131 -564h-27zM265 -120q3 0 4.5 -2t1.5 -5q0 -2 -2 -4t-4 -2q-3 0 -4.5 1.5t-1.5 4.5q0 2 1.5 4.5t4.5 2.5z" />
    <glyph glyph-name="uni1E47" unicode="&#x1e47;" horiz-adv-x="569" 
d="M27 0l116 500h26l-30 -135l-5 2q22 62 78 102.5t139 40.5q59 0 98.5 -26t54 -74t-0.5 -115l-69 -295h-28l68 294q21 93 -15.5 142.5t-112.5 49.5q-63 0 -108 -26t-73.5 -69.5t-41.5 -96.5l-68 -294h-28zM225 -120q3 0 4.5 -2t1.5 -5q0 -2 -2 -4t-4 -2q-3 0 -4.5 1.5
t-1.5 4.5q0 2 1.5 4.5t4.5 2.5z" />
    <glyph glyph-name="uni1E48" unicode="&#x1e48;" horiz-adv-x="687" 
d="M41 0l153 660h35l260 -573l23 -57v0l14 66l131 564h27l-153 -660h-35l-261 574l-23 57v0l-13 -67l-131 -564h-27zM410 -104l-5 -24h-277l6 24h276z" />
    <glyph glyph-name="uni1E49" unicode="&#x1e49;" horiz-adv-x="569" 
d="M27 0l116 500h26l-30 -135l-5 2q22 62 78 102.5t139 40.5q59 0 98.5 -26t54 -74t-0.5 -115l-69 -295h-28l68 294q21 93 -15.5 142.5t-112.5 49.5q-63 0 -108 -26t-73.5 -69.5t-41.5 -96.5l-68 -294h-28zM370 -104l-5 -24h-277l6 24h276z" />
    <glyph glyph-name="uni1E4C" unicode="&#x1e4c;" horiz-adv-x="718" 
d="M347 -10q-74 0 -136 33.5t-98 98.5t-36 158q0 77 21 147t63 124.5t105 86.5t145 32q74 0 134.5 -34t96.5 -98.5t36 -157.5q0 -76 -21 -146t-63 -125t-103.5 -87t-143.5 -32zM349 16q74 0 130 30t94 81t57 116.5t19 135.5q0 85 -32.5 144.5t-86.5 90t-122 30.5
q-74 0 -130.5 -30t-95 -81t-57.5 -116t-19 -136q0 -85 32.5 -144.5t88 -90t122.5 -30.5zM613 849q-13 -48 -38 -70.5t-54 -22.5q-25 0 -41 10.5t-28.5 24t-26 24t-33.5 10.5q-27 0 -42 -18t-28 -52h-24q13 48 37.5 70.5t59.5 22.5q24 0 40 -10.5t28.5 -24t26 -24t33.5 -10.5
q22 0 38.5 18.5t28.5 51.5h23zM564 1059h33l-113 -150h-26z" />
    <glyph glyph-name="uni1E4D" unicode="&#x1e4d;" horiz-adv-x="567" 
d="M267 -9q-70 0 -118.5 30.5t-73.5 82t-25 112.5q0 86 31.5 152t88.5 103.5t132 37.5q70 0 118 -30.5t73 -81t25 -112.5q0 -85 -31.5 -151.5t-88 -104.5t-131.5 -38zM267 15q49 0 90 19.5t70.5 55.5t46 85.5t16.5 108.5q0 61 -23 105.5t-65 70t-101 25.5q-49 0 -90 -19.5
t-71 -55t-46 -85t-16 -108.5q0 -60 23 -105.5t66 -71t100 -25.5zM505 689q-13 -48 -38 -70.5t-54 -22.5q-25 0 -41 10.5t-28.5 24t-26 24t-33.5 10.5q-27 0 -42 -18t-28 -52h-24q13 48 37.5 70.5t59.5 22.5q24 0 40 -10.5t28.5 -24t26 -24t33.5 -10.5q22 0 38.5 18.5
t28.5 51.5h23zM456 899h33l-113 -150h-26z" />
    <glyph glyph-name="uni1E4E" unicode="&#x1e4e;" horiz-adv-x="718" 
d="M347 -10q-74 0 -136 33.5t-98 98.5t-36 158q0 77 21 147t63 124.5t105 86.5t145 32q74 0 134.5 -34t96.5 -98.5t36 -157.5q0 -76 -21 -146t-63 -125t-103.5 -87t-143.5 -32zM349 16q74 0 130 30t94 81t57 116.5t19 135.5q0 85 -32.5 144.5t-86.5 90t-122 30.5
q-74 0 -130.5 -30t-95 -81t-57.5 -116t-19 -136q0 -85 32.5 -144.5t88 -90t122.5 -30.5zM613 849q-13 -48 -38 -70.5t-54 -22.5q-25 0 -41 10.5t-28.5 24t-26 24t-33.5 10.5q-27 0 -42 -18t-28 -52h-24q13 48 37.5 70.5t59.5 22.5q24 0 40 -10.5t28.5 -24t26 -24t33.5 -10.5
q22 0 38.5 18.5t28.5 51.5h23zM571 921q-11 0 -18.5 7.5t-7.5 17.5q0 14 8.5 23t21.5 9q12 0 19 -7t7 -18q0 -14 -8.5 -23t-21.5 -9zM385 921q-11 0 -18 7.5t-7 17.5q0 14 8 23t21 9q12 0 19 -7t7 -18q0 -14 -8.5 -23t-21.5 -9z" />
    <glyph glyph-name="uni1E4F" unicode="&#x1e4f;" horiz-adv-x="567" 
d="M267 -9q-70 0 -118.5 30.5t-73.5 82t-25 112.5q0 86 31.5 152t88.5 103.5t132 37.5q70 0 118 -30.5t73 -81t25 -112.5q0 -85 -31.5 -151.5t-88 -104.5t-131.5 -38zM267 15q49 0 90 19.5t70.5 55.5t46 85.5t16.5 108.5q0 61 -23 105.5t-65 70t-101 25.5q-49 0 -90 -19.5
t-71 -55t-46 -85t-16 -108.5q0 -60 23 -105.5t66 -71t100 -25.5zM505 689q-13 -48 -38 -70.5t-54 -22.5q-25 0 -41 10.5t-28.5 24t-26 24t-33.5 10.5q-27 0 -42 -18t-28 -52h-24q13 48 37.5 70.5t59.5 22.5q24 0 40 -10.5t28.5 -24t26 -24t33.5 -10.5q22 0 38.5 18.5
t28.5 51.5h23zM463 761q-11 0 -18.5 7.5t-7.5 17.5q0 14 8.5 23t21.5 9q12 0 19 -7t7 -18q0 -14 -8.5 -23t-21.5 -9zM277 761q-11 0 -18 7.5t-7 17.5q0 14 8 23t21 9q12 0 19 -7t7 -18q0 -14 -8.5 -23t-21.5 -9z" />
    <glyph glyph-name="uni1E50" unicode="&#x1e50;" horiz-adv-x="718" 
d="M347 -10q-74 0 -136 33.5t-98 98.5t-36 158q0 77 21 147t63 124.5t105 86.5t145 32q74 0 134.5 -34t96.5 -98.5t36 -157.5q0 -76 -21 -146t-63 -125t-103.5 -87t-143.5 -32zM349 16q74 0 130 30t94 81t57 116.5t19 135.5q0 85 -32.5 144.5t-86.5 90t-122 30.5
q-74 0 -130.5 -30t-95 -81t-57.5 -116t-19 -136q0 -85 32.5 -144.5t88 -90t122.5 -30.5zM583 787l-5 -24h-277l6 24h276zM441 1018l42 -150h-22l-49 150h29z" />
    <glyph glyph-name="uni1E51" unicode="&#x1e51;" horiz-adv-x="567" 
d="M267 -9q-70 0 -118.5 30.5t-73.5 82t-25 112.5q0 86 31.5 152t88.5 103.5t132 37.5q70 0 118 -30.5t73 -81t25 -112.5q0 -85 -31.5 -151.5t-88 -104.5t-131.5 -38zM267 15q49 0 90 19.5t70.5 55.5t46 85.5t16.5 108.5q0 61 -23 105.5t-65 70t-101 25.5q-49 0 -90 -19.5
t-71 -55t-46 -85t-16 -108.5q0 -60 23 -105.5t66 -71t100 -25.5zM475 627l-5 -24h-277l6 24h276zM333 858l42 -150h-22l-49 150h29z" />
    <glyph glyph-name="uni1E52" unicode="&#x1e52;" horiz-adv-x="718" 
d="M347 -10q-74 0 -136 33.5t-98 98.5t-36 158q0 77 21 147t63 124.5t105 86.5t145 32q74 0 134.5 -34t96.5 -98.5t36 -157.5q0 -76 -21 -146t-63 -125t-103.5 -87t-143.5 -32zM349 16q74 0 130 30t94 81t57 116.5t19 135.5q0 85 -32.5 144.5t-86.5 90t-122 30.5
q-74 0 -130.5 -30t-95 -81t-57.5 -116t-19 -136q0 -85 32.5 -144.5t88 -90t122.5 -30.5zM583 787l-5 -24h-277l6 24h276zM559 1018h33l-113 -150h-26z" />
    <glyph glyph-name="uni1E53" unicode="&#x1e53;" horiz-adv-x="567" 
d="M267 -9q-70 0 -118.5 30.5t-73.5 82t-25 112.5q0 86 31.5 152t88.5 103.5t132 37.5q70 0 118 -30.5t73 -81t25 -112.5q0 -85 -31.5 -151.5t-88 -104.5t-131.5 -38zM267 15q49 0 90 19.5t70.5 55.5t46 85.5t16.5 108.5q0 61 -23 105.5t-65 70t-101 25.5q-49 0 -90 -19.5
t-71 -55t-46 -85t-16 -108.5q0 -60 23 -105.5t66 -71t100 -25.5zM475 627l-5 -24h-277l6 24h276zM451 858h33l-113 -150h-26z" />
    <glyph glyph-name="uni1E5A" unicode="&#x1e5a;" horiz-adv-x="612" 
d="M41 0l153 660h204q93 0 143 -44t50 -120q0 -58 -25.5 -103.5t-74.5 -72.5t-121 -28l-10 -2h-234l3 26h231q69 0 113.5 24t66.5 64.5t22 90.5q0 63 -41.5 101.5t-125.5 38.5h-179l-147 -635h-28zM488 0l-119 303l29 2l120 -305h-30zM258 -120q3 0 4.5 -2t1.5 -5
q0 -2 -2 -4t-4 -2q-3 0 -4.5 1.5t-1.5 4.5q0 2 1.5 4.5t4.5 2.5z" />
    <glyph glyph-name="uni1E5B" unicode="&#x1e5b;" horiz-adv-x="347" 
d="M27 0l116 500h25l-30 -144l-7 7q19 42 45.5 75t62 52.5t82.5 19.5q17 0 33 -3t27 -11l-11 -25q-10 8 -24.5 11t-31.5 3q-48 0 -87 -25.5t-65 -68.5t-38 -96l-69 -295h-28zM13 -120q3 0 4.5 -2t1.5 -5q0 -2 -2 -4t-4 -2q-3 0 -4.5 1.5t-1.5 4.5q0 2 1.5 4.5t4.5 2.5z" />
    <glyph glyph-name="uni1E5E" unicode="&#x1e5e;" horiz-adv-x="612" 
d="M41 0l153 660h204q93 0 143 -44t50 -120q0 -58 -25.5 -103.5t-74.5 -72.5t-121 -28l-10 -2h-234l3 26h231q69 0 113.5 24t66.5 64.5t22 90.5q0 63 -41.5 101.5t-125.5 38.5h-179l-147 -635h-28zM488 0l-119 303l29 2l120 -305h-30zM403 -104l-5 -24h-277l6 24h276z" />
    <glyph glyph-name="uni1E5F" unicode="&#x1e5f;" horiz-adv-x="347" 
d="M-69 -127l5 24h169l-5 -24h-169zM27 0l116 500h25l-30 -144l-7 7q19 42 45.5 75t62 52.5t82.5 19.5q17 0 33 -3t27 -11l-11 -25q-10 8 -24.5 11t-31.5 3q-48 0 -87 -25.5t-65 -68.5t-38 -96l-69 -295h-28z" />
    <glyph glyph-name="uni1E60" unicode="&#x1e60;" horiz-adv-x="604" 
d="M308 -8q-72 0 -130 24t-94.5 67t-47.5 102l28 12q8 -55 42 -95.5t87 -62.5t116 -22q56 0 102 18t74.5 52.5t28.5 83.5t-38 81.5t-109 50.5l-84 23q-50 14 -85 38t-53 57t-18 73q0 50 27 90t78 63.5t122 23.5q91 0 155 -39.5t86 -120.5l-27 -12q-14 52 -44.5 84.5
t-74 47.5t-97.5 15q-61 0 -105 -20t-68 -53.5t-24 -75.5q0 -51 34.5 -88t101.5 -56l83 -22q82 -22 125.5 -61t43.5 -95q0 -60 -32.5 -100.5t-86 -61.5t-116.5 -21zM398 758q-12 0 -19 7t-7 19q0 14 8 23t21 9q12 0 19.5 -7.5t7.5 -18.5q0 -14 -9 -23t-21 -9z" />
    <glyph glyph-name="uni1E61" unicode="&#x1e61;" horiz-adv-x="493" 
d="M237 -10q-61 0 -106.5 19t-72 54t-31.5 82l27 9q6 -64 53 -102t130 -38q73 0 113 33.5t40 85.5q0 36 -20.5 58.5t-66.5 35.5l-101 28q-55 16 -83.5 44t-28.5 74q0 42 22.5 72.5t63 47t92.5 16.5q73 0 125.5 -33.5t64.5 -106.5l-25 -11q-6 44 -30 72.5t-60 41.5t-78 13
q-67 0 -107.5 -30t-40.5 -79q0 -39 24.5 -61t68.5 -35l104 -29q53 -16 78.5 -43.5t25.5 -71.5q0 -43 -22.5 -76.5t-63 -51.5t-95.5 -18zM303 598q-12 0 -19 7t-7 19q0 14 8 23t21 9q12 0 19.5 -7.5t7.5 -18.5q0 -14 -9 -23t-21 -9z" />
    <glyph glyph-name="uni1E62" unicode="&#x1e62;" horiz-adv-x="604" 
d="M308 -8q-72 0 -130 24t-94.5 67t-47.5 102l28 12q8 -55 42 -95.5t87 -62.5t116 -22q56 0 102 18t74.5 52.5t28.5 83.5t-38 81.5t-109 50.5l-84 23q-50 14 -85 38t-53 57t-18 73q0 50 27 90t78 63.5t122 23.5q91 0 155 -39.5t86 -120.5l-27 -12q-14 52 -44.5 84.5
t-74 47.5t-97.5 15q-61 0 -105 -20t-68 -53.5t-24 -75.5q0 -51 34.5 -88t101.5 -56l83 -22q82 -22 125.5 -61t43.5 -95q0 -60 -32.5 -100.5t-86 -61.5t-116.5 -21zM238 -120q3 0 4.5 -2t1.5 -5q0 -2 -2 -4t-4 -2q-3 0 -4.5 1.5t-1.5 4.5q0 2 1.5 4.5t4.5 2.5z" />
    <glyph glyph-name="uni1E63" unicode="&#x1e63;" horiz-adv-x="493" 
d="M237 -10q-61 0 -106.5 19t-72 54t-31.5 82l27 9q6 -64 53 -102t130 -38q73 0 113 33.5t40 85.5q0 36 -20.5 58.5t-66.5 35.5l-101 28q-55 16 -83.5 44t-28.5 74q0 42 22.5 72.5t63 47t92.5 16.5q73 0 125.5 -33.5t64.5 -106.5l-25 -11q-6 44 -30 72.5t-60 41.5t-78 13
q-67 0 -107.5 -30t-40.5 -79q0 -39 24.5 -61t68.5 -35l104 -29q53 -16 78.5 -43.5t25.5 -71.5q0 -43 -22.5 -76.5t-63 -51.5t-95.5 -18zM182 -120q3 0 4.5 -2t1.5 -5q0 -2 -2 -4t-4 -2q-3 0 -4.5 1.5t-1.5 4.5q0 2 1.5 4.5t4.5 2.5z" />
    <glyph glyph-name="uni1E64" unicode="&#x1e64;" horiz-adv-x="604" 
d="M308 -8q-72 0 -130 24t-94.5 67t-47.5 102l28 12q8 -55 42 -95.5t87 -62.5t116 -22q56 0 102 18t74.5 52.5t28.5 83.5t-38 81.5t-109 50.5l-84 23q-50 14 -85 38t-53 57t-18 73q0 50 27 90t78 63.5t122 23.5q91 0 155 -39.5t86 -120.5l-27 -12q-14 52 -44.5 84.5
t-74 47.5t-97.5 15q-61 0 -105 -20t-68 -53.5t-24 -75.5q0 -51 34.5 -88t101.5 -56l83 -22q82 -22 125.5 -61t43.5 -95q0 -60 -32.5 -100.5t-86 -61.5t-116.5 -21zM477 893h33l-113 -150h-26zM439 937q-12 0 -19 7t-7 19q0 14 8 23t21 9q12 0 19.5 -7.5t7.5 -18.5
q0 -14 -9 -23t-21 -9z" />
    <glyph glyph-name="uni1E65" unicode="&#x1e65;" horiz-adv-x="493" 
d="M237 -10q-61 0 -106.5 19t-72 54t-31.5 82l27 9q6 -64 53 -102t130 -38q73 0 113 33.5t40 85.5q0 36 -20.5 58.5t-66.5 35.5l-101 28q-55 16 -83.5 44t-28.5 74q0 42 22.5 72.5t63 47t92.5 16.5q73 0 125.5 -33.5t64.5 -106.5l-25 -11q-6 44 -30 72.5t-60 41.5t-78 13
q-67 0 -107.5 -30t-40.5 -79q0 -39 24.5 -61t68.5 -35l104 -29q53 -16 78.5 -43.5t25.5 -71.5q0 -43 -22.5 -76.5t-63 -51.5t-95.5 -18zM398 734h34l-126 -151h-27zM339 768q-12 0 -19 7t-7 19q0 14 8 23t21 9q12 0 19.5 -7.5t7.5 -18.5q0 -14 -9 -23t-21 -9z" />
    <glyph glyph-name="uni1E66" unicode="&#x1e66;" horiz-adv-x="604" 
d="M308 -8q-72 0 -130 24t-94.5 67t-47.5 102l28 12q8 -55 42 -95.5t87 -62.5t116 -22q56 0 102 18t74.5 52.5t28.5 83.5t-38 81.5t-109 50.5l-84 23q-50 14 -85 38t-53 57t-18 73q0 50 27 90t78 63.5t122 23.5q91 0 155 -39.5t86 -120.5l-27 -12q-14 52 -44.5 84.5
t-74 47.5t-97.5 15q-61 0 -105 -20t-68 -53.5t-24 -75.5q0 -51 34.5 -88t101.5 -56l83 -22q82 -22 125.5 -61t43.5 -95q0 -60 -32.5 -100.5t-86 -61.5t-116.5 -21zM374 743l-74 145h26l66 -124l125 124h31l-142 -145h-32zM438 930q-12 0 -19 7t-7 19q0 14 8 23t21 9
q12 0 19.5 -7.5t7.5 -18.5q0 -14 -9 -23t-21 -9z" />
    <glyph glyph-name="uni1E67" unicode="&#x1e67;" horiz-adv-x="493" 
d="M237 -10q-61 0 -106.5 19t-72 54t-31.5 82l27 9q6 -64 53 -102t130 -38q73 0 113 33.5t40 85.5q0 36 -20.5 58.5t-66.5 35.5l-101 28q-55 16 -83.5 44t-28.5 74q0 42 22.5 72.5t63 47t92.5 16.5q73 0 125.5 -33.5t64.5 -106.5l-25 -11q-6 44 -30 72.5t-60 41.5t-78 13
q-67 0 -107.5 -30t-40.5 -79q0 -39 24.5 -61t68.5 -35l104 -29q53 -16 78.5 -43.5t25.5 -71.5q0 -43 -22.5 -76.5t-63 -51.5t-95.5 -18zM279 583l-75 147h25l68 -126l126 126h30l-143 -147h-31zM339 774q-12 0 -19 7t-7 19q0 14 8 23t21 9q12 0 19.5 -7.5t7.5 -18.5
q0 -14 -9 -23t-21 -9z" />
    <glyph glyph-name="uni1E68" unicode="&#x1e68;" horiz-adv-x="604" 
d="M308 -8q-72 0 -130 24t-94.5 67t-47.5 102l28 12q8 -55 42 -95.5t87 -62.5t116 -22q56 0 102 18t74.5 52.5t28.5 83.5t-38 81.5t-109 50.5l-84 23q-50 14 -85 38t-53 57t-18 73q0 50 27 90t78 63.5t122 23.5q91 0 155 -39.5t86 -120.5l-27 -12q-14 52 -44.5 84.5
t-74 47.5t-97.5 15q-61 0 -105 -20t-68 -53.5t-24 -75.5q0 -51 34.5 -88t101.5 -56l83 -22q82 -22 125.5 -61t43.5 -95q0 -60 -32.5 -100.5t-86 -61.5t-116.5 -21zM398 758q-12 0 -19 7t-7 19q0 14 8 23t21 9q12 0 19.5 -7.5t7.5 -18.5q0 -14 -9 -23t-21 -9zM238 -120
q3 0 4.5 -2t1.5 -5q0 -2 -2 -4t-4 -2q-3 0 -4.5 1.5t-1.5 4.5q0 2 1.5 4.5t4.5 2.5z" />
    <glyph glyph-name="uni1E69" unicode="&#x1e69;" horiz-adv-x="493" 
d="M237 -10q-61 0 -106.5 19t-72 54t-31.5 82l27 9q6 -64 53 -102t130 -38q73 0 113 33.5t40 85.5q0 36 -20.5 58.5t-66.5 35.5l-101 28q-55 16 -83.5 44t-28.5 74q0 42 22.5 72.5t63 47t92.5 16.5q73 0 125.5 -33.5t64.5 -106.5l-25 -11q-6 44 -30 72.5t-60 41.5t-78 13
q-67 0 -107.5 -30t-40.5 -79q0 -39 24.5 -61t68.5 -35l104 -29q53 -16 78.5 -43.5t25.5 -71.5q0 -43 -22.5 -76.5t-63 -51.5t-95.5 -18zM303 598q-12 0 -19 7t-7 19q0 14 8 23t21 9q12 0 19.5 -7.5t7.5 -18.5q0 -14 -9 -23t-21 -9zM182 -120q3 0 4.5 -2t1.5 -5q0 -2 -2 -4
t-4 -2q-3 0 -4.5 1.5t-1.5 4.5q0 2 1.5 4.5t4.5 2.5z" />
    <glyph glyph-name="uni1E6C" unicode="&#x1e6c;" horiz-adv-x="545" 
d="M625 660l-6 -25h-243l-146 -635h-28l146 635h-245l7 25h515zM187 -120q3 0 4.5 -2t1.5 -5q0 -2 -2 -4t-4 -2q-3 0 -4.5 1.5t-1.5 4.5q0 2 1.5 4.5t4.5 2.5z" />
    <glyph glyph-name="uni1E6D" unicode="&#x1e6d;" horiz-adv-x="343" 
d="M194 -10q-44 0 -71.5 18t-37 52t1.5 82l112 484l30 9l-115 -495q-13 -60 8 -92.5t76 -32.5q25 0 45.5 7t38.5 20l7 -23q-18 -14 -43 -21.5t-52 -7.5zM60 476l6 24h297l-7 -24h-296zM146 -120q3 0 4.5 -2t1.5 -5q0 -2 -2 -4t-4 -2q-3 0 -4.5 1.5t-1.5 4.5q0 2 1.5 4.5
t4.5 2.5z" />
    <glyph glyph-name="uni1E6E" unicode="&#x1e6e;" horiz-adv-x="545" 
d="M625 660l-6 -25h-243l-146 -635h-28l146 635h-245l7 25h515zM333 -104l-5 -24h-277l6 24h276z" />
    <glyph glyph-name="uni1E6F" unicode="&#x1e6f;" horiz-adv-x="343" 
d="M194 -10q-44 0 -71.5 18t-37 52t1.5 82l112 484l30 9l-115 -495q-13 -60 8 -92.5t76 -32.5q25 0 45.5 7t38.5 20l7 -23q-18 -14 -43 -21.5t-52 -7.5zM60 476l6 24h297l-7 -24h-296zM291 -104l-5 -24h-277l6 24h276z" />
    <glyph glyph-name="uni1E78" unicode="&#x1e78;" horiz-adv-x="663" 
d="M310 -10q-87 0 -143.5 35t-76 99.5t0.5 153.5l90 382h28l-91 -390q-19 -81 -0.5 -138t69 -87t124.5 -30q97 0 155 61.5t84 173.5l95 410h28l-96 -419q-28 -118 -92.5 -184.5t-174.5 -66.5zM612 813q-13 -48 -38 -70.5t-54 -22.5q-25 0 -41 10.5t-28.5 24t-26 24
t-33.5 10.5q-27 0 -42 -18t-28 -52h-24q13 48 37.5 70.5t59.5 22.5q24 0 40 -10.5t28.5 -24t26 -24t33.5 -10.5q22 0 38.5 18.5t28.5 51.5h23zM563 1023h33l-113 -150h-26z" />
    <glyph glyph-name="uni1E79" unicode="&#x1e79;" horiz-adv-x="569" 
d="M227 -10q-63 0 -104.5 25.5t-56 74.5t0.5 118l68 292h28l-67 -293q-22 -94 16 -143t120 -49q58 0 101.5 25.5t71.5 69t41 96.5l68 294h28l-116 -500h-26l30 135l5 -2q-25 -64 -78 -103.5t-130 -39.5zM518 671q-13 -48 -38 -70.5t-54 -22.5q-25 0 -41 10.5t-28.5 24
t-26 24t-33.5 10.5q-27 0 -42 -18t-28 -52h-24q13 48 37.5 70.5t59.5 22.5q24 0 40 -10.5t28.5 -24t26 -24t33.5 -10.5q22 0 38.5 18.5t28.5 51.5h23zM469 881h33l-113 -150h-26z" />
    <glyph glyph-name="uni1E7A" unicode="&#x1e7a;" horiz-adv-x="663" 
d="M310 -10q-87 0 -143.5 35t-76 99.5t0.5 153.5l90 382h28l-91 -390q-19 -81 -0.5 -138t69 -87t124.5 -30q97 0 155 61.5t84 173.5l95 410h28l-96 -419q-28 -118 -92.5 -184.5t-174.5 -66.5zM582 751l-5 -24h-277l6 24h276zM565 844q-11 0 -18.5 7.5t-7.5 17.5q0 14 8.5 23
t21.5 9q12 0 19 -7t7 -18q0 -14 -8.5 -23t-21.5 -9zM379 844q-11 0 -18 7.5t-7 17.5q0 14 8 23t21 9q12 0 19 -7t7 -18q0 -14 -8.5 -23t-21.5 -9z" />
    <glyph glyph-name="uni1E7B" unicode="&#x1e7b;" horiz-adv-x="569" 
d="M227 -10q-63 0 -104.5 25.5t-56 74.5t0.5 118l68 292h28l-67 -293q-22 -94 16 -143t120 -49q58 0 101.5 25.5t71.5 69t41 96.5l68 294h28l-116 -500h-26l30 135l5 -2q-25 -64 -78 -103.5t-130 -39.5zM488 609l-5 -24h-277l6 24h276zM470 702q-11 0 -18.5 7.5t-7.5 17.5
q0 14 8.5 23t21.5 9q12 0 19 -7t7 -18q0 -14 -8.5 -23t-21.5 -9zM284 702q-11 0 -18 7.5t-7 17.5q0 14 8 23t21 9q12 0 19 -7t7 -18q0 -14 -8.5 -23t-21.5 -9z" />
    <glyph glyph-name="Wgrave" unicode="&#x1e80;" horiz-adv-x="901" 
d="M177 0l-57 660h27l53 -629l324 629h37l34 -631l345 631h31l-363 -660h-36l-29 498l-7 131h-1l-70 -141l-254 -488h-34zM532 893l42 -150h-22l-49 150h29z" />
    <glyph glyph-name="wgrave" unicode="&#x1e81;" horiz-adv-x="771" 
d="M132 0l-48 500h28l42 -462l272 462h28l61 -462l255 462h31l-279 -500h-28l-62 460l-271 -460h-29zM419 734l51 -151h-23l-57 151h29z" />
    <glyph glyph-name="Wacute" unicode="&#x1e82;" horiz-adv-x="901" 
d="M177 0l-57 660h27l53 -629l324 629h37l34 -631l345 631h31l-363 -660h-36l-29 498l-7 131h-1l-70 -141l-254 -488h-34zM650 893h33l-113 -150h-26z" />
    <glyph glyph-name="wacute" unicode="&#x1e83;" horiz-adv-x="771" 
d="M132 0l-48 500h28l42 -462l272 462h28l61 -462l255 462h31l-279 -500h-28l-62 460l-271 -460h-29zM561 734h34l-126 -151h-27z" />
    <glyph glyph-name="Wdieresis" unicode="&#x1e84;" horiz-adv-x="901" 
d="M177 0l-57 660h27l53 -629l324 629h37l34 -631l345 631h31l-363 -660h-36l-29 498l-7 131h-1l-70 -141l-254 -488h-34zM657 755q-11 0 -18.5 7.5t-7.5 17.5q0 14 8.5 23t21.5 9q12 0 19 -7t7 -18q0 -14 -8.5 -23t-21.5 -9zM471 755q-11 0 -18 7.5t-7 17.5q0 14 8 23t21 9
q12 0 19 -7t7 -18q0 -14 -8.5 -23t-21.5 -9z" />
    <glyph glyph-name="wdieresis" unicode="&#x1e85;" horiz-adv-x="771" 
d="M132 0l-48 500h28l42 -462l272 462h28l61 -462l255 462h31l-279 -500h-28l-62 460l-271 -460h-29zM552 595q-11 0 -18.5 7.5t-7.5 17.5q0 14 8.5 23t21.5 9q12 0 19 -7t7 -18q0 -14 -8.5 -23t-21.5 -9zM366 595q-11 0 -18 7.5t-7 17.5q0 14 8 23t21 9q12 0 19 -7t7 -18
q0 -14 -8.5 -23t-21.5 -9z" />
    <glyph glyph-name="uni1E8E" unicode="&#x1e8e;" horiz-adv-x="514" 
d="M185 0l59 256l-133 404h30l77 -239l45 -138l115 149l181 228h34l-321 -406l-59 -254h-28zM367 722q-12 0 -19 7t-7 19q0 14 8 23t21 9q12 0 19.5 -7.5t7.5 -18.5q0 -14 -9 -23t-21 -9z" />
    <glyph glyph-name="uni1E8F" unicode="&#x1e8f;" horiz-adv-x="478" 
d="M-23 -215q-28 0 -49 8t-31 24l16 21q21 -28 65 -28q37 0 68.5 23.5t65.5 78.5l56 89l-90 499h28l74 -414l9 -55l36 58l260 411h32l-382 -600q-26 -42 -51 -67.5t-50.5 -36.5t-56.5 -11zM314 580q-12 0 -19 7t-7 19q0 14 8 23t21 9q12 0 19.5 -7.5t7.5 -18.5q0 -14 -9 -23
t-21 -9z" />
    <glyph glyph-name="uni1E92" unicode="&#x1e92;" horiz-adv-x="551" 
d="M-24 0l6 25l571 610h-430l6 25h466l-6 -25l-572 -610h457l-7 -25h-491zM221 -120q3 0 4.5 -2t1.5 -5q0 -2 -2 -4t-4 -2q-3 0 -4.5 1.5t-1.5 4.5q0 2 1.5 4.5t4.5 2.5z" />
    <glyph glyph-name="uni1E93" unicode="&#x1e93;" horiz-adv-x="473" 
d="M-15 0l5 24l407 406l49 46h-70h-285l6 24h388l-5 -24l-383 -382l-71 -70h85h280l-5 -24h-401zM181 -120q3 0 4.5 -2t1.5 -5q0 -2 -2 -4t-4 -2q-3 0 -4.5 1.5t-1.5 4.5q0 2 1.5 4.5t4.5 2.5z" />
    <glyph glyph-name="uni1E97" unicode="&#x1e97;" horiz-adv-x="343" 
d="M194 -10q-44 0 -71.5 18t-37 52t1.5 82l112 484l30 9l-115 -495q-13 -60 8 -92.5t76 -32.5q25 0 45.5 7t38.5 20l7 -23q-18 -14 -43 -21.5t-52 -7.5zM60 476l6 24h297l-7 -24h-296zM321 704q-11 0 -18.5 7.5t-7.5 17.5q0 14 8.5 23t21.5 9q12 0 19 -7t7 -18
q0 -14 -8.5 -23t-21.5 -9zM135 704q-11 0 -18 7.5t-7 17.5q0 14 8 23t21 9q12 0 19 -7t7 -18q0 -14 -8.5 -23t-21.5 -9z" />
    <glyph glyph-name="uni1E9E" unicode="&#x1e9e;" horiz-adv-x="630" 
d="M375 -5q-49 0 -88.5 18t-62.5 48l17 21q21 -29 57 -45.5t79 -16.5q55 0 95 22t62 59.5t22 86.5q0 75 -43.5 110t-124.5 35h-65l5 24l293 278h-258q-61 0 -101 -22.5t-63 -61.5t-35 -90l-107 -461h-28l108 469q13 56 40.5 99t74 67.5t115.5 24.5h297l-6 -26l-295 -278h34
q57 0 99.5 -18t65 -55t22.5 -95q0 -56 -25.5 -99.5t-72 -68.5t-111.5 -25z" />
    <glyph glyph-name="uni1EA0" unicode="&#x1ea0;" 
d="M-44 0l415 660h36l109 -660h-28l-96 572l-9 57v0l-33 -54l-362 -575h-32zM116 227l6 26h343l-6 -26h-343zM230 -120q3 0 4.5 -2t1.5 -5q0 -2 -2 -4t-4 -2q-3 0 -4.5 1.5t-1.5 4.5q0 2 1.5 4.5t4.5 2.5z" />
    <glyph glyph-name="uni1EA1" unicode="&#x1ea1;" 
d="M253 -10q-63 0 -108.5 29.5t-70.5 80t-25 116.5q0 62 18 115t51.5 93.5t81 63t105.5 22.5q59 0 100.5 -22.5t64.5 -63.5t24 -95l39 171h28l-116 -500h-26l27 120q-26 -55 -74.5 -92.5t-118.5 -37.5zM260 15q49 0 89.5 24.5t69 65.5t44.5 91.5t16 103.5q0 66 -24.5 106.5
t-63.5 60t-86 19.5q-51 0 -92.5 -20t-72 -56.5t-47 -85.5t-16.5 -109q0 -63 24 -108t65.5 -68.5t93.5 -23.5zM215 -120q3 0 4.5 -2t1.5 -5q0 -2 -2 -4t-4 -2q-3 0 -4.5 1.5t-1.5 4.5q0 2 1.5 4.5t4.5 2.5z" />
    <glyph glyph-name="uni1EA2" unicode="&#x1ea2;" 
d="M-44 0l415 660h36l109 -660h-28l-96 572l-9 57v0l-33 -54l-362 -575h-32zM116 227l6 26h343l-6 -26h-343zM389 714l-6 18q34 5 52.5 23t18.5 43q0 24 -13 35t-32 11t-32.5 -8t-22.5 -26l-17 16q12 20 30.5 31.5t44.5 11.5t46.5 -16t20.5 -50q0 -22 -10.5 -41t-31 -31.5
t-48.5 -16.5z" />
    <glyph glyph-name="uni1EA3" unicode="&#x1ea3;" 
d="M253 -10q-63 0 -108.5 29.5t-70.5 80t-25 116.5q0 62 18 115t51.5 93.5t81 63t105.5 22.5q59 0 100.5 -22.5t64.5 -63.5t24 -95l39 171h28l-116 -500h-26l27 120q-26 -55 -74.5 -92.5t-118.5 -37.5zM260 15q49 0 89.5 24.5t69 65.5t44.5 91.5t16 103.5q0 66 -24.5 106.5
t-63.5 60t-86 19.5q-51 0 -92.5 -20t-72 -56.5t-47 -85.5t-16.5 -109q0 -63 24 -108t65.5 -68.5t93.5 -23.5zM325 575l-7 18q34 8 54.5 26t20.5 47q0 20 -11.5 31t-32.5 11q-18 0 -31.5 -8.5t-24.5 -23.5l-14 17q11 17 30 28.5t44 11.5q31 0 48.5 -18.5t17.5 -46.5
q0 -23 -11.5 -42.5t-32.5 -32.5t-50 -18z" />
    <glyph glyph-name="uni1EA4" unicode="&#x1ea4;" 
d="M277 742l143 146h32l75 -146h-26l-67 126l-127 -126h-30zM618 990h30l-102 -135h-23zM-44 0l415 660h36l109 -660h-28l-96 572l-9 57v0l-33 -54l-362 -575h-32zM116 227l6 26h343l-6 -26h-343z" />
    <glyph glyph-name="uni1EA5" unicode="&#x1ea5;" 
d="M211 582l143 146h32l75 -146h-26l-67 126l-127 -126h-30zM552 830h30l-102 -135h-23zM253 -10q-63 0 -108.5 29.5t-70.5 80t-25 116.5q0 62 18 115t51.5 93.5t81 63t105.5 22.5q59 0 100.5 -22.5t64.5 -63.5t24 -95l39 171h28l-116 -500h-26l27 120q-26 -55 -74.5 -92.5
t-118.5 -37.5zM260 15q49 0 89.5 24.5t69 65.5t44.5 91.5t16 103.5q0 66 -24.5 106.5t-63.5 60t-86 19.5q-51 0 -92.5 -20t-72 -56.5t-47 -85.5t-16.5 -109q0 -63 24 -108t65.5 -68.5t93.5 -23.5z" />
    <glyph glyph-name="uni1EA6" unicode="&#x1ea6;" 
d="M278 742l143 146h31l76 -146h-26l-68 126l-126 -126h-30zM518 990l38 -135h-19l-45 135h26zM-44 0l415 660h36l109 -660h-28l-96 572l-9 57v0l-33 -54l-362 -575h-32zM116 227l6 26h343l-6 -26h-343z" />
    <glyph glyph-name="uni1EA7" unicode="&#x1ea7;" 
d="M211 582l143 146h32l75 -146h-26l-67 126l-127 -126h-30zM451 830l38 -135h-19l-45 135h26zM253 -10q-63 0 -108.5 29.5t-70.5 80t-25 116.5q0 62 18 115t51.5 93.5t81 63t105.5 22.5q59 0 100.5 -22.5t64.5 -63.5t24 -95l39 171h28l-116 -500h-26l27 120
q-26 -55 -74.5 -92.5t-118.5 -37.5zM260 15q49 0 89.5 24.5t69 65.5t44.5 91.5t16 103.5q0 66 -24.5 106.5t-63.5 60t-86 19.5q-51 0 -92.5 -20t-72 -56.5t-47 -85.5t-16.5 -109q0 -63 24 -108t65.5 -68.5t93.5 -23.5z" />
    <glyph glyph-name="uni1EA8" unicode="&#x1ea8;" 
d="M278 742l143 146h31l76 -146h-26l-68 126l-126 -126h-30zM523 834l-6 17q34 6 52.5 24t18.5 43q0 24 -13 34.5t-32 10.5t-32 -8t-23 -26l-17 17q12 20 30.5 31t44.5 11t47 -16t21 -49q0 -22 -11 -41t-31.5 -31.5t-48.5 -16.5zM-44 0l415 660h36l109 -660h-28l-96 572
l-9 57v0l-33 -54l-362 -575h-32zM116 227l6 26h343l-6 -26h-343z" />
    <glyph glyph-name="uni1EA9" unicode="&#x1ea9;" 
d="M211 582l143 146h32l75 -146h-26l-67 126l-127 -126h-30zM456 674l-5 17q33 6 51.5 24t18.5 43q0 24 -13 34.5t-32 10.5t-32 -8t-23 -26l-17 17q12 20 31 31t44 11q26 0 47 -16t21 -49q0 -22 -11 -41t-31.5 -31.5t-48.5 -16.5zM253 -10q-63 0 -108.5 29.5t-70.5 80
t-25 116.5q0 62 18 115t51.5 93.5t81 63t105.5 22.5q59 0 100.5 -22.5t64.5 -63.5t24 -95l39 171h28l-116 -500h-26l27 120q-26 -55 -74.5 -92.5t-118.5 -37.5zM260 15q49 0 89.5 24.5t69 65.5t44.5 91.5t16 103.5q0 66 -24.5 106.5t-63.5 60t-86 19.5q-51 0 -92.5 -20
t-72 -56.5t-47 -85.5t-16.5 -109q0 -63 24 -108t65.5 -68.5t93.5 -23.5z" />
    <glyph glyph-name="uni1EAA" unicode="&#x1eaa;" 
d="M279 742l143 146h31l75 -146h-26l-67 126l-126 -126h-30zM606 1005q-12 -49 -36 -69.5t-55 -20.5q-24 0 -40 10t-28.5 23.5t-26.5 23.5t-34 10q-24 0 -41 -16.5t-26 -50.5h-25q13 47 37 69t58 22q24 0 40 -10.5t28.5 -23.5t26 -23.5t33.5 -10.5q22 0 38.5 16t26.5 51h24z
M-44 0l415 660h36l109 -660h-28l-96 572l-9 57v0l-33 -54l-362 -575h-32zM116 227l6 26h343l-6 -26h-343z" />
    <glyph glyph-name="uni1EAB" unicode="&#x1eab;" 
d="M210 582l143 146h32l75 -146h-26l-67 126l-127 -126h-30zM537 845q-11 -49 -35.5 -69.5t-54.5 -20.5q-24 0 -40.5 10t-29 23.5t-26 23.5t-34.5 10q-23 0 -40.5 -16.5t-26.5 -50.5h-25q13 47 37.5 69t57.5 22q24 0 40.5 -10.5t28.5 -23.5t26 -23.5t34 -10.5q22 0 38.5 16
t25.5 51h24zM253 -10q-63 0 -108.5 29.5t-70.5 80t-25 116.5q0 62 18 115t51.5 93.5t81 63t105.5 22.5q59 0 100.5 -22.5t64.5 -63.5t24 -95l39 171h28l-116 -500h-26l27 120q-26 -55 -74.5 -92.5t-118.5 -37.5zM260 15q49 0 89.5 24.5t69 65.5t44.5 91.5t16 103.5
q0 66 -24.5 106.5t-63.5 60t-86 19.5q-51 0 -92.5 -20t-72 -56.5t-47 -85.5t-16.5 -109q0 -63 24 -108t65.5 -68.5t93.5 -23.5z" />
    <glyph glyph-name="uni1EAC" unicode="&#x1eac;" 
d="M-44 0l415 660h36l109 -660h-28l-96 572l-9 57v0l-33 -54l-362 -575h-32zM116 227l6 26h343l-6 -26h-343zM230 -120q3 0 4.5 -2t1.5 -5q0 -2 -2 -4t-4 -2q-3 0 -4.5 1.5t-1.5 4.5q0 2 1.5 4.5t4.5 2.5zM452 888l75 -145h-26l-67 125l-125 -125h-30l142 145h31z" />
    <glyph glyph-name="uni1EAD" unicode="&#x1ead;" 
d="M253 -10q-63 0 -108.5 29.5t-70.5 80t-25 116.5q0 62 18 115t51.5 93.5t81 63t105.5 22.5q59 0 100.5 -22.5t64.5 -63.5t24 -95l39 171h28l-116 -500h-26l27 120q-26 -55 -74.5 -92.5t-118.5 -37.5zM260 15q49 0 89.5 24.5t69 65.5t44.5 91.5t16 103.5q0 66 -24.5 106.5
t-63.5 60t-86 19.5q-51 0 -92.5 -20t-72 -56.5t-47 -85.5t-16.5 -109q0 -63 24 -108t65.5 -68.5t93.5 -23.5zM215 -120q3 0 4.5 -2t1.5 -5q0 -2 -2 -4t-4 -2q-3 0 -4.5 1.5t-1.5 4.5q0 2 1.5 4.5t4.5 2.5zM211 582l143 146h32l75 -146h-26l-67 126l-127 -126h-30z" />
    <glyph glyph-name="uni1EAE" unicode="&#x1eae;" 
d="M557 866q-11 -64 -51 -95t-96 -31q-51 0 -80 26t-29 68q0 19 3 32h22q-1 -6 -2 -13t-1 -14q0 -35 24.5 -55.5t64.5 -20.5q48 0 80.5 27t40.5 76h24zM414 871l93 135h30l-98 -135h-25zM-44 0l415 660h36l109 -660h-28l-96 572l-9 57v0l-33 -54l-362 -575h-32zM116 227
l6 26h343l-6 -26h-343z" />
    <glyph glyph-name="uni1EAF" unicode="&#x1eaf;" 
d="M491 706q-10 -64 -50 -95t-97 -31q-51 0 -80 26t-29 68q0 19 3 32h22q-1 -6 -2 -13t-1 -14q0 -35 25 -55.5t64 -20.5q49 0 81 27t41 76h23zM349 711l93 135h30l-98 -135h-25zM253 -10q-63 0 -108.5 29.5t-70.5 80t-25 116.5q0 62 18 115t51.5 93.5t81 63t105.5 22.5
q59 0 100.5 -22.5t64.5 -63.5t24 -95l39 171h28l-116 -500h-26l27 120q-26 -55 -74.5 -92.5t-118.5 -37.5zM260 15q49 0 89.5 24.5t69 65.5t44.5 91.5t16 103.5q0 66 -24.5 106.5t-63.5 60t-86 19.5q-51 0 -92.5 -20t-72 -56.5t-47 -85.5t-16.5 -109q0 -63 24 -108
t65.5 -68.5t93.5 -23.5z" />
    <glyph glyph-name="uni1EB0" unicode="&#x1eb0;" 
d="M557 866q-11 -64 -51 -95t-96 -31q-51 0 -80 26t-29 68q0 19 3 32h22q-1 -6 -2 -13t-1 -14q0 -35 24.5 -55.5t64.5 -20.5q48 0 80.5 27t40.5 76h24zM426 871l-53 135h29l46 -135h-22zM-44 0l415 660h36l109 -660h-28l-96 572l-9 57v0l-33 -54l-362 -575h-32zM116 227
l6 26h343l-6 -26h-343z" />
    <glyph glyph-name="uni1EB1" unicode="&#x1eb1;" 
d="M491 706q-10 -64 -50 -95t-97 -31q-51 0 -80 26t-29 68q0 19 3 32h22q-1 -6 -2 -13t-1 -14q0 -35 25 -55.5t64 -20.5q49 0 81 27t41 76h23zM361 711l-53 135h29l46 -135h-22zM253 -10q-63 0 -108.5 29.5t-70.5 80t-25 116.5q0 62 18 115t51.5 93.5t81 63t105.5 22.5
q59 0 100.5 -22.5t64.5 -63.5t24 -95l39 171h28l-116 -500h-26l27 120q-26 -55 -74.5 -92.5t-118.5 -37.5zM260 15q49 0 89.5 24.5t69 65.5t44.5 91.5t16 103.5q0 66 -24.5 106.5t-63.5 60t-86 19.5q-51 0 -92.5 -20t-72 -56.5t-47 -85.5t-16.5 -109q0 -63 24 -108
t65.5 -68.5t93.5 -23.5z" />
    <glyph glyph-name="uni1EB2" unicode="&#x1eb2;" 
d="M557 866q-11 -64 -51 -95t-96 -31q-51 0 -80 26t-29 68q0 19 3 32h22q-1 -6 -2 -13t-1 -14q0 -35 24.5 -55.5t64.5 -20.5q48 0 80.5 27t40.5 76h24zM420 862l-6 18q34 6 52.5 23.5t18.5 42.5t-13 35.5t-32 10.5t-32.5 -8t-22.5 -26l-17 16q12 20 30.5 31.5t44.5 11.5
t46.5 -16t20.5 -50q0 -22 -10.5 -40.5t-31 -31t-48.5 -17.5zM-44 0l415 660h36l109 -660h-28l-96 572l-9 57v0l-33 -54l-362 -575h-32zM116 227l6 26h343l-6 -26h-343z" />
    <glyph glyph-name="uni1EB3" unicode="&#x1eb3;" 
d="M491 706q-10 -64 -50 -95t-97 -31q-51 0 -80 26t-29 68q0 19 3 32h22q-1 -6 -2 -13t-1 -14q0 -35 25 -55.5t64 -20.5q49 0 81 27t41 76h23zM355 702l-6 18q34 6 52.5 23.5t18.5 42.5t-13.5 35.5t-32.5 10.5q-18 0 -31.5 -8t-23.5 -26l-17 16q13 20 31.5 31.5t43.5 11.5
q26 0 47 -16t21 -50q0 -22 -10.5 -40.5t-31 -31t-48.5 -17.5zM253 -10q-63 0 -108.5 29.5t-70.5 80t-25 116.5q0 62 18 115t51.5 93.5t81 63t105.5 22.5q59 0 100.5 -22.5t64.5 -63.5t24 -95l39 171h28l-116 -500h-26l27 120q-26 -55 -74.5 -92.5t-118.5 -37.5zM260 15
q49 0 89.5 24.5t69 65.5t44.5 91.5t16 103.5q0 66 -24.5 106.5t-63.5 60t-86 19.5q-51 0 -92.5 -20t-72 -56.5t-47 -85.5t-16.5 -109q0 -63 24 -108t65.5 -68.5t93.5 -23.5z" />
    <glyph glyph-name="uni1EB4" unicode="&#x1eb4;" 
d="M557 866q-11 -64 -51 -95t-96 -31q-51 0 -80 26t-29 68q0 19 3 32h22q-1 -6 -2 -13t-1 -14q0 -35 24.5 -55.5t64.5 -20.5q48 0 80.5 27t41.5 76h23zM601 996q-11 -50 -35.5 -70.5t-54.5 -20.5q-24 0 -40 10t-29 23.5t-26.5 24t-33.5 10.5q-24 0 -41.5 -17t-26.5 -51h-24
q12 47 36.5 69t57.5 22q25 0 41 -10.5t28 -23.5t26 -23.5t34 -10.5q22 0 38.5 16t25.5 52h24zM-44 0l415 660h36l109 -660h-28l-96 572l-9 57v0l-33 -54l-362 -575h-32zM116 227l6 26h343l-6 -26h-343z" />
    <glyph glyph-name="uni1EB5" unicode="&#x1eb5;" 
d="M491 706q-11 -64 -51 -95t-96 -31q-51 0 -80 26t-29 68q0 19 3 32h22q-1 -6 -2 -13t-1 -14q0 -35 24.5 -55.5t64.5 -20.5q48 0 80.5 27t40.5 76h24zM535 836q-11 -50 -35.5 -70.5t-54.5 -20.5q-24 0 -40.5 10t-29 23.5t-26 24t-34.5 10.5q-23 0 -40.5 -17t-26.5 -51h-25
q13 47 37.5 69t57.5 22q24 0 40.5 -10.5t28.5 -23.5t26 -23.5t34 -10.5q22 0 38.5 16t25.5 52h24zM253 -10q-63 0 -108.5 29.5t-70.5 80t-25 116.5q0 62 18 115t51.5 93.5t81 63t105.5 22.5q59 0 100.5 -22.5t64.5 -63.5t24 -95l39 171h28l-116 -500h-26l27 120
q-26 -55 -74.5 -92.5t-118.5 -37.5zM260 15q49 0 89.5 24.5t69 65.5t44.5 91.5t16 103.5q0 66 -24.5 106.5t-63.5 60t-86 19.5q-51 0 -92.5 -20t-72 -56.5t-47 -85.5t-16.5 -109q0 -63 24 -108t65.5 -68.5t93.5 -23.5z" />
    <glyph glyph-name="uni1EB6" unicode="&#x1eb6;" 
d="M-44 0l415 660h36l109 -660h-28l-96 572l-9 57v0l-33 -54l-362 -575h-32zM116 227l6 26h343l-6 -26h-343zM230 -120q3 0 4.5 -2t1.5 -5q0 -2 -2 -4t-4 -2q-3 0 -4.5 1.5t-1.5 4.5q0 2 1.5 4.5t4.5 2.5zM557 866q-11 -64 -51 -95t-97 -31q-51 0 -80 26t-29 68q0 8 1 16.5
t3 15.5h21q-1 -6 -1.5 -13t-0.5 -14q0 -35 24.5 -55.5t63.5 -20.5q49 0 81.5 27t40.5 76h24z" />
    <glyph glyph-name="uni1EB7" unicode="&#x1eb7;" 
d="M253 -10q-63 0 -108.5 29.5t-70.5 80t-25 116.5q0 62 18 115t51.5 93.5t81 63t105.5 22.5q59 0 100.5 -22.5t64.5 -63.5t24 -95l39 171h28l-116 -500h-26l27 120q-26 -55 -74.5 -92.5t-118.5 -37.5zM260 15q49 0 89.5 24.5t69 65.5t44.5 91.5t16 103.5q0 66 -24.5 106.5
t-63.5 60t-86 19.5q-51 0 -92.5 -20t-72 -56.5t-47 -85.5t-16.5 -109q0 -63 24 -108t65.5 -68.5t93.5 -23.5zM215 -120q3 0 4.5 -2t1.5 -5q0 -2 -2 -4t-4 -2q-3 0 -4.5 1.5t-1.5 4.5q0 2 1.5 4.5t4.5 2.5zM491 706q-11 -64 -51 -95t-97 -31q-51 0 -80 26t-29 68q0 8 1 16.5
t3 15.5h21q-1 -6 -1.5 -13t-0.5 -14q0 -35 24.5 -55.5t63.5 -20.5q49 0 81.5 27t40.5 76h24z" />
    <glyph glyph-name="uni1EB8" unicode="&#x1eb8;" horiz-adv-x="582" 
d="M41 0l153 660h431l-7 -25h-403l-65 -286h323l-6 -25h-324l-68 -299h421l-6 -25h-449zM259 -120q3 0 4.5 -2t1.5 -5q0 -2 -2 -4t-4 -2q-3 0 -4.5 1.5t-1.5 4.5q0 2 1.5 4.5t4.5 2.5z" />
    <glyph glyph-name="uni1EB9" unicode="&#x1eb9;" horiz-adv-x="535" 
d="M263 -9q-68 0 -116.5 30.5t-73 82t-24.5 113.5q0 78 29.5 144.5t86.5 107t137 40.5q58 0 100.5 -26.5t65 -72t22.5 -103.5q0 -12 -1 -25.5t-4 -26.5h-420v24h405l-10 -8q1 9 1.5 18t0.5 16q0 50 -19 91t-55 65t-89 24q-52 0 -93.5 -21.5t-70.5 -58.5t-43.5 -85.5
t-14.5 -103.5q0 -58 23 -103.5t65 -71.5t100 -26q60 1 106 29.5t73 73.5l23 -14q-21 -32 -50.5 -58t-68 -40.5t-85.5 -14.5zM226 -120q3 0 4.5 -2t1.5 -5q0 -2 -2 -4t-4 -2q-3 0 -4.5 1.5t-1.5 4.5q0 2 1.5 4.5t4.5 2.5z" />
    <glyph glyph-name="uni1EBA" unicode="&#x1eba;" horiz-adv-x="582" 
d="M41 0l153 660h431l-7 -25h-403l-65 -286h323l-6 -25h-324l-68 -299h421l-6 -25h-449zM404 714l-6 18q34 5 52.5 23t18.5 43q0 24 -13 35t-32 11t-32.5 -8t-22.5 -26l-17 16q12 20 30.5 31.5t44.5 11.5t46.5 -16t20.5 -50q0 -22 -10.5 -41t-31 -31.5t-48.5 -16.5z" />
    <glyph glyph-name="uni1EBB" unicode="&#x1ebb;" horiz-adv-x="535" 
d="M263 -9q-68 0 -116.5 30.5t-73 82t-24.5 113.5q0 78 29.5 144.5t86.5 107t137 40.5q58 0 100.5 -26.5t65 -72t22.5 -103.5q0 -12 -1 -25.5t-4 -26.5h-420v24h405l-10 -8q1 9 1.5 18t0.5 16q0 50 -19 91t-55 65t-89 24q-52 0 -93.5 -21.5t-70.5 -58.5t-43.5 -85.5
t-14.5 -103.5q0 -58 23 -103.5t65 -71.5t100 -26q60 1 106 29.5t73 73.5l23 -14q-21 -32 -50.5 -58t-68 -40.5t-85.5 -14.5zM311 575l-7 18q34 8 54.5 26t20.5 47q0 20 -11.5 31t-32.5 11q-18 0 -31.5 -8.5t-24.5 -23.5l-14 17q11 17 30 28.5t44 11.5q31 0 48.5 -18.5
t17.5 -46.5q0 -23 -11.5 -42.5t-32.5 -32.5t-50 -18z" />
    <glyph glyph-name="uni1EBC" unicode="&#x1ebc;" horiz-adv-x="582" 
d="M41 0l153 660h431l-7 -25h-403l-65 -286h323l-6 -25h-324l-68 -299h421l-6 -25h-449zM591 849q-13 -48 -38 -70.5t-54 -22.5q-25 0 -41 10.5t-28.5 24t-26 24t-33.5 10.5q-27 0 -42 -18t-28 -52h-24q13 48 37.5 70.5t59.5 22.5q24 0 40 -10.5t28.5 -24t26 -24t33.5 -10.5
q22 0 38.5 18.5t28.5 51.5h23z" />
    <glyph glyph-name="uni1EBD" unicode="&#x1ebd;" horiz-adv-x="535" 
d="M263 -9q-68 0 -116.5 30.5t-73 82t-24.5 113.5q0 78 29.5 144.5t86.5 107t137 40.5q58 0 100.5 -26.5t65 -72t22.5 -103.5q0 -12 -1 -25.5t-4 -26.5h-420v24h405l-10 -8q1 9 1.5 18t0.5 16q0 50 -19 91t-55 65t-89 24q-52 0 -93.5 -21.5t-70.5 -58.5t-43.5 -85.5
t-14.5 -103.5q0 -58 23 -103.5t65 -71.5t100 -26q60 1 106 29.5t73 73.5l23 -14q-21 -32 -50.5 -58t-68 -40.5t-85.5 -14.5zM493 689q-13 -48 -38 -70.5t-54 -22.5q-25 0 -41 10.5t-28.5 24t-26 24t-33.5 10.5q-27 0 -42 -18t-28 -52h-24q13 48 37.5 70.5t59.5 22.5
q24 0 40 -10.5t28.5 -24t26 -24t33.5 -10.5q22 0 38.5 18.5t28.5 51.5h23z" />
    <glyph glyph-name="uni1EBE" unicode="&#x1ebe;" horiz-adv-x="582" 
d="M292 742l143 146h32l75 -146h-26l-67 126l-127 -126h-30zM633 990h30l-101 -135h-24zM41 0l153 660h431l-7 -25h-403l-65 -286h323l-6 -25h-324l-68 -299h421l-6 -25h-449z" />
    <glyph glyph-name="uni1EBF" unicode="&#x1ebf;" horiz-adv-x="535" 
d="M537 830h30l-102 -135h-23zM196 582l143 146h32l75 -146h-26l-67 126l-127 -126h-30zM263 -9q-68 0 -116.5 30.5t-73 82t-24.5 113.5q0 78 29.5 144.5t86.5 107t137 40.5q58 0 100.5 -26.5t65 -72t22.5 -103.5q0 -12 -1 -25.5t-4 -26.5h-420v24h405l-10 -8q1 9 1.5 18
t0.5 16q0 50 -19 91t-55 65t-89 24q-52 0 -93.5 -21.5t-70.5 -58.5t-43.5 -85.5t-14.5 -103.5q0 -58 23 -103.5t65 -71.5t100 -26q60 1 106 29.5t73 73.5l23 -14q-21 -32 -50.5 -58t-68 -40.5t-85.5 -14.5z" />
    <glyph glyph-name="uni1EC0" unicode="&#x1ec0;" horiz-adv-x="582" 
d="M293 742l143 146h32l75 -146h-26l-67 126l-127 -126h-30zM533 990l38 -135h-19l-45 135h26zM41 0l153 660h431l-7 -25h-403l-65 -286h323l-6 -25h-324l-68 -299h421l-6 -25h-449z" />
    <glyph glyph-name="uni1EC1" unicode="&#x1ec1;" horiz-adv-x="535" 
d="M437 830l37 -135h-19l-45 135h27zM196 582l143 146h32l75 -146h-26l-67 126l-127 -126h-30zM263 -9q-68 0 -116.5 30.5t-73 82t-24.5 113.5q0 78 29.5 144.5t86.5 107t137 40.5q58 0 100.5 -26.5t65 -72t22.5 -103.5q0 -12 -1 -25.5t-4 -26.5h-420v24h405l-10 -8
q1 9 1.5 18t0.5 16q0 50 -19 91t-55 65t-89 24q-52 0 -93.5 -21.5t-70.5 -58.5t-43.5 -85.5t-14.5 -103.5q0 -58 23 -103.5t65 -71.5t100 -26q60 1 106 29.5t73 73.5l23 -14q-21 -32 -50.5 -58t-68 -40.5t-85.5 -14.5z" />
    <glyph glyph-name="uni1EC2" unicode="&#x1ec2;" horiz-adv-x="582" 
d="M293 742l143 146h32l75 -146h-26l-67 126l-127 -126h-30zM538 834l-5 17q33 6 51.5 24t18.5 43q0 24 -13 34.5t-32 10.5t-32 -8t-23 -26l-17 17q12 20 31 31t44 11q26 0 47 -16t21 -49q0 -22 -11 -41t-31 -31.5t-49 -16.5zM41 0l153 660h431l-7 -25h-403l-65 -286h323
l-6 -25h-324l-68 -299h421l-6 -25h-449z" />
    <glyph glyph-name="uni1EC3" unicode="&#x1ec3;" horiz-adv-x="535" 
d="M441 674l-5 17q33 6 51.5 24t18.5 43q0 24 -13 34.5t-32 10.5t-32 -8t-23 -26l-17 17q12 20 31 31t44 11q26 0 47 -16t21 -49q0 -22 -11 -41t-31 -31.5t-49 -16.5zM196 582l143 146h32l75 -146h-26l-67 126l-127 -126h-30zM263 -9q-68 0 -116.5 30.5t-73 82t-24.5 113.5
q0 78 29.5 144.5t86.5 107t137 40.5q58 0 100.5 -26.5t65 -72t22.5 -103.5q0 -12 -1 -25.5t-4 -26.5h-420v24h405l-10 -8q1 9 1.5 18t0.5 16q0 50 -19 91t-55 65t-89 24q-52 0 -93.5 -21.5t-70.5 -58.5t-43.5 -85.5t-14.5 -103.5q0 -58 23 -103.5t65 -71.5t100 -26
q60 1 106 29.5t73 73.5l23 -14q-21 -32 -50.5 -58t-68 -40.5t-85.5 -14.5z" />
    <glyph glyph-name="uni1EC4" unicode="&#x1ec4;" horiz-adv-x="582" 
d="M294 742l143 146h31l76 -146h-26l-68 126l-126 -126h-30zM621 1005q-12 -49 -36 -69.5t-54 -20.5q-25 0 -41 10t-28.5 23.5t-26.5 23.5t-34 10q-24 0 -41 -16.5t-26 -50.5h-25q13 47 37 69t58 22q24 0 40 -10.5t28.5 -23.5t26 -23.5t34.5 -10.5q22 0 38.5 16t25.5 51h24z
M41 0l153 660h431l-7 -25h-403l-65 -286h323l-6 -25h-324l-68 -299h421l-6 -25h-449z" />
    <glyph glyph-name="uni1EC5" unicode="&#x1ec5;" horiz-adv-x="535" 
d="M195 582l143 146h32l75 -146h-26l-67 126l-127 -126h-30zM522 845q-11 -49 -35.5 -69.5t-54.5 -20.5q-24 0 -40.5 10t-29 23.5t-26 23.5t-33.5 10q-24 0 -41.5 -16.5t-26.5 -50.5h-25q13 47 37.5 69t57.5 22q25 0 41 -10.5t28 -23.5t26 -23.5t34 -10.5q22 0 38.5 16
t25.5 51h24zM263 -9q-68 0 -116.5 30.5t-73 82t-24.5 113.5q0 78 29.5 144.5t86.5 107t137 40.5q58 0 100.5 -26.5t65 -72t22.5 -103.5q0 -12 -1 -25.5t-4 -26.5h-420v24h405l-10 -8q1 9 1.5 18t0.5 16q0 50 -19 91t-55 65t-89 24q-52 0 -93.5 -21.5t-70.5 -58.5
t-43.5 -85.5t-14.5 -103.5q0 -58 23 -103.5t65 -71.5t100 -26q60 1 106 29.5t73 73.5l23 -14q-21 -32 -50.5 -58t-68 -40.5t-85.5 -14.5z" />
    <glyph glyph-name="uni1EC6" unicode="&#x1ec6;" horiz-adv-x="582" 
d="M41 0l153 660h431l-7 -25h-403l-65 -286h323l-6 -25h-324l-68 -299h421l-6 -25h-449zM259 -120q3 0 4.5 -2t1.5 -5q0 -2 -2 -4t-4 -2q-3 0 -4.5 1.5t-1.5 4.5q0 2 1.5 4.5t4.5 2.5zM468 888l75 -145h-26l-67 125l-125 -125h-30l142 145h31z" />
    <glyph glyph-name="uni1EC7" unicode="&#x1ec7;" horiz-adv-x="535" 
d="M263 -9q-68 0 -116.5 30.5t-73 82t-24.5 113.5q0 78 29.5 144.5t86.5 107t137 40.5q58 0 100.5 -26.5t65 -72t22.5 -103.5q0 -12 -1 -25.5t-4 -26.5h-420v24h405l-10 -8q1 9 1.5 18t0.5 16q0 50 -19 91t-55 65t-89 24q-52 0 -93.5 -21.5t-70.5 -58.5t-43.5 -85.5
t-14.5 -103.5q0 -58 23 -103.5t65 -71.5t100 -26q60 1 106 29.5t73 73.5l23 -14q-21 -32 -50.5 -58t-68 -40.5t-85.5 -14.5zM226 -120q3 0 4.5 -2t1.5 -5q0 -2 -2 -4t-4 -2q-3 0 -4.5 1.5t-1.5 4.5q0 2 1.5 4.5t4.5 2.5zM196 582l143 146h32l75 -146h-26l-67 126l-127 -126
h-30z" />
    <glyph glyph-name="uni1EC8" unicode="&#x1ec8;" horiz-adv-x="225" 
d="M222 660l-153 -660h-28l153 660h28zM211 714l-6 18q34 5 52.5 23t18.5 43q0 24 -13 35t-32 11t-32.5 -8t-22.5 -26l-17 16q12 20 30.5 31.5t44.5 11.5t46.5 -16t20.5 -50q0 -22 -10.5 -41t-31 -31.5t-48.5 -16.5z" />
    <glyph glyph-name="uni1EC9" unicode="&#x1ec9;" horiz-adv-x="196" 
d="M170 500l-116 -500h-28l116 500h28zM164 575l-7 18q34 8 54.5 26t20.5 47q0 20 -11.5 31t-32.5 11q-18 0 -31.5 -8.5t-24.5 -23.5l-14 17q11 17 30 28.5t44 11.5q31 0 48.5 -18.5t17.5 -46.5q0 -23 -11.5 -42.5t-32.5 -32.5t-50 -18z" />
    <glyph glyph-name="uni1ECA" unicode="&#x1eca;" horiz-adv-x="225" 
d="M222 660l-153 -660h-28l153 660h28zM26 -120q3 0 4.5 -2t1.5 -5q0 -2 -2 -4t-4 -2q-3 0 -4.5 1.5t-1.5 4.5q0 2 1.5 4.5t4.5 2.5z" />
    <glyph glyph-name="uni1ECB" unicode="&#x1ecb;" horiz-adv-x="198" 
d="M183 598q-12 0 -19 7.5t-7 18.5q0 14 8.5 23t21.5 9q12 0 19.5 -7.5t7.5 -18.5q0 -15 -8.5 -23.5t-22.5 -8.5zM170 500l-116 -500h-28l116 500h28zM11 -120q3 0 4.5 -2t1.5 -5q0 -2 -2 -4t-4 -2q-3 0 -4.5 1.5t-1.5 4.5q0 2 1.5 4.5t4.5 2.5z" />
    <glyph glyph-name="uni1ECC" unicode="&#x1ecc;" horiz-adv-x="718" 
d="M347 -10q-74 0 -136 33.5t-98 98.5t-36 158q0 77 21 147t63 124.5t105 86.5t145 32q74 0 134.5 -34t96.5 -98.5t36 -157.5q0 -76 -21 -146t-63 -125t-103.5 -87t-143.5 -32zM349 16q74 0 130 30t94 81t57 116.5t19 135.5q0 85 -32.5 144.5t-86.5 90t-122 30.5
q-74 0 -130.5 -30t-95 -81t-57.5 -116t-19 -136q0 -85 32.5 -144.5t88 -90t122.5 -30.5zM302 -120q3 0 4.5 -2t1.5 -5q0 -2 -2 -4t-4 -2q-3 0 -4.5 1.5t-1.5 4.5q0 2 1.5 4.5t4.5 2.5z" />
    <glyph glyph-name="uni1ECD" unicode="&#x1ecd;" horiz-adv-x="567" 
d="M267 -9q-70 0 -118.5 30.5t-73.5 82t-25 112.5q0 86 31.5 152t88.5 103.5t132 37.5q70 0 118 -30.5t73 -81t25 -112.5q0 -85 -31.5 -151.5t-88 -104.5t-131.5 -38zM267 15q49 0 90 19.5t70.5 55.5t46 85.5t16.5 108.5q0 61 -23 105.5t-65 70t-101 25.5q-49 0 -90 -19.5
t-71 -55t-46 -85t-16 -108.5q0 -60 23 -105.5t66 -71t100 -25.5zM232 -120q3 0 4.5 -2t1.5 -5q0 -2 -2 -4t-4 -2q-3 0 -4.5 1.5t-1.5 4.5q0 2 1.5 4.5t4.5 2.5z" />
    <glyph glyph-name="uni1ECE" unicode="&#x1ece;" horiz-adv-x="718" 
d="M347 -10q-74 0 -136 33.5t-98 98.5t-36 158q0 77 21 147t63 124.5t105 86.5t145 32q74 0 134.5 -34t96.5 -98.5t36 -157.5q0 -76 -21 -146t-63 -125t-103.5 -87t-143.5 -32zM349 16q74 0 130 30t94 81t57 116.5t19 135.5q0 85 -32.5 144.5t-86.5 90t-122 30.5
q-74 0 -130.5 -30t-95 -81t-57.5 -116t-19 -136q0 -85 32.5 -144.5t88 -90t122.5 -30.5zM427 714l-6 18q34 5 52.5 23t18.5 43q0 24 -13 35t-32 11t-32.5 -8t-22.5 -26l-17 16q12 20 30.5 31.5t44.5 11.5t46.5 -16t20.5 -50q0 -22 -10.5 -41t-31 -31.5t-48.5 -16.5z" />
    <glyph glyph-name="uni1ECF" unicode="&#x1ecf;" horiz-adv-x="567" 
d="M267 -9q-70 0 -118.5 30.5t-73.5 82t-25 112.5q0 86 31.5 152t88.5 103.5t132 37.5q70 0 118 -30.5t73 -81t25 -112.5q0 -85 -31.5 -151.5t-88 -104.5t-131.5 -38zM267 15q49 0 90 19.5t70.5 55.5t46 85.5t16.5 108.5q0 61 -23 105.5t-65 70t-101 25.5q-49 0 -90 -19.5
t-71 -55t-46 -85t-16 -108.5q0 -60 23 -105.5t66 -71t100 -25.5zM322 575l-7 18q34 8 54.5 26t20.5 47q0 20 -11.5 31t-32.5 11q-18 0 -31.5 -8.5t-24.5 -23.5l-14 17q11 17 30 28.5t44 11.5q31 0 48.5 -18.5t17.5 -46.5q0 -23 -11.5 -42.5t-32.5 -32.5t-50 -18z" />
    <glyph glyph-name="uni1ED0" unicode="&#x1ed0;" horiz-adv-x="718" 
d="M315 742l143 146h32l75 -146h-26l-68 126l-126 -126h-30zM656 990h30l-102 -135h-23zM347 -10q-74 0 -136 33.5t-98 98.5t-36 158q0 77 21 147t63 124.5t105 86.5t145 32q74 0 134.5 -34t96.5 -98.5t36 -157.5q0 -76 -21 -146t-63 -125t-103.5 -87t-143.5 -32zM349 16
q74 0 130 30t94 81t57 116.5t19 135.5q0 85 -32.5 144.5t-86.5 90t-122 30.5q-74 0 -130.5 -30t-95 -81t-57.5 -116t-19 -136q0 -85 32.5 -144.5t88 -90t122.5 -30.5z" />
    <glyph glyph-name="uni1ED1" unicode="&#x1ed1;" horiz-adv-x="567" 
d="M549 830h30l-102 -135h-23zM208 582l143 146h32l75 -146h-26l-67 126l-127 -126h-30zM267 -9q-70 0 -118.5 30.5t-73.5 82t-25 112.5q0 86 31.5 152t88.5 103.5t132 37.5q70 0 118 -30.5t73 -81t25 -112.5q0 -85 -31.5 -151.5t-88 -104.5t-131.5 -38zM267 15
q49 0 90 19.5t70.5 55.5t46 85.5t16.5 108.5q0 61 -23 105.5t-65 70t-101 25.5q-49 0 -90 -19.5t-71 -55t-46 -85t-16 -108.5q0 -60 23 -105.5t66 -71t100 -25.5z" />
    <glyph glyph-name="uni1ED2" unicode="&#x1ed2;" horiz-adv-x="718" 
d="M316 742l143 146h31l76 -146h-26l-68 126l-126 -126h-30zM556 990l38 -135h-20l-44 135h26zM347 -10q-74 0 -136 33.5t-98 98.5t-36 158q0 77 21 147t63 124.5t105 86.5t145 32q74 0 134.5 -34t96.5 -98.5t36 -157.5q0 -76 -21 -146t-63 -125t-103.5 -87t-143.5 -32z
M349 16q74 0 130 30t94 81t57 116.5t19 135.5q0 85 -32.5 144.5t-86.5 90t-122 30.5q-74 0 -130.5 -30t-95 -81t-57.5 -116t-19 -136q0 -85 32.5 -144.5t88 -90t122.5 -30.5z" />
    <glyph glyph-name="uni1ED3" unicode="&#x1ed3;" horiz-adv-x="567" 
d="M448 830l38 -135h-19l-45 135h26zM208 582l143 146h32l75 -146h-26l-67 126l-127 -126h-30zM267 -9q-70 0 -118.5 30.5t-73.5 82t-25 112.5q0 86 31.5 152t88.5 103.5t132 37.5q70 0 118 -30.5t73 -81t25 -112.5q0 -85 -31.5 -151.5t-88 -104.5t-131.5 -38zM267 15
q49 0 90 19.5t70.5 55.5t46 85.5t16.5 108.5q0 61 -23 105.5t-65 70t-101 25.5q-49 0 -90 -19.5t-71 -55t-46 -85t-16 -108.5q0 -60 23 -105.5t66 -71t100 -25.5z" />
    <glyph glyph-name="uni1ED4" unicode="&#x1ed4;" horiz-adv-x="718" 
d="M316 742l143 146h31l76 -146h-26l-68 126l-126 -126h-30zM561 834l-6 17q34 6 52.5 24t18.5 43q0 24 -13 34.5t-32 10.5t-32.5 -8t-22.5 -26l-17 17q12 20 30.5 31t44.5 11t46.5 -16t20.5 -49q0 -22 -10.5 -41t-31 -31.5t-48.5 -16.5zM347 -10q-74 0 -136 33.5t-98 98.5
t-36 158q0 77 21 147t63 124.5t105 86.5t145 32q74 0 134.5 -34t96.5 -98.5t36 -157.5q0 -76 -21 -146t-63 -125t-103.5 -87t-143.5 -32zM349 16q74 0 130 30t94 81t57 116.5t19 135.5q0 85 -32.5 144.5t-86.5 90t-122 30.5q-74 0 -130.5 -30t-95 -81t-57.5 -116t-19 -136
q0 -85 32.5 -144.5t88 -90t122.5 -30.5z" />
    <glyph glyph-name="uni1ED5" unicode="&#x1ed5;" horiz-adv-x="567" 
d="M453 674l-5 17q33 6 51.5 24t18.5 43q0 24 -13 34.5t-32 10.5t-32 -8t-23 -26l-17 17q12 20 31 31t44 11q26 0 47 -16t21 -49q0 -22 -11 -41t-31 -31.5t-49 -16.5zM208 582l143 146h32l75 -146h-26l-67 126l-127 -126h-30zM267 -9q-70 0 -118.5 30.5t-73.5 82t-25 112.5
q0 86 31.5 152t88.5 103.5t132 37.5q70 0 118 -30.5t73 -81t25 -112.5q0 -85 -31.5 -151.5t-88 -104.5t-131.5 -38zM267 15q49 0 90 19.5t70.5 55.5t46 85.5t16.5 108.5q0 61 -23 105.5t-65 70t-101 25.5q-49 0 -90 -19.5t-71 -55t-46 -85t-16 -108.5q0 -60 23 -105.5
t66 -71t100 -25.5z" />
    <glyph glyph-name="uni1ED6" unicode="&#x1ed6;" horiz-adv-x="718" 
d="M317 742l143 146h31l75 -146h-26l-67 126l-126 -126h-30zM643 1005q-11 -49 -35.5 -69.5t-54.5 -20.5q-24 0 -40 10t-28.5 23.5t-26.5 23.5t-34 10q-24 0 -41 -16.5t-26 -50.5h-25q13 47 37 69t58 22q24 0 40 -10.5t28.5 -23.5t26 -23.5t33.5 -10.5q22 0 38.5 16t25.5 51
h24zM347 -10q-74 0 -136 33.5t-98 98.5t-36 158q0 77 21 147t63 124.5t105 86.5t145 32q74 0 134.5 -34t96.5 -98.5t36 -157.5q0 -76 -21 -146t-63 -125t-103.5 -87t-143.5 -32zM349 16q74 0 130 30t94 81t57 116.5t19 135.5q0 85 -32.5 144.5t-86.5 90t-122 30.5
q-74 0 -130.5 -30t-95 -81t-57.5 -116t-19 -136q0 -85 32.5 -144.5t88 -90t122.5 -30.5z" />
    </font>
</defs>
</svg>
