<?xml version="1.0" standalone="no"?>
<!DOCTYPE svg PUBLIC "-//W3C//DTD SVG 1.1//EN" "http://www.w3.org/Graphics/SVG/1.1/DTD/svg11.dtd" >
<svg xmlns="http://www.w3.org/2000/svg">
<metadata>
This is a custom SVG font generated by IcoMoon.
<iconset grid="16"></iconset>
</metadata>
<defs>
<font id="icons" horiz-adv-x="512" >
<font-face units-per-em="512" ascent="480" descent="-32" />
<missing-glyph horiz-adv-x="512" />
<glyph unicode="&#xe000;" d="M 53.746,220.369l0.00,1.157 c0.00,117.673, 91.673,214.052, 217.034,214.052c 74.498,0.00, 119.447-20.106, 162.611-56.736l-57.365-69.152
			c-31.954,26.608-60.348,41.967-108.228,41.967c-66.271,0.00-118.859-58.522-118.859-128.872l0.00-1.157 c0.00-75.646, 52.029-131.275, 125.361-131.275
			c 33.111,0.00, 62.659,8.279, 85.748,24.843l0.00,59.09 l-91.673,0.00 l0.00,78.637 l 179.744,0.00 l0.00-179.744 c-42.584-36.093-101.118-65.633-176.802-65.633
			C 142.436,7.474, 53.746,97.95, 53.746,220.369z" data-tags="ghost" />
<glyph unicode="&#xe001;" d="M 387.115,348.579M 255.58,217.052L 124.053,348.579L-0.292,348.579L-0.597,348.259L 255.58,92.089L 511.751,348.259L 511.445,348.579L 387.115,348.579 	z" data-tags="chevron-down" />
<glyph unicode="&#xe002;" d="M 120.412,97.756l0.00,0.149 c 0.092,8.135, 3.676,33.657, 41.628,56.882c 6.948,9.436, 12.658,22.308, 18.496,37.163
		c 4.032,10.268, 3.349,19.036, 3.349,31.509c0.00,9.223, 1.735,24.014-0.548,32.149c-7.723,27.463-27.214,35.051-50.062,35.051
		c-22.855,0.00-42.368-7.616-50.069-35.136c-2.268-8.10-0.526-22.862-0.526-32.057c0.00-12.501-0.683-21.291, 3.371-31.588
		c 7.012-17.828, 13.689-32.775, 22.599-42.311c-34.695-6.372-58.14-24.469-73.963-31.531c-32.74-14.592-32.889-30.578-32.889-30.578l0.00-27.143 l 118.635,0.021
		l0.00,37.298 L 120.434,97.756 zM 465.557,139.719c-21.874,9.721-54.35,34.773-102.414,43.385c 12.288,13.17, 21.589,33.735, 31.168,58.126
		c 5.547,14.123, 4.594,26.169, 4.594,43.321c0.00,12.672, 2.382,33.003-0.754,44.167c-10.61,37.76-37.397,48.171-68.80,48.171
		c-31.417,0.00-58.24-10.468-68.821-48.284c-3.122-11.136-0.732-31.424-0.732-44.053c0.00-17.195-0.939-29.269, 4.629-43.42
		c 9.636-24.505, 18.809-45.049, 31.054-58.162c-47.687-8.761-79.915-33.636-101.653-43.328c-44.992-20.06-45.212-42.02-45.212-42.02l0.00-37.319 
		l 362.311,0.05l0.00,37.269 C 510.933,97.614, 510.713,119.644, 465.557,139.719z" data-tags="users" />
<glyph unicode="&#xe003;" d="M 486.457,191.516L 243.477,434.517c-5.817,5.817-17.237,11.186-25.451,11.925L 86.585,458.403
		C 78.414,459.157, 66.944,455.011, 61.127,449.195l-29.995-29.995c-5.803-5.817-9.97-17.266-9.223-25.436l 11.705-131.762
		c 0.718-8.192, 6.08-19.634, 11.883-25.451l 242.994-242.987c 5.81-5.81, 15.317-5.81, 21.134,0.00L 486.457,170.382
		C 492.267,176.192, 492.267,185.699, 486.457,191.516z M 123.527,355.925c-12.665-12.679-33.173-12.665-45.824,0.00c-12.672,12.651-12.679,33.173-0.021,45.852
		c 12.651,12.651, 33.18,12.636, 45.852-0.021C 136.185,389.084, 136.171,368.555, 123.527,355.925z" data-tags="tag" />
<glyph unicode="&#xe004;" d="M 414.642,476.985l-307.484,0.00 c-20.871,0.00-37.817-16.932-37.817-37.824l0.00-436.708 c0.00-20.892, 16.939-37.824, 37.817-37.824l 307.484,0.00 
		c 20.892,0.00, 37.817,16.939, 37.817,37.824L 452.459,439.161 C 452.459,460.046, 435.527,476.985, 414.642,476.985z M 262.116-19.904c-6.99,0.00-12.665,5.689-12.665,12.665
		s 5.689,12.665, 12.665,12.665s 12.665-5.689, 12.665-12.665S 269.113-19.904, 262.116-19.904z M 395.57,21.518L 126.222,21.518 L 126.222,420.096 l 269.348,0.00 L 395.57,21.518 z" data-tags="tablet" />
<glyph unicode="&#xe006;" d="M 510.244,280.903c-0.967,0.00-27.236,0.00-58.382,0.00c-31.154,0.00-38.606,18.027-16.597,40.05c 22.03,22.03, 40.612,40.604, 41.294,41.287
		c 0.683,0.69, 0.683,1.792,0.00,2.482c-0.683,0.683-18.404,18.404-39.388,39.388c-20.978,20.971-38.692,38.692-39.388,39.388
		c-0.683,0.683-1.799,0.683-2.482,0.00c-0.683-0.69-19.25-19.264-41.28-41.287s-40.043-14.564-40.043,16.583c0.00,31.154,0.00,57.415,0.00,58.382
		s-0.789,1.735-1.735,1.735c-0.988,0.00-26.027,0.00-55.701,0.00s-54.734,0.00-55.701,0.00c-0.96,0.00-1.735-0.782-1.735-1.735s0.00-27.228,0.00-58.382
		c0.00-31.147-18.02-38.606-40.043-16.583s-40.604,40.597-41.287,41.287c-0.683,0.683-1.799,0.683-2.482,0.00c-0.676-0.69-18.404-18.411-39.388-39.388
		c-20.978-20.999-38.692-38.692-39.388-39.388c-0.683-0.69-0.683-1.792,0.00-2.482c 0.683-0.683, 19.257-19.257, 41.287-41.287
		c 22.03-22.023, 14.564-40.05-16.583-40.05c-31.154,0.00-57.444,0.00-58.389,0.00c-0.967,0.00-1.735-0.782-1.735-1.735c0.00-0.96,0.00-26.027,0.00-55.694
		c0.00-29.682,0.00-54.741,0.00-55.701c0.00-0.967, 0.782-1.735, 1.735-1.735c 0.96,0.00, 27.236,0.00, 58.382,0.00c 31.154,0.00, 38.606-18.02, 16.597-40.043
		c-22.03-22.03-40.604-40.597-41.287-41.28c-0.683-0.69-0.683-1.792,0.00-2.482c 0.683-0.683, 18.404-18.404, 39.388-39.388
		c 20.999-20.978, 38.692-38.692, 39.388-39.388c 0.683-0.683, 1.792-0.683, 2.475,0.00c 0.683,0.69, 19.264,19.264, 41.287,41.287
		c 22.037,22.03, 40.05,14.564, 40.05-16.583c0.00-31.154,0.00-57.422,0.00-58.389s 0.789-1.735, 1.735-1.735c 0.967,0.00, 26.027,0.00, 55.701,0.00s 54.727,0.00, 55.701,0.00
		c 0.96,0.00, 1.735,0.782, 1.735,1.735s0.00,27.236,0.00,58.389c0.00,31.147, 18.02,38.606, 40.043,16.59s 40.604-40.597, 41.287-41.287
		c 0.683-0.683, 1.799-0.683, 2.482,0.00c 0.676,0.69, 18.404,18.411, 39.388,39.388s 38.692,38.692, 39.388,39.388c 0.683,0.69, 0.683,1.792,0.00,2.482
		c-0.683,0.683-19.25,19.25-41.28,41.28c-22.023,22.023-14.556,40.043, 16.59,40.043s 57.408,0.00, 58.382,0.00S 512.00,166.791, 512.00,167.758
		c0.00,0.96,0.00,26.027,0.00,55.701c0.00,29.682,0.00,54.734,0.00,55.694C 512.00,280.121, 511.218,280.903, 510.244,280.903z M 260.366,139.449
		c-47.396,0.00-85.796,38.40-85.796,85.796c0.00,47.374, 38.407,85.796, 85.796,85.796c 47.374,0.00, 85.796-38.414, 85.796-85.796
		C 346.155,177.849, 307.74,139.449, 260.366,139.449z" data-tags="settings" />
<glyph unicode="&#xe007;" d="M 79.218-32.541l 150.898,150.919c 26.944-14.414, 57.707-22.62, 90.396-22.62c 105.991,0.00, 191.908,85.916, 191.908,191.90
		S 426.503,479.58, 320.505,479.58c-105.977,0.00-191.90-85.924-191.90-191.908c0.00-32.249, 7.986-62.613, 22.044-89.287l-151.182-151.175L 79.218-32.541z
		 M 320.505,415.58c 70.528,0.00, 127.908-57.38, 127.908-127.908s-57.38-127.90-127.908-127.90c-70.528,0.00-127.90,57.372-127.90,127.90
		S 249.977,415.58, 320.505,415.58z" data-tags="search" />
<glyph unicode="&#xe008;" d="M 512.00,46.798l-150.919,150.898c 14.414,26.944, 22.613,57.707, 22.613,90.396c0.00,105.991-85.916,191.908-191.908,191.908
		c-105.984,0.00-191.908-85.916-191.908-191.908c0.00-105.97, 85.924-191.90, 191.908-191.90c 32.249,0.00, 62.62,7.986, 89.294,22.044l 151.175-151.182
		L 512.00,46.798z M 63.879,288.085c0.00,70.528, 57.38,127.908, 127.908,127.908s 127.908-57.38, 127.908-127.908c0.00-70.528-57.372-127.90-127.908-127.90
		S 63.879,217.557, 63.879,288.085z" data-tags="search-left" />
<glyph unicode="&#xe009;" d="M -0.292,303.886l0.00-98.596 c 64.007,0.00, 124.124-25.003, 169.337-70.428c 44.679-44.90, 69.49-104.455, 70.13-167.979L 337.778-33.131 
		C 336.412,152.924, 185.323,303.886 -0.292,303.886zM -0.142,478.649l0.00-98.56 c 227.15,0.00, 412.082-185.131, 413.49-413.198L 511.929-33.131 C 510.507,249.308, 281.387,478.649 -0.142,478.649zM -0.363,35.271A68.281,68.281 900.00 1 1 136.213,35.266999999999996A68.281,68.281 900.00 1 1 -0.363,35.266999999999996z" data-tags="rss" />
<glyph unicode="&#xe00a;" d="M 424.533,288.00l-227.556,0.00 l0.00-197.924 l 227.556,0.00 L 424.533,288.00 z M 396.089,118.521l-170.667,0.00 L 225.422,259.548 l 170.667,0.00 L 396.089,118.521 zM 83.20,288.00L 156.978,288.00L 156.978,90.076L 83.20,90.076zM -1.401,438.165l0.00-440.96 l 511.417,0.00 L 510.016,438.165 L -1.401,438.165 z M 361.742,408.647l 104.789,0.00 l0.00-40.676 L 361.742,367.971 L 361.742,408.647 z M 40.54,408.647l 284.231,0.00 l0.00-40.676 L 40.54,367.971 L 40.54,408.647 z
		 M 467.349,39.872L 41.266,39.872 l0.00,298.738 l 426.084,0.00 L 467.349,39.872 z" data-tags="preview" />
<glyph unicode="&#xe00b;" d="M 392.476,433.145L 118.684,433.145 c0.00,0.00-119.524-54.784-119.524-215.417c0.00-160.64, 119.524-214.172, 119.524-214.172l 273.792,0.00 
		c0.00,0.00, 119.524,52.928, 119.524,214.18C 512.00,378.979, 392.476,433.145, 392.476,433.145z M 383.765,39.31L 127.445,39.31 
		c-21.198,12.245-92.523,62.123-92.523,178.418c0.00,116.096, 70.884,166.798, 92.722,179.655l 255.986,0.00 c 21.291-12.43, 92.608-62.834, 92.608-179.648
		C 476.245,101.148, 405.326,51.662, 383.765,39.31zM 148.231,331.001L 190.699,331.001L 190.699,205.916L 148.231,205.916zM 320.953,331.001L 363.42,331.001L 363.42,205.916L 320.953,205.916zM 255.509,166.407c-40.249,0.00-42.766-38.706-42.916-43.548c-0.014-0.327-0.014-49.415-0.014-49.415l 86.50,0.00 c0.00,0.00-0.007,49.052-0.021,49.316
		C 298.866,127.047, 296.085,166.407, 255.509,166.407z" data-tags="plugins" />
<glyph unicode="&#xe00c;" d="M 260.743,479.772c-0.953,0.00-1.65,0.057-2.588,0.028c-0.782,0.014-1.771-0.05-2.56-0.05c-77.02,0.00-139.442-63.26-139.442-139.456
		c0.00-76.21, 142.059-372.309, 142.059-372.309s 142.002,296.363, 142.002,372.309S 337.764,479.772, 260.743,479.772z M 257.842,288.697
		c-35.264,0.00-63.879,28.594-63.879,63.872s 28.601,63.886, 63.879,63.886c 35.285,0.00, 63.886-28.608, 63.886-63.886S 293.127,288.697, 257.842,288.697z" data-tags="pin" />
<glyph unicode="&#xe00d;" d="M 455.865,395.079c0.00,15.964-7.524,23.488-23.481,23.488L 78.009,418.567 c-15.972,0.00-23.488-7.524-23.488-23.488l0.00-242.887 l 401.351,0.00 L 455.872,395.079 z
		 M 423.339,184.732L 87.047,184.732 L 87.047,386.034 l 336.292,0.00 L 423.339,184.732 zM 455.772,130.503L 54.521,130.503 l-54.222-59.648l 509.696,0.00 L 455.772,130.503z M 195.499,89.387l 21.689,21.696l 75.911,0.00 l 21.696-21.696L 195.499,89.387 zM 16.562,28.828c 18.297,0.00, 463.154,0.00, 477.17,0.00c 15.118,0.00, 16.263,21.696, 16.263,21.696L 0.299,50.524 C 0.299,50.524, 0.725,28.828, 16.562,28.828z" data-tags="pc" />
<glyph unicode="&#xe00e;" d="M 493.561,354.83C 448.704,428.899, 367.353,478.407, 274.439,478.407c-141.39,0.00-256.00-114.61-256.00-256.00s 114.61-256.00, 256.00-256.00
		c 92.188,0.00, 172.964,48.747, 218.041,121.863L 270.898,221.227L 493.561,354.83z M 320.064,409.678c 22.585,0.00, 40.889-18.311, 40.889-40.889
		s-18.311-40.889-40.889-40.889s-40.889,18.311-40.889,40.889S 297.479,409.678, 320.064,409.678z" data-tags="pacman" />
<glyph unicode="&#xe00f;" d="M 480.00,339.526L 372.715,446.793L 84.863,158.948L 84.807,158.948 L 84.807,158.898l-0.012-0.018l 0.012,0.00 L 33.173-0.002l 158.894,51.615l 0.012,0.00 l 0.044,0.024
		l-0.006,0.012L 480.00,339.526z M 71.546,38.357l 34.858,107.285l 72.44-72.434L 71.546,38.357z" data-tags="edit" />
<glyph unicode="&#xe010;" d="M 373.476,476.985L 136.462,476.985 c-20.935,0.00-37.909-16.974-37.909-37.909l0.00-437.717 c0.00-20.935, 16.981-37.909, 37.909-37.909l 236.985,0.00 
		c 20.935,0.00, 37.909,16.974, 37.909,37.909L 411.371,439.075 C 411.392,460.011, 394.404,476.985, 373.476,476.985z M 255.004-11.314c-13.419,0.00-24.299,10.873-24.299,24.299
		c0.00,13.419, 10.88,24.299, 24.299,24.299s 24.299-10.88, 24.299-24.299C 279.31-0.441, 268.43-11.314, 255.004-11.314z M 382.933,63.004L 127.012,63.004 L 127.012,377.429 
		L 382.933,377.429 L 382.933,63.004 z" data-tags="mobile" />
<glyph unicode="&#xe011;" d="M 0.59,415.922l0.00-383.922 L 512.00,32.00 L 512.00,415.922 L 0.59,415.922 z M 469.333,74.667L 43.257,74.667 L 43.257,373.255 L 469.333,373.255 L 469.333,74.667 zM 94.684,110.13L 430.748,110.13L 385.266,257.813L 351.14,246.457L 321.579,302.201L 226.048,164.288L 174.869,197.262 	zM 96.668,284.878A40.37,40.37 900.00 1 1 177.408,284.878A40.37,40.37 900.00 1 1 96.668,284.878z" data-tags="media" />
<glyph unicode="&#xe012;" d="M 511.90,68.793c 1.052,3.10, 1.756,6.357, 1.756,9.792L 513.657,363.378 c0.00,3.264-0.654,6.357-1.607,9.316L 344.74,229.433L 511.90,68.793zM 257.188,194.887l 44.068,35.854l 22.308,18.148l 168.021,143.822c-2.759,0.818-5.618,1.394-8.633,1.394L 31.452,394.105 
		c-3.022,0.00-5.888-0.576-8.654-1.401l 168.121-143.893l 22.308-18.155L 257.188,194.887zM 482.944,47.865c 2.887,0.00, 5.632,0.533, 8.292,1.294L 322.432,211.299l-65.244-53.099l-65.145,53.013L 23.168,49.152
		c 2.652-0.747, 5.397-1.287, 8.284-1.287L 482.944,47.865 zM 2.34,372.693c-0.953-2.958-1.607-6.052-1.607-9.316l0.00-284.793 c0.00-3.442, 0.704-6.699, 1.756-9.792l 167.246,160.569L 2.34,372.693z" data-tags="mail" />
<glyph unicode="&#xe013;" d="M 138.539,435.548L 512.697,435.548L 512.697,353.337L 138.539,353.337zM 138.539,260.707L 512.697,260.707L 512.697,178.482L 138.539,178.482zM 138.539,84.914L 512.697,84.914L 512.697,2.695L 138.539,2.695zM 0.533,394.51A41.038,41.038 900.00 1 1 82.61,394.51A41.038,41.038 900.00 1 1 0.533,394.51zM 0.533,219.883A41.038,41.038 900.00 1 1 82.61,219.88299999999998A41.038,41.038 900.00 1 1 0.533,219.88299999999998zM 0.533,44.48A41.038,41.038 900.00 1 1 82.61,44.47300000000001A41.038,41.038 900.00 1 1 0.533,44.47300000000001z" data-tags="list" />
<glyph unicode="&#xe014;" d="M 256.00,480.00c-141.383,0.00-256.00-114.61-256.00-256.00s 114.617-256.00, 256.00-256.00s 256.00,114.61, 256.00,256.00S 397.383,480.00, 256.00,480.00z M 288.853,400.704
		c 10.247,0.05, 18.368-3.911, 23.58-10.098c 5.241-6.165, 7.644-14.30, 7.644-22.628c0.00-21.604-17.159-42.048-41.109-42.126c-0.199,0.00-0.412,0.00-0.612,0.00
		c-18.78,0.00-30.514,13.938-30.635,34.219C 247.758,377.543, 261.803,400.604, 288.853,400.704z M 319.851,113.728
		c-35.804-39.097-79.964-62.428-96.768-62.649c-0.05,0.00-0.071,0.00-0.107,0.00c-5.696,0.00-11.591,1.508-15.865,6.151
		c-4.295,4.672-6.514,11.797-6.514,21.98c0.00,7.78, 1.287,24.583, 4.196,36.743l 25.685,110.656c 1.244,6.172, 1.927,10.517, 1.97,12.764
		c-4.444-1.607-23.979-15.922-33.628-23.41L 195.413,213.369l-9.998,27.15l 1.956,1.82c 36.146,33.429, 79.58,60.217, 99.506,60.466
		c 5.689,0.092, 10.645-2.816, 13.312-7.516c 2.738-4.629, 3.812-10.652, 3.812-17.892c0.00-7.90-1.33-24.377-3.804-35.065l-28.181-114.695
		c-1.337-5.511-1.884-9.543-1.884-12.089c-0.014-1.436, 0.185-2.375, 0.327-2.816c 3.008,0.363, 23.012,14.08, 35.961,25.998l 3.065,2.78
		l 10.688-23.452l 1.50-2.297L 319.851,113.728z" data-tags="info" />
<glyph unicode="&#xe015;" d="M 413.696,204.793L 512.057,204.793L 414.372,297.081L 414.372,446.393L 335.488,446.393L 335.488,371.612L 256.121,446.592L-0.057,204.793L 95.132,204.793L 95.132-1.778L 208.782-1.778L 208.782,144.242L 303.68,144.242L 303.68-1.778L 413.696-1.778 	z" data-tags="home" />
<glyph unicode="&#xe016;" d="M -1.408,480.00L 209.145,480.00L 209.145,269.447L -1.408,269.447zM 300.203,480.00L 510.756,480.00L 510.756,269.447L 300.203,269.447zM -1.408,178.389L 209.145,178.389L 209.145-32.164L -1.408-32.164zM 300.203,178.389L 510.756,178.389L 510.756-32.164L 300.203-32.164z" data-tags="grid" />
<glyph unicode="&#xe017;" d="M 263.808,310.243L 341.938,232.078L 426.276,316.366L 511.68,230.563L 511.68,479.957L 262.649,480.163L 348.444,394.894 	zM 163.499,53.461L 248.149,138.112L 170.02,216.27L 85.675,131.989L 0.284,217.799L 0.284-31.623L 249.301-31.801 	z" data-tags="fullscreen" />
<glyph unicode="&#xe018;" d="M 256.00,480.00c-141.383,0.00-256.00-114.61-256.00-256.00s 114.617-256.00, 256.00-256.00s 256.00,114.61, 256.00,256.00S 397.383,480.00, 256.00,480.00z M 272.967,70.962
		c-7.602-7.332-18.084-10.766-29.881-10.724c-0.092-0.007-0.185-0.007-0.27-0.007c-11.236,0.00-21.34,3.527-28.793,10.702
		c-7.623,7.204-11.428,17.301-11.364,28.466c-0.071,11.15, 3.733,21.241, 11.413,28.309c 7.531,7.068, 17.714,10.503, 29.006,10.46
		c 11.755,0.036, 22.18-3.314, 29.817-10.46c 7.68-7.068, 11.484-17.159, 11.413-28.309C 284.395,88.235, 280.59,78.144, 272.967,70.962z
		 M 341.483,266.745c-3.989-9.906-9.024-18.503-15.125-25.685c-5.888-6.912-12.373-13.042-19.463-18.347c-6.379-4.793-12.224-9.906-17.493-15.282
		c-5.056-5.212-9.358-11.207-12.942-18.14c-3.193-6.094-5.042-14.542-5.042-25.436l0.00-7.111 l-53.305,0.00 l-6.471,0.00 l-0.612,6.436
		c-0.484,5.02-0.74,9.806-0.74,14.386c0.00,9.166, 0.96,17.522, 3.022,24.996c 2.93,10.752, 7.026,20.188, 12.373,28.295
		c 5.191,7.851, 11.164,14.748, 17.927,20.601c 6.208,5.383, 11.975,10.517, 17.323,15.46c 5.07,4.658, 9.195,9.444, 12.444,14.329
		c 2.745,4.132, 4.196,9.06, 4.238,15.424c-0.057,8.448-2.233,14.116-6.244,18.489c-3.108,3.534-10.702,6.507-23.716,6.45
		c-3.932,0.00-8.192-0.42-12.779-1.301c-4.636-0.924-9.294-2.219-13.945-3.89c-4.729-1.707-9.237-3.662-13.518-5.881
		c-4.366-2.24-8.199-4.523-11.513-6.798l-6.635-4.587l-27.442,52.70l 5.205,3.563c 11.129,7.623, 23.865,13.86, 38.137,18.773
		c 14.706,5.035, 32.071,7.452, 52.06,7.452c 27.157,0.021, 49.479-6.635, 65.82-20.665c 16.32-13.888, 24.654-33.429, 24.555-56.398
		C 347.612,289.799, 345.671,277.212, 341.483,266.745z" data-tags="faq" />
<glyph unicode="&#xe019;" d="M 346.19,38.734c0.00-8.953-7.559-16.519-16.519-16.519L 72.491,22.222 c-8.96,0.00-16.519,7.559-16.519,16.519L 55.972,295.922 
		c0.00,8.967, 7.559,16.526, 16.519,16.526l 135.488,0.00 l 55.801,55.815L 72.491,368.249 c-39.787,0.00-72.334-32.562-72.334-72.341l0.00-257.173 
		C 0.156-1.038, 32.718-33.593, 72.491-33.593l 257.173,0.00 c 39.787,0.00, 72.334,32.562, 72.334,72.313L 401.998,230.044 l-55.815-55.801L 346.183,38.734 zM 253.141,459.555L 335.68,377.003L 184.469,225.785L 259.534,150.72L 410.752,301.931L 493.305,219.363L 512.156,478.40 	z" data-tags="external" />
<glyph unicode="&#xe01a;" d="M 499.918,83.79L 310.329,410.979c-29.504,50.923-77.838,50.951-107.406,0.071L 12.672,83.712c-29.568-50.88-5.611-92.508, 53.234-92.508
		l 380.658,0.00 C 505.415-8.797, 529.422,32.867, 499.918,83.79z M 258.361,48.825c-18.226,0.00-32.74,14.492-32.74,32.74
		c0.00,18.226, 14.50,32.74, 32.74,32.74c 18.219,0.00, 32.74-14.50, 32.74-32.74C 291.086,63.317, 276.587,48.825, 258.361,48.825z M 281.557,134.997
		l-46.386,0.00 l-15.609,188.885l 77.639,0.00 L 281.557,134.997z" data-tags="error" />
<glyph unicode="&#xe01b;" d="M 511.751,260.48c 9.87,84.188-67.932,162.027-173.767,173.86c-64.818,7.253-125.084-11.975-164.352-47.275
		c 8.811,0.846, 17.671,1.351, 26.432,1.351c 52.58,0.00, 102.99-15.431, 141.945-43.456c 41.266-29.696, 66.965-71.41, 72.356-117.454
		c 4.807-40.96-7.076-82.695-33.429-118.201c 54.322-40.683, 104.071-29.76, 92.516-21.042c-32.277,24.341-39.14,48.107-37.106,66.752
		C 477.845,178.603, 506.539,215.971, 511.751,260.48zM 382.443,223.758c-9.01,76.921-88.085,132.523-182.379,132.523c-8.917,0.00-17.956-0.498-27.10-1.515
		C 67.136,342.926-10.667,265.088-0.804,180.907c 5.22-44.516, 33.906-81.877, 75.413-105.465c 2.041-18.645-4.821-42.418-37.106-66.759
		c-5.156-3.883, 1.877-8.206, 16.05-8.206c 22.123,0.00, 61.668,10.524, 99.556,49.664c 9.358-1.145, 18.951-1.735, 28.693-1.735
		c 8.846,0.00, 17.82,0.484, 26.873,1.50C 314.517,61.739, 392.306,139.577, 382.443,223.758z" data-tags="comments" />
<glyph unicode="&#xe01c;" d="M 256.00,480.00c-141.383,0.00-256.00-114.617-256.00-256.00c0.00-141.383, 114.617-256.00, 256.00-256.00s 256.00,114.617, 256.00,256.00C 512.00,365.383, 397.383,480.00, 256.00,480.00z
		 M 417.244,134.777l-70.535-70.535L 257.28,153.671L 167.865,64.256l-70.535,70.535l 89.408,89.415L 97.33,313.621l 70.535,70.535L 257.28,294.741
		l 89.415,89.422l 70.542-70.535L 327.822,224.199L 417.244,134.777z" data-tags="close" />
<glyph unicode="&#xe01d;" d="M 127.332,351.865M 258.859,220.338L 127.332,88.811L 127.332-35.527L 127.652-35.84L 383.822,220.338L 127.652,476.508L 127.332,476.195L 127.332,351.865 
			z" data-tags="chevron" />
<glyph unicode="&#xe01e;" d="M 423.858,402.581L 423.858,430.066 c0.00,27.058-17.067,43.214-45.668,43.214s-45.668-16.156-45.668-43.214l0.00-27.477 L 301.582,402.581 L 301.582,430.066 
		c0.00,27.058-17.067,43.214-45.653,43.214c-28.594,0.00-45.668-16.156-45.668-43.214l0.00-27.477 l-30.94,0.00 L 179.321,430.066 c0.00,27.058-17.067,43.214-45.668,43.214
		c-28.594,0.00-45.668-16.156-45.668-43.214l0.00-27.477 L 35.556,402.581 l0.00-440.164 l 440.164,0.00 L 475.719,402.581 L 423.858,402.581 z M 356.985,430.066c0.00,13.355, 6.108,18.766, 21.205,18.766
		s 21.205-5.412, 21.205-18.766l0.00-73.50 c0.00-13.348-6.108-18.766-21.205-18.766s-21.205,5.419-21.205,18.766L 356.985,430.066 z M 234.709,430.066
		c0.00,13.355, 6.116,18.766, 21.212,18.766c 15.09,0.00, 21.212-5.412, 21.212-18.766l0.00-73.50 c0.00-13.348-6.123-18.766-21.212-18.766
		c-15.097,0.00-21.212,5.419-21.212,18.766L 234.709,430.066 z M 112.441,430.066c0.00,13.355, 6.116,18.766, 21.212,18.766c 15.09,0.00, 21.205-5.412, 21.205-18.766l0.00-73.50 
		c0.00-13.348-6.116-18.766-21.205-18.766c-15.097,0.00-21.212,5.419-21.212,18.766L 112.441,430.066 z M 439.04-0.903L 72.242-0.903 L 72.242,304.768 L 439.04,304.768 L 439.04-0.903 zM 256.676,116.743c0.00,23.317-15.723,36.224-43.221,44.089L 213.454,161.394 c 24.704,8.42, 38.165,21.902, 38.165,42.958c0.00,21.34-21.056,38.18-57.266,38.18
		c-17.124,0.00-35.10-2.24-50.254-9.273l 4.203-30.876c 11.52,5.618, 23.872,9.259, 36.516,9.259c 19.648,0.00, 24.981-6.734, 24.981-16.832
		c0.00-14.613-14.044-21.077-37.902-22.741l0.00-30.891 c 34.532-1.963, 45.76-9.266, 45.76-26.944c0.00-12.914-12.352-22.741-31.438-22.741
		c-15.737,0.00-28.082,2.24-42.958,7.865l-4.21-30.891c 12.068-4.779, 28.068-7.858, 43.243-7.858C 224.114,60.601, 256.676,79.979, 256.676,116.743zM 320.932,193.955L 320.932,63.41L 358.556,63.41L 358.556,239.715L 339.748,239.715L 285.831,213.056L 290.041,182.172 	z" data-tags="calendar" />
<glyph unicode="&#xe01f;" d="M 31.104,6.563L 481.209,6.563 L 481.209,283.548 L 31.104,283.548 L 31.104,6.563 z M 180.366,209.977l 151.566,0.00 l0.00-64.917 L 180.366,145.059 L 180.366,209.977 zM 401.579,435.89L 110.727,435.89L -0.064,373.575L -0.064,318.172L 512.37,318.172L 512.37,373.575 	z" data-tags="archive" />
<glyph unicode="&#xe020;" d="M 213.447,317.611c 6.82,0.00, 13.419,0.939, 19.74,2.524l-27.712,22.692c-9.671,7.90-15.673,19.10-16.917,31.531
		c-1.252,12.43, 2.453,24.597, 10.347,34.219c 8.896,10.901, 22.08,17.152, 36.16,17.152c 10.795,0.00, 21.298-3.769, 29.611-10.588l 29.454-24.121
		c 0.235,2.51, 0.391,5.07, 0.391,7.666c0.00,44.779-36.302,81.088-81.067,81.088c-44.793,0.00-81.088-36.309-81.088-81.088
		C 132.352,353.906, 168.654,317.611, 213.447,317.611zM 397.461,352.981c-15.957,0.00-31.019-3.691-44.551-10.098c-8.533-4.039-16.441-9.173-23.509-15.268l-81.643,66.866
		c-3.705,3.065-8.213,4.551-12.686,4.551c-5.781,0.00-11.541-2.51-15.488-7.339c-7.026-8.555-5.774-21.184, 2.802-28.174l 82.261-67.392
		c-4.281-8.348-7.531-17.308-9.436-26.788c-1.017-5.028-1.55-10.226-1.806-15.488l 49.372,27.342c 8.903,4.928, 18.951,7.545, 29.106,7.545
		c 21.852,0.00, 42.012-11.883, 52.594-31.012c 16.043-28.985, 5.497-65.614-23.474-81.65l-43.172-23.893c 12.231-5.02, 25.60-7.844, 39.623-7.844
		c 57.621,0.00, 104.32,46.706, 104.32,104.327S 455.068,352.981, 397.461,352.981zM 277.312,138.112l 110.763,61.326c 16.135,8.924, 21.959,29.227, 13.035,45.369c-6.08,11.001-17.479,17.223-29.22,17.223
		c-5.483,0.00-11.022-1.344-16.142-4.181l-109.81-60.80c-6.329,6.99-13.34,13.326-20.985,18.908c-22.656,16.526-50.475,26.404-80.676,26.404
		C 68.523,242.361, 7.111,180.942, 7.111,105.18C 7.111,29.411, 68.523-32.00, 144.27-32.00c 75.762,0.00, 137.188,61.419, 137.188,137.18
		c0.00,1.543-0.185,3.044-0.235,4.572C 280.903,119.502, 279.566,128.974, 277.312,138.112z" data-tags="apps" />
<glyph unicode="&#xe021;" d="M 425.70,7.374c 16.171,4.359, 38.386-13.973, 52.388-43.108l 28.096,11.918c-11.086,29.888-9.067,58.276, 4.764,67.314l-28.359,46.236
			L 404.636,89.728 L 425.70,7.374z M 462.201,40.754c 6.471,2.752, 13.938-0.277, 16.683-6.727c 2.752-6.478-0.277-13.959-6.748-16.711
			c-6.457-2.731-13.938,0.292-16.683,6.748C 452.708,30.542, 455.73,38.009, 462.201,40.754zM 332.494,441.913c-8.142,19.179-30.265,28.11-49.429,19.975c-19.164-8.128-28.103-30.265-19.968-49.422l 59.129-139.349l 81.913,0.00 
			L 332.494,441.913zM 512.078,117.511L 512.078,245.333 L 232.05,245.333 l-5.291-16.142c 5.092-14.585, 5.305-30.478, 0.377-45.554l-12.117-36.935l-3.285-9.998
			c 1.671-6.364, 2.816-12.772, 3.556-19.179L 512.078,117.518 z M 458.816,225.813l0.00-37.291 l-21.305,0.00 l0.00,37.291 L 458.816,225.813 z M 267.079,158.329l-21.305,0.00 l0.00,67.484 l 21.305,0.00 
			L 267.079,158.329 z M 330.994,188.523l-21.312,0.00 l0.00,37.291 l 21.312,0.00 L 330.994,188.523 z M 394.887,158.329l-21.291,0.00 l0.00,67.484 l 21.291,0.00 L 394.887,158.329 zM 74.652,188.523L 54.023,188.523 l0.00,37.291 l 21.319,0.00 l0.00-36.807 c 1.586,1.131, 3.164,2.219, 4.715,3.243l 1.351,4.124l 10.375,31.652
		c 2.041,6.215, 4.907,12.004, 8.427,17.301L 0.775,245.326 l0.00-127.822 l 18.987,0.00 C 29.163,148.494, 53.461,173.319, 74.652,188.523zM 176.768,137.067l 0.398,1.216c-15.90,21.845-36.117,28.956-55.758,30.727c-5.248,0.42-10.432,0.363-15.388,0.007
		c-14.372-7.836-68.466-45.248-54.656-93.717c 19.563-68.622-28.686-75.25-38.372-80.142c-4.864-2.46, 14.841-28.942, 52.117-24.363
		c 5.703,0.697, 11.812,2.126, 18.325,4.48C 131.954-7.154, 204.715,57.806, 176.768,137.067zM 146.617,241.429c-10.567-3.804-19.378-12.274-23.132-23.765l-10.389-31.68c 3.136,0.014, 6.343-0.071, 9.614-0.32
		c 20.174-1.372, 42.581-9.237, 60.622-28.58l 12.11,36.935c 3.797,11.52, 1.721,23.524-4.53,32.875l 68.402,208.469
		c 4.011,12.245-2.631,25.408-14.876,29.419c-3.371,1.102-6.791,1.401-10.105,1.003c-8.683-1.06-16.398-7.004-19.314-15.879L 146.617,241.429z" data-tags="appearance" />
<glyph unicode="&#xe022;" d="M 192.00,336.00A80.00,80.00 11340.00 1 1 352.00,336A80.00,80.00 11340.00 1 1 192.00,336zM0.00,336.00A80.00,80.00 11340.00 1 1 160.00,336A80.00,80.00 11340.00 1 1 0.00,336zM 384.00,176.00l0.00,48.00 c0.00,17.60-14.40,32.00-32.00,32.00l-80.00,0.00 L 80.00,256.00 L 32.00,256.00 c-17.60,0.00-32.00-14.40-32.00-32.00l0.00-160.00 c0.00-17.60, 14.40-32.00, 32.00-32.00l 320.00,0.00 c 17.60,0.00, 32.00,14.40, 32.00,32.00
		l0.00,48.00 l 128.00-80.00L 512.00,256.00 L 384.00,176.00z M 320.00,96.00L 64.00,96.00 l0.00,96.00 l 256.00,0.00 L 320.00,96.00 z" data-tags="camera, video, media, film, movie" />
<glyph unicode="&#xe023;" d="M 96.00-32.00L 416.00-32.00L 448.00,320.00L 64.00,320.00 	zM 320.00,416.00L 320.00,480.00 L 192.00,480.00 l0.00-64.00 L 32.00,416.00 l0.00-96.00 l 32.00,32.00l 384.00,0.00 l 32.00-32.00L 480.00,416.00 L 320.00,416.00 z M 288.00,416.00l-64.00,0.00 L 224.00,448.00 l 64.00,0.00 L 288.00,416.00 z" data-tags="remove, delete, trashcan, recycle bin, bin, dispose" />
<glyph unicode="&#xe025;" d="M 123.86,124.211 C 136.923,113.598 156.131,115.58 166.758,128.644 L 166.758,128.695 L 197.837,166.956 L 247.303,99.964 C 253.879,91.077 264.806,86.418 275.829,87.888 C 286.815,89.315 296.141,96.636 300.193,106.986 L 347.209,226.948 L 415.393,66.348 C 420.184,55.025 431.228,47.784 443.458,47.784 C 444.021,47.784 444.577,47.799 445.162,47.813 C 458.028,48.567 468.992,57.256 472.656,69.573 L 537.571,287.963 L 566.184,229.179 C 573.52,214.038 591.762,207.748 606.91,215.106 C 622.043,222.457 628.363,240.713 620.99,255.824 L 558.109,385.09 C 552.587,396.42 540.738,403.141 528.216,402.132 C 515.65,401.093 505.088,392.536 501.482,380.438 L 438.367,168.185 L 374.17,319.525 C 369.313,330.957 358.122,338.286 345.659,338.096 C 333.261,337.92 322.253,330.306 317.725,318.727 L 263.57,180.553 L 223.481,234.84 C 217.841,242.432 209.115,246.952 199.658,247.201 C 190.179,247.413 181.263,243.295 175.301,235.93 L 119.442,167.139 C 108.815,154.039 110.819,134.832 123.86,124.211 L 123.86,124.211 Z M 123.86,124.211" horiz-adv-x="746" data-tags="Stats" />
<glyph unicode="&#xe026;" d="M 395.743-27.248 C 395.198-27.248 394.647-27.234 394.128-27.208 C 379.458-26.414 371.712-20.664 366.06-16.456 L 363.993-14.907 L 259.00,70.603 L 157.453-15.714 C 151.742-20.126 143.925-26.158 128.912-26.985 C 128.433-27.018 127.829-27.038 127.212-27.038 C 115.351-27.038 102.61-20.191 96.23-10.384 C 90.086-1.49 89.226,7.214 89.127,12.958 C 89.173,20.263 90.539,25.79 91.871,30.28 L 132.418,163.17 L 28.574,231.601 C 24.944,234.03 20.309,237.417 15.852,242.649 C 11.50,247.966 5.993,256.158 5.73,268.944 C 5.56,277.813 8.868,287.107 14.592,293.835 C 18.478,298.581 23.427,302.323 29.538,305.047 C 38.505,308.834 45.647,309.235 51.666,309.314 L 180.467,309.386 L 217.803,443.497 C 219.215,448.512 221.223,454.439 225.516,460.846 C 232.967,471.887 244.71,478.352 257.766,478.635 L 258.14,478.641 L 258.507,478.635 C 271.708,478.32 283.129,472.038 290.678,460.938 C 294.925,454.643 296.907,448.945 298.417,443.72 L 335.806,309.392 L 464.377,309.32 C 468.441,309.307 473.856,309.077 480.151,307.39 C 486.636,305.474 494.539,302.31 501.76,293.737 C 507.418,287.009 510.694,277.747 510.53,268.958 C 510.28,256.256 504.806,248.051 500.71,242.983 C 495.931,237.378 491.297,233.997 487.759,231.634 L 385.136,163.919 L 430.382,31.193 C 432.016,26.224 433.631,20.309 433.69,12.793 C 433.611,6.636 432.732-2.16 426.063-11.50 C 419.873-20.638 407.316-27.248 395.743-27.248 L 395.743-27.248 Z M 395.743-27.248" data-tags="Featured" />
<glyph unicode="&#xe027;" d="M 395.743-27.248 C 395.198-27.248 394.647-27.234 394.128-27.208 C 379.458-26.414 371.712-20.664 366.06-16.456 L 363.993-14.907 L 259.00,70.603 L 157.453-15.714 C 151.742-20.126 143.925-26.158 128.912-26.985 C 128.433-27.018 127.829-27.038 127.212-27.038 C 115.351-27.038 102.61-20.191 96.23-10.384 C 90.086-1.49 89.226,7.214 89.127,12.958 C 89.173,20.263 90.539,25.79 91.871,30.28 L 132.418,163.17 L 28.574,231.601 C 24.944,234.03 20.309,237.417 15.852,242.649 C 11.50,247.966 5.993,256.158 5.73,268.944 C 5.56,277.813 8.868,287.107 14.592,293.835 C 18.478,298.581 23.427,302.323 29.538,305.047 C 38.505,308.834 45.647,309.235 51.666,309.314 L 180.467,309.386 L 217.803,443.497 C 219.215,448.512 221.223,454.439 225.516,460.846 C 232.967,471.887 244.71,478.352 257.766,478.635 L 258.14,478.641 L 258.507,478.635 C 271.708,478.32 283.129,472.038 290.678,460.938 C 294.925,454.643 296.907,448.945 298.417,443.72 L 335.806,309.392 L 464.377,309.32 C 468.441,309.307 473.856,309.077 480.151,307.39 C 486.636,305.474 494.539,302.31 501.76,293.737 C 507.418,287.009 510.694,277.747 510.53,268.958 C 510.28,256.256 504.806,248.051 500.71,242.983 C 495.931,237.378 491.297,233.997 487.759,231.634 L 385.136,163.919 L 430.382,31.193 C 432.016,26.224 433.631,20.309 433.69,12.793 C 433.611,6.636 432.732-2.16 426.063-11.50 C 419.873-20.638 407.316-27.248 395.743-27.248 L 395.743-27.248 Z M 384.414,10.785 L 385.641,9.879 C 389.678,6.879 391.063,5.849 395.697,5.579 C 396.715,5.704 398.618,6.643 399.15,7.306 C 400.607,9.354 400.837,10.647 400.863,12.892 C 400.843,15.065 400.423,17.218 399.255,20.782 L 352.604,157.65 C 351.856,159.751 351.422,162.251 351.376,164.91 C 351.061,173.384 355.774,184.34 363.691,189.105 L 469.616,258.993 C 472.281,260.772 473.941,262.177 475.464,263.956 C 476.928,265.774 477.663,267.087 477.709,269.607 C 477.729,270.382 477.151,272.003 476.652,272.607 C 475.038,274.53 473.698,275.082 471.243,275.81 C 469.537,276.257 467.417,276.493 464.312,276.506 L 332.124,276.585 L 331.599,276.585 C 326.262,276.585 319.961,278.928 315.156,282.709 C 310.489,286.155 306.596,291.63 305.218,296.881 L 266.837,434.78 C 265.931,437.924 265.104,440.162 263.496,442.552 C 261.534,445.44 259.367,445.775 258.101,445.834 C 256.906,445.781 254.694,445.44 252.744,442.545 C 251.123,440.13 250.315,437.911 249.403,434.675 L 211.056,296.921 C 209.684,291.663 205.778,286.169 200.717,282.421 C 196.306,278.942 190.011,276.592 184.681,276.592 L 51.902,276.519 C 47.951,276.467 45.594,276.224 42.608,274.97 C 41.479,274.458 40.606,273.822 39.778,272.817 C 39.135,272.043 38.531,270.454 38.544,269.627 C 38.597,267.10 39.326,265.807 41.045,263.706 C 42.325,262.21 43.979,260.811 46.736,258.967 L 153.114,188.869 C 161.26,183.946 166.216,172.367 165.875,163.696 C 165.829,161.273 165.474,158.976 164.811,156.875 L 123.307,20.841 C 122.48,18.032 121.968,15.819 121.948,13.135 C 121.987,11.087 122.21,9.767 123.497,7.903 C 124.258,6.925 126.313,5.895 127.337,5.809 C 131.938,6.078 133.31,7.135 137.393,10.293 L 138.575,11.198 L 242.635,99.814 C 246.738,103.424 252.757,105.564 258.855,105.564 C 264.921,105.564 270.887,103.477 274.931,99.978 L 384.414,10.785 L 384.414,10.785 Z M 384.414,10.785" data-tags="Unfeatured" />
<glyph unicode="&#xe028;" d="M 253.426,474.186 C 113.98,474.186 0.933,361.146 0.933,221.692 C 0.933,82.239 113.98-30.801 253.426-30.801 C 392.872-30.801 505.919,82.239 505.919,221.692 C 505.919,361.146 392.872,474.186 253.426,474.186 L 253.426,474.186 Z M 253.426,32.323 C 149.006,32.323 64.056,117.266 64.056,221.692 C 64.056,326.112 149.006,411.062 253.426,411.062 C 357.846,411.062 442.796,326.112 442.796,221.692 C 442.796,117.266 357.846,32.323 253.426,32.323 L 253.426,32.323 Z M 253.426,32.323M 375.934,165.106 L 276.059,232.571 L 276.059,348.697 C 276.059,351.474 274.93,354.181 272.98,356.145 C 271.023,358.102 268.309,359.224 265.532,359.224 L 237.912,359.224 C 235.134,359.224 232.434,358.102 230.47,356.145 C 228.513,354.181 227.391,351.467 227.391,348.697 L 227.391,211.565 C 227.391,208.787 228.513,206.08 230.47,204.116 C 231.263,203.324 232.181,202.664 233.184,202.166 L 349.556,124.216 C 351.309,123.059 353.336,122.442 355.391,122.442 C 356.135,122.442 356.885,122.526 357.621,122.68 C 360.406,123.269 362.812,124.967 364.334,127.393 L 378.978,150.819 C 381.973,155.609 380.626,161.936 375.934,165.106 L 375.934,165.106 Z M 375.934,165.106" data-tags="Clock" />
<glyph unicode="&#xe029;" d="M 378.599,200.567 L 335.346,200.567 C 312.264,200.567 306.737,213.921 323.058,230.235 C 339.372,246.549 353.14,260.317 353.638,260.808 C 354.136,261.327 354.136,262.133 353.638,262.645 C 353.14,263.157 340.003,276.287 324.461,291.836 C 308.918,307.372 295.789,320.508 295.284,321.013 C 294.786,321.504 293.958,321.504 293.446,321.013 C 292.948,320.508 279.18,306.741 262.866,290.427 C 246.553,274.113 233.205,279.633 233.205,302.715 L 233.205,345.961 C 233.205,346.677 232.616,347.266 231.901,347.266 L 190.639,347.266 L 149.371,347.266 C 148.655,347.266 148.066,346.677 148.066,345.961 L 148.066,302.715 C 148.066,279.633 134.719,274.113 118.405,290.427 C 102.091,306.741 88.331,320.508 87.833,321.013 C 87.321,321.504 86.50,321.504 85.988,321.013 C 85.497,320.508 72.353,307.372 56.811,291.836 C 41.269,276.287 28.139,263.15 27.634,262.645 C 27.136,262.14 27.136,261.327 27.634,260.808 C 28.139,260.317 41.90,246.549 58.221,230.235 C 74.535,213.921 69.008,200.567 45.926,200.567 L 2.672,200.567 C 1.95,200.567 1.368,199.978 1.368,199.263 L 1.368,158.001 L 1.368,116.74 C 1.368,116.01 1.95,115.435 2.672,115.435 L 45.919,115.435 C 68.994,115.435 74.528,102.081 58.207,85.767 L 27.634,55.194 C 27.136,54.675 27.136,53.869 27.634,53.357 C 28.139,52.852 41.269,39.715 56.811,24.18 C 72.353,8.63 85.483-4.492 85.988-5.011 C 86.486-5.502 87.314-5.502 87.826-5.011 C 88.324-4.492 102.091,9.262 118.405,25.575 C 134.719,41.889 148.066,36.37 148.066,13.287 L 148.066-29.959 C 148.066-30.688 148.655-31.264 149.371-31.264 L 190.639-31.264 L 231.901-31.264 C 232.616-31.264 233.205-30.688 233.205-29.959 L 233.205,13.287 C 233.205,36.37 246.553,41.889 262.866,25.589 C 279.18,9.262 292.955-4.492 293.46-4.997 C 293.958-5.502 294.779-5.502 295.284-4.997 C 295.789-4.492 308.918,8.63 324.468,24.18 C 340.017,39.715 353.147,52.852 353.645,53.357 C 354.143,53.862 354.143,54.675 353.645,55.194 C 353.147,55.699 339.379,69.453 323.065,85.767 C 306.758,102.081 312.278,115.435 335.353,115.435 L 378.599,115.435 C 379.322,115.435 379.904,116.01 379.904,116.74 L 379.904,158.001 L 379.904,199.263 C 379.904,199.978 379.322,200.567 378.599,200.567 L 378.599,200.567 Z M 193.48,95.762 C 158.383,95.762 129.922,124.216 129.922,159.32 C 129.922,194.416 158.383,222.871 193.48,222.871 C 228.583,222.871 257.038,194.416 257.038,159.32 C 257.031,124.209 228.583,95.762 193.48,95.762 L 193.48,95.762 Z M 193.48,95.762M 505.681,400.402 L 484.064,400.402 C 472.541,400.402 469.778,407.058 477.934,415.221 C 486.084,423.371 492.965,430.238 493.21,430.497 C 493.456,430.743 493.456,431.157 493.21,431.416 C 492.965,431.662 486.40,438.226 478.636,445.977 C 470.872,453.755 464.307,460.306 464.061,460.565 C 463.809,460.811 463.388,460.811 463.143,460.565 C 462.883,460.32 456.01,453.439 447.86,445.289 C 439.71,437.139 433.047,439.889 433.047,451.412 C 433.047,462.95 433.047,472.671 433.054,473.028 C 433.047,473.386 432.752,473.674 432.402,473.674 L 411.788,473.674 L 391.175,473.674 C 390.817,473.674 390.53,473.386 390.53,473.028 L 390.53,451.412 C 390.53,439.889 383.86,437.125 375.71,445.275 C 367.553,453.439 360.679,460.306 360.427,460.565 C 360.167,460.811 359.754,460.811 359.508,460.565 C 359.256,460.32 352.691,453.755 344.927,445.991 C 337.17,438.226 330.605,431.662 330.359,431.416 C 330.107,431.171 330.107,430.743 330.359,430.497 C 330.612,430.238 337.485,423.371 345.642,415.221 C 353.785,407.072 351.029,400.402 339.498,400.402 L 317.903,400.402 C 317.538,400.388 317.251,400.10 317.244,399.742 C 317.251,399.385 317.244,390.112 317.244,379.129 L 317.244,358.523 C 317.244,358.165 317.538,357.877 317.896,357.877 C 318.254,357.877 327.982,357.863 339.498,357.863 C 351.036,357.877 353.785,351.207 345.642,343.058 C 337.485,334.908 330.605,328.027 330.359,327.782 C 330.107,327.522 330.107,327.108 330.359,326.863 C 330.612,326.603 337.177,320.039 344.934,312.274 C 352.698,304.524 359.256,297.959 359.508,297.70 C 359.761,297.454 360.174,297.454 360.434,297.70 C 360.679,297.959 367.553,304.826 375.71,312.99 C 383.86,321.126 390.53,318.376 390.53,306.853 C 390.53,295.315 390.537,285.594 390.53,285.237 C 390.53,284.879 390.817,284.591 391.175,284.591 L 411.781,284.591 L 432.395,284.591 C 432.745,284.591 433.04,284.879 433.047,285.251 C 433.054,285.594 433.047,295.322 433.047,306.839 C 433.047,318.376 439.71,321.14 447.86,312.99 C 456.01,304.84 462.89,297.959 463.143,297.70 C 463.395,297.454 463.809,297.454 464.061,297.70 C 464.307,297.959 470.872,304.524 478.636,312.274 L 493.21,326.849 C 493.456,327.108 493.456,327.522 493.21,327.782 C 492.965,328.027 486.084,334.908 477.927,343.058 C 469.771,351.207 472.534,357.877 484.064,357.877 L 505.681,357.877 C 506.031,357.877 506.326,358.165 506.326,358.523 L 506.326,379.136 C 506.326,390.105 506.326,399.385 506.333,399.749 C 506.319,400.10 506.024,400.402 505.681,400.402 L 505.681,400.402 Z M 435.691,356.145 C 423.291,343.745 403.189,343.745 390.796,356.145 C 378.403,368.545 378.396,388.654 390.796,401.047 C 403.196,413.44 423.298,413.447 435.691,401.047 C 448.098,388.654 448.091,368.538 435.691,356.145 L 435.691,356.145 Z M 435.691,356.145" data-tags="Settings2" />
<glyph unicode="&#xe02a;" d="M 653.814,396.409 L 527.476,396.409 C 527.379,396.592 527.35,396.786 527.254,396.969 L 509.141,433.176 C 504.475,442.489 492.138,450.111 481.715,450.111 L 238.534,450.111 C 228.11,450.111 215.774,442.489 211.108,433.176 L 192.995,396.969 C 192.898,396.786 192.85,396.592 192.763,396.409 L 60.522,396.409 C 50.118,396.409 41.588,387.869 41.588,377.455 L 41.588,17.732 C 41.588,7.308 50.118-1.222 60.522-1.222 L 653.834-1.222 C 664.257-1.222 672.778,7.308 672.778,17.732 L 672.778,377.455 C 672.768,387.879 664.228,396.409 653.814,396.409 L 653.814,396.409 Z M 357.54,53.33 C 275.388,53.33 208.77,119.929 208.77,202.11 C 208.77,284.242 275.388,350.841 357.54,350.841 C 439.692,350.841 506.31,284.242 506.31,202.11 C 506.31,119.929 439.692,53.33 357.54,53.33 L 357.54,53.33 Z M 357.54,53.33M 357.54,298.221 C 304.534,298.221 261.41,255.106 261.41,202.11 C 261.41,149.093 304.534,105.96 357.54,105.96 C 410.556,105.96 453.69,149.093 453.69,202.11 C 453.69,255.106 410.556,298.221 357.54,298.221 L 357.54,298.221 Z M 357.54,298.221" horiz-adv-x="705" data-tags="Camera" />
<glyph unicode="&#xe02b;" d="M 384.919,373.714 C 369.601,387.384 346.098,386.059 332.428,370.727 C 318.759,355.409 320.098,331.913 335.423,318.243 C 367.111,289.894 386.932,249.095 386.946,203.303 C 386.798,118.24 317.973,49.415 232.918,49.275 C 147.863,49.415 79.03,118.24 78.89,203.303 C 78.904,249.305 98.907,290.251 130.848,318.615 C 146.222,332.221 147.638,355.731 134.025,371.084 C 120.404,386.451 96.915,387.882 81.555,374.254 L 81.541,374.276 C 34.402,332.565 4.51,271.258 4.524,203.296 C 4.545,77.14 106.77-25.084 232.918-25.099 C 359.059-25.077 461.291,77.14 461.305,203.296 C 461.312,270.964 431.70,332.032 384.919,373.714 L 384.919,373.714 Z M 384.919,373.714M 233.57,165.611 C 254.113,165.611 270.757,182.254 270.757,202.777 L 270.757,442.035 C 270.757,462.578 254.113,479.228 233.57,479.228 C 213.027,479.228 196.384,462.578 196.384,442.035 L 196.384,202.777 C 196.384,182.254 213.027,165.611 233.57,165.611 L 233.57,165.611 Z M 233.57,165.611" horiz-adv-x="462" data-tags="Power" />
<glyph unicode="&#xe02c;" d="M 333.404,256.497 L 333.404,340.508 C 333.404,417.521 270.962,479.964 193.948,479.964 C 192.988,479.964 192.299,480.02 191.353,479.992 C 190.578,480.006 189.589,479.949 188.80,479.949 C 111.772,479.949 49.358,417.507 49.358,340.493 L 49.358,256.497 L0.00,256.497 L0.00-31.951 L 384.071-31.951 L 384.071,256.497 L 333.404,256.497 L 333.404,256.497 Z M 119.111,340.493 C 119.111,378.908 150.372,410.161 188.793,410.161 C 189.888,410.161 192.199,410.218 192.199,410.218 C 192.199,410.218 193.365,410.175 193.948,410.175 C 232.363,410.175 263.63,378.922 263.63,340.508 L 263.63,256.497 L 119.118,256.497 L 119.118,340.493 L 119.111,340.493 Z M 119.111,340.493" horiz-adv-x="391" data-tags="Lock" />
<glyph unicode="&#xe02e;" d="M 511.911,96.935 C 476.566,112.644 424.123,153.108 346.478,167.014 C 366.332,188.266 381.367,221.505 396.824,260.888 C 405.788,283.709 404.244,303.157 404.244,330.854 C 404.244,351.317 408.105,384.15 403.025,402.192 C 385.902,463.177 342.617,480.00 291.913,480.00 C 241.168,480.00 197.843,463.096 180.744,402.005 C 175.705,384.012 179.566,351.252 179.566,330.845 C 179.566,303.084 178.054,283.571 187.043,260.71 C 202.622,221.131 217.429,187.941 237.219,166.77 C 160.183,152.613 108.138,112.441 73.021,96.788 C 0.358,64.386 0.00,28.904 0.00,28.904 L0.00-31.358 L 585.20-31.285 L 585.20,28.904 C 585.20,28.92 584.858,64.516 511.911,96.935 L 511.911,96.935 Z M 511.911,96.935" horiz-adv-x="593" data-tags="User" />
<glyph unicode="&#xe02f;" d="M 256.00,480.00C 114.615,480.00,0.00,365.385,0.00,224.00s 114.615-256.00, 256.00-256.00s 256.00,114.615, 256.00,256.00S 397.385,480.00, 256.00,480.00z M 160.00,224.00
	c0.00,53.02, 42.98,96.00, 96.00,96.00s 96.00-42.98, 96.00-96.00s-42.98-96.00-96.00-96.00S 160.00,170.98, 160.00,224.00z M 462.99,138.262L 462.99,138.262l-88.71,36.745
	C 380.539,190.099, 384.00,206.645, 384.00,224.00s-3.461,33.901-9.72,48.993l 61.063,25.293l 27.647,11.452C 473.944,283.327, 480.00,254.373, 480.00,224.00
	C 480.00,193.627, 473.943,164.673, 462.99,138.262L 462.99,138.262z M 341.739,430.99L 341.739,430.99L 341.739,430.99l-36.745-88.71
	C 289.902,348.539, 273.356,352.00, 256.00,352.00s-33.901-3.461-48.993-9.72l-17.23,41.599l-19.515,47.112C 196.673,441.943, 225.628,448.00, 256.00,448.00
	C 286.373,448.00, 315.327,441.943, 341.739,430.99z M 49.01,309.738l 47.112-19.515l 41.599-17.23C 131.462,257.901, 128.00,241.355, 128.00,224.00
	s 3.461-33.901, 9.72-48.993l-88.71-36.745C 38.057,164.673, 32.00,193.627, 32.00,224.00C 32.00,254.373, 38.057,283.327, 49.01,309.738z
	 M 170.262,17.01l 11.452,27.647l 25.293,61.063C 222.099,99.461, 238.645,96.00, 256.00,96.00s 33.901,3.461, 48.993,9.72l 36.745-88.71l0.00,0.00l0.00,0.00
	C 315.327,6.058, 286.373,0.00, 256.00,0.00C 225.628,0.00, 196.673,6.057, 170.262,17.01z" data-tags="support, help, life, lifebuoy" />
<glyph unicode="&#xe02d;" d="M 368.475,284.622 L 486.342,284.622 L 486.342,260.856 L 368.475,260.856 Z M 183.80,114.449 L 486.342,114.449 L 486.342,90.698 L 183.80,90.698 Z M 183.80,187.648 L 486.342,187.648 L 486.342,163.906 L 183.80,163.906 Z M 368.475,357.83 L 486.342,357.83 L 486.342,334.063 L 368.475,334.063 Z M 183.80,377.608 L 325.252,377.608 L 325.252,235.132 L 183.80,235.132 Z M 544.529,450.155 L 129.544,450.155 C 115.027,450.155 111.087,446.208 111.087,431.558 L 111.087,371.002 L 52.918,371.002 C 38.40,371.002 34.461,367.054 34.461,352.413 L 34.461,45.304 C 34.461,23.412 60.011-4.963 84.348-4.963 L 129.536-4.963 L 475.739-4.963 L 544.52-4.963 C 559.054-4.963 562.977-1.016 562.977,13.634 L 562.977,431.558 C 562.985,446.208 559.071,450.155 544.529,450.155 L 544.529,450.155 Z M 531.547,26.715 L 475.755,26.715 L 129.553,26.715 L 84.364,26.715 C 78.774,26.715 66.51,39.168 65.908,45.312 L 65.908,339.349 L 111.096,339.349 L 111.096,55.09 L 142.526,55.09 L 142.526,339.349 L 142.534,339.349 L 142.534,371.01 L 142.534,418.502 L 531.547,418.502 L 531.547,26.715 L 531.547,26.715 Z M 531.547,26.715" horiz-adv-x="594" data-tags="content" />
<glyph unicode="&#xe030;" d="M 256.00,480.00 C 114.617,480.00 0.00,365.39 0.00,224.00 C0.00,82.61 114.617-32.00 256.00-32.00 C 397.383-32.00 512.00,82.61 512.00,224.00 C 512.00,365.39 397.383,480.00 256.00,480.00 L 256.00,480.00 Z M 419.527,291.428 L 239.801,111.289 C 234.624,106.098 224.398,101.852 217.074,101.852 L 201.55,101.852 C 194.226,101.852 184.00,106.112 178.83,111.289 L 94.194,196.316 C 89.024,201.508 89.031,209.998 94.215,215.175 L 127.524,248.484 C 132.708,253.675 141.184,253.675 146.375,248.498 L 200.448,194.539 C 205.639,189.355 214.116,189.362 219.292,194.553 L 367.495,343.104 C 372.672,348.288 381.156,348.316 386.354,343.154 L 419.484,310.251 C 424.676,305.081 424.697,296.626 419.527,291.428 L 419.527,291.428 Z M 419.527,291.428" data-tags="success" />
<glyph unicode="&#xe031;" d="M 252.493,474.557 C 113.047,474.557 0.00,361.511 0.00,222.064 C0.00,82.611 113.047-30.429 252.493-30.429 C 391.94-30.429 504.986,82.611 504.986,222.064 C 504.986,361.511 391.94,474.557 252.493,474.557 L 252.493,474.557 Z M 252.493,32.694 C 148.073,32.694 63.123,117.637 63.123,222.064 C 63.123,326.484 148.073,411.434 252.493,411.434 C 356.913,411.434 441.863,326.484 441.863,222.064 C 441.863,117.637 356.913,32.694 252.493,32.694 L 252.493,32.694 Z M 252.493,32.694M 257.171,98.153 C 326.895,98.153 383.418,154.676 383.418,224.40 C 383.418,294.124 326.895,350.646 257.171,350.646 C 187.447,350.646 130.925,294.124 130.925,224.40 C 130.925,154.676 187.447,98.153 257.171,98.153 Z M 257.171,98.153" horiz-adv-x="504" data-tags="notification" />
<glyph unicode="&#xe032;" d="M 322.361,290.382 L 322.361,458.667 L 189.604,458.667 L 189.604,290.382 L 21.333,290.382 L 21.333,157.639 L 189.604,157.639 L 189.604-10.631 L 322.361-10.631 L 322.361,157.639 L 490.624,157.632 L 490.624,290.382 L 322.361,290.382 Z M 322.361,290.382" data-tags="add" />
<glyph unicode="&#xe033;" d="M 132.144,187.281 C 125.285,194.149 125.305,205.413 132.173,212.272 L 176.312,256.42 C 183.18,263.289 194.425,263.289 201.303,256.43 L 272.983,184.904 C 279.851,178.046 291.096,178.055 297.955,184.924 L 494.408,381.841 C 501.267,388.719 512.512,388.748 519.41,381.899 L 563.326,338.292 C 570.213,331.443 570.242,320.227 563.384,313.349 L 325.159,74.554 C 318.29,67.676 304.737,62.053 295.018,62.053 L 274.442,62.053 C 264.723,62.053 251.179,67.695 244.321,74.564 L 132.144,187.281 L 132.144,187.281 Z M 132.144,187.281" horiz-adv-x="695" data-tags="check" />
<glyph unicode="&#xe034;" d="M 480.00,89.632L 345.504,224.00L 480.00,358.368L 390.368,448.00L 256.00,313.568L 121.568,448.00L 32.00,358.368L 166.368,224.00L 32.00,89.632L 121.568,0.00L 256.00,134.432L 390.368,0.00 		z" data-tags="x, cancel, close" />
<glyph unicode="&#xe035;" d="M 562.904,188.144 C 562.736,188.424 562.56,188.696 562.408,188.984 C 556.896,199.12 550.064,208.288 542.128,216.232 L 433.688,324.656 C 433.248,325.112 432.832,325.488 432.456,325.824 C 418.64,339.224 401.848,349.048 383.584,354.472 C 404.632,332.44 418.568,304.92 423.976,274.64 C 425.584,265.56 426.416,256.28 426.416,247.048 C 426.416,243.368 426.256,239.488 425.928,235.208 L 493.504,167.616 C 499.376,161.744 503.736,154.336 506.08,146.20 C 507.44,141.528 508.112,136.672 508.112,131.744 C 508.112,126.288 507.28,120.912 505.64,115.752 C 503.152,107.976 499.08,101.216 493.496,95.64 L 449.432,51.576 C 439.992,42.136 427.216,36.936 413.448,36.936 C 399.68,36.936 386.904,42.136 377.464,51.576 L 335.464,93.576 L 308.28,120.76 L 269.048,159.992 C 265.144,163.896 261.904,168.504 259.44,173.712 C 256.176,180.552 254.456,188.256 254.456,195.96 C 254.456,201.16 255.224,206.304 256.72,211.24 C 256.864,211.68 257.016,212.112 257.192,212.552 L 257.456,213.272 C 258.096,215.088 258.688,216.552 259.312,217.896 C 259.672,218.68 260.064,219.44 260.472,220.208 C 261.208,221.60 262.032,222.976 263.00,224.44 L 263.408,225.048 C 263.704,225.488 263.984,225.936 264.296,226.36 C 265.904,228.544 267.456,230.376 269.048,231.952 L 285.848,248.752 C 285.664,250.752 285.208,252.536 284.472,254.048 C 283.768,255.536 282.912,256.80 281.896,257.816 L 242.664,297.048 L 239.776,299.936 L 220.432,280.576 C 218.56,278.704 216.68,276.688 214.696,274.392 C 214.40,274.064 214.12,273.704 213.84,273.36 L 213.216,272.592 C 211.888,271.016 210.624,269.424 209.40,267.792 C 208.976,267.248 208.584,266.68 208.184,266.136 L 207.952,265.808 C 206.752,264.12 205.592,262.416 204.48,260.68 L 204.184,260.224 C 203.92,259.816 203.656,259.392 203.384,258.992 C 202.088,256.864 200.84,254.712 199.712,252.60 L 199.544,252.288 L 199.384,251.992 C 195.448,244.504 192.288,236.536 190.008,228.272 C 189.192,225.336 188.552,222.616 188.024,219.992 C 186.416,211.976 185.60,203.88 185.60,195.832 C 185.60,188.752 186.24,181.648 187.456,174.736 C 191.768,150.52 203.176,128.592 220.408,111.344 L 243.00,88.752 L 276.00,55.768 L 328.84,2.928 C 375.496-43.728 451.40-43.728 498.056,2.928 L 542.12,46.992 C 557.20,62.08 567.96,81.144 573.248,102.144 C 575.744,112.128 577.032,122.04 577.032,131.608 C 577.032,150.512 572.488,169.40 563.904,186.216 C 563.808,186.408 563.704,186.616 563.624,186.824 C 563.544,186.984 563.48,187.144 563.392,187.304 C 563.248,187.608 563.08,187.864 562.904,188.144 L 562.904,188.144 Z M 562.904,188.144M 358.00,332.928 L 335.408,355.52 L 302.424,388.504 L 249.584,441.36 C 202.928,488.00 127.024,488.00 80.368,441.344 L 36.304,397.28 C 21.208,382.20 10.464,363.12 5.176,342.136 C 2.68,332.152 1.392,322.248 1.392,312.664 C 1.392,293.76 5.936,274.88 14.52,258.056 C 14.632,257.872 14.72,257.648 14.80,257.448 C 14.88,257.288 14.944,257.12 15.032,256.96 C 15.176,256.696 15.328,256.432 15.504,256.144 C 15.68,255.856 15.848,255.584 16.00,255.288 C 21.528,245.144 28.36,235.992 36.296,228.056 L 144.72,119.632 C 145.176,119.16 145.576,118.792 145.968,118.464 C 159.784,105.072 176.56,95.248 194.824,89.824 C 173.792,111.856 159.856,139.368 154.464,169.656 C 152.84,178.704 152.008,188.00 152.008,197.248 C 152.008,200.904 152.168,204.776 152.496,209.088 L 84.92,276.68 C 79.048,282.552 74.688,289.96 72.344,298.104 C 70.984,302.776 70.296,307.616 70.296,312.544 C 70.296,318.00 71.136,323.384 72.784,328.544 C 75.272,336.328 79.344,343.088 84.928,348.656 L 128.992,392.72 C 148.504,412.232 181.464,412.232 200.96,392.72 L 242.96,350.72 L 270.144,323.536 L 309.376,284.304 C 313.28,280.40 316.52,275.792 318.984,270.584 C 322.232,263.744 323.968,256.056 323.968,248.336 C 323.968,243.136 323.20,237.992 321.704,233.056 C 321.56,232.60 321.408,232.168 321.232,231.712 L 320.968,231.024 C 320.328,229.208 319.736,227.744 319.112,226.40 C 318.752,225.616 318.344,224.856 317.944,224.088 C 317.208,222.68 316.368,221.256 315.432,219.856 L 315.056,219.296 C 314.76,218.824 314.464,218.376 314.136,217.936 C 312.528,215.752 310.976,213.92 309.40,212.344 L 292.584,195.544 C 292.768,193.544 293.224,191.76 293.96,190.232 C 294.664,188.744 295.52,187.48 296.536,186.48 L 335.768,147.248 L 338.656,144.36 L 358.00,163.72 C 359.84,165.56 361.72,167.592 363.752,169.904 C 364.048,170.248 364.344,170.608 364.624,170.968 L 365.216,171.688 C 366.544,173.28 367.808,174.872 369.032,176.512 C 369.528,177.16 370.00,177.816 370.472,178.488 C 371.704,180.176 372.848,181.88 373.976,183.616 L 374.336,184.184 L 375.04,185.312 C 376.352,187.424 377.584,189.568 378.728,191.704 L 378.888,191.992 L 379.056,192.312 C 382.992,199.776 386.152,207.752 388.448,216.024 C 389.232,218.872 389.872,221.60 390.416,224.32 C 392.024,232.32 392.84,240.416 392.84,248.464 C 392.84,255.56 392.20,262.656 390.984,269.568 C 386.64,293.76 375.248,315.68 358.00,332.928 L 358.00,332.928 Z M 358.00,332.928" horiz-adv-x="584" data-tags="link" />
<glyph unicode="&#xe036;" d="M 653.814,396.409 L 527.476,396.409 C 527.379,396.592 527.35,396.786 527.254,396.969 L 509.141,433.176 C 504.475,442.489 492.138,450.111 481.715,450.111 L 238.534,450.111 C 228.11,450.111 215.774,442.489 211.108,433.176 L 192.995,396.969 C 192.898,396.786 192.85,396.592 192.763,396.409 L 60.522,396.409 C 50.118,396.409 41.588,387.869 41.588,377.455 L 41.588,17.732 C 41.588,7.308 50.118-1.222 60.522-1.222 L 653.834-1.222 C 664.257-1.222 672.778,7.308 672.778,17.732 L 672.778,377.455 C 672.768,387.879 664.228,396.409 653.814,396.409 L 653.814,396.409 Z M 357.54,53.33 C 275.388,53.33 208.77,119.929 208.77,202.11 C 208.77,284.242 275.388,350.841 357.54,350.841 C 439.692,350.841 506.31,284.242 506.31,202.11 C 506.31,119.929 439.692,53.33 357.54,53.33 L 357.54,53.33 Z M 357.54,53.33M 357.54,298.221 C 304.534,298.221 261.41,255.106 261.41,202.11 C 261.41,149.093 304.534,105.96 357.54,105.96 C 410.556,105.96 453.69,149.093 453.69,202.11 C 453.69,255.106 410.556,298.221 357.54,298.221 L 357.54,298.221 Z M 357.54,298.221" horiz-adv-x="705.2075471698113" data-tags="Camera" />
<glyph unicode="&#xe005;" d="M 32.00,384.00L 480.00,384.00L 480.00,288.00L 32.00,288.00zM 32.00,256.00L 480.00,256.00L 480.00,160.00L 32.00,160.00zM 32.00,128.00L 480.00,128.00L 480.00,32.00L 32.00,32.00z" data-tags="menu, list, items, lines, options" />
<glyph unicode="&#x20;" horiz-adv-x="256" />
<glyph class="hidden" unicode="&#xf000;" d="M0,480L 512 -32L0 -32 z" horiz-adv-x="0" />
</font>
</defs>
</svg>
