<?xml version="1.0" standalone="no"?>
<!DOCTYPE svg PUBLIC "-//W3C//DTD SVG 1.1//EN" "http://www.w3.org/Graphics/SVG/1.1/DTD/svg11.dtd">
<svg xmlns="http://www.w3.org/2000/svg">
<metadata>Generated by Fontastic.me</metadata>
<defs>
<font id="ghosticons" horiz-adv-x="512">
<font-face font-family="ghosticons" units-per-em="512" ascent="480" descent="-32"/>
<missing-glyph horiz-adv-x="512" />

<glyph unicode="&#57344;" d="M256 512c-141 0-256-115-256-256 0-68 26-132 74-180 49-49 113-76 182-76 69 0 134 27 182 76 0 0 0 0 0 0 48 48 74 112 74 180 0 141-115 256-256 256z m0-491c-59 0-114 22-157 61 22 12 54 23 86 35 11 4 22 8 32 12 4 1 7 5 7 10l0 53c0 5-3 9-7 10-1 0-25 10-25 54 0 6-4 11-10 11-1 0-3 4-3 10 0 6 2 10 2 11 6 0 11 5 11 11 0 2-1 5-3 11-3 11-11 41-4 51 1 1 3 3 8 3 3 0 5-1 8-1 5-1 11 2 12 8 3 14 28 24 59 24 31 0 56-10 59-24 5-20-4-47-8-60-2-6-3-9-3-12 0-6 4-11 10-11 1-1 3-5 3-11 0-6-2-10-2-10-6 0-11-5-11-11 0-44-24-54-25-54-4-1-7-5-7-10l0-53c0-5 3-9 7-10 11-5 23-9 34-13 32-12 63-23 84-34-43-39-98-61-157-61z m173 76c-22 14-55 26-92 39-9 3-19 7-28 10l0 39c11 7 30 24 32 63 8 5 14 16 14 29 0 13-5 23-12 28 6 16 15 46 9 71-8 30-48 40-80 40-29 0-64-8-76-31-15 1-23-6-28-11-13-18-4-51 1-69-7-5-12-15-12-28 0-13 6-24 14-29 2-39 21-56 32-63l0-39c-9-3-17-6-25-9-35-13-71-26-95-40-40 44-62 100-62 159 0 129 106 235 235 235 129 0 235-106 235-235 0-59-22-115-62-159z"/>
<glyph unicode="&#57345;" d="M509 18l-192 192c0 0 0 0 0 0 28 32 46 74 46 121 0 100-82 181-182 181-100 0-181-81-181-181 0-100 81-182 181-182 47 0 89 18 121 46 0 0 0 0 0 0l192-192c2-2 5-3 7-3 3 0 6 1 8 3 4 4 4 11 0 15z m-328 153c-88 0-160 71-160 160 0 88 72 160 160 160 89 0 160-72 160-160 0-89-71-160-160-160z"/>
<glyph unicode="&#57347;" d="M437 416c-48 48-113 75-181 75-68 0-133-27-181-75-100-100-100-263 0-362 10-10 23-16 38-16 14 0 27 6 37 16 21 20 21 54 0 75-2 2-3 5-3 8 0 2 1 5 3 7 4 4 11 4 15 0l91-90c24-25 56-38 91-38 34 0 66 13 90 38 100 99 100 262 0 362z m-15-347c-20-20-47-32-75-32-29 0-56 12-76 32l-90 90c-6 6-14 10-23 10-9 0-17-4-23-10-6-6-9-14-9-22 0-9 3-17 9-23 13-12 13-33 0-45-12-12-33-12-45 0-91 91-91 240 0 332 44 44 103 68 166 68 63 0 122-24 166-68 91-92 91-241 0-332z m-75 229c11 0 22 4 30 12 8 8 12 19 12 30 0 12-4 22-12 30-16 17-45 17-61 0-8-8-12-18-12-30 0-11 4-22 12-30 8-8 19-12 31-12z m-16 57c4 4 10 7 16 7 5 0 11-3 15-7 4-4 6-9 6-15 0-5-2-11-6-15-8-8-23-8-31 0-4 4-6 10-6 15 0 6 2 11 6 15z m97-98c-12 12-33 12-45 0-13-12-13-32 0-45 6-6 14-9 22-9 9 0 17 3 23 9 6 6 9 14 9 23 0 8-3 16-9 22z m-15-30c-4-4-11-4-15 0-4 4-4 11 0 15 2 2 4 3 7 3 3 0 6-1 8-3 2-2 3-4 3-7 0-3-1-6-3-8z m-67-45c-14 0-27-5-37-15-10-10-16-24-16-38 0-14 6-28 16-38 10-10 23-15 38-15 14 0 27 5 37 15 10 10 16 24 16 38 0 14-6 28-16 38-10 10-23 15-38 15z m23-76c-12-12-33-12-45 0-6 6-9 15-9 23 0 9 3 17 9 23 6 6 14 9 23 9 8 0 16-3 22-9 6-6 10-14 10-23 0-8-4-17-10-23z m-181 287c-8-8-12-19-12-30 0-12 4-22 12-30 8-8 19-13 30-13 12 0 22 5 30 13 9 8 13 19 13 30 0 11-5 22-13 30-16 16-44 16-60 0z m45-45c-8-8-22-8-30 0-4 4-6 9-6 15 0 6 2 11 6 15 4 4 10 6 15 6 6 0 11-2 15-6 4-4 7-9 7-15 0-6-3-11-7-15z"/>
<glyph unicode="&#57348;" d="M459 512l-406 0c-6 0-10-5-10-11l0-490c0-6 4-11 10-11l406 0c6 0 10 5 10 11l0 490c0 6-4 11-10 11z m-11-491l-384 0 0 470 53 0 0-22-10 0 0-42 42 0 0 42-10 0 0 22 64 0 0-22-11 0 0-42 43 0 0 42-11 0 0 22 64 0 0-22-11 0 0-42 43 0 0 42-11 0 0 22 64 0 0-22-10 0 0-42 42 0 0 42-10 0 0 22 53 0z m-75 342l-234 0c-6 0-11-5-11-11 0-6 5-11 11-11l234 0c6 0 11 5 11 11 0 6-5 11-11 11z m0-64l-234 0c-6 0-11-5-11-11 0-6 5-11 11-11l234 0c6 0 11 5 11 11 0 6-5 11-11 11z m0-64l-234 0c-6 0-11-5-11-11 0-6 5-11 11-11l234 0c6 0 11 5 11 11 0 6-5 11-11 11z m0-64l-234 0c-6 0-11-5-11-11 0-6 5-11 11-11l234 0c6 0 11 5 11 11 0 6-5 11-11 11z m0-64l-234 0c-6 0-11-5-11-11 0-6 5-11 11-11l234 0c6 0 11 5 11 11 0 6-5 11-11 11z"/>
<glyph unicode="&#57349;" d="M271 256l238 237c5 4 5 11 0 15-4 5-11 5-15 0l-238-237-237 238c-4 5-11 5-15 0-5-4-5-11 0-15l237-238-238-237c-5-4-5-11 0-15 2-2 4-4 7-4 3 0 6 2 8 4l238 237 237-238c2-2 5-3 8-3 3 0 5 1 7 3 5 4 5 11 0 15z"/>
<glyph unicode="&#57350;" d="M480 277l-224 0 0 224c0 6-4 11-10 11 0 0 0 0 0 0-6 0-11-5-11-11l0-224-224 0c-6 0-11-4-11-10 0-6 5-11 11-11l224 0 0-224c0-6 4-11 10-11 6 0 11 5 11 11l0 224 224 0c6 0 11 5 11 11 0 6-5 10-11 10z"/>
<glyph unicode="&#57351;" d="M481 164c-26 26-64 35-99 23l-67 67 67 68c10-3 20-5 31-5 26 0 50 10 68 28 28 28 35 68 20 104-1 3-4 5-8 6-3 1-7 0-9-3l-38-39-30 0 0 33 38 38c2 2 3 6 3 9-1 4-3 7-7 8-12 5-24 8-37 8-26 0-50-10-68-28-26-26-35-64-23-99l-68-67-67 67c12 35 3 73-23 99-28 28-68 36-104 20-3-1-6-4-6-8-1-3 0-7 3-9l39-38 0-33-33 0-38 39c-2 3-6 4-10 3-3-1-6-3-7-6-16-36-8-77 20-105 26-26 64-34 99-22l67-68-67-67c-10 3-21 5-31 5-26 0-50-10-68-28-28-28-36-69-20-105 1-4 4-6 7-7 4 0 7 1 10 3l38 38 33 0 0-30-39-38c-3-2-4-6-3-10 0-3 3-6 6-7 12-5 25-8 37-8 26 0 50 10 68 28 25 26 34 64 22 99l67 67 68-67c-12-35-3-73 23-99 18-18 43-28 68-28 12 0 25 2 37 8 4 1 6 4 7 7 0 4-1 7-3 10l-38 38 0 30 30 0 38-38c2-2 6-3 9-3 4 1 7 3 8 7 16 36 8 77-20 105z m-344 178c-3 3-8 3-12 2-28-12-60-6-82 15-17 18-25 42-21 65l29-29c2-2 4-3 7-3l49 0c6 0 10 4 10 10l0 49c0 2-1 5-3 7l-29 28c23 4 46-3 64-20 21-22 28-54 16-82-2-4-1-9 2-12l72-72-30-31z m28-217c12-28 6-61-15-82-18-17-42-25-65-21l29 29c2 2 3 4 3 7l0 45c0 6-4 11-10 11l-49 0c-3 0-5-1-7-3l-29-28c-4 24 4 48 21 66 14 14 33 22 53 22 10 0 20-2 29-6 4-2 9-1 12 2l205 205c3 3 4 8 2 12-12 28-6 60 16 82 14 14 33 21 53 21 4 0 9 0 13-1l-28-28c-2-2-3-5-3-7l0-49c0-6 4-10 10-10l46 0c2 0 5 1 7 3l28 29c4-23-3-46-20-64-14-14-33-22-53-22-10 0-20 2-29 6-4 2-9 1-12-2l-205-205c-3-3-4-8-2-12z m321-42l-28 28c-2 2-5 3-7 3l-46 0c-6 0-10-5-10-11l0-45c0-3 1-5 3-7l28-29c-24-4-48 4-66 21-22 22-28 54-16 82 2 4 1 9-2 12l-73 72 31 30 72-72c3-3 8-4 12-2 28 12 60 5 82-16 17-18 25-42 20-66z"/>
<glyph unicode="&#57352;" d="M501 299l-61 0c-4 17-9 35-16 49l43 44c2 2 3 4 3 7 0 3-1 6-3 8l-60 60c-4 4-11 4-15 0l-44-43c-14 7-32 12-49 16l0 61c0 6-5 11-11 11l-64 0c-6 0-11-5-11-11l0-61c-17-4-35-9-49-16l-44 43c-4 4-11 4-15 0l-60-60c-4-4-4-11 0-15l43-44c-7-14-12-32-16-49l-61 0c-6 0-11-5-11-11l0-64c0-6 5-11 11-11l61 0c4-17 9-35 16-49l-43-44c-2-2-3-4-3-7 0-3 1-6 3-8l60-60c4-4 11-4 15 0l44 43c14-7 32-12 49-16l0-61c0-6 5-11 11-11l64 0c6 0 11 5 11 11l0 61c17 4 35 9 49 16l44-43c4-4 11-4 15 0l60 60c4 4 4 11 0 15l-43 44c7 14 12 32 16 49l61 0c6 0 11 5 11 11l0 64c0 6-5 11-11 11z m-10-64l-59 0c-5 0-9-4-10-8-3-12-11-44-20-60-3-4-2-9 1-13l42-41-46-46-41 42c-4 3-9 4-13 1-16-9-48-17-60-20-4-1-8-5-8-10l0-59-42 0 0 59c0 5-4 9-8 10-12 3-44 11-60 20-4 3-9 2-13-1l-41-42-46 46 42 41c3 4 4 9 1 13-9 16-17 48-20 60-1 4-5 8-10 8l-59 0 0 42 59 0c5 0 9 4 10 8 3 12 11 44 20 60 3 4 2 9-1 13l-42 41 46 46 41-42c4-3 9-4 13-1 16 9 48 17 59 20 5 1 9 5 9 10l0 59 42 0 0-59c0-5 4-9 8-10 19-5 46-12 60-20 4-3 9-2 13 1l41 42 46-46-42-41c-3-4-4-9-1-13 9-16 17-48 20-59 1-5 5-9 10-9l59 0z m-235 128c-59 0-107-48-107-107 0-59 48-107 107-107 59 0 107 48 107 107 0 59-48 107-107 107z m0-192c-47 0-85 38-85 85 0 47 38 85 85 85 47 0 85-38 85-85 0-47-38-85-85-85z"/>
<glyph unicode="&#57354;" d="M501 448l-490 0c-6 0-11-5-11-11l0-384c0-6 5-10 11-10l490 0c6 0 11 4 11 10l0 384c0 6-5 11-11 11z m-10-384l-470 0 0 363 470 0z m-438 235l406 0c6 0 10 4 10 10l0 64c0 6-4 11-10 11l-406 0c-6 0-10-5-10-11l0-64c0-6 4-10 10-10z m11 64l384 0 0-43-384 0z m160-107l-128 0c-6 0-11-5-11-11 0-6 5-10 11-10l128 0c6 0 11 4 11 10 0 6-5 11-11 11z m0-43l-149 0c-6 0-11-4-11-10 0-6 5-11 11-11l149 0c6 0 11 5 11 11 0 6-5 10-11 10z m0-42l-149 0c-6 0-11-5-11-11 0-6 5-11 11-11l149 0c6 0 11 5 11 11 0 6-5 11-11 11z m0-43l-149 0c-6 0-11-5-11-11 0-6 5-10 11-10l149 0c6 0 11 4 11 10 0 6-5 11-11 11z m213 128l-149 0c-6 0-11-5-11-11 0-6 5-10 11-10l149 0c6 0 11 4 11 10 0 6-5 11-11 11z m0-43l-149 0c-6 0-11-4-11-10 0-6 5-11 11-11l149 0c6 0 11 5 11 11 0 6-5 10-11 10z m0-42l-149 0c-6 0-11-5-11-11 0-6 5-11 11-11l149 0c6 0 11 5 11 11 0 6-5 11-11 11z m-21-43l-128 0c-6 0-11-5-11-11 0-6 5-10 11-10l128 0c6 0 11 4 11 10 0 6-5 11-11 11z"/>
<glyph unicode="&#57355;" d="M256 512c-141 0-256-115-256-256 0-141 115-256 256-256 141 0 256 115 256 256 0 141-115 256-256 256z m0-491c-129 0-235 106-235 235 0 129 106 235 235 235 129 0 235-106 235-235 0-129-106-235-235-235z m136 371c-4 4-11 4-15 0l-99-99c-7 3-14 6-22 6-24 0-43-19-43-43 0-24 19-43 43-43 24 0 43 19 43 43 0 8-3 15-6 22l99 99c4 4 4 11 0 15z m-136-157c-12 0-21 9-21 21 0 12 9 21 21 21 12 0 21-9 21-21 0-12-9-21-21-21z m-151 17c0 6-4 11-10 11l-43 0c-6 0-11-5-11-11 0-6 5-11 11-11l43 0c6 0 10 5 10 11z m-1-47l-39-17c-6-2-8-8-6-14 2-4 6-6 10-6 1 0 2 0 4 1l39 16c6 2 8 8 6 14-2 5-8 8-14 6z m343-17l-39 17c-6 2-12-1-14-6-2-6 0-12 6-14l39-16c1-1 3-1 4-1 4 0 8 2 10 6 2 6 0 12-6 14z m12 79l-43 0c0 0 0 0 0 0-6 0-11-5-11-11 0-6 5-11 11-11l43 0c6 0 10 5 10 11 0 6-4 11-10 11z m-55 40c1 0 3 0 4 0l39 17c6 2 8 8 6 14-2 5-8 8-14 5l-39-16c-6-2-8-8-6-14 2-4 6-6 10-6z m-91 87c1-1 3-1 4-1 4 0 8 3 10 7l16 39c3 6 0 12-5 14-6 2-12 0-14-6l-17-39c-2-6 1-12 6-14z m-58 7c6 0 10 5 10 11l0 43c0 6-4 10-10 10-6 0-11-4-11-10l0-43c0-6 5-11 11-11z m-70-1c2-4 6-7 10-7 1 0 3 0 4 1 5 2 8 8 6 14l-17 39c-2 6-8 8-14 6-5-2-8-8-5-14z m-35-23l-30 30c-4 4-11 4-15 0-4-4-4-11 0-15l30-30c2-2 5-4 8-4 3 0 5 2 7 4 5 4 5 10 0 15z m-38-50l-39 16c-6 3-12 0-14-5-2-6 0-12 6-14l39-17c1 0 3 0 4 0 4 0 8 2 10 6 2 6 0 12-6 14z m240-156l-192 0c-6 0-11-5-11-11l0-64c0-6 5-11 11-11l192 0c6 0 11 5 11 11l0 64c0 6-5 11-11 11z m-11-64l-170 0 0 42 170 0z"/>
<glyph unicode="&#57353;" d="M509 199l-310 310c-2 2-4 3-7 3l-181 0 0 0c-3 0-6-1-8-3-2-2-3-5-3-8l0-181c0-3 1-5 3-7l310-310c2-2 5-3 7-3 1 0 2 0 3 0 4 1 6 4 8 8l40 133 133 40c4 2 7 4 8 8 1 4 0 8-3 10z m-149-39c-4-2-7-4-8-8l-37-121-294 294 0 166 166 0 294-294z m-243 288c-29 0-53-24-53-53 0-30 24-54 53-54 30 0 54 24 54 54 0 29-24 53-54 53z m0-85c-17 0-32 14-32 32 0 17 15 32 32 32 18 0 32-15 32-32 0-18-14-32-32-32z"/>
<glyph unicode="&#57346;" d="M358 372l-267-139c-4-2-7-7-5-12 1-4 5-8 10-8l117 0 0-117c0-5 4-9 8-10 1-1 2-1 3-1 4 0 8 2 9 6l139 267c2 4 2 9-2 12-3 4-8 4-12 2z m-123-232l0 84c0 6-5 11-11 11l-84 0 198 103z m21 372c-141 0-256-115-256-256 0-141 115-256 256-256 141 0 256 115 256 256 0 141-115 256-256 256z m0-491c-129 0-235 106-235 235 0 129 106 235 235 235 129 0 235-106 235-235 0-129-106-235-235-235z"/>
<glyph unicode="&#57356;" d="M200 445c-5 4-11 4-16 0l-181-181c-4-5-4-11 0-16l181-181c3-2 5-3 8-3 3 0 5 1 8 3 4 4 4 11 0 15l-174 174 174 174c4 4 4 11 0 15z m309-181l-181 181c-5 4-11 4-16 0-4-4-4-11 0-15l174-174-174-174c-4-4-4-11 0-15 3-2 5-3 8-3 3 0 5 1 8 3l181 181c4 5 4 11 0 16z"/>
<glyph unicode="&#57357;" d="M128 277l107 0 0 22c0 16-13 33-29 37l-46 13 0 17c19 14 32 38 32 66 0 44-33 80-75 80-41 0-74-36-74-80 0-28 12-52 32-66l0-17-47-13c-16-4-28-21-28-37l0-22z m-11 214c24 0 45-18 51-42-3-1-7-2-12-1-5 1-14 3-19 12-1 3-4 5-7 6-4 0-7-1-10-3-15-16-39-17-53-12 8 23 27 40 50 40z m-53-61c19-6 43-4 62 10 7-7 16-12 27-13 2-1 5-1 8-1 3 0 6 1 9 1-1-30-25-55-53-55-29 0-52 26-53 58z m-30-114l62 17 0 21c7-2 14-3 21-3 8 0 15 1 22 3l0-21 62-17c6-2 12-10 12-17l-192 0c0 7 6 15 13 17z m450 20l-47 13 0 17c20 14 32 38 32 66 0 44-33 80-74 80-42 0-75-36-75-80 0-28 13-52 32-66l0-17-46-13c-16-4-29-21-29-37l0-22 235 0 0 22c0 16-12 33-28 37z m-89 155c24 0 44-18 51-42-4-1-8-2-13-1-5 1-14 3-18 12-2 3-5 5-8 6-3 0-7-1-9-3-16-16-39-17-54-12 8 23 28 40 51 40z m-54-61c19-6 43-4 63 10 6-7 16-12 26-13 3 0 5-1 8-1 3 0 7 1 10 2-2-31-25-56-53-56-29 0-53 26-54 58z m64-131l-106 0c0 7 6 15 12 17l62 17 0 21c7-2 14-3 22-3 7 0 14 1 21 3l0-21 62-17c7-2 13-10 13-17z m-60-240l-46 13 0 16c19 15 32 39 32 66 0 45-34 81-75 81-41 0-75-36-75-81 0-27 13-51 32-66l0-16-46-13c-16-5-28-21-28-38l0-21 234 0 0 21c0 17-12 33-28 38z m-89 154c24 0 44-17 51-41-4-1-8-2-13-1-5 1-13 3-18 12-2 3-4 5-8 5-3 1-6 0-9-3-15-15-39-17-53-11 7 23 27 39 50 39z m-53-60c19-6 43-4 62 9 7-6 16-11 26-12 2 0 5-1 7-1 4 0 8 1 11 2-1-31-25-56-53-56-29 0-52 26-53 58z m64-132l-107 0c0 7 6 15 13 17l62 18 0 21c6-2 14-3 21-3 7 0 15 1 21 3l0-21 62-18c7-2 13-10 13-17z m-121 163c4 5 4 11 0 16l-53 53c-4 4-11 4-15 0-4-4-4-11 0-15l53-54c2-2 5-3 8-3 2 0 5 1 7 3z m273 69l-53-53c-4-5-4-11 0-16 2-2 5-3 7-3 3 0 6 1 8 3l53 54c4 4 4 11 0 15-4 4-11 4-15 0z"/>
<glyph unicode="&#57358;" d="M256 405c-76 0-139-62-139-138 0-61 39-114 96-132l0-18c0-6 5-10 11-10l64 0c6 0 11 4 11 10l0 18c57 18 96 71 96 132 0 76-63 138-139 138z m29-252c-4-1-8-5-8-10l0-15-42 0 0 15c0 5-4 9-8 10-52 14-88 60-88 114 0 64 52 117 117 117 65 0 117-53 117-117 0-54-36-100-88-114z m-18-110l-22 0c-6 0-10-5-10-11 0-6 4-11 10-11l22 0c6 0 10 5 10 11 0 6-4 11-10 11z m21 42l-64 0c-6 0-11-4-11-10 0-6 5-11 11-11l64 0c6 0 11 5 11 11 0 6-5 10-11 10z m-32 342c6 0 11 4 11 10l0 43c0 6-5 11-11 11-6 0-11-5-11-11l0-43c0-6 5-10 11-10z m213-150l-42 0c-6 0-11-4-11-10 0-6 5-11 11-11l42 0c6 0 11 5 11 11 0 6-5 10-11 10z m-384 0l-42 0c-6 0-11-4-11-10 0-6 5-11 11-11l42 0c6 0 11 5 11 11 0 6-5 10-11 10z m43 103c2-2 5-3 7-3 3 0 6 1 8 3 4 4 4 11 0 15l-45 45c-5 4-11 4-16 0-4-4-4-11 0-15z m249-3c2 0 5 1 7 3l45 45c5 4 5 11 0 15-4 4-10 4-15 0l-45-45c-4-4-4-11 0-15 2-2 5-3 8-3z"/>
<glyph unicode="&#57359;" d="M508 404c-4 4-11 4-15-1l-237-271-237 271c-4 5-11 5-15 1-5-4-5-10-1-15l245-280c2-3 5-4 8-4 3 0 6 1 8 4l245 280c4 5 4 11-1 15z"/>
<glyph unicode="&#57360;" d="M456 395l-61 61c-4 4-11 4-15 0l-8-9c-9 6-19 9-29 9-15 0-28-5-38-15l-121-121c-4-4-4-11 0-15 2-2 5-3 8-3 2 0 5 1 7 3l121 120c9 10 24 12 36 7l-96-97-212-211c0 0 0 0 0-1-1 0-1-1-2-3l-45-105c-2-4-1-9 2-12 2-2 5-3 8-3 1 0 3 0 4 1l105 45c0 0 0 0 0 0l0 0c2 1 3 1 3 2 1 0 1 0 1 0l211 212 121 120c2 2 3 5 3 8 0 3-1 5-3 7z m-425-364l29 67 38-38z m85 40l-45 45 196 196 45-45z m211 211l-45 45 98 99 8 7 45-45z"/>
<glyph unicode="&#57361;" d="M465 421c-24 24-56 38-90 38-35 0-67-14-91-38l-256-256c-37-37-37-98 0-136 19-18 43-28 68-28 25 0 49 10 68 28l245 246c10 10 15 24 15 38 0 14-5 27-15 38-10 10-24 15-38 15-14 0-28-5-38-15l-181-182c-4-4-4-11 0-15 4-4 11-4 15 0l182 181c12 13 33 13 45 0 6-6 9-14 9-22 0-9-3-17-9-23l-245-246c-29-29-77-29-106 0-29 30-29 77 0 106l256 256c20 20 47 31 76 31 28 0 55-11 75-31 42-42 42-109 0-151l-181-181c-4-4-4-11 0-15 4-4 11-4 15 0l181 181c50 50 50 131 0 181z"/>
<glyph unicode="&#57362;" d="M491 448l-139 0 0 53c0 6-5 11-11 11l-170 0c-6 0-11-5-11-11l0-53-139 0c-6 0-10-5-10-11 0-6 4-10 10-10l54 0 0-416c0-6 4-11 10-11l342 0c6 0 10 5 10 11l0 416 54 0c6 0 10 4 10 10 0 6-4 11-10 11z m-310 43l150 0 0-43-150 0z m235-470l-320 0 0 406 320 0z m-245 342c-6 0-11-5-11-11l0-245c0-6 5-11 11-11 6 0 10 5 10 11l0 245c0 6-4 11-10 11z m85 0c-6 0-11-5-11-11l0-245c0-6 5-11 11-11 6 0 11 5 11 11l0 245c0 6-5 11-11 11z m75-11l0-245c0-6 4-11 10-11 6 0 11 5 11 11l0 245c0 6-5 11-11 11-6 0-10-5-10-11z"/>
<glyph unicode="&#57363;" d="M416 288c-6 0-11-5-11-11l0-256-384 0 0 427 331 0c6 0 11 5 11 11 0 6-5 10-11 10l-341 0c-6 0-11-4-11-10l0-448c0-6 5-11 11-11l405 0c6 0 11 5 11 11l0 266c0 6-5 11-11 11z m94 203c-6 13-18 21-31 21-8 0-16-3-22-10l-204-203c0-1-1-2-2-3l-30-60c-2-5-1-10 2-13 2-2 5-3 8-3 1 0 3 0 5 1l60 30c1 1 2 2 3 2l173 174c0 0 0 0 0 0 0 0 0 0 0 0l30 30c10 10 13 22 8 34z m-225-221l-30-15 15 30 164 165 16-16z m202 202l-22-22-15 15 22 22c6 6 15 3 18-4 2-4 1-7-3-11z"/>
<glyph unicode="&#57364;" d="M424 363l-61 61c-2 2-5 3-7 3-3 0-6-1-8-3l-188-189c0 0 0 0 0 0-1 0-1-1-1-1-1-1-1-1-2-2l0-1c0 0 0 0 0 0l-45-105c-2-4-1-9 2-12 2-2 5-3 8-3 1 0 3 0 4 1l105 45c0 0 0 0 0 0l1 0c1 1 2 2 3 3l149 149c0 0 0 0 0 0 0 0 0 0 0 0l40 39c4 4 4 11 0 15z m-197-181l-45 45 135 135 45-46z m-56 27l38-38-67-29z m206 123l-45 45 24 24 45-45z m-121 180c-141 0-256-115-256-256 0-141 115-256 256-256 141 0 256 115 256 256 0 141-115 256-256 256z m0-491c-129 0-235 106-235 235 0 129 106 235 235 235 129 0 235-106 235-235 0-129-106-235-235-235z"/>
<glyph unicode="&#57365;" d="M256 213c-12 0-21-9-21-21 0-8 4-15 10-18l0-57c0-6 5-10 11-10 6 0 11 4 11 10l0 57c6 3 10 10 10 18 0 12-9 21-21 21z m128 107l0 64c0 71-57 128-128 128-71 0-128-57-128-128l0-64-64 0 0-320 384 0 0 320z m-235 64c0 59 48 107 107 107 59 0 107-48 107-107l0-64-214 0z m278-363l-342 0 0 278 342 0z"/>
<glyph unicode="&#57366;" d="M341 205c-14 0-27 6-37 16l-2 2c-4 4-4 11 0 15 4 4 11 4 15 0l2-2c12-12 33-12 45 0l85 85c20 20 20 54 0 75l-38 37c-10 10-23 16-38 16-14 0-27-6-37-16l-85-84c-12-13-12-33 0-45l2-2c4-4 4-11 0-15-4-4-11-4-15 0l-2 2c-21 20-21 54 0 75l85 85c14 14 32 21 52 21 20 0 39-7 53-21l38-38c29-29 29-76 0-106l-85-84c-10-10-23-16-38-16z m-202-193c-20 0-39 7-53 21l-38 38c-29 29-29 76 0 105l85 85c10 10 23 16 38 16 14 0 27-6 37-16l2-2c4-4 4-11 0-15-4-4-11-4-15 0l-2 2c-12 12-33 12-45 0l-85-85c-20-21-20-54 0-75l38-38c10-10 23-15 38-15 14 0 27 5 37 15l85 85c12 12 12 33 0 45l-2 2c-4 4-4 11 0 15 4 4 11 4 15 0l2-2c21-21 21-54 0-75l-85-85c-14-14-32-21-52-21z m34 135c-3 0-5 1-8 3-4 5-4 11 0 15l166 166c5 5 11 5 16 0 4-4 4-10 0-15l-166-166c-3-2-5-3-8-3z"/>
<glyph unicode="&#57367;" d="M124 223l-78-31 27 48c3 5 2 10-2 14-32 25-50 61-50 99 0 76 77 138 171 138 94 0 171-62 171-138l21 0c0 88-86 159-192 159-106 0-192-71-192-159 0-41 18-81 50-110l-38-67c-2-4-2-9 1-12 2-3 5-4 8-4 2 0 3 0 4 1l104 41c9-3 18-5 28-6l3 21c-10 2-20 4-29 7-2 0-5 0-7-1z m348-140c26 23 40 54 40 88 0 75-73 138-160 138-87 0-160-63-160-138 0-77 70-141 153-141 0 0 0 0 0 0 21 0 41 4 61 12l81-31c1 0 2 0 4 0 3 0 6 1 8 3 3 3 3 8 1 12z m-63-20c-1 1-2 1-4 1-1 0-3 0-4-1-18-8-37-12-56-12 0 0 0 0 0 0-71 0-132 55-132 120 0 63 64 117 139 117 75 0 139-54 139-117 0-31-13-57-39-77-4-3-5-9-3-13l20-40z"/>
<glyph unicode="&#57368;" d="M256 512c-141 0-256-115-256-256 0-141 115-256 256-256 141 0 256 115 256 256 0 141-115 256-256 256z m0-491c-129 0-235 106-235 235 0 129 106 235 235 235 129 0 235-106 235-235 0-129-106-235-235-235z m160 224c-6 0-11-4-11-10 0-83-67-150-149-150-82 0-149 67-149 150 0 6-5 10-11 10-6 0-11-4-11-10 0-94 77-171 171-171 94 0 171 77 171 171 0 6-5 10-11 10z m-299 43c6 0 11 5 11 11 0 17 14 32 32 32 18 0 32-15 32-32 0-6 5-11 11-11 6 0 10 5 10 11 0 29-24 53-53 53-29 0-53-24-53-53 0-6 4-11 10-11z m192 0c6 0 11 5 11 11 0 17 14 32 32 32 18 0 32-15 32-32 0-6 5-11 11-11 6 0 10 5 10 11 0 29-24 53-53 53-29 0-53-24-53-53 0-6 4-11 10-11z"/>
<glyph unicode="&#57369;" d="M511 323c-1 5-5 8-10 8l-173 0-62 174c-1 4-5 7-10 7-5 0-9-3-10-7l-62-174-173 0c-5 0-9-3-10-8-2-4 0-9 3-11l144-113-62-185c-2-4 0-9 4-12 3-3 9-3 12 0l154 113 154-113c2-1 4-2 6-2 2 0 4 1 6 2 4 3 6 8 4 12l-62 185 144 113c4 2 5 7 3 11z m-166-112c-3-3-5-7-3-12l53-160-133 98c-2 1-4 2-6 2-2 0-4-1-6-2l-133-98 53 160c2 5 0 9-3 12l-125 98 150 0c5 0 9 3 10 7l54 153 54-153c1-4 5-7 10-7l150 0z"/>
<glyph unicode="&#57371;" d="M0 320l0-21c165 0 299-134 299-299l21 0c0 176-144 320-320 320z m0 192l0-21c271 0 491-220 491-491l21 0c0 282-230 512-512 512z m64-384c-35 0-64-29-64-64 0-35 29-64 64-64 35 0 64 29 64 64 0 35-29 64-64 64z m0-107c-24 0-43 19-43 43 0 24 19 43 43 43 24 0 43-19 43-43 0-24-19-43-43-43z"/>
<glyph unicode="&#57373;" d="M437 469c-4 4-11 4-15 0-4-4-4-11 0-15 44-44 69-103 69-166 0-63-25-122-69-166-4-4-4-11 0-15 2-2 5-3 7-3 3 0 6 1 8 3 48 48 75 113 75 181 0 68-27 133-75 181z m-60-60c-4 4-11 4-15 0-5-5-5-11 0-15 28-29 43-66 43-106 0-40-15-77-43-106-5-4-5-11 0-15 2-2 4-3 7-3 3 0 6 1 8 3 32 33 50 75 50 121 0 46-18 88-50 121z m-356-121c0 63 25 122 69 166 4 4 4 11 0 15-4 4-11 4-15 0-48-48-75-113-75-181 0-68 27-133 75-181 2-2 5-3 8-3 2 0 5 1 7 3 4 4 4 11 0 15-44 44-69 103-69 166z m86 0c0 40 15 77 43 106 5 4 5 11 0 15-4 4-11 4-15 0-32-33-50-75-50-121 0-46 18-88 50-121 2-2 5-3 8-3 3 0 5 1 7 3 5 4 5 11 0 15-28 29-43 66-43 106z m149 75c-41 0-75-34-75-75 0-38 28-69 64-74l0-171c0-6 5-11 11-11 6 0 11 5 11 11l0 171c36 5 64 36 64 74 0 41-34 75-75 75z m0-128c-29 0-53 24-53 53 0 29 24 53 53 53 29 0 53-24 53-53 0-29-24-53-53-53z"/>
<glyph unicode="&#57374;" d="M448 405l-384 0c-24 0-43-19-43-42l0-235c0-24 19-43 43-43l384 0c24 0 43 19 43 43l0 235c0 23-19 42-43 42z m0-21c1 0 3 0 4 0l-196-157-196 157c1 0 3 0 4 0z m21-256c0-12-9-21-21-21l-384 0c-12 0-21 9-21 21l0 235c0 2 0 4 1 6l205-164c2-2 5-2 7-2 2 0 5 0 7 2l205 164c1-2 1-4 1-6z"/>
<glyph unicode="&#57375;" d="M271 490c-4 2-9 1-12-2l-146-147-70 0c-24 0-43-19-43-42l0-64c0-24 19-43 43-43l70 0 146-146c2-2 5-3 8-3 1 0 2 0 4 0 4 2 6 6 6 10l0 427c0 4-2 8-6 10z m-15-411l-131 131c-2 2-5 3-8 3l-74 0c-12 0-22 10-22 22l0 64c0 11 10 21 22 21l74 0c3 0 6 1 8 3l131 131z m124 324c-4 4-11 3-15-2-4-4-3-11 2-15 36-30 60-77 60-119 0-43-24-90-60-120-5-4-6-11-2-15 2-3 5-4 8-4 3 0 5 1 7 2 41 35 68 88 68 137 0 48-27 102-68 136z m-43-53c-5 3-11 2-15-2-3-5-2-12 2-15 18-13 39-35 39-66 0-32-21-54-39-66-4-4-5-11-2-15 2-3 5-5 9-5 2 0 4 1 6 2 30 22 47 52 47 84 0 31-17 61-47 83z"/>
<glyph unicode="&#57376;" d="M117 192c6 0 11 5 11 11 0 6-5 10-11 10l-53 0c-12 0-21 10-21 22l0 64c0 11 9 21 21 21l75 0c2 0 5 1 7 3l131 131 0-91c0-6 5-11 11-11 6 0 11 5 11 11l0 117c0 4-3 8-7 10-4 2-8 1-12-2l-146-147-70 0c-24 0-43-19-43-42l0-64c0-24 19-43 43-43z m235 85c-6 0-11-4-11-10 0-24-19-43-42-43l0 11c0 6-5 10-11 10-6 0-11-4-11-10l0-156-56 57c-4 4-11 4-15 0-4-5-4-11 0-16l74-74c2-2 5-3 8-3 1 0 3 0 4 0 4 2 7 6 7 10l0 150c35 0 64 28 64 64 0 6-5 10-11 10z m136 211c-5 4-11 4-16 0l-426-427c-4-4-4-11 0-15 2-2 5-3 7-3 3 0 6 1 8 3l427 426c4 5 4 11 0 16z"/>
<glyph unicode="&#57377;" d="M456 318c-20 19-47 30-75 31-27 50-79 82-136 82-77 0-141-58-152-133-22 2-43-5-61-19-20-17-32-42-32-68 0-25 8-46 23-61 26-25 64-26 69-26 0 0 0 0 0 0l41 0c6 0 11 5 11 10 0 6-5 11-11 11l-41 0c0 0-33 0-54 20-11 11-17 27-17 46 0 20 9 39 25 51 15 13 35 18 55 13l12-2 1 12c4 70 62 125 131 125 51 0 98-30 120-76l3-7 7 1c25 1 48-8 66-26 18-17 28-40 28-65 0-77-73-91-82-92l-30 0c-6 0-11-5-11-11 0-5 5-10 11-10l31 0 2 0c1 0 101 14 101 113 0 30-13 59-35 81z m-154-225l-46-46 0 188c0 6-5 10-11 10-6 0-10-4-10-10l0-188-46 46c-4 4-11 4-15 0-4-4-4-11 0-15l64-64c1-1 2-2 3-3 2 0 3 0 4 0 2 0 3 0 4 0 2 1 3 2 4 3l64 64c4 4 4 11 0 15-4 4-11 4-15 0z"/>
<glyph unicode="&#57378;" d="M456 318c-20 19-47 30-75 31-27 50-79 82-136 82-77 0-141-58-152-133-22 2-43-5-61-19-20-17-32-42-32-68 0-25 8-46 23-61 26-25 64-26 69-26 0 0 0 0 0 0l61 0c6 0 11 5 11 10 0 6-5 11-11 11l-61 0c0 0-33 0-54 20-11 11-17 27-17 46 0 20 9 39 25 51 15 13 35 18 55 13l12-2 1 12c4 70 62 125 131 125 51 0 98-30 120-76l3-7 7 1c25 1 48-8 66-26 18-17 28-40 28-65 0-77-73-91-82-92l-50 0c-6 0-11-5-11-11 0-5 5-10 11-10l51 0 2 0c1 0 101 14 101 113 0 30-13 59-35 81z m-203-54c-1 1-2 1-4 2-2 1-5 1-8 0-1-1-2-1-3-2l-64-64c-4-5-4-11 0-16 4-4 11-4 15 0l46 46 0-209c0-6 4-10 10-10 6 0 11 4 11 10l0 209 46-46c2-2 5-3 7-3 3 0 6 1 8 3 4 5 4 11 0 16z"/>
<glyph unicode="&#57379;" d="M501 85c-29 0-53 24-53 54l0 117c0 78-48 148-120 178-8 33-37 57-72 57-34 0-65-24-73-57-71-30-119-100-119-178l0-117c0-30-24-54-53-54-6 0-11-4-11-10 0-6 5-11 11-11l171 0c5-36 36-64 74-64 38 0 69 28 74 64l171 0c6 0 11 5 11 11 0 6-5 10-11 10z m-245-64c-26 0-47 19-52 43l104 0c-5-24-26-43-52-43z m-193 64c14 14 22 33 22 54l0 117c0 71 45 135 112 160 3 1 6 4 6 8 4 26 27 45 53 45 26 0 49-19 53-45 0-4 3-7 6-8 67-25 112-89 112-160l0-117c0-21 8-40 22-54z"/>
<glyph unicode="&#57372;" d="M267 213l-171 0c-6 0-11-4-11-10l0-128c0-6 5-11 11-11l171 0c6 0 10 5 10 11l0 128c0 6-4 10-10 10z m-11-128l-149 0 0 107 149 0z m256 267c0 2 0 3-1 4 0 0 0 0 0 0 0 1 0 1 0 1l-43 85c-2 4-5 6-9 6l-406 0c-4 0-7-2-9-6l-43-85c0 0 0-1 0-1 0 0 0 0 0 0-1-1-1-3-1-4 0 0 0 0 0 0l0-21c0-30 17-56 43-68l0-252c0-6 4-11 10-11l406 0c6 0 10 5 10 11l0 252c26 12 43 38 43 68l0 21c0 0 0 0 0 0z m-28 11l-81 0-16 64 65 0z m-100-72c-14-21-40-35-64-35-20 0-39 8-53 23l0 62 117 0z m-256 50l117 0 0-62c-14-15-33-23-53-23-24 0-50 14-64 35z m117 86l0-64-114 0 16 64z m120 0l16-64-114 0 0 64z m-305 0l65 0-16-64-81 0z m-39-96l0 10 86 0 0-48c-12-11-22-16-32-16-30 0-54 24-54 54z m299-310l0 171 85 0 0-171z m128 0l-21 0 0 182c0 6-5 10-11 10l-107 0c-6 0-10-4-10-10l0-182-235 0 0 236c4-1 7-1 11-1 17 0 31 8 41 16 19-23 48-37 76-37 24 0 46 9 64 24 18-15 40-24 64-24 28 0 57 14 76 37 11-8 24-16 41-16 4 0 8 0 11 1z m43 310c0-30-24-54-54-54-10 0-20 5-32 16l0 48 86 0z m-107-235c0-6-5-11-11-11-6 0-10 5-10 11 0 6 4 11 10 11 6 0 11-5 11-11z"/>
<glyph unicode="&#57380;" d="M512 395l0 0c0 1 0 2-1 3 0 0 0 1 0 1 0 1-1 2-2 3 0 0 0 0 0 0-1 1-1 1-2 2 0 0-1 0-1 0 0 0 0 0 0 0l-246 107c-2 1-6 1-8 0l-246-107c0 0 0 0 0 0 0 0-1 0-1 0-1-1-1-1-2-2 0 0 0 0 0 0-1-1-2-2-2-3 0 0 0-1 0-1-1-1-1-2-1-3l0 0c0 0 0 0 0 0l0-278c0-4 3-8 6-9l246-107c0 0 0 0 0 0 1-1 3-1 4-1 1 0 3 0 4 1 0 0 0 0 0 0l246 107c3 1 6 5 6 9l0 278c0 0 0 0 0 0z m-256 95l219-95-99-43-198 104z m0-190l-219 95 116 50 198-104z m-235 78l224-97 0-254-224 97z m470-254l-224-97 0 254 224 97z m-295 131l-117 53c-3 2-7 2-10 0-3-2-5-6-5-9l0-107c0-4 2-8 6-10l118-53c1-1 2-1 4-1 2 0 4 1 6 2 3 2 5 5 5 9l0 106c0 5-3 8-7 10z m-15-100l-96 44 0 83 96-44z"/>
<glyph unicode="&#57381;" d="M469 245c-14 0-28-7-35-19l-58 24c5 12 8 25 8 38 0 23-8 43-21 60l85 85c6-4 13-6 21-6 24 0 43 19 43 42 0 24-19 43-43 43-23 0-42-19-42-43 0-8 2-15 6-21l-85-85c-17 13-37 21-60 21-36 0-67-20-83-49l-120 52c0 2 0 5 0 8 0 23-19 42-42 42-24 0-43-19-43-42 0-24 19-43 43-43 13 0 24 6 32 16l121-52c-3-9-4-18-4-28 0-23 8-44 21-60l-149-149c-6 4-13 6-21 6-24 0-43-19-43-42 0-24 19-43 43-43 23 0 42 19 42 43 0 8-2 15-6 21l149 149c14-11 31-18 49-20l0-109c-18-5-32-22-32-41 0-24 19-43 43-43 24 0 43 19 43 43 0 19-14 36-32 41l0 109c27 3 51 17 66 38l62-25c0-1 0-2 0-3 0-24 19-43 42-43 24 0 43 19 43 43 0 23-19 42-43 42z m-426 128c-12 0-22 10-22 22 0 11 10 21 22 21 11 0 21-10 21-21 0-12-10-22-21-22z m426 118c12 0 22-10 22-22 0-11-10-21-22-21-11 0-21 10-21 21 0 12 10 22 21 22z m-426-470c-12 0-22 10-22 22 0 11 10 21 22 21 11 0 21-10 21-21 0-12-10-22-21-22z m266 22c0-12-9-22-21-22-12 0-21 10-21 22 0 11 9 21 21 21 12 0 21-10 21-21z m-21 170c-41 0-75 34-75 75 0 41 34 75 75 75 41 0 75-34 75-75 0-41-34-75-75-75z m181-32c-11 0-21 10-21 22 0 11 10 21 21 21 12 0 22-10 22-21 0-12-10-22-22-22z"/>
<glyph unicode="&#57370;" d="M403 264l-280 245c-5 4-11 4-15-1-4-4-4-11 1-15l271-237-271-237c-5-4-5-11-1-15 2-3 5-4 8-4 2 0 5 1 7 3l280 245c3 2 4 5 4 8 0 3-1 6-4 8z"/>
<glyph unicode="&#57382;" d="M403 19l-271 237 271 237c5 4 5 11 1 15-4 5-10 5-15 1l-280-245c-3-2-4-5-4-8 0-3 1-6 4-8l280-245c2-2 5-3 7-3 3 0 6 1 8 4 4 4 4 11-1 15z"/>
<glyph unicode="&#57383;" d="M509 123l-245 280c-4 5-12 5-16 0l-245-280c-4-5-4-11 1-15 4-4 11-4 15 1l237 271 237-271c2-3 5-4 8-4 3 0 5 1 7 3 5 4 5 10 1 15z"/>
<glyph unicode="&#57384;" d="M256 512c-106 0-192-86-192-192l0-288c0-18 14-32 32-32l11 0c17 0 32 14 32 32 0 6 4 11 10 11 6 0 11-5 11-11 0-18 14-32 32-32l21 0c18 0 32 14 32 32 0 6 5 11 11 11 6 0 11-5 11-11 0-18 14-32 32-32l21 0c18 0 32 14 32 32 0 6 5 11 11 11 6 0 10-5 10-11 0-18 15-32 32-32l11 0c18 0 32 14 32 32l0 288c0 106-86 192-192 192z m171-480c0-6-5-11-11-11l-11 0c-6 0-10 5-10 11 0 18-15 32-32 32-18 0-32-14-32-32 0-6-5-11-11-11l-21 0c-6 0-11 5-11 11 0 18-14 32-32 32-18 0-32-14-32-32 0-6-5-11-11-11l-21 0c-6 0-11 5-11 11 0 18-14 32-32 32-17 0-32-14-32-32 0-6-4-11-10-11l-11 0c-6 0-11 5-11 11l0 288c0 94 77 171 171 171 94 0 171-77 171-171z m-107 331c-24 0-43-19-43-43l0-64c0-24 19-43 43-43 24 0 43 19 43 43l0 64c0 24-19 43-43 43z m21-107c0-12-9-21-21-21-12 0-21 9-21 21 11 0 21 10 21 21 0 12-10 22-21 22l0 21c0 12 9 21 21 21 12 0 21-9 21-21z m-149 107c-24 0-43-19-43-43l0-64c0-24 19-43 43-43 24 0 43 19 43 43l0 64c0 24-19 43-43 43z m21-107c0-12-9-21-21-21-12 0-21 9-21 21 11 0 21 10 21 21 0 12-10 22-21 22l0 21c0 12 9 21 21 21 12 0 21-9 21-21z"/>
<glyph unicode="&#57385;" d="M181 320c-11 0-21-10-21-21 0-12 10-22 21-22 12 0 22 10 22 22 0 11-10 21-22 21z m107-171c0-11-10-21-21-21-12 0-22 10-22 21 0 12 10 22 22 22 11 0 21-10 21-22z m-139-53c0-12-9-21-21-21-12 0-21 9-21 21 0 12 9 21 21 21 12 0 21-9 21-21z m-64 107c0-12-9-22-21-22-12 0-21 10-21 22 0 11 9 21 21 21 12 0 21-10 21-21z m171-107c0-12-10-21-21-21-12 0-22 9-22 21 0 12 10 21 22 21 11 0 21-9 21-21z m64 107c0-12-10-22-21-22-12 0-22 10-22 22 0 11 10 21 22 21 11 0 21-10 21-21z m107 170c0-11-10-21-22-21-11 0-21 10-21 21 0 12 10 22 21 22 12 0 22-10 22-22z m0-106c0-12-10-22-22-22-11 0-21 10-21 22 0 11 10 21 21 21 12 0 22-10 22-21z m42 182c0 0 0 0 0 0 0 3-1 5-3 7 0 0-1 0-1 0 0 0 0 1 0 1-1 0-2 1-3 1 0 0 0 0 0 0l-171 54c-2 0-4 0-6 0l-171-54c0 0 0 0 0 0-1 0-2-1-3-1 0 0 0-1 0-1-1 0-1 0-1 0-2-2-3-4-3-7 0 0 0 0 0 0 0-1 0-1 0-1l0-108-100-31c0 0 0 0 0 0-1-1-2-1-2-2-1 0-1 0-1 0 0 0 0 0 0 0-2-2-3-4-4-7 0 0 0 0 0-1 0 0 0 0 0 0l0-214c0-4 3-8 6-9l171-75c0 0 0 0 1 0 1-1 2-1 3-1 2 0 3 0 4 1 0 0 0 0 1 0l170 75c4 1 7 5 7 9l0 100 100 40c4 1 6 5 6 10l0 213c0 0 0 0 0 1z m-181 41l138-43-138-52-138 52z m-107-244l-137 52 137 43 138-43z m-53 187l149-56 0-44-92 29c-3 1-5 1-7 0l-50-15z m-107-150l150-56 0-200-150 65z m320-191l-149-65 0 200 149 56z m107 150l-85-34 0 91c0 0 0 0 0 0 0 1 0 1-1 1 0 3-1 5-3 7 0 0 0 0 0 0-1 0-1 0-1 0-1 1-2 1-3 2 0 0 0 0 0 0l-56 17 0 51 149 56z m-160 185c12 0 21 9 21 21 0 12-9 21-21 21-12 0-21-9-21-21 0-12 9-21 21-21z"/>
<glyph unicode="&#57386;" d="M501 363l-202 0 0 10c0 30-24 54-54 54-29 0-53-24-53-54l0-53-85 0c-4 0-8-2-10-5l-52-95-42-42c-2-2-3-5-3-7l0-118c0-6 5-10 11-10l43 0c5-25 27-43 53-43 25 0 47 18 52 43l194 0c5-25 27-43 52-43 26 0 48 18 53 43l43 0c6 0 11 4 11 10l0 299c0 6-5 11-11 11z m-10-256l-278 0 0 234 278 0z m-138-43l-194 0c-2 8-5 15-10 21l214 0c-5-6-8-13-10-21z m-140 309c0 18 15 32 32 32 18 0 32-14 32-32l0-10-64 0z m-152-167c1 0 1 1 2 2l50 91 79 0 0-192-171 0 0 59z m-40-121l43 0c-4-6-8-13-10-21l-33 0z m86-64c-18 0-32 15-32 32 0 18 14 32 32 32 17 0 32-14 32-32 0-17-15-32-32-32z m298 0c-17 0-32 15-32 32 0 18 15 32 32 32 18 0 32-14 32-32 0-17-14-32-32-32z m53 43c-2 8-6 15-10 21l43 0 0-21z m-367 129c2-1 3-1 5-1 4 0 8 2 10 6l29 58 25 0c6 0 11 5 11 11 0 6-5 10-11 10l-32 0c-4 0-8-2-10-6l-32-64c-2-5 0-11 5-14z m186 52l0-42c0-6 5-11 11-11l32 0 0-32c0-6 5-11 11-11l42 0c6 0 11 5 11 11l0 32 32 0c6 0 11 5 11 11l0 42c0 6-5 11-11 11l-32 0 0 32c0 6-5 11-11 11l-42 0c-6 0-11-5-11-11l0-32-32 0c-6 0-11-5-11-11z m22-10l32 0c6 0 10 4 10 10l0 32 22 0 0-32c0-6 4-10 10-10l32 0 0-22-32 0c-6 0-10-4-10-10l0-32-22 0 0 32c0 6-4 10-10 10l-32 0z"/>
<glyph unicode="&#57387;" d="M501 469l-74 0 0 32c0 6-5 11-11 11l-64 0c-6 0-11-5-11-11l0-32-170 0 0 32c0 6-5 11-11 11l-64 0c-6 0-11-5-11-11l0-32-74 0c-6 0-11-4-11-10l0-448c0-6 5-11 11-11l490 0c6 0 11 5 11 11l0 448c0 6-5 10-11 10z m-138 22l42 0 0-64-42 0z m-256 0l42 0 0-64-42 0z m-22-43l0-32c0-6 5-11 11-11l64 0c6 0 11 5 11 11l0 32 170 0 0-32c0-6 5-11 11-11l64 0c6 0 11 5 11 11l0 32 64 0 0-85-470 0 0 85z m-64-427l0 320 470 0 0-320z m438 235c6 0 10 5 10 11 0 6-4 10-10 10l-75 0 0 32c0 6-5 11-11 11-6 0-10-5-10-11l0-32-96 0 0 32c0 6-5 11-11 11-6 0-11-5-11-11l0-32-96 0 0 32c0 6-4 11-10 11-6 0-11-5-11-11l0-32-75 0c-6 0-10-4-10-10 0-6 4-11 10-11l75 0 0-64-75 0c-6 0-10-5-10-11 0-6 4-10 10-10l75 0 0-64-75 0c-6 0-10-5-10-11 0-6 4-11 10-11l75 0 0-32c0-6 5-10 11-10 6 0 10 4 10 10l0 32 96 0 0-32c0-6 5-10 11-10 6 0 11 4 11 10l0 32 96 0 0-32c0-6 4-10 10-10 6 0 11 4 11 10l0 32 75 0c6 0 10 5 10 11 0 6-4 11-10 11l-75 0 0 64 75 0c6 0 10 4 10 10 0 6-4 11-10 11l-75 0 0 64z m-310 0l96 0 0-64-96 0z m0-149l0 64 96 0 0-64z m214 0l-96 0 0 64 96 0z m0 85l-96 0 0 64 96 0z"/>
<glyph unicode="&#57388;" d="M501 384l-53 0 0 32c0 6-5 11-11 11l-266 0 0 32c0 6-5 10-11 10l-149 0c-6 0-11-4-11-10l0-352c0-36 29-64 64-64l373 0c42 0 75 33 75 74l0 256c0 6-5 11-11 11z m-394-11l0-266c0-24-19-43-43-43-24 0-43 19-43 43l0 341 128 0 0-32c0-6 5-11 11-11l267 0 0-21-310 0c-6 0-10-5-10-11z m384-256c0-29-24-53-54-53l-325 0c10 11 16 26 16 43l0 256 363 0z"/>
<glyph unicode="&#57389;" d="M501 235l-120 0-40 100c-2 4-7 7-11 6-5 0-9-4-10-8l-52-243-55 349c-1 5-5 9-10 9-5 0-9-3-11-8l-61-205-120 0c-6 0-11-5-11-11 0-6 5-11 11-11l128 0c4 0 9 3 10 8l50 168 57-359c1-5 5-9 10-9 0 0 1 0 1 0 5 0 9 4 10 9l57 264 29-74c2-4 6-7 10-7l128 0c6 0 11 5 11 11 0 6-5 11-11 11z"/>
<glyph unicode="&#57390;" d="M405 491l-384 0 0-384 384 0z m-21-22l0-277-46 0-61 153c-2 4-6 7-10 7-4 0-8-2-10-6l-46-102-43 51c-2 2-5 4-9 4-3-1-6-3-8-6l-61-101-47 0 0 277z m-69-277l-200 0 46 78 44-53c2-3 6-4 10-4 3 1 7 3 8 7l43 94z m-272-64l0 43 341 0 0-43z m395 237c-5 1-11-4-11-9-1-6 4-12 10-12l31-3-27-297-308 28c-6 0-11-4-11-10-1-6 3-11 9-12l330-30 31 340z m-310-24c24 0 43 19 43 43 0 24-19 43-43 43-24 0-43-19-43-43 0-24 19-43 43-43z m0 64c12 0 21-9 21-21 0-12-9-21-21-21-12 0-21 9-21 21 0 12 9 21 21 21z"/>
<glyph unicode="&#57391;" d="M512 205c-1 1-1 1-1 2 0 0 0 0 0 0l-68 156 16 0c6 0 10 4 10 10 0 6-4 11-10 11l-173 0c-4 18-21 32-41 32-19 0-36-14-41-32l-151 0c-6 0-10-5-10-11 0-6 4-10 10-10l16 0-68-156c0 0 0 0 0 0 0-1 0-1-1-2 0-1 0-2 0-2 0 0 0 0 0 0 0-47 38-86 85-86 47 0 86 39 86 86 0 0 0 0 0 0 0 0-1 1-1 2 0 1 0 1 0 2 0 0 0 0 0 0l-68 156 102 0c4-15 16-27 31-31l0-311-54 0c-6 0-10-4-10-10 0-6 4-11 10-11l150 0c6 0 10 5 10 11 0 6-4 10-10 10l-75 0 0 311c15 4 27 16 30 31l124 0-68-156c0 0 0 0 0 0 0-1 0-1 0-2 0-1-1-2-1-2 0 0 0 0 0 0 0-47 39-86 86-86 47 0 85 39 85 86 0 0 0 0 0 0 0 0 0 1 0 2z m-427 142l59-134-117 0z m0-208c-31 0-58 23-63 53l126 0c-5-30-31-53-63-53z m160 213c-11 0-21 10-21 21 0 12 10 22 21 22 12 0 22-10 22-22 0-11-10-21-22-21z m240-139l-117 0 59 134z m-58-74c-32 0-58 23-63 53l126 0c-5-30-32-53-63-53z"/>
<glyph unicode="&#57392;" d="M507 371c-6 8-16 13-27 13l-256 0c-22 0-46-17-55-39l-60-149c-5-12-4-24 2-33 6-9 16-14 27-14l256 0c22 0 46 17 55 39l60 149c5 13 4 25-2 34z m-18-26l-60-149c-5-14-21-25-35-25l-256 0c-3 0-7 0-9 4-2 3-2 8 0 13l60 149c5 14 21 26 35 26l256 0c3 0 7-1 9-4 2-3 2-8 0-14z m-42-5l-145-81-77 79c-4 4-11 4-15 0-4-4-4-11 0-15l83-85c2-2 5-3 7-3 2 0 4 0 6 1l151 85c5 3 7 10 4 15-3 5-9 7-14 4z m-217-86l-74-53c-5-4-6-10-3-15 2-3 5-5 9-5 2 0 4 1 6 2l75 54c4 3 6 10 2 15-3 4-10 5-15 2z m144-3c-3 5-10 7-15 3-5-3-7-9-4-14l32-53c2-4 6-6 9-6 2 0 4 1 6 2 5 3 7 9 4 14z m-363 112l106 0c6 0 11 4 11 10 0 6-5 11-11 11l-106 0c-6 0-11-5-11-11 0-6 5-10 11-10z m42-171l-42 0c-6 0-11-5-11-11 0-6 5-10 11-10l42 0c6 0 11 4 11 10 0 6-5 11-11 11z m22 107l-64 0c-6 0-11-5-11-11 0-6 5-11 11-11l64 0c6 0 10 5 10 11 0 6-4 11-10 11z"/>
<glyph unicode="&#57393;" d="M309 491l-128 0c-6 0-10-5-10-11l0-128c0-6 4-11 10-11l128 0c6 0 11 5 11 11l0 128c0 6-5 11-11 11z m-10-128l-107 0 0 106 107 0z m-160 128l-128 0c-6 0-11-5-11-11l0-128c0-6 5-11 11-11l128 0c6 0 10 5 10 11l0 128c0 6-4 11-10 11z m-11-128l-107 0 0 106 107 0z m352 128l-128 0c-6 0-11-5-11-11l0-128c0-6 5-11 11-11l128 0c6 0 11 5 11 11l0 128c0 6-5 11-11 11z m-11-128l-106 0 0 106 106 0z m-160-43l-128 0c-6 0-10-5-10-11l0-128c0-6 4-10 10-10l128 0c6 0 11 4 11 10l0 128c0 6-5 11-11 11z m-10-128l-107 0 0 107 107 0z m-160 128l-128 0c-6 0-11-5-11-11l0-128c0-6 5-10 11-10l128 0c6 0 10 4 10 10l0 128c0 6-4 11-10 11z m-11-128l-107 0 0 107 107 0z m352 128l-128 0c-6 0-11-5-11-11l0-128c0-6 5-10 11-10l128 0c6 0 11 4 11 10l0 128c0 6-5 11-11 11z m-11-128l-106 0 0 107 106 0z m-160-43l-128 0c-6 0-10-4-10-10l0-128c0-6 4-11 10-11l128 0c6 0 11 5 11 11l0 128c0 6-5 10-11 10z m-10-128l-107 0 0 107 107 0z m-160 128l-128 0c-6 0-11-4-11-10l0-128c0-6 5-11 11-11l128 0c6 0 10 5 10 11l0 128c0 6-4 10-10 10z m-11-128l-107 0 0 107 107 0z m352 128l-128 0c-6 0-11-4-11-10l0-128c0-6 5-11 11-11l128 0c6 0 11 5 11 11l0 128c0 6-5 10-11 10z m-11-128l-106 0 0 107 106 0z"/>
<glyph unicode="&#57394;" d="M501 491l-490 0c-6 0-11-5-11-11l0-107c0-6 5-10 11-10l490 0c6 0 11 4 11 10l0 107c0 6-5 11-11 11z m-10-107l-470 0 0 85 470 0z m10-64l-490 0c-6 0-11-5-11-11l0-106c0-6 5-11 11-11l490 0c6 0 11 5 11 11l0 106c0 6-5 11-11 11z m-10-107l-470 0 0 86 470 0z m10-64l-490 0c-6 0-11-4-11-10l0-107c0-6 5-11 11-11l490 0c6 0 11 5 11 11l0 107c0 6-5 10-11 10z m-10-106l-470 0 0 85 470 0z"/>
<glyph unicode="&#57395;" d="M501 512l-490 0c-6 0-11-5-11-11l0-490c0-6 5-11 11-11l490 0c6 0 11 5 11 11l0 490c0 6-5 11-11 11z m-10-491l-470 0 0 470 470 0z m-203 342l149 0c6 0 11 4 11 10 0 6-5 11-11 11l-149 0c-6 0-11-5-11-11 0-6 5-10 11-10z m-64-64l213 0c6 0 11 4 11 10 0 6-5 11-11 11l-213 0c-6 0-11-5-11-11 0-6 5-10 11-10z m0-64l213 0c6 0 11 4 11 10 0 6-5 11-11 11l-213 0c-6 0-11-5-11-11 0-6 5-10 11-10z m0-64l213 0c6 0 11 4 11 10 0 6-5 11-11 11l-213 0c-6 0-11-5-11-11 0-6 5-10 11-10z m0-64l149 0c6 0 11 4 11 10 0 6-5 11-11 11l-149 0c-6 0-11-5-11-11 0-6 5-10 11-10z m-149 234l85 0c6 0 11 5 11 11l0 85c0 6-5 11-11 11l-85 0c-6 0-11-5-11-11l0-85c0-6 5-11 11-11z m10 86l64 0 0-64-64 0z m-10-235l85 0c6 0 11 5 11 11l0 106c0 6-5 11-11 11l-85 0c-6 0-11-5-11-11l0-106c0-6 5-11 11-11z m10 107l64 0 0-86-64 0z m-10-235l85 0c6 0 11 5 11 11l0 85c0 6-5 11-11 11l-85 0c-6 0-11-5-11-11l0-85c0-6 5-11 11-11z m10 85l64 0 0-64-64 0z"/>
<glyph unicode="&#57396;" d="M277 128c0-12-9-21-21-21-12 0-21 9-21 21 0 12 9 21 21 21 12 0 21-9 21-21z m-21 384c-141 0-256-115-256-256 0-141 115-256 256-256 141 0 256 115 256 256 0 141-115 256-256 256z m0-491c-129 0-235 106-235 235 0 129 106 235 235 235 129 0 235-106 235-235 0-129-106-235-235-235z m0 363c-41 0-75-33-75-75 0-6 5-10 11-10 6 0 11 4 11 10 0 30 24 54 53 54 29 0 53-24 53-54 0-29-24-53-53-53-6 0-11-5-11-11l0-64c0-6 5-10 11-10 6 0 11 4 11 10l0 54c36 6 64 37 64 74 0 42-34 75-75 75z"/>
<glyph unicode="&#57397;" d="M249 512l-4 0c-137-2-247-114-245-250 2-135 108-241 241-241l5 0c65 1 127 28 174 75 47 47 72 110 71 175-3 135-109 241-242 241z m156-401c-43-43-100-67-160-68l-4 0c-121 0-217 96-220 220-2 123 99 225 225 228l3 0c122 0 218-97 220-220 1-60-22-117-64-160z m-160 113c6 0 11 5 11 11l0 149c0 6-5 11-11 11-6 0-10-5-10-11l0-149c0-6 4-11 10-11z m0-43c0 0 0 0 0 0-12 0-21-10-21-21 0-12 10-21 21-21 0 0 1 0 1 0 11 0 21 10 21 21-1 12-10 21-22 21z"/>
<glyph unicode="&#57399;" d="M475 416l-438 0c-20 0-37-17-37-37l0-246c0-20 17-37 37-37l438 0c20 0 37 17 37 37l0 246c0 20-17 37-37 37z m-187-256l-64 0 0 96-48-62-48 62 0-96-64 0 0 192 64 0 48-64 48 64 64 0z m96-16l-80 112 48 0 0 96 64 0 0-96 48 0z"/>
<glyph unicode="&#57400;" d="M384 128l-256 0 0 255 64 1 0 64-128 0 0-384 384 0 0 160-64 0z m-128 320l64-64-96-96 64-64 96 96 64-64 0 192z"/>
<glyph unicode="&#57401;" d="M504 413c-9 7-22 6-30-3l-218-261-218 261c-8 9-21 10-30 3-9-8-11-21-3-30l235-281c4-5 10-8 16-8 6 0 12 3 16 8l235 281c8 9 6 22-3 30z"/>
<glyph unicode="&#57402;" d="M507 130l-235 280c-8 10-24 10-32 0l-235-280c-8-9-6-23 3-30 9-8 22-7 30 2l218 261 218-261c5-5 11-7 17-7 5 0 9 1 13 5 9 7 11 21 3 30z"/>
<glyph unicode="&#57403;" d="M149 256l261 218c9 8 10 21 3 30-8 9-21 11-30 3l-281-235c-5-4-8-10-8-16 0-6 3-12 8-16l280-235c4-3 9-5 14-5 6 0 12 3 17 8 7 9 6 22-3 30z"/>
<glyph unicode="&#57404;" d="M410 272l-281 235c-9 8-22 6-30-3-7-9-6-22 3-30l261-218-261-218c-9-8-10-21-3-30 5-5 11-8 17-8 5 0 10 2 13 5l281 235c5 4 8 10 8 16 0 6-3 12-8 16z"/>
<glyph unicode="&#57405;" d="M286 256l220 220c8 8 8 21 0 30-9 8-22 8-30 0l-220-220-220 220c-8 8-21 8-30 0-8-9-8-22 0-30l220-220-220-220c-8-8-8-21 0-30 4-4 10-6 15-6 6 0 11 2 15 6l220 220 220-220c4-4 9-6 15-6 5 0 11 2 15 6 8 9 8 22 0 30z"/>
<glyph unicode="&#57406;" d="M19 512l260 0c10 0 19-9 19-19l0-65c0-11-9-20-19-20l-260 0c-10 0-19 9-19 20l0 65c0 10 9 19 19 19z m0-207l474 0c10 0 19-9 19-20l0-65c0-10-9-19-19-19l-474 0c-10 0-19 9-19 19l0 65c0 11 9 20 19 20z m408 207l65 0c10 0 19-9 19-19l0-65c0-11-9-20-19-20l-65 0c-11 0-20 9-20 20l0 65c0 10 9 19 20 19z m-408-408l162 0c11 0 20-9 20-20l0-65c0-10-9-19-20-19l-162 0c-10 0-19 9-19 19l0 65c0 11 9 20 19 20z m311 1l162 0c10 0 19-9 19-20l0-65c0-10-9-19-19-19l-162 0c-11 0-20 9-20 19l0 65c0 11 9 20 20 20z"/>
<glyph unicode="&#57398;" d="M288 127c0 0 0 0 0 0-6 0-10-4-10-10l-1-75-256 1 0 426 257 0 0-75c0-6 5-11 11-11 0 0 0 0 0 0 6 0 10 5 10 11l1 85c0 6-5 11-11 11l-278 1c0 0 0 0 0 0-3 0-6-1-8-3-2-2-3-5-3-8l0-448c0-6 5-11 11-11l277 0 0 0c6 0 11 5 11 10l0 86c0 6-5 10-11 10z m223 122c-1 2-2 4-4 5l-104 105c-4 4-11 4-15 0-4-4-4-11 0-15l87-88-357 0c-6 0-11-5-11-11 0-6 5-11 11-11l359 1-90-90c-4-4-4-10 0-15 2-2 5-3 8-3 3 0 5 1 7 3l107 107c2 2 3 5 3 7 0 2 0 4-1 5z"/>
<glyph unicode="&#57407;" d="M501 277l-337 0 68 67c4 5 4 11 0 16-5 4-11 4-16 0l-85-86c-1-1-2-2-2-3-1-3-1-6 0-8 0-2 1-3 2-4l85-85c3-2 5-3 8-3 3 0 5 1 8 3 4 4 4 11 0 15l-68 67 337 0c6 0 11 5 11 11 0 6-5 10-11 10z m-490 235c-6 0-11-5-11-11l0-490c0-6 5-11 11-11 6 0 10 5 10 11l0 490c0 6-4 11-10 11z"/>
<glyph unicode="&#57408;" d="M511 249c0 2-1 3-2 4l-85 85c-5 4-11 4-16 0-4-4-4-11 0-15l68-67-209 0c-6 0-11-5-11-11 0-6 5-10 11-10l209 0-68-67c-4-5-4-11 0-16 3-2 5-3 8-3 3 0 5 1 8 3l85 86c1 1 2 2 2 3 1 3 1 6 0 8z m-351 263l-149 0c-6 0-11-5-11-11l0-490c0-6 5-11 11-11l149 0c6 0 11 5 11 11l0 490c0 6-5 11-11 11z m-11-491l-128 0 0 470 128 0z"/>
<glyph unicode="&#57409;" d="M501 427l-32 0 0 32c0 6-4 10-10 10l-128 0c-31 0-52-10-64-29-12 19-34 29-64 29l-128 0c-6 0-11-4-11-10l0-32-32 0c-6 0-11-5-11-11l0-341c0-6 5-11 11-11l128 0c19 0 64-5 64-53 0-6 5-11 11-11l64 0c6 0 10 5 10 11 0 48 45 53 64 53l128 0c6 0 11 5 11 11l0 341c0 6-5 11-11 11z m-170 21l117 0 0-320-117 0c-23 0-41-6-54-17l0 284c0 37 17 53 54 53z m-246 0l118 0c37 0 53-16 53-53l0-284c-12 11-30 17-53 17l-118 0z m406-363l-118 0c-47 0-79-24-84-64l-44 0c-5 40-37 64-85 64l-117 0 0 320 21 0 0-288c0-6 5-10 11-10l128 0c37 0 53-17 53-54 0-6 5-10 11-10 6 0 10 4 10 10 0 37 17 54 54 54l128 0c6 0 10 4 10 10l0 288 22 0z"/>
<glyph unicode="&#57410;" d="M481 395c-13-18-28-34-46-47 0-3 0-7 0-12 0-25-3-50-11-74-7-25-18-49-33-71-14-23-32-43-52-61-21-17-45-31-74-41-29-11-60-16-92-16-52 0-99 14-142 42 7-1 14-2 22-2 43 0 81 14 115 40-20 0-38 6-54 18-16 12-27 27-33 46 7-1 13-2 18-2 8 0 16 1 24 4-21 4-39 15-53 31-14 17-21 37-21 59l0 1c13-7 27-11 42-11-13 8-23 19-30 32-8 14-11 29-11 44 0 17 4 33 12 47 23-28 51-51 84-68 33-17 69-27 107-29-2 8-3 15-3 22 0 25 9 47 27 65 18 18 40 27 66 27 26 0 49-10 67-29 21 4 40 11 59 22-7-22-21-39-41-51 18 2 35 7 53 14z"/>
<glyph unicode="&#57411;" d="M355 338l-152-142-46 46c-4 4-11 4-15 0-4-4-4-11 0-15l53-53c2-2 5-3 8-3 2 0 5 1 7 3l160 149c4 4 4 11 0 15-4 4-10 4-15 0z m-99 174c-141 0-256-115-256-256 0-141 115-256 256-256 141 0 256 115 256 256 0 141-115 256-256 256z m0-491c-129 0-235 106-235 235 0 129 106 235 235 235 129 0 235-106 235-235 0-129-106-235-235-235z"/>
<glyph unicode="&#57412;" d="M146 73l73 0 0-73-73 0z m147 0l73 0 0-73-73 0z m-147 146l73 0 0-73-73 0z m147 0l73 0 0-73-73 0z m-147 147l73 0 0-73-73 0z m147 0l73 0 0-73-73 0z m-147 146l73 0 0-73-73 0z m147 0l73 0 0-73-73 0z"/>
<glyph unicode="&#57413;" d="M491 277l-213 0 0 214c0 11-10 21-21 21 0 0 0 0 0 0-12 0-22-10-22-21l0-214-214 0c-11 0-21-9-21-21 0-12 10-21 21-21l214 0 0-214c0-11 9-21 21-21l0 0c12 0 21 10 21 21l1 214 213 0c12 0 21 9 21 21 0 12-9 21-21 21z"/>
<glyph unicode="&#57414;" d="M224 512l-107 0c-6 0-10-5-10-11l0-490c0-6 4-11 10-11l107 0c6 0 11 5 11 11l0 490c0 6-5 11-11 11z m-11-491l-85 0 0 470 85 0z m182 491l-107 0c-6 0-11-5-11-11l0-490c0-6 5-11 11-11l107 0c6 0 10 5 10 11l0 490c0 6-4 11-10 11z m-11-491l-85 0 0 470 85 0z"/>
<glyph unicode="&#57415;" d="M506 266l-491 245c-3 2-7 1-10-1-3-2-5-5-5-9l0-490c0-4 2-7 5-9 2-1 4-2 6-2 1 0 3 0 4 1l491 245c4 2 6 6 6 10 0 4-2 8-6 10z m-485-238l0 456 456-228z"/>
</font>
</defs>
</svg>
